osu file format v14

[General]
AudioFilename: audio.mp3
AudioLeadIn: 0
PreviewTime:52096
Countdown: 0
SampleSet: Soft
StackLeniency: 0.7
Mode: 0
LetterboxInBreaks: 0
WidescreenStoryboard: 1

[Editor]
Bookmarks: 52121,61721,116921,126521,161321,166121
DistanceSpacing: 0.9
BeatDivisor: 4
GridSize: 32
TimelineZoom: 2.6

[Metadata]
Title:Makeinu Shijou Shugi
TitleUnicode:負け犬至上主義
Artist:150P
ArtistUnicode:150P
Creator:Nevo
Version:Glaceon's Normal
Source:終焉ノ栞プロジェクト
Tags:vocaloid japanese IA bookmark of demise project Shuuen no Shiori Underdog Supremacy supermacist Doctrine A-ya aya C-ta cta D-ne dne B-ko bko neko anime boy glaceon frostwich lieeleid novelty synderes
BeatmapID:2259304
BeatmapSetID:958419

[Difficulty]
HPDrainRate:3
CircleSize:3
OverallDifficulty:4
ApproachRate:5.5
SliderMultiplier:1
SliderTickRate:1

[Events]
//Background and Video events
0,0,"8791bf17-386e-4f2b-a8a7-d321aad8f47f.jpg",0,0
//Break Periods
2,40300,42575
2,45100,46175
2,89300,95075
//Storyboard Layer 0 (Background)
//Storyboard Layer 1 (Fail)
//Storyboard Layer 2 (Pass)
//Storyboard Layer 3 (Foreground)
//Storyboard Layer 4 (Overlay)
//Storyboard Sound Samples

[TimingPoints]
500,300,4,2,1,80,1,0
20900,-100,4,2,1,60,0,0
30500,-100,4,2,1,70,0,0
35000,-100,4,2,1,70,0,0
35300,-100,4,2,1,70,0,0
40100,-100,4,2,1,60,0,0
43700,-100,4,2,1,70,0,0
44900,-100,4,2,1,60,0,0
48500,-100,4,2,1,70,0,0
50900,-100,4,2,1,70,0,0
51800,-100,4,2,1,70,0,0
52100,-100,4,2,1,85,0,1
61400,-100,4,2,1,85,0,1
61700,-100,4,2,1,85,0,1
71300,-100,4,2,1,60,0,0
73700,-100,4,2,1,70,0,0
89300,-100,4,2,1,60,0,0
93500,-100,4,2,1,60,0,0
96200,-100,4,2,1,70,0,0
96500,-100,4,2,1,85,0,1
101000,-100,4,2,1,85,0,1
101300,-100,4,2,1,85,0,1
110900,-100,4,2,1,65,0,0
115700,-100,4,2,1,80,0,0
136700,-100,4,2,1,65,0,0
138950,-100,4,2,1,30,0,0

[Colours]
Combo1 : 254,84,135
Combo2 : 252,95,86
Combo3 : 0,142,210
Combo4 : 251,196,94

[HitObjects]
69,60,500,6,0,L|70:128,1,50,6|0,3:2|3:2,0:0:0:0:
15,181,950,1,2,3:2:0:0:
62,257,1250,1,0,3:2:0:0:
150,238,1550,2,0,P|202:223|255:250,1,100,2|0,3:2|3:2,0:0:0:0:
282,260,2000,2,0,L|348:261,1,50,8|2,0:0|3:2,0:0:0:0:
376,261,2300,1,0,3:2:0:0:
440,197,2600,1,8,0:0:0:0:
392,121,2900,6,0,L|273:121,1,100,2|8,3:2|0:0,0:0:0:0:
235,58,3500,1,0,0:0:0:0:
235,58,3650,1,0,3:2:0:0:
150,88,3950,2,0,L|150:210,1,100,2|0,3:2|3:2,0:0:0:0:
147,232,4400,1,8,0:0:0:0:
233,205,4700,1,0,3:2:0:0:
282,281,5000,2,0,L|282:335,1,50,8|10,0:0|0:2,0:0:0:0:
253,366,5300,6,0,P|186:334|106:379,1,150,2|2,3:2|3:2,0:0:0:0:
74,358,5900,2,0,L|74:303,1,50,0|0,3:2|3:2,0:0:0:0:
122,232,6350,2,0,L|122:116,1,100,2|0,3:2|3:2,0:0:0:0:
148,95,6800,2,0,L|206:96,1,50,8|2,0:0|3:2,0:0:0:0:
224,132,7100,2,0,P|270:148|317:132,1,100,0|8,3:2|0:0,0:0:0:0:
400,99,7700,6,0,L|399:-1,2,100,2|8|0,3:2|0:0|3:2,0:0:0:0:
455,170,8600,1,8,0:0:0:0:
403,243,8900,2,0,B|348:218|348:218|248:234,1,150,2|6,3:2|3:2,0:0:0:0:
218,250,9500,2,0,P|171:265|124:249,1,100,6|8,3:2|0:0,0:0:0:0:
45,205,10100,6,0,L|45:155,1,50,6|0,3:2|3:2,0:0:0:0:
20,68,10550,1,2,3:2:0:0:
94,17,10850,1,0,3:2:0:0:
170,63,11150,2,0,L|270:63,1,100,2|8,3:2|0:0,0:0:0:0:
302,94,11600,2,0,L|351:94,1,50,8|2,0:0|3:2,0:0:0:0:
395,82,11900,1,0,3:2:0:0:
457,146,12200,1,8,0:0:0:0:
416,226,12500,6,0,L|316:226,1,100,2|8,3:2|0:0,0:0:0:0:
250,172,13100,1,0,0:0:0:0:
250,172,13250,1,0,0:0:0:0:
179,227,13550,2,0,L|69:226,1,100,2|0,3:2|3:2,0:0:0:0:
34,225,14000,1,8,0:0:0:0:
1,141,14300,1,0,3:2:0:0:
75,90,14600,2,0,L|75:25,1,50,8|2,0:0|3:2,0:0:0:0:
111,14,14900,6,0,B|154:38|154:38|264:32,1,150,2|2,3:2|3:2,0:0:0:0:
299,32,15500,2,0,L|299:82,1,50,0|0,3:2|3:2,0:0:0:0:
239,149,15950,2,0,P|222:195|238:242,1,100,2|0,3:2|3:2,0:0:0:0:
269,274,16400,2,0,L|337:274,1,50,8|2,0:0|3:2,0:0:0:0:
356,249,16700,2,0,L|464:248,1,100,0|8,3:2|0:0,0:0:0:0:
504,172,17300,5,10,3:2:0:0:
460,93,17600,1,8,0:0:0:0:
371,110,17900,2,0,L|271:110,1,100,8|8,0:0|0:0,0:0:0:0:
212,177,18500,2,0,P|153:205|67:163,1,150,6|2,3:2|3:2,0:0:0:0:
46,143,19100,2,0,L|45:71,1,50,8|2,0:0|3:2,0:0:0:0:
77,61,19400,2,0,L|76:-11,1,50,8|2,0:0|3:2,0:0:0:0:
76,11,20900,5,6,3:2:0:0:
75,12,21950,2,0,L|76:124,1,100,6|6,3:2|3:2,0:0:0:0:
75,111,23300,6,0,L|76:177,1,50,6|0,3:2|3:2,0:0:0:0:
75,160,24350,2,0,P|144:132|220:176,1,150,6|2,3:2|3:2,0:0:0:0:
269,230,25100,2,0,L|378:230,1,100,2|2,3:2|3:2,0:0:0:0:
406,148,25700,6,0,L|345:148,1,50,6|0,3:2|3:2,0:0:0:0:
356,148,26750,2,0,L|256:148,1,100,6|6,3:2|3:2,0:0:0:0:
256,148,28100,6,0,L|195:148,1,50,6|0,3:2|3:2,0:0:0:0:
206,148,29900,2,0,L|145:148,1,50,14|0,0:0|3:0,0:0:0:0:
111,148,30200,1,14,0:0:0:0:
45,85,30500,5,6,3:2:0:0:
95,10,30800,1,8,0:0:0:0:
182,30,31100,2,0,L|304:31,1,100,0|8,3:2|0:0,0:0:0:0:
326,31,31550,2,0,P|341:77|325:124,1,100,2|2,3:2|3:2,0:0:0:0:
294,158,32000,1,8,0:0:0:0:
334,238,32300,2,0,L|456:239,1,100,2|8,3:2|0:0,0:0:0:0:
506,292,32900,5,2,3:2:0:0:
477,377,33200,1,8,0:0:0:0:
387,372,33500,2,0,L|287:371,1,100,2|8,3:2|0:0,0:0:0:0:
255,338,33950,2,0,L|155:337,1,100,6|8,3:2|0:0,0:0:0:0:
112,351,34400,1,8,0:0:0:0:
51,284,34700,2,0,P|36:238|52:191,1,100,10|14,0:0|0:0,0:0:0:0:
114,124,35300,5,6,3:2:0:0:
198,155,35600,1,8,0:0:0:0:
275,109,35900,2,0,P|290:155|274:202,1,100,2|8,3:2|0:0,0:0:0:0:
249,240,36350,2,0,L|369:242,1,100,2|0,3:2|3:2,0:0:0:0:
381,272,36800,2,0,L|446:271,1,50,8|0,0:0|3:2,0:0:0:0:
471,251,37100,2,0,P|456:205|472:158,1,100,2|8,3:2|0:0,0:0:0:0:
506,74,37700,6,0,L|391:73,1,100,2|8,3:2|0:0,0:0:0:0:
334,127,38300,2,0,L|219:126,1,100,2|8,3:2|0:0,0:0:0:0:
198,110,38750,1,2,3:2:0:0:
198,110,38900,2,0,B|226:150|226:150|199:268,1,150,2|0,3:2|3:0,0:0:0:0:
191,291,39500,1,8,0:0:0:0:
256,353,39800,1,8,0:0:0:0:
338,316,40100,5,2,3:2:0:0:
338,316,43700,6,0,L|337:209,1,100,14|8,0:0|0:0,0:0:0:0:
411,165,44300,2,0,L|410:58,1,100,14|8,0:0|0:0,0:0:0:0:
335,14,44900,1,2,0:0:0:0:
335,14,47300,6,0,L|277:14,1,50,14|8,0:0|0:0,0:0:0:0:
197,116,47900,2,0,L|247:116,1,50,14|8,0:0|0:0,0:0:0:0:
355,195,48500,2,0,P|370:241|354:288,1,100,14|10,0:0|0:0,0:0:0:0:
316,313,48950,2,0,L|202:313,1,100,2|0,3:2|0:0,0:0:0:0:
175,293,49400,1,8,0:0:0:0:
106,351,49700,6,0,B|80:303|80:303|103:203,1,150,14|14,0:0|0:0,0:0:0:0:
113,166,50300,2,0,L|213:166,1,100,10|8,0:0|0:0,0:0:0:0:
286,217,50900,2,0,P|269:263|284:310,2,100,2|8|8,0:0|0:0|0:0,0:0:0:0:
357,161,51800,1,14,0:0:0:0:
433,209,52100,6,0,P|449:162|434:115,1,100,6|8,3:2|0:0,0:0:0:0:
375,41,52700,1,0,0:0:0:0:
375,41,52850,1,0,0:0:0:0:
283,80,53150,2,0,L|183:80,1,100,2|0,0:0|0:0,0:0:0:0:
138,56,53600,1,8,0:0:0:0:
63,122,53900,1,2,3:2:0:0:
103,213,54200,2,0,L|102:281,1,50,8|2,0:0|0:0,0:0:0:0:
89,311,54500,6,0,P|135:327|182:312,1,100,6|8,3:2|0:0,0:0:0:0:
254,242,55100,1,0,0:0:0:0:
254,242,55250,1,0,0:0:0:0:
196,160,55550,2,0,P|181:113|197:66,1,100,2|0,0:0|0:0,0:0:0:0:
231,31,56000,1,8,0:0:0:0:
311,89,56300,1,2,3:2:0:0:
375,13,56600,2,0,L|444:13,1,50,8|2,0:0|0:0,0:0:0:0:
470,33,56900,6,0,P|484:79|468:126,1,100,6|8,3:2|0:0,0:0:0:0:
391,190,57500,1,0,0:0:0:0:
391,190,57650,1,0,0:0:0:0:
311,128,57950,2,0,L|202:128,1,100,2|0,0:0|0:0,0:0:0:0:
180,167,58400,2,0,L|110:168,1,50,8|0,0:0|0:0,0:0:0:0:
86,143,58700,2,0,P|69:189|84:236,1,100,2|8,3:2|0:0,0:0:0:0:
72,335,59300,6,0,L|234:333,1,150,6|0,3:2|0:0,0:0:0:0:
271,333,59900,1,2,3:2:0:0:
358,380,60200,1,8,0:0:0:0:
433,314,60500,2,0,L|525:314,2,75,6|2|0,3:2|3:2|0:0,0:0:0:0:
391,286,61100,1,2,3:2:0:0:
431,194,61400,2,0,L|431:124,1,50,8|2,0:0|0:0,0:0:0:0:
401,103,61700,6,0,P|354:86|307:101,1,100,6|8,3:2|0:0,0:0:0:0:
254,187,62300,1,0,0:0:0:0:
254,187,62450,1,0,0:0:0:0:
300,275,62750,2,0,P|253:289|206:273,1,100,2|0,0:0|0:0,0:0:0:0:
168,240,63200,1,8,0:0:0:0:
94,307,63500,1,2,3:2:0:0:
16,243,63800,2,0,L|17:175,1,50,8|2,0:0|0:0,0:0:0:0:
61,170,64100,6,0,L|61:52,1,100,6|8,3:2|0:0,0:0:0:0:
145,14,64700,1,0,0:0:0:0:
145,14,64850,1,0,0:0:0:0:
225,73,65150,2,0,P|271:58|318:74,1,100,2|0,0:0|0:0,0:0:0:0:
356,106,65600,1,8,0:0:0:0:
294,184,65900,1,2,3:2:0:0:
368,250,66200,2,0,L|367:314,1,50,8|8,0:0|0:0,0:0:0:0:
336,339,66500,6,0,P|289:353|242:337,1,100,6|8,3:2|0:0,0:0:0:0:
193,256,67100,1,0,0:0:0:0:
193,256,67250,1,0,0:0:0:0:
255,178,67550,2,0,P|239:131|254:84,1,100,2|0,0:0|0:0,0:0:0:0:
280,41,68000,2,0,L|218:41,1,50,8|0,0:0|0:0,0:0:0:0:
180,41,68300,1,2,3:2:0:0:
86,5,68600,1,8,0:0:0:0:
33,90,68900,6,0,B|13:134|13:134|38:238,1,150,6|0,3:2|0:0,0:0:0:0:
49,281,69500,2,0,L|160:282,1,100,2|8,3:2|0:0,0:0:0:0:
209,202,70100,2,0,L|208:123,2,75,6|14|14,3:2|0:0|0:0,0:0:0:0:
251,229,70700,6,0,B|361:206|338:281|460:237,1,200,8|2,0:0|0:0,0:0:0:0:
445,241,73100,2,0,L|446:171,1,50,0|0,1:0|3:2,0:0:0:0:
446,146,73400,1,8,0:2:0:0:
350,116,73700,6,0,L|349:165,1,50,10|2,0:2|3:2,0:0:0:0:
237,266,74300,2,0,L|237:216,1,50,10|2,0:2|3:2,0:0:0:0:
143,99,74900,2,0,P|96:113|50:96,2,100,12|14|14,0:2|0:2|0:2,0:0:0:0:
224,40,75800,2,0,L|279:40,1,50,14|8,0:2|0:2,0:0:0:0:
307,76,76100,6,0,L|362:76,1,50,10|2,0:2|3:2,0:0:0:0:
441,200,76700,2,0,L|391:200,1,50,8|2,0:2|3:2,0:0:0:0:
268,283,77300,2,0,L|268:392,2,100,14|14|14,0:2|0:2|0:2,0:0:0:0:
199,210,78200,2,0,L|199:143,1,50,8|8,0:2|0:2,0:0:0:0:
214,117,78500,6,0,P|167:99|121:114,1,100,2|8,3:2|0:2,0:0:0:0:
92,149,78950,2,0,L|92:266,1,100,0|8,3:2|0:2,0:0:0:0:
92,294,79400,1,0,0:0:0:0:
152,360,79700,1,0,3:0:0:0:
237,331,80000,2,0,P|283:348|329:333,1,100,10|0,0:2|3:0,0:0:0:0:
396,271,80600,1,8,0:2:0:0:
362,187,80900,6,0,L|248:186,1,100,0|8,3:0|0:2,0:0:0:0:
240,146,81350,2,0,L|126:145,1,100,0|8,3:0|0:2,0:0:0:0:
99,163,81800,1,0,0:0:0:0:
23,211,82100,2,0,L|23:281,1,50,0|0,3:0|3:0,0:0:0:0:
23,305,82400,1,8,0:2:0:0:
91,363,82700,1,0,3:0:0:0:
163,308,83000,2,0,L|163:258,1,50,8|8,0:0|0:0,0:0:0:0:
130,227,83300,6,0,L|130:106,1,100,6|8,3:2|0:0,0:0:0:0:
153,88,83750,2,0,P|199:72|245:89,1,100,10|0,0:2|3:0,0:0:0:0:
282,115,84200,1,0,0:0:0:0:
363,77,84500,1,8,0:0:0:0:
425,141,84800,2,0,P|440:187|423:233,1,100,10|0,0:2|3:0,0:0:0:0:
335,253,85400,2,0,L|285:253,1,50,8|0,0:0|3:0,0:0:0:0:
240,252,85700,5,2,0:0:0:0:
240,252,86900,6,0,L|120:253,1,100,8|0,0:0|3:0,0:0:0:0:
104,228,87350,1,8,0:0:0:0:
104,228,87500,2,0,P|86:182|101:136,1,100,8|0,0:0|3:0,0:0:0:0:
135,104,87950,2,0,L|247:104,1,100,8|8,0:0|0:0,0:0:0:0:
279,104,88400,1,8,0:0:0:0:
346,164,88700,2,0,P|363:211|348:257,1,100,8|6,0:0|0:0,0:0:0:0:
333,189,96200,5,8,0:0:0:0:
260,120,96500,6,0,P|213:105|166:121,1,100,6|8,3:2|0:0,0:0:0:0:
100,196,97100,1,0,0:0:0:0:
100,196,97250,1,0,0:0:0:0:
158,277,97550,2,0,P|204:291|251:275,1,100,2|0,0:0|0:0,0:0:0:0:
293,246,98000,1,8,0:0:0:0:
362,317,98300,1,2,3:2:0:0:
451,273,98600,1,8,0:0:0:0:
428,175,98900,6,0,L|428:59,1,100,6|8,3:2|0:0,0:0:0:0:
415,32,99350,1,0,0:0:0:0:
415,32,99500,2,0,P|368:17|321:33,1,100,2|8,3:2|0:0,0:0:0:0:
269,118,100100,2,0,L|269:214,2,75,0|0|0,3:0|0:0|0:0,0:0:0:0:
239,77,100700,1,2,3:2:0:0:
154,130,101000,2,0,L|154:187,1,50,8|2,0:0|0:0,0:0:0:0:
187,216,101300,6,0,L|187:325,1,100,6|8,3:2|0:0,0:0:0:0:
116,384,101900,1,0,0:0:0:0:
116,384,102050,1,0,0:0:0:0:
39,320,102350,2,0,L|38:220,1,100,2|0,0:0|0:0,0:0:0:0:
39,169,102800,1,8,0:0:0:0:
80,78,103100,1,2,3:2:0:0:
175,108,103400,2,0,L|242:108,1,50,8|2,0:0|0:0,0:0:0:0:
259,144,103700,6,0,P|305:159|352:143,1,100,6|8,3:2|0:0,0:0:0:0:
431,79,104300,1,0,0:0:0:0:
431,79,104450,1,0,0:0:0:0:
494,156,104750,2,0,L|493:265,1,100,2|0,0:0|0:0,0:0:0:0:
490,305,105200,1,8,0:0:0:0:
421,378,105500,1,2,3:2:0:0:
334,328,105800,2,0,L|266:327,1,50,8|2,0:0|0:0,0:0:0:0:
234,322,106100,6,0,P|218:275|233:228,1,100,6|8,3:2|0:0,0:0:0:0:
318,175,106700,1,0,0:0:0:0:
318,175,106850,1,0,0:0:0:0:
271,88,107150,2,0,P|224:72|177:88,1,100,2|0,0:0|0:0,0:0:0:0:
146,126,107600,2,0,L|146:198,1,50,8|0,0:0|0:0,0:0:0:0:
143,225,107900,1,2,3:2:0:0:
75,297,108200,1,8,0:0:0:0:
140,373,108500,6,0,L|254:373,1,100,6|8,3:2|0:0,0:0:0:0:
275,338,108950,1,0,0:0:0:0:
275,338,109100,2,0,P|259:291|275:244,1,100,2|0,0:0|0:0,0:0:0:0:
326,158,109700,2,0,L|325:72,2,75,0|0|0,3:0|0:0|0:0,0:0:0:0:
369,182,110300,6,0,B|400:239|400:239|373:373,1,200,2|6,3:2|3:2,0:0:0:0:
373,371,112700,2,0,L|306:371,1,50,0|0,1:0|3:2,0:0:0:0:
278,371,113000,1,8,0:2:0:0:
254,273,113300,6,0,L|304:273,1,50,10|2,0:2|3:2,0:0:0:0:
407,164,113900,2,0,L|357:164,1,50,10|2,0:2|3:2,0:0:0:0:
262,47,114500,2,0,L|312:47,1,50,12|0,0:2|0:0,0:0:0:0:
361,48,114800,1,14,0:2:0:0:
450,2,115100,1,14,0:2:0:0:
507,85,115400,2,0,L|506:142,1,50,14|8,0:2|0:2,0:0:0:0:
466,165,115700,6,0,L|465:222,1,50,6|0,3:2|3:2,0:0:0:0:
506,305,116150,1,2,3:2:0:0:
429,369,116450,1,0,3:2:0:0:
344,315,116750,2,0,P|297:298|250:314,1,100,2|0,3:2|3:2,0:0:0:0:
208,339,117200,1,8,0:0:0:0:
125,282,117500,2,0,L|127:166,1,100,0|8,3:2|0:0,0:0:0:0:
208,125,118100,6,0,P|254:141|301:125,1,100,2|8,3:2|0:0,0:0:0:0:
378,61,118700,1,0,0:0:0:0:
378,61,118850,1,0,0:0:0:0:
456,123,119150,2,0,P|471:169|455:216,1,100,2|0,3:2|3:2,0:0:0:0:
423,255,119600,1,8,0:0:0:0:
354,327,119900,1,0,3:2:0:0:
266,278,120200,2,0,L|266:215,1,50,8|10,0:0|0:2,0:0:0:0:
309,203,120500,6,0,L|309:88,1,100
313,57,120950,1,0,0:0:0:0:
313,57,121100,2,0,L|261:57,1,50,0|0,3:2|3:2,0:0:0:0:
173,11,121550,2,0,P|156:57|172:104,1,100,2|0,3:2|3:2,0:0:0:0:
206,138,122000,2,0,L|206:204,1,50,8|2,0:0|3:2,0:0:0:0:
178,229,122300,1,0,3:2:0:0:
130,317,122600,1,8,0:0:0:0:
214,371,122900,6,0,L|335:372,1,100,2|10,3:2|0:0,0:0:0:0:
413,379,123500,1,0,3:2:0:0:
470,299,123800,1,8,0:0:0:0:
405,222,124100,2,0,P|358:237|312:220,1,100,2|0,3:2|3:2,0:0:0:0:
276,194,124550,1,6,3:2:0:0:
276,194,124700,1,6,3:2:0:0:
202,126,125000,1,8,0:0:0:0:
115,176,125300,6,0,L|115:241,1,50,6|0,3:2|3:2,0:0:0:0:
184,298,125750,1,2,3:2:0:0:
132,383,126050,1,0,3:2:0:0:
34,360,126350,2,0,L|33:242,1,100,2|0,3:2|3:2,0:0:0:0:
9,215,126800,2,0,L|9:165,1,50,8|2,0:0|3:2,0:0:0:0:
33,121,127100,2,0,P|79:137|126:121,1,100,0|8,3:2|0:0,0:0:0:0:
215,75,127700,6,0,L|215:194,1,100,2|8,3:2|0:0,0:0:0:0:
155,256,128300,1,0,0:0:0:0:
155,256,128450,1,0,0:0:0:0:
221,330,128750,2,0,P|267:314|314:330,1,100,2|0,3:2|3:2,0:0:0:0:
356,357,129200,1,8,0:0:0:0:
441,304,129500,1,0,3:2:0:0:
411,208,129800,2,0,L|412:136,1,50,8|8,0:0|3:2,0:0:0:0:
435,114,130100,6,0,P|389:130|342:114,1,100,2|0,3:2|3:2,0:0:0:0:
304,90,130550,1,0,0:0:0:0:
304,90,130700,2,0,L|233:90,1,50,0|0,3:2|3:2,0:0:0:0:
165,43,131150,2,0,P|148:89|164:136,1,100,2|0,3:2|3:2,0:0:0:0:
198,171,131600,2,0,L|198:240,1,50,8|2,0:0|3:2,0:0:0:0:
169,261,131900,1,0,3:2:0:0:
230,339,132200,1,8,0:0:0:0:
321,298,132500,6,0,P|367:314|414:298,1,100,10|8,3:2|0:0,0:0:0:0:
482,224,133100,1,8,0:0:0:0:
439,133,133400,1,8,0:0:0:0:
340,147,133700,2,0,L|228:147,1,100,6|8,3:2|0:0,0:0:0:0:
194,151,134150,1,2,3:2:0:0:
194,151,134300,1,8,0:0:0:0:
116,88,134600,1,8,0:0:0:0:
27,134,134900,6,0,P|11:87|27:40,2,100,2|2|2,0:0|0:0|0:0,0:0:0:0:
88,200,135800,1,2,0:0:0:0:
175,179,136100,2,0,L|345:180,1,150,2|2,0:0|0:0,0:0:0:0:
370,180,136700,1,2,0:0:0:0:
256,192,136850,12,2,138650,0:0:0:0:
