osu file format v14

[General]
AudioFilename: Makeinu Shijou Shugi.mp3
AudioLeadIn: 0
PreviewTime: 51833
Countdown: 0
SampleSet: Soft
StackLeniency: 0.7
Mode: 0
LetterboxInBreaks: 0
WidescreenStoryboard: 0

[Editor]
Bookmarks: 76107
DistanceSpacing: 1.4
BeatDivisor: 4
GridSize: 4
TimelineZoom: 2.5

[Metadata]
Title:Makeinu Shijou Shugi
TitleUnicode:負け犬至上主義
Artist:150P
ArtistUnicode:150P
Creator:Regraz
Version:Uprising
Source:
Tags:suzumu IA vocaloid Underdog Supremacist VOCALOID 超BEST -memories- Yuuki Iwakura Chamue
BeatmapID:903735
BeatmapSetID:384792

[Difficulty]
HPDrainRate:6
CircleSize:4
OverallDifficulty:8
ApproachRate:9
SliderMultiplier:1.8
SliderTickRate:1

[Events]
//Background and Video events
0,0,"tumblr_mky6hkVXb01s5jjfao1_1280.jpg",0,0
//Break Periods
//Storyboard Layer 0 (Background)
//Storyboard Layer 1 (Fail)
//Storyboard Layer 2 (Pass)
//Storyboard Layer 3 (Foreground)
//Storyboard Sound Samples

[TimingPoints]
533,300,4,2,1,80,1,0
19733,-100,4,2,1,80,0,0
20933,-100,4,2,1,80,0,0
29333,-133.333333333333,4,2,1,80,0,0
29933,-100,4,2,10,80,0,0
30233,-76.9230769230769,4,2,10,80,0,0
30533,-100,4,2,1,80,0,0
40133,-166.666666666667,4,2,1,80,0,0
44933,-166.666666666667,4,2,1,55,0,0
47333,-100,4,2,1,80,0,0
48533,-100,4,2,1,80,0,0
51833,-166.666666666667,4,2,1,80,0,0
52133,-100,4,2,10,80,0,1
61433,-100,4,2,10,80,0,0
61733,-100,4,2,10,80,0,1
71333,-166.666666666667,4,2,10,80,0,0
75833,-100,4,2,10,80,0,0

[Colours]
Combo1 : 242,24,57
Combo2 : 0,202,0
Combo3 : 18,124,255

[HitObjects]
50,75,533,5,4,0:0:0:0:
50,75,683,2,0,L|57:191,1,90,0|8,0:0|0:0,0:0:0:0:
161,220,983,2,0,L|166:130,1,90,0|2,0:0|0:0,0:0:0:0:
266,66,1283,2,0,L|273:182,1,90,0|8,0:0|0:0,0:0:0:0:
410,254,1583,6,0,P|461:200|436:93,1,180,0|0,0:0|0:0,0:0:0:0:
316,202,2033,2,0,L|319:307,1,90,8|0,0:0|0:0,0:0:0:0:
412,343,2333,2,0,L|409:253,1,90,2|0,0:0|0:0,0:0:0:0:
229,253,2633,2,0,P|166:240|131:252,1,90,8|0,0:0|0:0,0:0:0:0:
22,362,2933,5,2,0:0:0:0:
2,238,3083,1,0,0:0:0:0:
95,174,3233,1,8,0:0:0:0:
75,298,3383,1,0,0:0:0:0:
162,370,3533,1,2,0:0:0:0:
142,246,3683,2,0,P|219:237|256:249,1,90,0|8,0:0|0:0,0:0:0:0:
349,280,3983,6,0,P|267:227|284:146,1,180,0|0,0:0|0:0,0:0:0:0:
431,185,4433,2,0,L|325:202,1,90,8|0,0:0|0:0,0:0:0:0:
417,102,4733,2,0,L|523:119,1,90,2|0,0:0|0:0,0:0:0:0:
440,19,5033,1,8,0:0:0:0:
408,21,5108,1,0,0:0:0:0:
377,24,5183,1,0,0:0:0:0:
345,27,5258,1,0,0:0:0:0:
313,29,5333,6,0,L|187:20,1,90,2|0,0:0|0:0,0:0:0:0:
147,130,5633,2,0,L|236:123,1,90,8|0,0:0|0:0,0:0:0:0:
314,216,5933,2,0,P|315:282|308:331,1,90,2|0,0:0|0:0,0:0:0:0:
215,332,6233,1,8,0:0:0:0:
247,181,6383,6,0,P|321:141|387:213,1,180,0|0,0:0|0:0,0:0:0:0:
466,313,6833,2,0,L|476:202,1,90,8|0,0:0|0:0,0:0:0:0:
352,151,7133,2,0,L|360:240,1,90,2|0,0:0|0:0,0:0:0:0:
266,302,7433,1,8,0:0:0:0:
266,302,7583,1,0,0:0:0:0:
118,253,7733,5,2,0:0:0:0:
209,159,7883,1,0,0:0:0:0:
191,289,8033,1,8,0:0:0:0:
129,173,8183,1,0,0:0:0:0:
247,230,8333,1,2,0:0:0:0:
247,230,8483,1,0,0:0:0:0:
171,95,8633,2,0,L|67:104,1,90,8|0,0:0|0:0,0:0:0:0:
178,200,8933,6,0,L|282:209,1,90,2|0,0:0|0:0,0:0:0:0:
383,131,9233,2,0,P|392:77|379:22,1,90,8|0,0:0|0:0,0:0:0:0:
242,75,9533,1,2,0:0:0:0:
383,131,9683,1,0,0:0:0:0:
390,138,9758,1,0,0:0:0:0:
397,145,9833,2,0,P|471:139|507:148,1,90,8|0,0:0|0:0,0:0:0:0:
480,277,10133,5,6,0:0:0:0:
480,277,10283,2,0,L|371:258,1,90,0|8,0:0|0:0,0:0:0:0:
292,173,10583,2,0,L|401:154,1,90,0|2,0:0|0:0,0:0:0:0:
497,69,10883,2,0,L|388:50,1,90,0|8,0:0|0:0,0:0:0:0:
231,123,11183,6,0,P|224:216|307:251,1,180,0|0,0:0|0:0,0:0:0:0:
290,99,11633,2,0,L|175:92,1,90,8|0,0:0|0:0,0:0:0:0:
23,187,11933,1,2,0:0:0:0:
176,167,12083,1,0,0:0:0:0:
62,123,12233,1,8,0:0:0:0:
89,281,12383,1,0,0:0:0:0:
176,167,12533,6,0,P|188:116|172:63,1,90,2|0,0:0|0:0,0:0:0:0:
14,240,12833,2,0,P|6:284|18:327,1,90,8|0,0:0|0:0,0:0:0:0:
176,167,13133,2,0,L|301:177,2,90,2|0|8,0:0|0:0|0:0,0:0:0:0:
73,64,13583,6,0,B|140:68|140:68|179:84|179:84|261:92,1,180
404,46,14033,2,0,P|335:52|293:28,1,90,8|0,0:0|0:0,0:0:0:0:
224,172,14333,2,0,L|354:156,1,90,2|0,0:0|0:0,0:0:0:0:
455,105,14633,1,8,0:0:0:0:
452,136,14708,1,0,0:0:0:0:
449,167,14783,1,0,0:0:0:0:
447,199,14858,1,0,0:0:0:0:
444,230,14933,6,0,P|377:218|336:229,1,90,2|0,0:0|0:0,0:0:0:0:
225,303,15233,2,0,L|336:297,1,90,8|0,0:0|0:0,0:0:0:0:
298,143,15533,2,0,L|208:138,2,90,2|0|8,0:0|0:0|0:0,0:0:0:0:
163,70,15983,6,0,P|127:148|191:222,1,180,0|0,0:0|0:0,0:0:0:0:
298,143,16433,2,0,L|306:36,1,90,8|0,0:0|0:0,0:0:0:0:
406,149,16733,2,0,L|412:238,1,90,2|0,0:0|0:0,0:0:0:0:
506,127,17033,1,8,0:0:0:0:
506,127,17183,1,0,0:0:0:0:
326,186,17333,5,2,0:0:0:0:
437,32,17483,1,0,0:0:0:0:
437,222,17633,1,8,0:0:0:0:
326,69,17783,1,0,0:0:0:0:
506,127,17933,1,2,0:0:0:0:
506,127,18233,6,0,P|472:84|510:96,1,135,8|0,0:0|0:0,0:0:0:0:
486,106,18533,2,0,L|326:104,1,135,6|0,0:0|0:0,0:0:0:0:
287,146,18833,2,0,P|280:203|296:243,1,90,8|0,0:0|0:0,0:0:0:0:
454,276,19133,2,0,L|460:170,1,90,2|0,0:0|0:0,0:0:0:0:
370,104,19433,2,0,L|375:193,1,90,8|0,0:0|0:0,0:0:0:0:
386,326,19733,5,4,0:3:0:0:
386,326,20933,5,0,1:0:0:0:
386,326,21083,2,0,P|335:300|219:338,1,180
99,273,21533,2,0,P|161:275|214:242,1,90,8|0,0:0|0:0,0:0:0:0:
230,193,21833,1,0,0:0:0:0:
277,87,21983,6,0,L|283:280,1,180,0|0,1:0|0:0,0:0:0:0:
428,132,22433,2,0,P|441:79|434:36,1,90
368,192,22733,2,0,P|364:236|376:279,2,90,8|0|0,0:0|0:0|0:0,0:0:0:0:
232,188,23183,1,0,0:0:0:0:
79,220,23333,5,0,1:0:0:0:
157,166,23483,2,0,P|169:117|154:61,2,90
79,220,23933,1,8,0:0:0:0:
165,259,24083,2,0,L|271:267,1,90
448,159,24383,6,0,L|254:173,1,180,0|0,1:0|0:0,0:0:0:0:
120,92,24833,2,0,P|199:87|235:109,1,90,0|0,1:0|0:0,0:0:0:0:
310,86,25133,2,0,P|206:94|153:32,1,180,0|0,1:0|0:0,0:0:0:0:
248,10,25583,1,0,0:0:0:0:
323,181,25733,6,0,L|319:303,2,90,0|0|0,1:0|0:0|0:0,0:0:0:0:
394,62,26183,1,0,0:0:0:0:
394,62,26333,2,0,P|437:53|497:74,2,90,8|0|0,0:0|0:0|0:0,0:0:0:0:
371,242,26783,6,0,P|452:207|435:125,1,180,0|0,1:0|1:0,0:0:0:0:
312,203,27233,2,0,L|317:320,1,90
226,352,27533,1,8,0:0:0:0:
226,352,27683,1,0,0:0:0:0:
125,293,27833,2,0,L|128:203,1,90
218,93,28133,6,0,P|214:161|234:203,1,90,0|0,1:0|0:0,0:0:0:0:
305,86,28433,2,0,L|86:53,1,180
72,139,28883,1,0,0:0:0:0:
173,118,29033,2,0,L|269:102,1,90
363,111,29333,6,0,P|282:75|331:149,1,236.250009012223
317,106,29933,6,0,L|314:212,1,90,8|0,0:0|0:0,0:0:0:0:
226,344,30233,6,0,L|210:149,1,175.499991966248,8|0,0:0|0:0,0:0:0:0:
221,138,30533,6,0,P|164:171|112:169,1,90,6|0,0:0|0:0,0:0:0:0:
170,38,30833,2,0,L|271:45,1,90,8|0,0:0|0:0,0:0:0:0:
423,86,31133,1,2,0:0:0:0:
328,184,31283,1,0,0:0:0:0:
354,25,31433,1,8,0:0:0:0:
419,220,31583,6,0,P|358:200|275:293,1,180,0|0,0:0|0:0,0:0:0:0:
454,292,32033,2,0,P|498:240|491:195,1,90,8|0,0:0|0:0,0:0:0:0:
357,283,32333,2,0,B|355:316|355:316|364:341|364:341|360:396,1,90,2|0,0:0|0:0,0:0:0:0:
288,195,32633,1,8,0:0:0:0:
288,195,32783,1,0,0:0:0:0:
168,306,32933,6,0,P|125:313|78:308,1,90,2|0,0:0|0:0,0:0:0:0:
246,237,33233,2,0,P|289:229|336:235,1,90,8|0,0:0|0:0,0:0:0:0:
459,323,33533,1,2,0:0:0:0:
437,192,33683,1,0,0:0:0:0:
358,345,33833,1,8,0:0:0:0:
186,300,33983,6,0,P|115:291|70:315,1,90,0|2,0:0|0:0,0:0:0:0:
99,296,34208,1,0,0:0:0:0:
99,296,34283,1,0,0:0:0:0:
24,187,34433,2,0,L|119:176,1,90,8|0,0:0|0:0,0:0:0:0:
196,79,34733,2,0,L|101:68,1,90,2|0,0:0|0:0,0:0:0:0:
268,32,35033,1,8,0:0:0:0:
296,45,35108,1,0,0:0:0:0:
327,49,35183,1,0,0:0:0:0:
358,42,35258,1,0,0:0:0:0:
385,27,35333,6,0,L|372:136,1,90,6|0,0:0|0:0,0:0:0:0:
493,189,35633,2,0,L|481:99,1,90,8|0,0:0|0:0,0:0:0:0:
367,217,35933,2,0,P|312:211|266:223,2,90,2|0|8,0:0|0:0|0:0,0:0:0:0:
472,348,36383,6,0,B|397:339|397:339|370:349|370:349|277:346,1,180,0|0,0:0|0:0,0:0:0:0:
194,235,36833,2,0,P|256:242|293:274,1,90,8|0,0:0|0:0,0:0:0:0:
392,341,37133,2,0,P|367:283|376:235,1,90,2|0,0:0|0:0,0:0:0:0:
385,116,37433,2,0,P|347:166|301:182,1,90,8|0,0:0|0:0,0:0:0:0:
126,60,37733,6,0,L|239:54,1,90,2|0,0:0|0:0,0:0:0:0:
359,156,38033,2,0,L|171:141,1,180,8|2,0:0|0:0,0:0:0:0:
97,245,38483,1,0,0:0:0:0:
262,261,38633,2,0,P|316:267|367:236,1,90,8|0,0:0|0:0,0:0:0:0:
410,122,38933,6,0,P|394:234|464:293,1,180,2|8,0:0|0:0,0:0:0:0:
494,191,39383,1,0,0:0:0:0:
433,34,39533,2,0,P|377:125|273:112,1,180,0|0,1:0|0:0,0:0:0:0:
336,31,39983,1,0,0:0:0:0:
311,131,40133,6,0,L|316:238,1,107.999996704102,4|0,0:0|0:0,0:0:0:0:
242,253,40583,2,0,L|236:145,1,107.999996704102
189,86,41033,1,0,0:0:0:0:
101,209,41333,6,0,P|104:277|203:311,1,161.999995056153,4|0,0:0|0:0,0:0:0:0:
235,262,41933,2,0,L|353:270,1,107.999996704102
418,165,42533,6,0,L|295:171,1,107.999996704102,4|0,0:0|0:0,0:0:0:0:
244,132,42983,2,0,P|232:71|241:26,1,107.999996704102
315,18,43433,1,0,0:0:0:0:
438,128,43733,5,0,1:0:0:0:
470,242,43883,1,0,1:0:0:0:
356,281,44033,1,0,1:0:0:0:
323,166,44183,1,0,1:0:0:0:
227,57,44333,1,0,1:0:0:0:
99,16,44483,1,0,1:0:0:0:
60,144,44633,1,0,1:0:0:0:
190,186,44783,1,0,1:0:0:0:
190,186,44933,6,0,L|124:179,1,53.9999983520508
157,213,45233,2,0,L|90:205,1,53.9999983520508
321,186,45533,2,0,L|388:179,1,53.9999983520508
355,213,45833,2,0,L|421:205,1,53.9999983520508
190,158,46133,6,0,L|124:151,1,53.9999983520508
157,185,46433,2,0,L|90:177,1,53.9999983520508
321,158,46733,2,0,L|388:151,1,53.9999983520508
355,185,47033,2,0,L|421:177,1,53.9999983520508
191,279,47333,5,0,1:0:0:0:
401,215,47483,1,0,1:0:0:0:
288,205,47933,5,0,1:0:0:0:
50,136,48083,1,0,1:0:0:0:
205,194,48533,6,0,P|235:130|155:20,1,180,0|0,1:0|0:0,0:0:0:0:
269,125,48983,2,0,P|309:182|444:168,1,180,0|0,1:0|0:0,0:0:0:0:
316,228,49433,1,0,1:0:0:0:
150,193,49733,6,0,P|229:210|258:392,1,270,0|0,1:0|0:0,0:0:0:0:
287,231,50333,2,0,P|290:102|407:49,1,270,0|0,1:0|0:0,0:0:0:0:
479,204,50933,6,0,P|484:259|472:302,1,90,0|0,1:0|1:0,1:0:0:0:
448,299,51158,1,0,1:0:0:0:
412,293,51233,1,0,1:0:0:0:
376,287,51308,1,0,1:0:0:0:
341,281,51383,1,0,1:0:0:0:
305,276,51458,1,0,1:0:0:0:
270,270,51533,1,0,1:0:0:0:
92,102,51833,6,0,L|182:96,1,80.9999975280763,8|0,0:0|0:0,0:0:0:0:
199,70,52133,6,0,L|79:52,1,90,6|0,0:0|0:0,0:0:0:0:
49,209,52433,2,0,P|127:209|165:188,1,90,8|0,0:0|0:0,0:0:0:0:
203,155,52658,1,0,0:0:0:0:
203,155,52733,2,0,P|242:228|234:265,1,90,2|0,0:0|0:0,0:0:0:0:
142,335,53033,1,8,0:0:0:0:
285,296,53183,6,0,L|299:83,1,180,0|0,0:0|0:0,0:0:0:0:
421,33,53633,2,0,L|437:159,1,90,8|0,0:0|0:0,0:0:0:0:
412,196,53858,1,0,0:0:0:0:
412,196,53933,2,0,P|340:224|300:209,1,90,2|0,0:0|0:0,0:0:0:0:
186,147,54233,1,8,0:0:0:0:
206,155,54308,1,0,0:0:0:0:
227,164,54383,1,0,0:0:0:0:
117,221,54533,6,0,P|88:172|125:87,1,135,2|0,0:0|0:0,0:0:0:0:
174,53,54833,2,0,L|286:60,1,90,8|0,0:0|0:0,0:0:0:0:
419,31,55133,1,2,0:0:0:0:
302,136,55283,1,0,0:0:0:0:
279,138,55358,1,0,0:0:0:0:
257,140,55433,1,8,0:0:0:0:
87,204,55583,6,0,P|185:195|241:286,1,180,0|0,0:0|0:0,0:0:0:0:
284,314,55958,1,0,0:0:0:0:
284,314,56033,2,0,P|281:256|300:219,1,90,8|0,0:0|0:0,0:0:0:0:
423,211,56333,2,0,L|422:273,1,45,2|0,0:0|0:0,0:0:0:0:
501,235,56483,2,0,L|501:190,1,45
496,112,56633,1,8,0:0:0:0:
496,112,56708,1,8,0:0:0:0:
496,112,56783,1,8,0:0:0:0:
496,112,56858,1,8,0:0:0:0:
496,112,56933,6,0,P|417:123|386:104,1,90,2|0,0:0|0:0,0:0:0:0:
344,76,57158,1,0,0:0:0:0:
344,76,57233,2,0,L|236:67,1,90,8|0,0:0|0:0,0:0:0:0:
84,136,57533,2,0,P|153:122|201:132,1,90,2|0,0:0|0:0,0:0:0:0:
218,238,57833,1,8,0:0:0:0:
318,165,57983,6,0,P|263:123|258:-9,1,180,0|0,0:0|0:0,0:0:0:0:
387,132,58433,2,0,P|390:188|371:219,1,90,8|0,0:0|0:0,0:0:0:0:
295,235,58658,1,0,0:0:0:0:
295,235,58733,2,0,L|176:214,1,90,2|0,0:0|0:0,0:0:0:0:
52,334,59033,2,0,L|221:321,1,135,8|0,0:0|0:0,0:0:0:0:
261,344,59333,6,0,L|350:349,1,90,2|0,0:0|0:0,0:0:0:0:
473,265,59633,1,8,0:0:0:0:
292,257,59783,1,0,0:0:0:0:
292,257,59858,1,0,0:0:0:0:
292,257,59933,2,0,P|224:258|183:238,1,90,2|0,0:0|0:0,0:0:0:0:
166,115,60233,2,0,L|295:143,1,90,8|0,0:0|0:0,0:0:0:0:
452,111,60533,6,0,P|469:63|458:21,1,90,2|0,0:0|0:0,0:0:0:0:
313,82,60758,2,0,P|346:120|387:132,1,90,0|0,0:0|0:0,0:0:0:0:
360,0,60983,1,0,0:0:0:0:
434,181,61133,6,0,P|381:166|334:182,1,90,2|0,0:0|0:0,0:0:0:0:
317,205,61358,1,8,0:0:0:0:
279,229,61433,1,8,0:0:0:0:
235,238,61508,1,8,0:0:0:0:
191,230,61583,1,8,0:0:0:0:
154,206,61658,1,8,0:0:0:0:
128,169,61733,6,0,L|118:269,1,90,6|0,0:0|0:0,0:0:0:0:
243,327,62033,2,0,L|234:237,1,90,8|0,0:0|0:0,0:0:0:0:
251,164,62258,1,0,0:0:0:0:
251,164,62333,2,0,P|311:159|362:185,1,90,2|0,0:0|0:0,0:0:0:0:
374,295,62633,1,8,0:0:0:0:
192,379,62783,6,0,L|172:170,1,180,0|0,0:0|0:0,0:0:0:0:
301,104,63233,2,0,P|306:178|285:212,1,90,8|0,0:0|0:0,0:0:0:0:
157,120,63533,2,0,L|57:119,1,90,2|0,0:0|0:0,0:0:0:0:
39,39,63758,1,0,0:0:0:0:
39,39,63833,2,0,L|164:39,1,90,8|0,0:0|0:0,0:0:0:0:
299,67,64133,6,0,P|224:65|191:47,1,90,2|0,0:0|0:0,0:0:0:0:
79,167,64433,2,0,P|154:165|187:147,1,90,8|0,0:0|0:0,0:0:0:0:
258,46,64733,1,2,0:0:0:0:
215,239,64883,1,0,0:0:0:0:
117,87,65033,1,8,0:0:0:0:
290,210,65183,6,0,P|257:310|165:309,1,180,0|0,0:0|0:0,0:0:0:0:
48,242,65633,2,0,L|43:187,1,45,8|0,0:0|0:0,0:0:0:0:
166,128,65783,2,0,L|161:172,1,45,0|0,0:0|0:0,0:0:0:0:
265,227,65933,5,2,0:0:0:0:
265,227,66008,1,0,0:0:0:0:
265,227,66083,1,0,0:0:0:0:
265,227,66158,1,0,0:0:0:0:
265,227,66233,1,8,0:0:0:0:
306,242,66308,1,8,0:0:0:0:
350,234,66383,1,8,0:0:0:0:
383,204,66458,1,8,0:0:0:0:
395,161,66533,6,0,P|399:234|420:270,1,90,2|0,0:0|0:0,0:0:0:0:
465,73,66833,2,0,L|359:62,1,90,8|0,0:0|0:0,0:0:0:0:
310,110,67058,1,0,0:0:0:0:
310,110,67133,2,0,P|250:124|211:117,1,90,2|0,0:0|0:0,0:0:0:0:
98,46,67433,1,8,0:0:0:0:
27,218,67583,6,0,P|124:179|197:218,1,180,0|0,0:0|0:0,0:0:0:0:
295,331,68033,2,0,P|229:342|178:321,1,90,8|0,0:0|0:0,0:0:0:0:
356,259,68333,2,0,L|468:277,1,90,2|0,0:0|0:0,0:0:0:0:
458,199,68558,1,0,0:0:0:0:
458,199,68633,2,0,P|405:191|375:156,1,90,8|0,0:0|0:0,0:0:0:0:
257,28,68933,6,0,L|253:219,1,180,2|8,0:0|0:0,0:0:0:0:
126,307,69383,1,0,0:0:0:0:
24,206,69533,2,0,P|12:140|25:100,1,90,2|0,0:0|0:0,0:0:0:0:
179,121,69833,2,0,L|174:238,1,90,8|0,0:0|0:0,0:0:0:0:
335,343,70133,6,0,P|363:290|358:241,1,90,2|0,0:0|0:0,0:0:0:0:
204,292,70358,2,0,P|235:342|280:362,1,90
264,204,70583,1,0,0:0:0:0:
264,204,70733,1,2,0:0:0:0:
140,75,71333,6,0,P|105:157|182:78,1,323.999990112305,2|0,0:0|0:0,0:0:0:0:
157,131,72533,6,0,L|150:252,1,107.999996704102,2|0,0:0|0:0,0:0:0:0:
241,284,72983,2,0,L|234:176,1,107.999996704102,2|0,0:0|0:0,0:0:0:0:
266,101,73433,1,8,0:0:0:0:
70,108,73733,5,4,0:0:0:0:
320,165,73883,1,4,0:0:0:0:
442,108,74333,5,4,0:0:0:0:
192,165,74483,1,4,0:0:0:0:
427,205,74933,5,4,0:0:0:0:
428,220,75233,1,12,0:0:0:0:
428,236,75533,1,4,0:0:0:0:
210,195,75833,5,8,0:0:0:0:
171,182,75908,1,8,0:0:0:0:
171,141,75983,1,8,0:0:0:0:
210,129,76058,1,8,0:0:0:0:
233,162,76133,1,10,0:0:0:0:
