osu file format v14

[General]
AudioFilename: audio.ogg
AudioLeadIn: 0
PreviewTime: 96161
Countdown: 0
SampleSet: Soft
StackLeniency: 0.7
Mode: 3
LetterboxInBreaks: 0
SpecialStyle: 0
WidescreenStoryboard: 1

[Editor]
Bookmarks: 42073
DistanceSpacing: 1
BeatDivisor: 4
GridSize: 32
TimelineZoom: 2.3

[Metadata]
Title:Tenyo feat. Emman Gabuya, Kadiboy Belarmino, Ernezto Geluz
TitleUnicode:Tenyo feat. Emman Gabuya, Kadiboy Belarmino, Ernezto Geluz
Artist:123 Pikit!
ArtistUnicode:123 Pikit!
Creator:MapleSyrup-
Version:Hard
Source:
Tags:opm original pilipino music tagalog punk rock Taeng Aso other metal filipino
BeatmapID:4229788
BeatmapSetID:2029440

[Difficulty]
HPDrainRate:7.5
CircleSize:5
OverallDifficulty:7.5
ApproachRate:5
SliderMultiplier:1.4
SliderTickRate:1

[Events]
//Background and Video events
0,0,"bg2.jpg",0,0
//Break Periods
//Storyboard Layer 0 (Background)
//Storyboard Layer 1 (Fail)
//Storyboard Layer 2 (Pass)
//Storyboard Layer 3 (Foreground)
//Storyboard Layer 4 (Overlay)
//Storyboard Sound Samples

[TimingPoints]
1079,333.333333333333,4,2,1,40,1,0
2578,333.333333333333,4,2,1,40,1,1
17244,-100,4,2,1,40,0,0
49244,-100,4,2,1,40,0,1
62577,-100,4,2,1,40,0,0
97244,-100,4,2,1,40,0,1
110577,-100,4,2,1,40,0,0
131911,-100,4,2,1,40,0,1
142244,-100,4,2,1,40,0,0
142577,-100,4,2,1,40,0,1
153244,-100,4,2,1,40,0,0

[HitObjects]
256,192,1079,128,0,1412:0:0:0:0:
51,192,1079,128,0,1412:0:0:0:0:
460,192,1079,128,0,1412:0:0:0:0:
358,192,1412,1,0,0:0:0:0:
153,192,1412,1,0,0:0:0:0:
153,192,1578,1,0,0:0:0:0:
358,192,1578,1,0,0:0:0:0:
256,192,1745,1,0,0:0:0:0:
460,192,1745,1,0,0:0:0:0:
256,192,1912,1,0,0:0:0:0:
460,192,1912,1,0,0:0:0:0:
358,192,2078,1,0,0:0:0:0:
153,192,2078,1,0,0:0:0:0:
153,192,2245,1,0,0:0:0:0:
358,192,2245,1,0,0:0:0:0:
256,192,2412,1,0,0:0:0:0:
51,192,2412,1,0,0:0:0:0:
51,192,2578,1,0,0:0:0:0:
256,192,2578,1,0,0:0:0:0:
460,192,2578,1,0,0:0:0:0:
153,192,2911,1,0,0:0:0:0:
256,192,3244,1,0,0:0:0:0:
358,192,3577,128,0,3911:0:0:0:0:
51,192,3911,1,0,0:0:0:0:
460,192,3911,1,0,0:0:0:0:
153,192,3911,1,0,0:0:0:0:
153,192,4077,1,0,0:0:0:0:
51,192,4077,1,0,0:0:0:0:
256,192,4244,1,0,0:0:0:0:
460,192,4244,1,0,0:0:0:0:
460,192,4411,1,0,0:0:0:0:
256,192,4411,1,0,0:0:0:0:
51,192,4577,1,0,0:0:0:0:
358,192,4577,1,0,0:0:0:0:
358,192,4744,1,0,0:0:0:0:
51,192,4744,1,0,0:0:0:0:
153,192,4911,1,0,0:0:0:0:
460,192,4911,1,0,0:0:0:0:
460,192,5077,1,0,0:0:0:0:
153,192,5077,1,0,0:0:0:0:
51,192,5244,1,0,0:0:0:0:
256,192,5244,1,0,0:0:0:0:
51,192,5411,1,0,0:0:0:0:
256,192,5411,1,0,0:0:0:0:
460,192,5577,1,0,0:0:0:0:
358,192,5577,1,0,0:0:0:0:
460,192,5744,1,0,0:0:0:0:
358,192,5744,1,0,0:0:0:0:
51,192,5911,1,0,0:0:0:0:
153,192,5911,1,0,0:0:0:0:
51,192,6077,1,0,0:0:0:0:
153,192,6077,1,0,0:0:0:0:
460,192,6244,1,0,0:0:0:0:
256,192,6244,1,0,0:0:0:0:
256,192,6411,1,0,0:0:0:0:
460,192,6411,1,0,0:0:0:0:
153,192,6577,1,0,0:0:0:0:
358,192,6577,1,0,0:0:0:0:
51,192,6577,1,0,0:0:0:0:
153,192,6744,1,0,0:0:0:0:
358,192,6744,1,0,0:0:0:0:
51,192,6911,1,0,0:0:0:0:
460,192,6911,1,0,0:0:0:0:
51,192,7077,1,0,0:0:0:0:
460,192,7077,1,0,0:0:0:0:
358,192,7244,1,0,0:0:0:0:
256,192,7244,1,0,0:0:0:0:
256,192,7411,1,0,0:0:0:0:
358,192,7411,1,0,0:0:0:0:
51,192,7577,1,0,0:0:0:0:
460,192,7577,1,0,0:0:0:0:
51,192,7744,1,0,0:0:0:0:
460,192,7744,1,0,0:0:0:0:
256,192,7911,1,0,0:0:0:0:
153,192,7911,1,0,0:0:0:0:
153,192,8077,1,0,0:0:0:0:
256,192,8077,1,0,0:0:0:0:
358,192,8244,1,0,0:0:0:0:
460,192,8244,1,0,0:0:0:0:
358,192,8411,1,0,0:0:0:0:
460,192,8411,1,0,0:0:0:0:
153,192,8577,1,0,0:0:0:0:
51,192,8577,1,0,0:0:0:0:
153,192,8744,1,0,0:0:0:0:
51,192,8744,1,0,0:0:0:0:
256,192,8911,1,0,0:0:0:0:
358,192,8911,1,0,0:0:0:0:
256,192,9077,1,0,0:0:0:0:
358,192,9077,1,0,0:0:0:0:
153,192,9244,1,0,0:0:0:0:
51,192,9244,1,0,0:0:0:0:
460,192,9244,1,0,0:0:0:0:
460,192,9411,1,0,0:0:0:0:
51,192,9411,1,0,0:0:0:0:
256,192,9577,1,0,0:0:0:0:
358,192,9577,1,0,0:0:0:0:
256,192,9744,1,0,0:0:0:0:
358,192,9744,1,0,0:0:0:0:
153,192,9911,1,0,0:0:0:0:
460,192,9911,1,0,0:0:0:0:
153,192,10077,1,0,0:0:0:0:
460,192,10077,1,0,0:0:0:0:
358,192,10244,1,0,0:0:0:0:
51,192,10244,1,0,0:0:0:0:
358,192,10411,1,0,0:0:0:0:
51,192,10411,1,0,0:0:0:0:
153,192,10577,1,0,0:0:0:0:
256,192,10577,1,0,0:0:0:0:
256,192,10744,1,0,0:0:0:0:
153,192,10744,1,0,0:0:0:0:
358,192,10911,1,0,0:0:0:0:
51,192,10911,1,0,0:0:0:0:
358,192,11077,1,0,0:0:0:0:
51,192,11077,1,0,0:0:0:0:
153,192,11244,1,0,0:0:0:0:
460,192,11244,1,0,0:0:0:0:
153,192,11411,1,0,0:0:0:0:
460,192,11411,1,0,0:0:0:0:
256,192,11577,1,0,0:0:0:0:
358,192,11577,1,0,0:0:0:0:
256,192,11744,1,0,0:0:0:0:
358,192,11744,1,0,0:0:0:0:
51,192,11911,1,0,0:0:0:0:
153,192,11911,1,0,0:0:0:0:
460,192,11911,1,0,0:0:0:0:
51,192,12077,1,0,0:0:0:0:
358,192,12077,1,0,0:0:0:0:
51,192,12244,1,0,0:0:0:0:
256,192,12244,1,0,0:0:0:0:
51,192,12411,1,0,0:0:0:0:
153,192,12411,1,0,0:0:0:0:
460,192,12577,1,0,0:0:0:0:
358,192,12577,1,0,0:0:0:0:
358,192,12744,1,0,0:0:0:0:
460,192,12744,1,0,0:0:0:0:
256,192,12911,1,0,0:0:0:0:
153,192,12911,1,0,0:0:0:0:
153,192,13077,1,0,0:0:0:0:
256,192,13077,1,0,0:0:0:0:
51,192,13244,1,0,0:0:0:0:
460,192,13244,1,0,0:0:0:0:
153,192,13411,1,0,0:0:0:0:
460,192,13411,1,0,0:0:0:0:
460,192,13577,1,0,0:0:0:0:
256,192,13577,1,0,0:0:0:0:
358,192,13744,1,0,0:0:0:0:
460,192,13744,1,0,0:0:0:0:
153,192,13911,1,0,0:0:0:0:
51,192,13911,1,0,0:0:0:0:
51,192,14077,1,0,0:0:0:0:
153,192,14077,1,0,0:0:0:0:
256,192,14244,1,0,0:0:0:0:
358,192,14244,1,0,0:0:0:0:
256,192,14411,1,0,0:0:0:0:
358,192,14411,1,0,0:0:0:0:
460,192,14577,1,0,0:0:0:0:
51,192,14577,1,0,0:0:0:0:
153,192,14577,1,0,0:0:0:0:
460,192,14744,1,0,0:0:0:0:
51,192,14744,1,0,0:0:0:0:
256,192,14911,128,0,15077:0:0:0:0:
358,192,15077,1,0,0:0:0:0:
153,192,15077,1,0,0:0:0:0:
460,192,15244,1,0,0:0:0:0:
51,192,15244,1,0,0:0:0:0:
460,192,15411,1,0,0:0:0:0:
51,192,15411,1,0,0:0:0:0:
153,192,15577,1,0,0:0:0:0:
358,192,15577,1,0,0:0:0:0:
358,192,15744,1,0,0:0:0:0:
153,192,15744,1,0,0:0:0:0:
256,192,15911,1,0,0:0:0:0:
51,192,15911,1,0,0:0:0:0:
256,192,16077,1,0,0:0:0:0:
460,192,16077,1,0,0:0:0:0:
153,192,16244,1,0,0:0:0:0:
51,192,16244,1,0,0:0:0:0:
358,192,16327,1,0,0:0:0:0:
460,192,16327,1,0,0:0:0:0:
51,192,16411,1,0,0:0:0:0:
153,192,16411,1,0,0:0:0:0:
460,192,16577,1,0,0:0:0:0:
358,192,16577,1,0,0:0:0:0:
256,192,16744,1,0,0:0:0:0:
358,192,16744,1,0,0:0:0:0:
153,192,16911,1,0,0:0:0:0:
256,192,16911,1,0,0:0:0:0:
153,192,17077,1,0,0:0:0:0:
51,192,17077,1,0,0:0:0:0:
51,192,17244,1,0,0:0:0:0:
358,192,17244,1,0,0:0:0:0:
460,192,17244,1,0,0:0:0:0:
460,192,17411,1,0,0:0:0:0:
358,192,17411,1,0,0:0:0:0:
256,192,17577,1,0,0:0:0:0:
153,192,17661,1,0,0:0:0:0:
358,192,17744,1,0,0:0:0:0:
256,192,17827,1,0,0:0:0:0:
51,192,17911,1,0,0:0:0:0:
460,192,17911,1,0,0:0:0:0:
358,192,17994,1,0,0:0:0:0:
256,192,18077,1,0,0:0:0:0:
153,192,18161,1,0,0:0:0:0:
51,192,18244,1,0,0:0:0:0:
460,192,18244,1,0,0:0:0:0:
460,192,18411,1,0,0:0:0:0:
51,192,18411,1,0,0:0:0:0:
358,192,18577,1,0,0:0:0:0:
153,192,18577,1,0,0:0:0:0:
153,192,18744,1,0,0:0:0:0:
358,192,18744,1,0,0:0:0:0:
51,192,18911,1,0,0:0:0:0:
256,192,18911,1,0,0:0:0:0:
51,192,19077,1,0,0:0:0:0:
256,192,19077,1,0,0:0:0:0:
460,192,19161,1,0,0:0:0:0:
153,192,19244,1,0,0:0:0:0:
358,192,19327,1,0,0:0:0:0:
51,192,19411,1,0,0:0:0:0:
256,192,19411,1,0,0:0:0:0:
460,192,19494,1,0,0:0:0:0:
358,192,19577,1,0,0:0:0:0:
153,192,19577,1,0,0:0:0:0:
51,192,19661,1,0,0:0:0:0:
460,192,19744,1,0,0:0:0:0:
256,192,19827,1,0,0:0:0:0:
153,192,19911,1,0,0:0:0:0:
51,192,19911,1,0,0:0:0:0:
358,192,19911,1,0,0:0:0:0:
51,192,20077,1,0,0:0:0:0:
153,192,20077,1,0,0:0:0:0:
256,192,20244,1,0,0:0:0:0:
358,192,20327,1,0,0:0:0:0:
153,192,20411,1,0,0:0:0:0:
256,192,20494,1,0,0:0:0:0:
460,192,20577,1,0,0:0:0:0:
51,192,20577,1,0,0:0:0:0:
153,192,20661,1,0,0:0:0:0:
256,192,20744,1,0,0:0:0:0:
358,192,20827,1,0,0:0:0:0:
460,192,20911,1,0,0:0:0:0:
51,192,20911,1,0,0:0:0:0:
51,192,21077,1,0,0:0:0:0:
460,192,21077,1,0,0:0:0:0:
153,192,21244,1,0,0:0:0:0:
358,192,21244,1,0,0:0:0:0:
358,192,21411,1,0,0:0:0:0:
153,192,21411,1,0,0:0:0:0:
460,192,21577,1,0,0:0:0:0:
256,192,21577,1,0,0:0:0:0:
460,192,21744,1,0,0:0:0:0:
256,192,21744,1,0,0:0:0:0:
51,192,21827,1,0,0:0:0:0:
358,192,21911,1,0,0:0:0:0:
153,192,21994,1,0,0:0:0:0:
460,192,22077,1,0,0:0:0:0:
256,192,22077,1,0,0:0:0:0:
51,192,22161,1,0,0:0:0:0:
153,192,22244,1,0,0:0:0:0:
358,192,22244,1,0,0:0:0:0:
460,192,22327,1,0,0:0:0:0:
51,192,22411,1,0,0:0:0:0:
256,192,22494,1,0,0:0:0:0:
153,192,22577,1,0,0:0:0:0:
358,192,22577,1,0,0:0:0:0:
460,192,22577,1,0,0:0:0:0:
358,192,22744,1,0,0:0:0:0:
153,192,22744,1,0,0:0:0:0:
256,192,22911,1,0,0:0:0:0:
51,192,22994,1,0,0:0:0:0:
358,192,23077,1,0,0:0:0:0:
153,192,23161,1,0,0:0:0:0:
460,192,23244,1,0,0:0:0:0:
51,192,23244,1,0,0:0:0:0:
256,192,23327,1,0,0:0:0:0:
153,192,23411,1,0,0:0:0:0:
358,192,23494,1,0,0:0:0:0:
256,192,23577,1,0,0:0:0:0:
51,192,23577,1,0,0:0:0:0:
256,192,23744,1,0,0:0:0:0:
51,192,23744,1,0,0:0:0:0:
358,192,23911,1,0,0:0:0:0:
153,192,23911,1,0,0:0:0:0:
153,192,24077,1,0,0:0:0:0:
358,192,24077,1,0,0:0:0:0:
256,192,24244,1,0,0:0:0:0:
460,192,24244,1,0,0:0:0:0:
256,192,24411,1,0,0:0:0:0:
460,192,24411,1,0,0:0:0:0:
153,192,24494,1,0,0:0:0:0:
51,192,24577,1,0,0:0:0:0:
460,192,24661,1,0,0:0:0:0:
153,192,24744,1,0,0:0:0:0:
358,192,24744,1,0,0:0:0:0:
51,192,24827,1,0,0:0:0:0:
256,192,24911,1,0,0:0:0:0:
460,192,24911,1,0,0:0:0:0:
153,192,24994,1,0,0:0:0:0:
51,192,25077,1,0,0:0:0:0:
460,192,25161,1,0,0:0:0:0:
358,192,25244,1,0,0:0:0:0:
153,192,25244,1,0,0:0:0:0:
256,192,25244,1,0,0:0:0:0:
153,192,25411,1,0,0:0:0:0:
358,192,25411,1,0,0:0:0:0:
256,192,25577,1,0,0:0:0:0:
460,192,25661,1,0,0:0:0:0:
153,192,25744,1,0,0:0:0:0:
358,192,25827,1,0,0:0:0:0:
51,192,25911,1,0,0:0:0:0:
460,192,25911,1,0,0:0:0:0:
256,192,25994,1,0,0:0:0:0:
358,192,26077,1,0,0:0:0:0:
153,192,26161,1,0,0:0:0:0:
256,192,26244,1,0,0:0:0:0:
460,192,26244,1,0,0:0:0:0:
256,192,26411,1,0,0:0:0:0:
460,192,26411,1,0,0:0:0:0:
153,192,26577,1,0,0:0:0:0:
358,192,26577,1,0,0:0:0:0:
358,192,26744,1,0,0:0:0:0:
153,192,26744,1,0,0:0:0:0:
256,192,26911,1,0,0:0:0:0:
51,192,26911,1,0,0:0:0:0:
460,192,27077,1,0,0:0:0:0:
153,192,27077,1,0,0:0:0:0:
256,192,27161,1,0,0:0:0:0:
358,192,27244,1,0,0:0:0:0:
51,192,27244,1,0,0:0:0:0:
153,192,27327,1,0,0:0:0:0:
460,192,27411,1,0,0:0:0:0:
256,192,27411,1,0,0:0:0:0:
51,192,27494,1,0,0:0:0:0:
358,192,27577,1,0,0:0:0:0:
153,192,27577,1,0,0:0:0:0:
460,192,27661,1,0,0:0:0:0:
256,192,27744,1,0,0:0:0:0:
51,192,27744,1,0,0:0:0:0:
460,192,27827,1,0,0:0:0:0:
153,192,27911,1,0,0:0:0:0:
358,192,27911,1,0,0:0:0:0:
153,192,28077,1,0,0:0:0:0:
358,192,28077,1,0,0:0:0:0:
256,192,28244,1,0,0:0:0:0:
460,192,28327,1,0,0:0:0:0:
153,192,28411,1,0,0:0:0:0:
358,192,28494,1,0,0:0:0:0:
460,192,28577,1,0,0:0:0:0:
51,192,28577,1,0,0:0:0:0:
153,192,28661,1,0,0:0:0:0:
256,192,28744,1,0,0:0:0:0:
358,192,28827,1,0,0:0:0:0:
460,192,28911,1,0,0:0:0:0:
51,192,28911,1,0,0:0:0:0:
51,192,29077,1,0,0:0:0:0:
460,192,29077,1,0,0:0:0:0:
153,192,29244,1,0,0:0:0:0:
358,192,29244,1,0,0:0:0:0:
358,192,29411,1,0,0:0:0:0:
153,192,29411,1,0,0:0:0:0:
460,192,29577,1,0,0:0:0:0:
256,192,29577,1,0,0:0:0:0:
460,192,29744,1,0,0:0:0:0:
256,192,29744,1,0,0:0:0:0:
51,192,29827,1,0,0:0:0:0:
358,192,29911,1,0,0:0:0:0:
153,192,29994,1,0,0:0:0:0:
460,192,30077,1,0,0:0:0:0:
256,192,30077,1,0,0:0:0:0:
51,192,30161,1,0,0:0:0:0:
153,192,30244,1,0,0:0:0:0:
358,192,30244,1,0,0:0:0:0:
460,192,30327,1,0,0:0:0:0:
51,192,30411,1,0,0:0:0:0:
256,192,30494,1,0,0:0:0:0:
358,192,30577,1,0,0:0:0:0:
460,192,30577,1,0,0:0:0:0:
153,192,30577,1,0,0:0:0:0:
358,192,30744,1,0,0:0:0:0:
153,192,30744,1,0,0:0:0:0:
256,192,30911,1,0,0:0:0:0:
51,192,30994,1,0,0:0:0:0:
358,192,31077,1,0,0:0:0:0:
153,192,31161,1,0,0:0:0:0:
51,192,31244,1,0,0:0:0:0:
460,192,31244,1,0,0:0:0:0:
358,192,31327,1,0,0:0:0:0:
256,192,31411,1,0,0:0:0:0:
153,192,31494,1,0,0:0:0:0:
51,192,31577,1,0,0:0:0:0:
460,192,31577,1,0,0:0:0:0:
460,192,31744,1,0,0:0:0:0:
51,192,31744,1,0,0:0:0:0:
358,192,31911,1,0,0:0:0:0:
153,192,31911,1,0,0:0:0:0:
153,192,32077,1,0,0:0:0:0:
358,192,32077,1,0,0:0:0:0:
51,192,32244,1,0,0:0:0:0:
256,192,32244,1,0,0:0:0:0:
51,192,32411,1,0,0:0:0:0:
256,192,32411,1,0,0:0:0:0:
460,192,32494,1,0,0:0:0:0:
153,192,32577,1,0,0:0:0:0:
358,192,32661,1,0,0:0:0:0:
51,192,32744,1,0,0:0:0:0:
256,192,32744,1,0,0:0:0:0:
460,192,32827,1,0,0:0:0:0:
358,192,32911,1,0,0:0:0:0:
153,192,32911,1,0,0:0:0:0:
51,192,32994,1,0,0:0:0:0:
460,192,33077,1,0,0:0:0:0:
256,192,33161,1,0,0:0:0:0:
358,192,33244,1,0,0:0:0:0:
153,192,33244,1,0,0:0:0:0:
51,192,33244,1,0,0:0:0:0:
153,192,33411,1,0,0:0:0:0:
358,192,33411,1,0,0:0:0:0:
256,192,33577,1,0,0:0:0:0:
51,192,33577,1,0,0:0:0:0:
460,192,33661,1,0,0:0:0:0:
153,192,33744,1,0,0:0:0:0:
358,192,33827,1,0,0:0:0:0:
51,192,33911,1,0,0:0:0:0:
256,192,33994,1,0,0:0:0:0:
358,192,34077,1,0,0:0:0:0:
153,192,34161,1,0,0:0:0:0:
256,192,34244,1,0,0:0:0:0:
460,192,34244,1,0,0:0:0:0:
256,192,34411,1,0,0:0:0:0:
460,192,34411,1,0,0:0:0:0:
153,192,34577,1,0,0:0:0:0:
358,192,34577,1,0,0:0:0:0:
358,192,34744,1,0,0:0:0:0:
153,192,34744,1,0,0:0:0:0:
256,192,34911,1,0,0:0:0:0:
51,192,34911,1,0,0:0:0:0:
256,192,35077,1,0,0:0:0:0:
51,192,35077,1,0,0:0:0:0:
358,192,35161,1,0,0:0:0:0:
460,192,35244,1,0,0:0:0:0:
51,192,35327,1,0,0:0:0:0:
358,192,35411,1,0,0:0:0:0:
153,192,35411,1,0,0:0:0:0:
460,192,35494,1,0,0:0:0:0:
256,192,35577,1,0,0:0:0:0:
51,192,35577,1,0,0:0:0:0:
358,192,35661,1,0,0:0:0:0:
460,192,35744,1,0,0:0:0:0:
51,192,35827,1,0,0:0:0:0:
153,192,35911,1,0,0:0:0:0:
358,192,35911,1,0,0:0:0:0:
256,192,35911,1,0,0:0:0:0:
358,192,36077,1,0,0:0:0:0:
153,192,36077,1,0,0:0:0:0:
256,192,36244,1,0,0:0:0:0:
460,192,36244,1,0,0:0:0:0:
51,192,36327,1,0,0:0:0:0:
358,192,36411,1,0,0:0:0:0:
153,192,36494,1,0,0:0:0:0:
460,192,36577,1,0,0:0:0:0:
256,192,36661,1,0,0:0:0:0:
153,192,36744,1,0,0:0:0:0:
358,192,36827,1,0,0:0:0:0:
256,192,36911,1,0,0:0:0:0:
51,192,36911,1,0,0:0:0:0:
256,192,37077,1,0,0:0:0:0:
51,192,37077,1,0,0:0:0:0:
358,192,37244,1,0,0:0:0:0:
460,192,37244,1,0,0:0:0:0:
358,192,37411,1,0,0:0:0:0:
460,192,37411,1,0,0:0:0:0:
51,192,37577,1,0,0:0:0:0:
153,192,37577,1,0,0:0:0:0:
51,192,37744,1,0,0:0:0:0:
153,192,37744,1,0,0:0:0:0:
256,192,37911,1,0,0:0:0:0:
460,192,37911,1,0,0:0:0:0:
358,192,38077,1,0,0:0:0:0:
153,192,38077,1,0,0:0:0:0:
51,192,38161,1,0,0:0:0:0:
256,192,38244,1,0,0:0:0:0:
460,192,38244,1,0,0:0:0:0:
153,192,38327,1,0,0:0:0:0:
51,192,38411,1,0,0:0:0:0:
358,192,38411,128,0,38744:0:0:0:0:
460,192,38411,128,0,38744:0:0:0:0:
51,192,38744,1,0,0:0:0:0:
256,192,38744,1,0,0:0:0:0:
358,192,38911,1,0,0:0:0:0:
460,192,38911,1,0,0:0:0:0:
256,192,39077,1,0,0:0:0:0:
51,192,39077,1,0,0:0:0:0:
153,192,39244,1,0,0:0:0:0:
358,192,39244,1,0,0:0:0:0:
460,192,39411,1,0,0:0:0:0:
256,192,39411,1,0,0:0:0:0:
153,192,39577,1,0,0:0:0:0:
51,192,39577,1,0,0:0:0:0:
256,192,39744,1,0,0:0:0:0:
460,192,39744,1,0,0:0:0:0:
358,192,39911,1,0,0:0:0:0:
153,192,39911,1,0,0:0:0:0:
256,192,40077,1,0,0:0:0:0:
51,192,40077,1,0,0:0:0:0:
358,192,40244,1,0,0:0:0:0:
460,192,40244,1,0,0:0:0:0:
256,192,40411,1,0,0:0:0:0:
51,192,40411,1,0,0:0:0:0:
153,192,40577,1,0,0:0:0:0:
358,192,40577,1,0,0:0:0:0:
256,192,40744,1,0,0:0:0:0:
460,192,40744,1,0,0:0:0:0:
153,192,40911,1,0,0:0:0:0:
51,192,40911,1,0,0:0:0:0:
153,192,41077,128,0,41411:0:0:0:0:
51,192,41077,128,0,41411:0:0:0:0:
358,192,41077,1,0,0:0:0:0:
358,192,41411,1,0,0:0:0:0:
460,192,41411,1,0,0:0:0:0:
256,192,41577,1,0,0:0:0:0:
51,192,41577,1,0,0:0:0:0:
153,192,41744,1,0,0:0:0:0:
460,192,41744,1,0,0:0:0:0:
256,192,41911,1,0,0:0:0:0:
358,192,41911,1,0,0:0:0:0:
153,192,42077,1,0,0:0:0:0:
51,192,42077,1,0,0:0:0:0:
460,192,42244,1,0,0:0:0:0:
256,192,42244,1,0,0:0:0:0:
51,192,42411,1,0,0:0:0:0:
358,192,42411,1,0,0:0:0:0:
256,192,42577,1,0,0:0:0:0:
153,192,42577,1,0,0:0:0:0:
358,192,42744,1,0,0:0:0:0:
460,192,42744,1,0,0:0:0:0:
51,192,42911,1,0,0:0:0:0:
256,192,42911,1,0,0:0:0:0:
153,192,43077,1,0,0:0:0:0:
460,192,43077,1,0,0:0:0:0:
358,192,43244,1,0,0:0:0:0:
256,192,43244,1,0,0:0:0:0:
153,192,43411,1,0,0:0:0:0:
51,192,43411,1,0,0:0:0:0:
256,192,43577,1,0,0:0:0:0:
460,192,43577,1,0,0:0:0:0:
256,192,43744,128,0,44077:0:0:0:0:
460,192,43744,128,0,44077:0:0:0:0:
51,192,43744,1,0,0:0:0:0:
358,192,44077,1,0,0:0:0:0:
51,192,44077,1,0,0:0:0:0:
256,192,44244,1,0,0:0:0:0:
460,192,44244,1,0,0:0:0:0:
153,192,44411,1,0,0:0:0:0:
51,192,44411,1,0,0:0:0:0:
256,192,44577,1,0,0:0:0:0:
358,192,44577,1,0,0:0:0:0:
153,192,44744,1,0,0:0:0:0:
460,192,44744,1,0,0:0:0:0:
256,192,44911,1,0,0:0:0:0:
51,192,44911,1,0,0:0:0:0:
460,192,45077,1,0,0:0:0:0:
358,192,45077,1,0,0:0:0:0:
153,192,45244,1,0,0:0:0:0:
256,192,45244,1,0,0:0:0:0:
358,192,45411,1,0,0:0:0:0:
51,192,45411,1,0,0:0:0:0:
256,192,45577,1,0,0:0:0:0:
460,192,45577,1,0,0:0:0:0:
153,192,45744,1,0,0:0:0:0:
51,192,45744,1,0,0:0:0:0:
256,192,45911,1,0,0:0:0:0:
358,192,45911,1,0,0:0:0:0:
153,192,46077,1,0,0:0:0:0:
460,192,46077,1,0,0:0:0:0:
256,192,46244,1,0,0:0:0:0:
51,192,46244,1,0,0:0:0:0:
256,192,46411,128,0,46744:0:0:0:0:
51,192,46411,128,0,46744:0:0:0:0:
358,192,46411,1,0,0:0:0:0:
153,192,46744,1,0,0:0:0:0:
358,192,46744,1,0,0:0:0:0:
256,192,46911,1,0,0:0:0:0:
460,192,46911,1,0,0:0:0:0:
256,192,47077,1,0,0:0:0:0:
460,192,47077,1,0,0:0:0:0:
153,192,47244,1,0,0:0:0:0:
358,192,47244,1,0,0:0:0:0:
358,192,47411,1,0,0:0:0:0:
153,192,47411,1,0,0:0:0:0:
51,192,47577,1,0,0:0:0:0:
256,192,47577,1,0,0:0:0:0:
256,192,47744,1,0,0:0:0:0:
51,192,47744,1,0,0:0:0:0:
153,192,47911,1,0,0:0:0:0:
358,192,47911,1,0,0:0:0:0:
460,192,47911,1,0,0:0:0:0:
153,192,48244,1,0,0:0:0:0:
256,192,48577,1,0,0:0:0:0:
358,192,48911,128,0,49244:0:0:0:0:
51,192,49244,1,0,0:0:0:0:
460,192,49244,1,0,0:0:0:0:
256,192,49244,1,0,0:0:0:0:
51,192,49411,128,0,49577:0:0:0:0:
460,192,49411,1,0,0:0:0:0:
256,192,49577,1,0,0:0:0:0:
358,192,49577,1,0,0:0:0:0:
256,192,49744,128,0,49911:0:0:0:0:
358,192,49744,1,0,0:0:0:0:
153,192,49911,1,0,0:0:0:0:
51,192,49911,1,0,0:0:0:0:
153,192,50077,128,0,50244:0:0:0:0:
51,192,50077,1,0,0:0:0:0:
358,192,50244,1,0,0:0:0:0:
460,192,50244,1,0,0:0:0:0:
358,192,50411,128,0,50577:0:0:0:0:
460,192,50411,1,0,0:0:0:0:
256,192,50577,1,0,0:0:0:0:
51,192,50577,1,0,0:0:0:0:
256,192,50744,128,0,50911:0:0:0:0:
51,192,50744,1,0,0:0:0:0:
460,192,50911,1,0,0:0:0:0:
153,192,50911,1,0,0:0:0:0:
460,192,51077,128,0,51244:0:0:0:0:
153,192,51077,1,0,0:0:0:0:
51,192,51244,1,0,0:0:0:0:
256,192,51244,1,0,0:0:0:0:
51,192,51411,128,0,51577:0:0:0:0:
256,192,51411,1,0,0:0:0:0:
358,192,51577,1,0,0:0:0:0:
153,192,51577,1,0,0:0:0:0:
358,192,51744,128,0,51911:0:0:0:0:
153,192,51744,1,0,0:0:0:0:
460,192,51911,1,0,0:0:0:0:
256,192,51911,1,0,0:0:0:0:
51,192,51911,1,0,0:0:0:0:
51,192,52077,1,0,0:0:0:0:
460,192,52077,128,0,52244:0:0:0:0:
153,192,52244,1,0,0:0:0:0:
256,192,52244,1,0,0:0:0:0:
153,192,52411,1,0,0:0:0:0:
256,192,52411,128,0,52577:0:0:0:0:
358,192,52577,1,0,0:0:0:0:
460,192,52577,1,0,0:0:0:0:
460,192,52744,1,0,0:0:0:0:
358,192,52744,128,0,52911:0:0:0:0:
51,192,52911,1,0,0:0:0:0:
153,192,52911,1,0,0:0:0:0:
51,192,53077,1,0,0:0:0:0:
153,192,53077,128,0,53244:0:0:0:0:
256,192,53244,1,0,0:0:0:0:
460,192,53244,1,0,0:0:0:0:
460,192,53411,1,0,0:0:0:0:
256,192,53411,128,0,53577:0:0:0:0:
358,192,53577,1,0,0:0:0:0:
51,192,53577,1,0,0:0:0:0:
358,192,53744,1,0,0:0:0:0:
51,192,53744,128,0,53911:0:0:0:0:
460,192,53911,1,0,0:0:0:0:
256,192,53911,1,0,0:0:0:0:
256,192,54077,1,0,0:0:0:0:
460,192,54077,128,0,54244:0:0:0:0:
153,192,54244,1,0,0:0:0:0:
358,192,54244,1,0,0:0:0:0:
358,192,54411,1,0,0:0:0:0:
153,192,54411,128,0,54577:0:0:0:0:
51,192,54577,1,0,0:0:0:0:
256,192,54577,1,0,0:0:0:0:
460,192,54577,1,0,0:0:0:0:
51,192,54744,128,0,54911:0:0:0:0:
256,192,54744,1,0,0:0:0:0:
153,192,54911,1,0,0:0:0:0:
358,192,54911,1,0,0:0:0:0:
153,192,55077,128,0,55244:0:0:0:0:
358,192,55077,1,0,0:0:0:0:
256,192,55244,1,0,0:0:0:0:
460,192,55244,1,0,0:0:0:0:
256,192,55411,128,0,55577:0:0:0:0:
460,192,55411,1,0,0:0:0:0:
358,192,55577,1,0,0:0:0:0:
51,192,55577,1,0,0:0:0:0:
358,192,55744,128,0,55911:0:0:0:0:
51,192,55744,1,0,0:0:0:0:
256,192,55911,1,0,0:0:0:0:
460,192,55911,1,0,0:0:0:0:
460,192,56077,128,0,56244:0:0:0:0:
256,192,56077,1,0,0:0:0:0:
153,192,56244,1,0,0:0:0:0:
358,192,56244,1,0,0:0:0:0:
358,192,56411,128,0,56577:0:0:0:0:
153,192,56411,1,0,0:0:0:0:
256,192,56577,1,0,0:0:0:0:
51,192,56577,1,0,0:0:0:0:
256,192,56744,128,0,56911:0:0:0:0:
51,192,56744,1,0,0:0:0:0:
153,192,56911,1,0,0:0:0:0:
358,192,56911,1,0,0:0:0:0:
153,192,57077,128,0,57244:0:0:0:0:
358,192,57077,1,0,0:0:0:0:
460,192,57244,1,0,0:0:0:0:
256,192,57244,1,0,0:0:0:0:
51,192,57244,1,0,0:0:0:0:
460,192,57411,1,0,0:0:0:0:
153,192,57411,1,0,0:0:0:0:
460,192,57577,1,0,0:0:0:0:
256,192,57577,1,0,0:0:0:0:
460,192,57744,1,0,0:0:0:0:
358,192,57744,1,0,0:0:0:0:
51,192,57911,1,0,0:0:0:0:
153,192,57911,1,0,0:0:0:0:
153,192,58077,1,0,0:0:0:0:
51,192,58077,1,0,0:0:0:0:
256,192,58244,1,0,0:0:0:0:
358,192,58244,1,0,0:0:0:0:
358,192,58411,1,0,0:0:0:0:
256,192,58411,1,0,0:0:0:0:
460,192,58577,1,0,0:0:0:0:
51,192,58577,1,0,0:0:0:0:
358,192,58744,1,0,0:0:0:0:
51,192,58744,1,0,0:0:0:0:
51,192,58911,1,0,0:0:0:0:
256,192,58911,1,0,0:0:0:0:
153,192,59077,1,0,0:0:0:0:
51,192,59077,1,0,0:0:0:0:
358,192,59244,1,0,0:0:0:0:
460,192,59244,1,0,0:0:0:0:
460,192,59411,1,0,0:0:0:0:
358,192,59411,1,0,0:0:0:0:
256,192,59577,1,0,0:0:0:0:
153,192,59577,1,0,0:0:0:0:
256,192,59744,1,0,0:0:0:0:
153,192,59744,1,0,0:0:0:0:
51,192,59911,1,0,0:0:0:0:
460,192,59911,1,0,0:0:0:0:
358,192,59911,1,0,0:0:0:0:
51,192,60077,1,0,0:0:0:0:
358,192,60077,1,0,0:0:0:0:
256,192,60244,1,0,0:0:0:0:
51,192,60411,1,0,0:0:0:0:
358,192,60411,1,0,0:0:0:0:
153,192,60577,1,0,0:0:0:0:
460,192,60577,1,0,0:0:0:0:
153,192,60744,1,0,0:0:0:0:
460,192,60744,1,0,0:0:0:0:
256,192,60911,1,0,0:0:0:0:
153,192,61077,1,0,0:0:0:0:
460,192,61077,1,0,0:0:0:0:
51,192,61244,1,0,0:0:0:0:
358,192,61244,1,0,0:0:0:0:
51,192,61411,1,0,0:0:0:0:
358,192,61411,1,0,0:0:0:0:
256,192,61577,1,0,0:0:0:0:
358,192,61744,1,0,0:0:0:0:
51,192,61744,1,0,0:0:0:0:
460,192,61911,1,0,0:0:0:0:
153,192,61911,1,0,0:0:0:0:
153,192,62077,1,0,0:0:0:0:
460,192,62077,1,0,0:0:0:0:
256,192,62244,1,0,0:0:0:0:
358,192,62411,1,0,0:0:0:0:
153,192,62411,1,0,0:0:0:0:
256,192,62577,1,0,0:0:0:0:
51,192,62577,1,0,0:0:0:0:
460,192,62577,128,0,62744:0:0:0:0:
358,192,62744,128,0,62911:0:0:0:0:
153,192,62911,128,0,63077:0:0:0:0:
358,192,63077,128,0,63244:0:0:0:0:
153,192,63244,128,0,63411:0:0:0:0:
358,192,63411,128,0,63577:0:0:0:0:
153,192,63577,128,0,63744:0:0:0:0:
51,192,63744,128,0,63911:0:0:0:0:
358,192,63911,1,0,0:0:0:0:
256,192,63911,1,0,0:0:0:0:
460,192,63911,128,0,64577:0:0:0:0:
51,192,64577,128,0,65244:0:0:0:0:
256,192,64577,1,0,0:0:0:0:
153,192,64577,1,0,0:0:0:0:
358,192,65244,1,0,0:0:0:0:
153,192,65244,1,0,0:0:0:0:
460,192,65244,1,0,0:0:0:0:
358,192,65411,1,0,0:0:0:0:
153,192,65411,1,0,0:0:0:0:
256,192,65577,1,0,0:0:0:0:
51,192,65577,1,0,0:0:0:0:
358,192,65744,1,0,0:0:0:0:
51,192,65744,1,0,0:0:0:0:
256,192,65911,1,0,0:0:0:0:
153,192,65911,1,0,0:0:0:0:
358,192,66077,1,0,0:0:0:0:
51,192,66077,1,0,0:0:0:0:
256,192,66244,1,0,0:0:0:0:
256,192,66411,1,0,0:0:0:0:
51,192,66411,1,0,0:0:0:0:
460,192,66577,1,0,0:0:0:0:
153,192,66577,1,0,0:0:0:0:
358,192,66577,1,0,0:0:0:0:
460,192,66744,1,0,0:0:0:0:
153,192,66744,1,0,0:0:0:0:
256,192,66911,1,0,0:0:0:0:
51,192,66911,1,0,0:0:0:0:
358,192,67077,1,0,0:0:0:0:
51,192,67077,1,0,0:0:0:0:
460,192,67244,128,0,67577:0:0:0:0:
153,192,67244,1,0,0:0:0:0:
256,192,67244,1,0,0:0:0:0:
358,192,67577,1,0,0:0:0:0:
51,192,67577,1,0,0:0:0:0:
358,192,67744,1,0,0:0:0:0:
51,192,67744,1,0,0:0:0:0:
460,192,67911,1,0,0:0:0:0:
153,192,67911,1,0,0:0:0:0:
256,192,67911,1,0,0:0:0:0:
460,192,68077,1,0,0:0:0:0:
153,192,68077,1,0,0:0:0:0:
256,192,68244,1,0,0:0:0:0:
51,192,68244,1,0,0:0:0:0:
460,192,68411,1,0,0:0:0:0:
51,192,68411,1,0,0:0:0:0:
256,192,68577,1,0,0:0:0:0:
153,192,68577,1,0,0:0:0:0:
460,192,68744,1,0,0:0:0:0:
51,192,68744,1,0,0:0:0:0:
256,192,68911,1,0,0:0:0:0:
256,192,69077,1,0,0:0:0:0:
51,192,69077,1,0,0:0:0:0:
358,192,69244,1,0,0:0:0:0:
153,192,69244,1,0,0:0:0:0:
460,192,69244,1,0,0:0:0:0:
460,192,69411,128,0,69911:0:0:0:0:
153,192,69411,1,0,0:0:0:0:
153,192,69744,1,0,0:0:0:0:
256,192,69911,1,0,0:0:0:0:
358,192,69911,1,0,0:0:0:0:
51,192,69911,1,0,0:0:0:0:
358,192,70077,128,0,70411:0:0:0:0:
51,192,70077,1,0,0:0:0:0:
256,192,70244,1,0,0:0:0:0:
256,192,70411,1,0,0:0:0:0:
358,192,70577,1,0,0:0:0:0:
153,192,70577,1,0,0:0:0:0:
51,192,70577,1,0,0:0:0:0:
153,192,70744,1,0,0:0:0:0:
358,192,70744,1,0,0:0:0:0:
256,192,70911,1,0,0:0:0:0:
460,192,70911,1,0,0:0:0:0:
153,192,71077,1,0,0:0:0:0:
460,192,71077,1,0,0:0:0:0:
256,192,71244,1,0,0:0:0:0:
358,192,71244,1,0,0:0:0:0:
153,192,71411,1,0,0:0:0:0:
460,192,71411,1,0,0:0:0:0:
256,192,71577,1,0,0:0:0:0:
256,192,71744,1,0,0:0:0:0:
460,192,71744,1,0,0:0:0:0:
51,192,71911,1,0,0:0:0:0:
358,192,71911,1,0,0:0:0:0:
153,192,71911,1,0,0:0:0:0:
51,192,72077,1,0,0:0:0:0:
358,192,72077,1,0,0:0:0:0:
256,192,72244,1,0,0:0:0:0:
460,192,72244,1,0,0:0:0:0:
153,192,72411,1,0,0:0:0:0:
460,192,72411,1,0,0:0:0:0:
51,192,72577,128,0,72911:0:0:0:0:
358,192,72577,1,0,0:0:0:0:
256,192,72577,1,0,0:0:0:0:
153,192,72911,1,0,0:0:0:0:
460,192,72911,1,0,0:0:0:0:
153,192,73077,1,0,0:0:0:0:
460,192,73077,1,0,0:0:0:0:
51,192,73244,1,0,0:0:0:0:
358,192,73244,1,0,0:0:0:0:
256,192,73244,1,0,0:0:0:0:
51,192,73411,1,0,0:0:0:0:
358,192,73411,1,0,0:0:0:0:
256,192,73577,1,0,0:0:0:0:
460,192,73577,1,0,0:0:0:0:
51,192,73744,1,0,0:0:0:0:
460,192,73744,1,0,0:0:0:0:
256,192,73911,1,0,0:0:0:0:
358,192,73911,1,0,0:0:0:0:
51,192,74077,1,0,0:0:0:0:
460,192,74077,1,0,0:0:0:0:
256,192,74244,1,0,0:0:0:0:
256,192,74411,1,0,0:0:0:0:
460,192,74411,1,0,0:0:0:0:
153,192,74577,1,0,0:0:0:0:
358,192,74577,1,0,0:0:0:0:
51,192,74577,1,0,0:0:0:0:
51,192,74744,128,0,75244:0:0:0:0:
358,192,74744,1,0,0:0:0:0:
256,192,74911,1,0,0:0:0:0:
256,192,75077,1,0,0:0:0:0:
153,192,75244,1,0,0:0:0:0:
460,192,75244,1,0,0:0:0:0:
358,192,75244,1,0,0:0:0:0:
460,192,75411,1,0,0:0:0:0:
153,192,75411,128,0,75744:0:0:0:0:
358,192,75577,1,0,0:0:0:0:
358,192,75744,1,0,0:0:0:0:
460,192,75911,1,0,0:0:0:0:
256,192,75911,1,0,0:0:0:0:
51,192,75911,1,0,0:0:0:0:
460,192,76077,128,0,76244:0:0:0:0:
51,192,76077,1,0,0:0:0:0:
358,192,76244,128,0,76411:0:0:0:0:
153,192,76244,1,0,0:0:0:0:
460,192,76411,128,0,76577:0:0:0:0:
153,192,76411,1,0,0:0:0:0:
358,192,76577,128,0,76744:0:0:0:0:
51,192,76577,1,0,0:0:0:0:
460,192,76744,128,0,76911:0:0:0:0:
153,192,76744,1,0,0:0:0:0:
358,192,76911,1,0,0:0:0:0:
358,192,77077,128,0,77244:0:0:0:0:
51,192,77077,1,0,0:0:0:0:
460,192,77244,128,0,77411:0:0:0:0:
153,192,77244,1,0,0:0:0:0:
51,192,77244,1,0,0:0:0:0:
358,192,77411,128,0,77577:0:0:0:0:
153,192,77411,1,0,0:0:0:0:
256,192,77577,128,0,77744:0:0:0:0:
51,192,77577,1,0,0:0:0:0:
358,192,77744,128,0,77911:0:0:0:0:
51,192,77744,1,0,0:0:0:0:
460,192,77911,128,0,78244:0:0:0:0:
153,192,77911,1,0,0:0:0:0:
256,192,77911,1,0,0:0:0:0:
358,192,78244,1,0,0:0:0:0:
153,192,78244,1,0,0:0:0:0:
358,192,78411,128,0,78577:0:0:0:0:
153,192,78411,1,0,0:0:0:0:
51,192,78577,1,0,0:0:0:0:
256,192,78577,1,0,0:0:0:0:
460,192,78577,1,0,0:0:0:0:
51,192,78744,128,0,78911:0:0:0:0:
460,192,78744,1,0,0:0:0:0:
153,192,78911,128,0,79077:0:0:0:0:
358,192,78911,1,0,0:0:0:0:
51,192,79077,128,0,79244:0:0:0:0:
358,192,79077,1,0,0:0:0:0:
153,192,79244,128,0,79411:0:0:0:0:
460,192,79244,1,0,0:0:0:0:
51,192,79411,128,0,79577:0:0:0:0:
358,192,79411,1,0,0:0:0:0:
153,192,79577,1,0,0:0:0:0:
153,192,79744,128,0,79911:0:0:0:0:
460,192,79744,1,0,0:0:0:0:
256,192,79911,128,0,80077:0:0:0:0:
460,192,79911,1,0,0:0:0:0:
51,192,79911,1,0,0:0:0:0:
51,192,80077,128,0,80577:0:0:0:0:
358,192,80077,1,0,0:0:0:0:
256,192,80411,1,0,0:0:0:0:
256,192,80577,128,0,80744:0:0:0:0:
460,192,80577,1,0,0:0:0:0:
358,192,80577,1,0,0:0:0:0:
153,192,80744,128,0,81077:0:0:0:0:
460,192,80744,1,0,0:0:0:0:
358,192,80911,1,0,0:0:0:0:
358,192,81077,1,0,0:0:0:0:
256,192,81244,1,0,0:0:0:0:
51,192,81244,1,0,0:0:0:0:
460,192,81244,1,0,0:0:0:0:
51,192,81411,1,0,0:0:0:0:
256,192,81411,128,0,81577:0:0:0:0:
358,192,81577,1,0,0:0:0:0:
153,192,81577,128,0,81744:0:0:0:0:
358,192,81744,1,0,0:0:0:0:
51,192,81744,128,0,81911:0:0:0:0:
256,192,81911,128,0,82077:0:0:0:0:
460,192,81911,1,0,0:0:0:0:
358,192,82077,128,0,82244:0:0:0:0:
153,192,82077,1,0,0:0:0:0:
460,192,82244,1,0,0:0:0:0:
460,192,82411,128,0,82577:0:0:0:0:
256,192,82411,1,0,0:0:0:0:
51,192,82577,128,0,82744:0:0:0:0:
358,192,82577,1,0,0:0:0:0:
256,192,82577,1,0,0:0:0:0:
153,192,82744,128,0,82911:0:0:0:0:
358,192,82744,1,0,0:0:0:0:
256,192,82911,128,0,83077:0:0:0:0:
460,192,82911,1,0,0:0:0:0:
153,192,83077,128,0,83244:0:0:0:0:
460,192,83077,1,0,0:0:0:0:
51,192,83244,128,0,83577:0:0:0:0:
358,192,83244,1,0,0:0:0:0:
256,192,83244,1,0,0:0:0:0:
153,192,83577,1,0,0:0:0:0:
358,192,83577,1,0,0:0:0:0:
358,192,83744,1,0,0:0:0:0:
153,192,83744,1,0,0:0:0:0:
256,192,83911,5,0,0:0:0:0:
51,192,83911,1,0,0:0:0:0:
460,192,83911,1,0,0:0:0:0:
358,192,84077,1,0,0:0:0:0:
256,192,84077,1,0,0:0:0:0:
51,192,84244,1,0,0:0:0:0:
460,192,84244,1,0,0:0:0:0:
153,192,84411,1,0,0:0:0:0:
460,192,84411,1,0,0:0:0:0:
256,192,84411,1,0,0:0:0:0:
51,192,84744,1,0,0:0:0:0:
358,192,84744,1,0,0:0:0:0:
153,192,84744,1,0,0:0:0:0:
51,192,85077,5,0,0:0:0:0:
460,192,85077,1,0,0:0:0:0:
256,192,85077,1,0,0:0:0:0:
51,192,85244,1,0,0:0:0:0:
256,192,85244,1,0,0:0:0:0:
460,192,85244,1,0,0:0:0:0:
153,192,85411,1,0,0:0:0:0:
358,192,85411,1,0,0:0:0:0:
256,192,85577,1,0,0:0:0:0:
51,192,85577,1,0,0:0:0:0:
460,192,85577,1,0,0:0:0:0:
358,192,85744,1,0,0:0:0:0:
153,192,85744,1,0,0:0:0:0:
256,192,85911,1,0,0:0:0:0:
51,192,85911,1,0,0:0:0:0:
460,192,85911,1,0,0:0:0:0:
153,192,86077,1,0,0:0:0:0:
358,192,86077,1,0,0:0:0:0:
460,192,86161,1,0,0:0:0:0:
256,192,86244,1,0,0:0:0:0:
51,192,86244,1,0,0:0:0:0:
358,192,86327,1,0,0:0:0:0:
460,192,86411,1,0,0:0:0:0:
153,192,86411,128,0,86744:0:0:0:0:
51,192,86411,128,0,86744:0:0:0:0:
460,192,86744,1,0,0:0:0:0:
256,192,86744,1,0,0:0:0:0:
153,192,86911,1,0,0:0:0:0:
51,192,86911,1,0,0:0:0:0:
256,192,87077,1,0,0:0:0:0:
460,192,87077,1,0,0:0:0:0:
358,192,87244,1,0,0:0:0:0:
153,192,87244,1,0,0:0:0:0:
51,192,87411,1,0,0:0:0:0:
256,192,87411,1,0,0:0:0:0:
358,192,87577,1,0,0:0:0:0:
460,192,87577,1,0,0:0:0:0:
256,192,87744,1,0,0:0:0:0:
51,192,87744,1,0,0:0:0:0:
153,192,87911,1,0,0:0:0:0:
358,192,87911,1,0,0:0:0:0:
256,192,88077,1,0,0:0:0:0:
460,192,88077,1,0,0:0:0:0:
153,192,88244,1,0,0:0:0:0:
51,192,88244,1,0,0:0:0:0:
256,192,88411,1,0,0:0:0:0:
460,192,88411,1,0,0:0:0:0:
358,192,88577,1,0,0:0:0:0:
153,192,88577,1,0,0:0:0:0:
256,192,88744,1,0,0:0:0:0:
51,192,88744,1,0,0:0:0:0:
358,192,88911,1,0,0:0:0:0:
460,192,88911,1,0,0:0:0:0:
358,192,89077,128,0,89411:0:0:0:0:
460,192,89077,128,0,89411:0:0:0:0:
153,192,89077,1,0,0:0:0:0:
153,192,89411,1,0,0:0:0:0:
51,192,89411,1,0,0:0:0:0:
256,192,89577,1,0,0:0:0:0:
460,192,89577,1,0,0:0:0:0:
358,192,89744,1,0,0:0:0:0:
51,192,89744,1,0,0:0:0:0:
256,192,89911,1,0,0:0:0:0:
153,192,89911,1,0,0:0:0:0:
358,192,90077,1,0,0:0:0:0:
460,192,90077,1,0,0:0:0:0:
51,192,90244,1,0,0:0:0:0:
256,192,90244,1,0,0:0:0:0:
460,192,90411,1,0,0:0:0:0:
153,192,90411,1,0,0:0:0:0:
256,192,90577,1,0,0:0:0:0:
358,192,90577,1,0,0:0:0:0:
153,192,90744,1,0,0:0:0:0:
51,192,90744,1,0,0:0:0:0:
460,192,90911,1,0,0:0:0:0:
256,192,90911,1,0,0:0:0:0:
358,192,91077,1,0,0:0:0:0:
51,192,91077,1,0,0:0:0:0:
153,192,91244,1,0,0:0:0:0:
256,192,91244,1,0,0:0:0:0:
358,192,91411,1,0,0:0:0:0:
460,192,91411,1,0,0:0:0:0:
256,192,91577,1,0,0:0:0:0:
51,192,91577,1,0,0:0:0:0:
256,192,91744,128,0,92077:0:0:0:0:
51,192,91744,128,0,92077:0:0:0:0:
460,192,91744,1,0,0:0:0:0:
153,192,92077,1,0,0:0:0:0:
460,192,92077,1,0,0:0:0:0:
256,192,92244,1,0,0:0:0:0:
51,192,92244,1,0,0:0:0:0:
358,192,92411,1,0,0:0:0:0:
460,192,92411,1,0,0:0:0:0:
256,192,92577,1,0,0:0:0:0:
153,192,92577,1,0,0:0:0:0:
358,192,92744,1,0,0:0:0:0:
51,192,92744,1,0,0:0:0:0:
256,192,92911,1,0,0:0:0:0:
460,192,92911,1,0,0:0:0:0:
51,192,93077,1,0,0:0:0:0:
153,192,93077,1,0,0:0:0:0:
358,192,93244,1,0,0:0:0:0:
256,192,93244,1,0,0:0:0:0:
153,192,93411,1,0,0:0:0:0:
460,192,93411,1,0,0:0:0:0:
256,192,93577,1,0,0:0:0:0:
51,192,93577,1,0,0:0:0:0:
358,192,93744,1,0,0:0:0:0:
460,192,93744,1,0,0:0:0:0:
256,192,93911,1,0,0:0:0:0:
153,192,93911,1,0,0:0:0:0:
358,192,94077,1,0,0:0:0:0:
51,192,94077,1,0,0:0:0:0:
256,192,94244,1,0,0:0:0:0:
460,192,94244,1,0,0:0:0:0:
256,192,94411,128,0,94744:0:0:0:0:
460,192,94411,128,0,94744:0:0:0:0:
153,192,94411,1,0,0:0:0:0:
358,192,94744,1,0,0:0:0:0:
153,192,94744,1,0,0:0:0:0:
256,192,94911,1,0,0:0:0:0:
51,192,94911,1,0,0:0:0:0:
256,192,95077,1,0,0:0:0:0:
51,192,95077,1,0,0:0:0:0:
358,192,95244,1,0,0:0:0:0:
153,192,95244,1,0,0:0:0:0:
153,192,95411,1,0,0:0:0:0:
358,192,95411,1,0,0:0:0:0:
460,192,95577,1,0,0:0:0:0:
256,192,95577,1,0,0:0:0:0:
256,192,95744,1,0,0:0:0:0:
460,192,95744,1,0,0:0:0:0:
358,192,95911,1,0,0:0:0:0:
153,192,95911,1,0,0:0:0:0:
51,192,95911,1,0,0:0:0:0:
358,192,96244,1,0,0:0:0:0:
256,192,96577,1,0,0:0:0:0:
153,192,96911,128,0,97244:0:0:0:0:
460,192,97244,1,0,0:0:0:0:
51,192,97244,1,0,0:0:0:0:
256,192,97244,1,0,0:0:0:0:
460,192,97411,128,0,97577:0:0:0:0:
51,192,97411,128,0,97577:0:0:0:0:
256,192,97577,1,0,0:0:0:0:
153,192,97577,1,0,0:0:0:0:
256,192,97744,128,0,97911:0:0:0:0:
153,192,97744,128,0,97911:0:0:0:0:
358,192,97911,1,0,0:0:0:0:
460,192,97911,1,0,0:0:0:0:
358,192,98077,128,0,98244:0:0:0:0:
460,192,98077,128,0,98244:0:0:0:0:
153,192,98244,1,0,0:0:0:0:
51,192,98244,1,0,0:0:0:0:
153,192,98411,128,0,98577:0:0:0:0:
51,192,98411,128,0,98577:0:0:0:0:
256,192,98577,1,0,0:0:0:0:
460,192,98577,1,0,0:0:0:0:
256,192,98744,128,0,98911:0:0:0:0:
460,192,98744,128,0,98911:0:0:0:0:
51,192,98911,1,0,0:0:0:0:
358,192,98911,1,0,0:0:0:0:
51,192,99077,128,0,99244:0:0:0:0:
358,192,99077,128,0,99244:0:0:0:0:
460,192,99244,1,0,0:0:0:0:
256,192,99244,1,0,0:0:0:0:
460,192,99411,128,0,99577:0:0:0:0:
256,192,99411,128,0,99577:0:0:0:0:
153,192,99577,1,0,0:0:0:0:
358,192,99577,1,0,0:0:0:0:
153,192,99744,128,0,99911:0:0:0:0:
358,192,99744,128,0,99911:0:0:0:0:
51,192,99911,1,0,0:0:0:0:
256,192,99911,1,0,0:0:0:0:
460,192,99911,1,0,0:0:0:0:
51,192,100077,128,0,100244:0:0:0:0:
460,192,100077,128,0,100244:0:0:0:0:
358,192,100244,1,0,0:0:0:0:
256,192,100244,1,0,0:0:0:0:
256,192,100411,128,0,100577:0:0:0:0:
358,192,100411,128,0,100577:0:0:0:0:
153,192,100577,1,0,0:0:0:0:
51,192,100577,1,0,0:0:0:0:
153,192,100744,128,0,100911:0:0:0:0:
51,192,100744,128,0,100911:0:0:0:0:
460,192,100911,1,0,0:0:0:0:
358,192,100911,1,0,0:0:0:0:
358,192,101077,128,0,101244:0:0:0:0:
460,192,101077,128,0,101244:0:0:0:0:
256,192,101244,1,0,0:0:0:0:
51,192,101244,1,0,0:0:0:0:
256,192,101411,128,0,101577:0:0:0:0:
51,192,101411,128,0,101577:0:0:0:0:
153,192,101577,1,0,0:0:0:0:
460,192,101577,1,0,0:0:0:0:
460,192,101744,128,0,101911:0:0:0:0:
153,192,101744,128,0,101911:0:0:0:0:
51,192,101911,1,0,0:0:0:0:
256,192,101911,1,0,0:0:0:0:
51,192,102077,128,0,102244:0:0:0:0:
256,192,102077,128,0,102244:0:0:0:0:
358,192,102244,1,0,0:0:0:0:
153,192,102244,1,0,0:0:0:0:
358,192,102411,128,0,102577:0:0:0:0:
153,192,102411,128,0,102577:0:0:0:0:
460,192,102577,1,0,0:0:0:0:
256,192,102577,1,0,0:0:0:0:
51,192,102577,1,0,0:0:0:0:
460,192,102744,128,0,102911:0:0:0:0:
256,192,102744,128,0,102911:0:0:0:0:
358,192,102911,1,0,0:0:0:0:
153,192,102911,1,0,0:0:0:0:
358,192,103077,128,0,103244:0:0:0:0:
153,192,103077,128,0,103244:0:0:0:0:
256,192,103244,1,0,0:0:0:0:
51,192,103244,1,0,0:0:0:0:
256,192,103411,128,0,103577:0:0:0:0:
51,192,103411,128,0,103577:0:0:0:0:
153,192,103577,1,0,0:0:0:0:
460,192,103577,1,0,0:0:0:0:
153,192,103744,128,0,103911:0:0:0:0:
460,192,103744,128,0,103911:0:0:0:0:
256,192,103911,1,0,0:0:0:0:
51,192,103911,1,0,0:0:0:0:
51,192,104077,128,0,104244:0:0:0:0:
256,192,104077,128,0,104244:0:0:0:0:
358,192,104244,1,0,0:0:0:0:
153,192,104244,1,0,0:0:0:0:
153,192,104411,128,0,104577:0:0:0:0:
358,192,104411,128,0,104577:0:0:0:0:
256,192,104577,1,0,0:0:0:0:
460,192,104577,1,0,0:0:0:0:
256,192,104744,128,0,104911:0:0:0:0:
460,192,104744,128,0,104911:0:0:0:0:
358,192,104911,1,0,0:0:0:0:
153,192,104911,1,0,0:0:0:0:
358,192,105077,128,0,105244:0:0:0:0:
153,192,105077,128,0,105244:0:0:0:0:
51,192,105244,1,0,0:0:0:0:
256,192,105244,1,0,0:0:0:0:
460,192,105244,1,0,0:0:0:0:
51,192,105411,1,0,0:0:0:0:
358,192,105411,1,0,0:0:0:0:
51,192,105577,1,0,0:0:0:0:
256,192,105577,1,0,0:0:0:0:
51,192,105744,1,0,0:0:0:0:
153,192,105744,1,0,0:0:0:0:
460,192,105911,1,0,0:0:0:0:
358,192,105911,1,0,0:0:0:0:
358,192,106077,1,0,0:0:0:0:
460,192,106077,1,0,0:0:0:0:
256,192,106244,1,0,0:0:0:0:
153,192,106244,1,0,0:0:0:0:
153,192,106411,1,0,0:0:0:0:
256,192,106411,1,0,0:0:0:0:
51,192,106577,1,0,0:0:0:0:
460,192,106577,1,0,0:0:0:0:
153,192,106744,1,0,0:0:0:0:
460,192,106744,1,0,0:0:0:0:
460,192,106911,1,0,0:0:0:0:
256,192,106911,1,0,0:0:0:0:
358,192,107077,1,0,0:0:0:0:
460,192,107077,1,0,0:0:0:0:
153,192,107244,1,0,0:0:0:0:
51,192,107244,1,0,0:0:0:0:
51,192,107411,1,0,0:0:0:0:
153,192,107411,1,0,0:0:0:0:
256,192,107577,1,0,0:0:0:0:
358,192,107577,1,0,0:0:0:0:
256,192,107744,1,0,0:0:0:0:
358,192,107744,1,0,0:0:0:0:
51,192,107911,1,0,0:0:0:0:
460,192,107911,1,0,0:0:0:0:
358,192,107911,1,0,0:0:0:0:
51,192,108077,1,0,0:0:0:0:
460,192,108077,1,0,0:0:0:0:
256,192,108244,1,0,0:0:0:0:
51,192,108411,1,0,0:0:0:0:
460,192,108411,1,0,0:0:0:0:
358,192,108577,1,0,0:0:0:0:
153,192,108577,1,0,0:0:0:0:
153,192,108744,1,0,0:0:0:0:
358,192,108744,1,0,0:0:0:0:
256,192,108911,1,0,0:0:0:0:
358,192,109077,1,0,0:0:0:0:
153,192,109077,1,0,0:0:0:0:
460,192,109244,1,0,0:0:0:0:
51,192,109244,1,0,0:0:0:0:
51,192,109411,1,0,0:0:0:0:
460,192,109411,1,0,0:0:0:0:
256,192,109577,1,0,0:0:0:0:
153,192,109744,1,0,0:0:0:0:
51,192,109744,1,0,0:0:0:0:
358,192,109827,1,0,0:0:0:0:
460,192,109827,1,0,0:0:0:0:
51,192,109911,1,0,0:0:0:0:
153,192,109911,1,0,0:0:0:0:
256,192,110077,1,0,0:0:0:0:
153,192,110077,1,0,0:0:0:0:
358,192,110244,1,0,0:0:0:0:
256,192,110244,1,0,0:0:0:0:
358,192,110411,1,0,0:0:0:0:
460,192,110411,1,0,0:0:0:0:
460,192,110577,1,0,0:0:0:0:
256,192,110577,1,0,0:0:0:0:
51,192,110577,128,0,113244:0:0:0:0:
460,192,113244,128,0,115911:0:0:0:0:
153,192,115911,128,0,118577:0:0:0:0:
358,192,118577,128,0,119911:0:0:0:0:
256,192,119911,128,0,121244:0:0:0:0:
358,192,121244,1,0,0:0:0:0:
51,192,121244,1,0,0:0:0:0:
153,192,121244,1,0,0:0:0:0:
460,192,121327,1,0,0:0:0:0:
256,192,121411,1,0,0:0:0:0:
358,192,121494,1,0,0:0:0:0:
153,192,121577,1,0,0:0:0:0:
256,192,121661,1,0,0:0:0:0:
460,192,121744,1,0,0:0:0:0:
51,192,121827,1,0,0:0:0:0:
153,192,121911,1,0,0:0:0:0:
358,192,121994,1,0,0:0:0:0:
460,192,122077,1,0,0:0:0:0:
51,192,122161,1,0,0:0:0:0:
256,192,122244,1,0,0:0:0:0:
358,192,122327,1,0,0:0:0:0:
460,192,122411,1,0,0:0:0:0:
153,192,122494,1,0,0:0:0:0:
256,192,122577,1,0,0:0:0:0:
51,192,122661,1,0,0:0:0:0:
358,192,122744,1,0,0:0:0:0:
153,192,122827,1,0,0:0:0:0:
460,192,122911,1,0,0:0:0:0:
256,192,122994,1,0,0:0:0:0:
153,192,123077,1,0,0:0:0:0:
358,192,123161,1,0,0:0:0:0:
256,192,123244,1,0,0:0:0:0:
51,192,123327,1,0,0:0:0:0:
460,192,123411,1,0,0:0:0:0:
358,192,123494,1,0,0:0:0:0:
153,192,123577,1,0,0:0:0:0:
51,192,123661,1,0,0:0:0:0:
460,192,123744,1,0,0:0:0:0:
256,192,123827,1,0,0:0:0:0:
153,192,123911,1,0,0:0:0:0:
51,192,123911,1,0,0:0:0:0:
358,192,123994,1,0,0:0:0:0:
460,192,124077,1,0,0:0:0:0:
51,192,124161,1,0,0:0:0:0:
256,192,124244,1,0,0:0:0:0:
358,192,124327,1,0,0:0:0:0:
460,192,124411,1,0,0:0:0:0:
153,192,124494,1,0,0:0:0:0:
256,192,124577,1,0,0:0:0:0:
358,192,124661,1,0,0:0:0:0:
51,192,124744,1,0,0:0:0:0:
153,192,124827,1,0,0:0:0:0:
256,192,124911,1,0,0:0:0:0:
460,192,124994,1,0,0:0:0:0:
153,192,125077,1,0,0:0:0:0:
358,192,125161,1,0,0:0:0:0:
256,192,125244,1,0,0:0:0:0:
51,192,125327,1,0,0:0:0:0:
358,192,125411,1,0,0:0:0:0:
153,192,125494,1,0,0:0:0:0:
460,192,125577,1,0,0:0:0:0:
256,192,125661,1,0,0:0:0:0:
51,192,125744,1,0,0:0:0:0:
358,192,125827,1,0,0:0:0:0:
153,192,125911,1,0,0:0:0:0:
460,192,125994,1,0,0:0:0:0:
256,192,126077,1,0,0:0:0:0:
51,192,126161,1,0,0:0:0:0:
460,192,126244,1,0,0:0:0:0:
358,192,126327,1,0,0:0:0:0:
256,192,126411,1,0,0:0:0:0:
153,192,126494,1,0,0:0:0:0:
51,192,126577,1,0,0:0:0:0:
358,192,126577,1,0,0:0:0:0:
460,192,126661,1,0,0:0:0:0:
256,192,126744,1,0,0:0:0:0:
358,192,126827,1,0,0:0:0:0:
153,192,126911,1,0,0:0:0:0:
256,192,126994,1,0,0:0:0:0:
51,192,127077,1,0,0:0:0:0:
153,192,127161,1,0,0:0:0:0:
358,192,127244,1,0,0:0:0:0:
256,192,127327,1,0,0:0:0:0:
460,192,127411,1,0,0:0:0:0:
153,192,127494,1,0,0:0:0:0:
358,192,127577,1,0,0:0:0:0:
51,192,127661,1,0,0:0:0:0:
256,192,127744,1,0,0:0:0:0:
460,192,127827,1,0,0:0:0:0:
358,192,127911,1,0,0:0:0:0:
153,192,127911,1,0,0:0:0:0:
51,192,127994,1,0,0:0:0:0:
256,192,128077,1,0,0:0:0:0:
153,192,128161,1,0,0:0:0:0:
358,192,128244,1,0,0:0:0:0:
256,192,128327,1,0,0:0:0:0:
460,192,128411,1,0,0:0:0:0:
358,192,128494,1,0,0:0:0:0:
153,192,128577,1,0,0:0:0:0:
256,192,128661,1,0,0:0:0:0:
51,192,128744,1,0,0:0:0:0:
358,192,128827,1,0,0:0:0:0:
153,192,128911,1,0,0:0:0:0:
460,192,128994,1,0,0:0:0:0:
256,192,129077,1,0,0:0:0:0:
51,192,129161,1,0,0:0:0:0:
153,192,129244,1,0,0:0:0:0:
358,192,129244,1,0,0:0:0:0:
460,192,129327,1,0,0:0:0:0:
256,192,129411,1,0,0:0:0:0:
358,192,129494,1,0,0:0:0:0:
153,192,129577,1,0,0:0:0:0:
256,192,129661,1,0,0:0:0:0:
460,192,129744,1,0,0:0:0:0:
51,192,129827,1,0,0:0:0:0:
153,192,129911,1,0,0:0:0:0:
358,192,129994,1,0,0:0:0:0:
460,192,130077,1,0,0:0:0:0:
51,192,130161,1,0,0:0:0:0:
256,192,130244,1,0,0:0:0:0:
358,192,130327,1,0,0:0:0:0:
460,192,130411,1,0,0:0:0:0:
51,192,130494,1,0,0:0:0:0:
358,192,130577,1,0,0:0:0:0:
256,192,130577,1,0,0:0:0:0:
153,192,130661,1,0,0:0:0:0:
51,192,130744,1,0,0:0:0:0:
358,192,130827,1,0,0:0:0:0:
256,192,130911,1,0,0:0:0:0:
153,192,130994,1,0,0:0:0:0:
460,192,131077,1,0,0:0:0:0:
358,192,131161,1,0,0:0:0:0:
256,192,131244,1,0,0:0:0:0:
51,192,131244,1,0,0:0:0:0:
358,192,131327,1,0,0:0:0:0:
460,192,131411,1,0,0:0:0:0:
153,192,131411,1,0,0:0:0:0:
256,192,131494,1,0,0:0:0:0:
358,192,131577,1,0,0:0:0:0:
51,192,131577,1,0,0:0:0:0:
153,192,131661,1,0,0:0:0:0:
256,192,131744,1,0,0:0:0:0:
460,192,131744,1,0,0:0:0:0:
51,192,131827,1,0,0:0:0:0:
153,192,131911,1,0,0:0:0:0:
358,192,131911,1,0,0:0:0:0:
460,192,131911,128,0,134411:0:0:0:0:
153,192,132577,1,0,0:0:0:0:
256,192,132744,1,0,0:0:0:0:
256,192,132911,1,0,0:0:0:0:
256,192,133077,1,0,0:0:0:0:
358,192,133244,128,0,134411:0:0:0:0:
153,192,133244,1,0,0:0:0:0:
51,192,133244,1,0,0:0:0:0:
51,192,133911,1,0,0:0:0:0:
153,192,134077,1,0,0:0:0:0:
153,192,134244,1,0,0:0:0:0:
153,192,134411,1,0,0:0:0:0:
51,192,134577,128,0,137077:0:0:0:0:
256,192,134577,1,0,0:0:0:0:
460,192,134577,1,0,0:0:0:0:
358,192,135244,1,0,0:0:0:0:
256,192,135411,1,0,0:0:0:0:
256,192,135577,1,0,0:0:0:0:
256,192,135744,1,0,0:0:0:0:
153,192,135911,128,0,137077:0:0:0:0:
358,192,135911,1,0,0:0:0:0:
460,192,135911,1,0,0:0:0:0:
460,192,136577,1,0,0:0:0:0:
358,192,136744,1,0,0:0:0:0:
358,192,136911,1,0,0:0:0:0:
358,192,137077,1,0,0:0:0:0:
460,192,137244,128,0,139744:0:0:0:0:
51,192,137244,1,0,0:0:0:0:
256,192,137244,1,0,0:0:0:0:
256,192,137911,1,0,0:0:0:0:
153,192,138077,1,0,0:0:0:0:
153,192,138244,1,0,0:0:0:0:
153,192,138411,1,0,0:0:0:0:
51,192,138577,128,0,139744:0:0:0:0:
256,192,138577,1,0,0:0:0:0:
358,192,138577,1,0,0:0:0:0:
256,192,139244,1,0,0:0:0:0:
358,192,139411,1,0,0:0:0:0:
358,192,139577,1,0,0:0:0:0:
358,192,139744,1,0,0:0:0:0:
153,192,139911,128,0,140077:0:0:0:0:
51,192,139911,128,0,140077:0:0:0:0:
460,192,139911,128,0,140077:0:0:0:0:
358,192,140077,1,0,0:0:0:0:
358,192,140244,128,0,140411:0:0:0:0:
460,192,140244,128,0,140411:0:0:0:0:
51,192,140244,128,0,140411:0:0:0:0:
153,192,140411,1,0,0:0:0:0:
256,192,140577,128,0,140744:0:0:0:0:
51,192,140577,128,0,140744:0:0:0:0:
153,192,140577,128,0,140744:0:0:0:0:
460,192,140744,1,0,0:0:0:0:
256,192,140911,128,0,141077:0:0:0:0:
460,192,140911,128,0,141077:0:0:0:0:
358,192,140911,128,0,141077:0:0:0:0:
51,192,141077,1,0,0:0:0:0:
51,192,141244,1,0,0:0:0:0:
153,192,141244,1,0,0:0:0:0:
358,192,141244,1,0,0:0:0:0:
358,192,141411,1,0,0:0:0:0:
153,192,141411,1,0,0:0:0:0:
256,192,141577,1,0,0:0:0:0:
51,192,141577,1,0,0:0:0:0:
358,192,141744,1,0,0:0:0:0:
460,192,141744,1,0,0:0:0:0:
256,192,141827,1,0,0:0:0:0:
51,192,141911,1,0,0:0:0:0:
153,192,141994,1,0,0:0:0:0:
256,192,142077,1,0,0:0:0:0:
153,192,142161,1,0,0:0:0:0:
460,192,142244,1,0,0:0:0:0:
358,192,142327,1,0,0:0:0:0:
256,192,142411,1,0,0:0:0:0:
358,192,142494,1,0,0:0:0:0:
51,192,142577,1,0,0:0:0:0:
153,192,142577,1,0,0:0:0:0:
460,192,142577,1,0,0:0:0:0:
153,192,142744,1,0,0:0:0:0:
256,192,142744,1,0,0:0:0:0:
256,192,142911,1,0,0:0:0:0:
358,192,142911,1,0,0:0:0:0:
358,192,143077,1,0,0:0:0:0:
460,192,143077,1,0,0:0:0:0:
153,192,143244,1,0,0:0:0:0:
256,192,143244,1,0,0:0:0:0:
51,192,143244,1,0,0:0:0:0:
256,192,143411,1,0,0:0:0:0:
358,192,143411,1,0,0:0:0:0:
358,192,143577,1,0,0:0:0:0:
460,192,143577,1,0,0:0:0:0:
153,192,143744,1,0,0:0:0:0:
51,192,143744,1,0,0:0:0:0:
51,192,143911,1,0,0:0:0:0:
358,192,143911,1,0,0:0:0:0:
460,192,143911,1,0,0:0:0:0:
256,192,144077,1,0,0:0:0:0:
358,192,144077,1,0,0:0:0:0:
256,192,144244,1,0,0:0:0:0:
153,192,144244,1,0,0:0:0:0:
153,192,144411,1,0,0:0:0:0:
51,192,144411,1,0,0:0:0:0:
256,192,144577,1,0,0:0:0:0:
358,192,144577,1,0,0:0:0:0:
460,192,144577,1,0,0:0:0:0:
256,192,144744,1,0,0:0:0:0:
153,192,144744,1,0,0:0:0:0:
153,192,144911,1,0,0:0:0:0:
51,192,144911,1,0,0:0:0:0:
358,192,145077,1,0,0:0:0:0:
460,192,145077,1,0,0:0:0:0:
51,192,145244,1,0,0:0:0:0:
256,192,145244,1,0,0:0:0:0:
460,192,145244,1,0,0:0:0:0:
51,192,145411,1,0,0:0:0:0:
153,192,145411,1,0,0:0:0:0:
153,192,145577,1,0,0:0:0:0:
256,192,145577,1,0,0:0:0:0:
256,192,145744,1,0,0:0:0:0:
358,192,145744,1,0,0:0:0:0:
460,192,145911,1,0,0:0:0:0:
153,192,145911,1,0,0:0:0:0:
51,192,145911,1,0,0:0:0:0:
153,192,146077,1,0,0:0:0:0:
256,192,146077,1,0,0:0:0:0:
256,192,146244,1,0,0:0:0:0:
358,192,146244,1,0,0:0:0:0:
153,192,146411,1,0,0:0:0:0:
51,192,146411,1,0,0:0:0:0:
256,192,146577,1,0,0:0:0:0:
460,192,146577,1,0,0:0:0:0:
51,192,146577,1,0,0:0:0:0:
358,192,146744,1,0,0:0:0:0:
460,192,146744,1,0,0:0:0:0:
256,192,146911,1,0,0:0:0:0:
358,192,146911,1,0,0:0:0:0:
256,192,147077,1,0,0:0:0:0:
153,192,147077,1,0,0:0:0:0:
358,192,147244,1,0,0:0:0:0:
460,192,147244,1,0,0:0:0:0:
51,192,147244,1,0,0:0:0:0:
256,192,147411,1,0,0:0:0:0:
358,192,147411,1,0,0:0:0:0:
153,192,147577,1,0,0:0:0:0:
256,192,147577,1,0,0:0:0:0:
358,192,147744,1,0,0:0:0:0:
460,192,147744,1,0,0:0:0:0:
256,192,147911,128,0,148077:0:0:0:0:
153,192,147911,128,0,148077:0:0:0:0:
51,192,147911,128,0,148077:0:0:0:0:
358,192,148077,1,0,0:0:0:0:
460,192,148077,1,0,0:0:0:0:
358,192,148244,1,0,0:0:0:0:
460,192,148244,1,0,0:0:0:0:
358,192,148411,1,0,0:0:0:0:
460,192,148411,1,0,0:0:0:0:
358,192,148577,128,0,148744:0:0:0:0:
460,192,148577,128,0,148744:0:0:0:0:
51,192,148577,128,0,148744:0:0:0:0:
153,192,148744,1,0,0:0:0:0:
256,192,148744,1,0,0:0:0:0:
153,192,148911,1,0,0:0:0:0:
256,192,148911,1,0,0:0:0:0:
153,192,149077,1,0,0:0:0:0:
256,192,149077,1,0,0:0:0:0:
256,192,149244,128,0,149411:0:0:0:0:
153,192,149244,128,0,149411:0:0:0:0:
51,192,149244,128,0,149411:0:0:0:0:
358,192,149411,1,0,0:0:0:0:
460,192,149411,1,0,0:0:0:0:
358,192,149577,1,0,0:0:0:0:
460,192,149577,1,0,0:0:0:0:
358,192,149744,1,0,0:0:0:0:
460,192,149744,1,0,0:0:0:0:
256,192,149911,128,0,150077:0:0:0:0:
358,192,149911,128,0,150077:0:0:0:0:
460,192,149911,128,0,150077:0:0:0:0:
153,192,150077,1,0,0:0:0:0:
51,192,150077,1,0,0:0:0:0:
51,192,150244,1,0,0:0:0:0:
153,192,150244,1,0,0:0:0:0:
51,192,150411,1,0,0:0:0:0:
153,192,150411,1,0,0:0:0:0:
460,192,150577,128,0,150744:0:0:0:0:
153,192,150577,128,0,150744:0:0:0:0:
51,192,150577,128,0,150744:0:0:0:0:
256,192,150744,1,0,0:0:0:0:
358,192,150744,1,0,0:0:0:0:
256,192,150911,1,0,0:0:0:0:
358,192,150911,1,0,0:0:0:0:
256,192,151077,1,0,0:0:0:0:
358,192,151077,1,0,0:0:0:0:
256,192,151244,128,0,151411:0:0:0:0:
358,192,151244,128,0,151411:0:0:0:0:
460,192,151244,128,0,151411:0:0:0:0:
153,192,151411,1,0,0:0:0:0:
51,192,151411,1,0,0:0:0:0:
153,192,151577,1,0,0:0:0:0:
51,192,151577,1,0,0:0:0:0:
51,192,151744,1,0,0:0:0:0:
153,192,151744,1,0,0:0:0:0:
460,192,151911,1,0,0:0:0:0:
358,192,151911,1,0,0:0:0:0:
256,192,151911,1,0,0:0:0:0:
460,192,152077,1,0,0:0:0:0:
358,192,152077,1,0,0:0:0:0:
256,192,152077,1,0,0:0:0:0:
153,192,152244,1,0,0:0:0:0:
256,192,152244,1,0,0:0:0:0:
358,192,152244,1,0,0:0:0:0:
153,192,152411,1,0,0:0:0:0:
256,192,152411,1,0,0:0:0:0:
358,192,152411,1,0,0:0:0:0:
153,192,152577,1,0,0:0:0:0:
256,192,152577,1,0,0:0:0:0:
51,192,152577,1,0,0:0:0:0:
153,192,152744,1,0,0:0:0:0:
256,192,152744,1,0,0:0:0:0:
51,192,152744,1,0,0:0:0:0:
153,192,152911,1,0,0:0:0:0:
51,192,152911,1,0,0:0:0:0:
460,192,152911,1,0,0:0:0:0:
153,192,153077,1,0,0:0:0:0:
51,192,153077,1,0,0:0:0:0:
460,192,153077,1,0,0:0:0:0:
358,192,153244,1,0,0:0:0:0:
51,192,153244,128,0,155911:0:0:0:0:
460,192,153244,128,0,153911:0:0:0:0:
358,192,153911,128,0,154244:0:0:0:0:
256,192,154244,128,0,154411:0:0:0:0:
153,192,154411,128,0,155244:0:0:0:0:
256,192,155244,128,0,155577:0:0:0:0:
358,192,155577,128,0,155911:0:0:0:0:
460,192,155911,128,0,158577:0:0:0:0:
153,192,155911,128,0,156244:0:0:0:0:
256,192,156244,128,0,156411:0:0:0:0:
256,192,156577,128,0,156911:0:0:0:0:
153,192,156911,128,0,157077:0:0:0:0:
51,192,157077,128,0,157577:0:0:0:0:
358,192,157577,128,0,157911:0:0:0:0:
153,192,157911,128,0,158244:0:0:0:0:
358,192,158244,128,0,158577:0:0:0:0:
256,192,158577,128,0,158911:0:0:0:0:
51,192,158577,128,0,159911:0:0:0:0:
358,192,158911,128,0,159077:0:0:0:0:
460,192,159077,128,0,160577:0:0:0:0:
153,192,159911,128,0,161244:0:0:0:0:
358,192,160577,128,0,160911:0:0:0:0:
256,192,160911,128,0,161244:0:0:0:0:
460,192,161244,128,0,163911:0:0:0:0:
51,192,161244,128,0,161411:0:0:0:0:
51,192,161577,128,0,161911:0:0:0:0:
153,192,161911,128,0,162244:0:0:0:0:
256,192,162244,128,0,162577:0:0:0:0:
51,192,162577,128,0,162744:0:0:0:0:
51,192,162911,128,0,163244:0:0:0:0:
153,192,163244,128,0,163577:0:0:0:0:
358,192,163577,128,0,163911:0:0:0:0:
51,192,163911,128,0,164244:0:0:0:0:
256,192,163911,128,0,166577:0:0:0:0:
153,192,164244,128,0,164577:0:0:0:0:
460,192,164577,128,0,164911:0:0:0:0:
358,192,164911,128,0,165244:0:0:0:0:
51,192,165244,128,0,165744:0:0:0:0:
51,192,165911,128,0,166577:0:0:0:0:
358,192,166577,128,0,169244:0:0:0:0:
153,192,166577,128,0,169244:0:0:0:0:
