osu file format v14

[General]
AudioFilename: audio.mp3
AudioLeadIn: 0
PreviewTime: 95850
Countdown: 0
SampleSet: Normal
StackLeniency: 0.7
Mode: 1
LetterboxInBreaks: 0
WidescreenStoryboard: 1

[Editor]
DistanceSpacing: 1
BeatDivisor: 6
GridSize: 32
TimelineZoom: 3.2

[Metadata]
Title:Destination 2F29
TitleUnicode:Destination 2F29
Artist:12073
ArtistUnicode:井荷麻奈実
Creator:_gt
Version:4e7a527964444d3d
Source:太鼓の達人
Tags:hivie zth ini manami tart3f4 taiko all rounder tournament 3 grand finals gf nomod nm instrumental electronic taiko no tatsujin ナムコオリジナル namco original
BeatmapID:4116271
BeatmapSetID:1982154

[Difficulty]
HPDrainRate:6.4
CircleSize:5
OverallDifficulty:7.3
ApproachRate:5
SliderMultiplier:1.4
SliderTickRate:1

[Events]
//Background and Video events
0,0,"106760009_p0.jpg",0,0
//Break Periods
//Storyboard Layer 0 (Background)
//Storyboard Layer 1 (Fail)
//Storyboard Layer 2 (Pass)
//Storyboard Layer 3 (Foreground)
//Storyboard Layer 4 (Overlay)
//Storyboard Sound Samples

[TimingPoints]
618,248.488362461691,4,1,0,60,1,8
1611,-200,4,1,0,60,0,8
9553,-200,4,1,0,70,0,8
9563,-142.857142857143,4,1,0,70,0,8
16521,-142.857142857143,4,1,0,70,0,0
16645,-140.497162129469,4,1,0,70,0,0
16769,-138.17616796504,4,1,0,70,0,0
16893,-135.89351631109,4,1,0,70,0,0
17018,-133.630620956212,4,1,0,70,0,0
17080,-132.522244420262,4,1,0,70,0,0
17142,-131.423061125626,4,1,0,70,0,0
17204,-130.332994820522,4,1,0,70,0,0
17266,-129.251969885627,4,1,0,70,0,0
17390,-127.116744780019,4,1,0,70,0,0
17505,-127.116744780019,4,1,0,80,0,0
17515,-125,4,1,0,80,0,0
32424,-125,4,1,0,80,0,0
32548,-123.176770396545,4,1,0,80,0,0
32672,-121.380134122586,4,1,0,80,0,0
32735,-120.477390354143,4,1,0,80,0,0
32797,-119.595531099693,4,1,0,80,0,0
32921,-117.851130197758,4,1,0,80,0,0
33020,-116.476707047451,4,1,0,80,0,0
33070,-115.788657758687,4,1,0,80,0,0
33119,-115.118312924554,4,1,0,80,0,0
33219,-113.762279946412,4,1,0,80,0,0
33269,-113.090265276788,4,1,0,80,0,0
33318,-112.435542468989,4,1,0,80,0,0
33408,-112.435542468989,4,1,0,90,0,0
33418,-111.111111111111,4,1,0,90,0,0
49321,248.488362461691,7,1,0,90,1,0
49321,-111.111111111111,4,1,0,90,0,8
52800,248.488362461691,4,1,0,90,1,8
52800,-111.111111111111,4,1,0,90,0,8
55980,-111.111111111111,4,1,0,90,0,0
56179,-114.435746466536,4,1,0,90,0,0
56278,-116.126582044107,4,1,0,90,0,0
56340,-117.198187956973,4,1,0,90,0,0
56403,-118.297207551578,4,1,0,90,0,0
56577,-121.38643016073,4,1,0,90,0,0
56765,-121.38643016073,4,1,0,70,0,0
56775,-125,4,1,0,70,0,0
63971,-125,4,1,0,80,0,0
71675,-125,4,1,0,85,0,0
71685,-125,4,1,0,85,0,0
71850,-122.579797657576,4,1,0,85,0,0
71933,-121.380134122586,4,1,0,85,0,0
72057,-119.609703292157,4,1,0,85,0,0
72182,-117.851130197758,4,1,0,85,0,0
72306,-116.13217284274,4,1,0,85,0,0
72430,-114.438287919217,4,1,0,85,0,0
72492,-113.600633127988,4,1,0,85,0,0
72554,-112.769109724793,4,1,0,85,0,0
72616,-111.943672829666,4,1,0,85,0,0
72669,-111.943672829666,4,1,0,90,0,0
72679,-111.111111111111,4,1,0,90,0,0
80123,-111.111111111111,4,1,0,85,0,0
80133,-128.205128205128,4,1,0,85,0,0
80620,-128.205128205128,4,1,0,80,0,0
80630,-142.857142857143,4,1,0,80,0,0
87578,-142.857142857143,4,1,0,85,0,0
88572,-142.857142857143,4,1,0,90,0,0
88582,-125,4,1,0,90,0,0
95291,-125,4,1,0,90,0,0
95353,-122.69706623422,4,1,0,90,0,0
95415,-120.436560499875,4,1,0,90,0,0
95539,-116.03972084032,4,1,0,90,0,0
95639,-112.611083202029,4,1,0,90,0,0
95689,-110.934943435343,4,1,0,90,0,0
95738,-109.316533624568,4,1,0,90,0,0
95838,-106.086546694589,4,1,0,90,0,0
95937,-102.982878941391,4,1,0,90,0,0
96025,-102.982878941391,4,1,0,100,0,0
96035,248.488362461691,4,1,0,100,1,1
96035,-100,4,1,0,100,0,1
106968,-100,5,1,0,100,0,0
108210,-100,7,1,0,100,0,1
111441,248.488362461691,4,1,0,100,1,1
113304,-100,4,1,0,100,0,0
113528,-100,4,1,0,100,0,1
114422,-100,4,1,0,100,0,0
115416,-100,4,1,0,100,0,1
117404,-100,4,1,0,100,0,0
117518,-100,4,1,0,80,0,0
119382,-100,4,1,0,100,0,0
119392,-100,4,1,0,100,0,1
121370,-100,4,1,0,80,0,1
121380,-100,4,1,0,80,0,0
123109,-100,4,1,0,100,0,0
123119,-100,4,1,0,100,0,1
125355,496.976724923383,4,1,0,100,1,0
125355,-50,4,1,0,100,0,0

[HitObjects]
115,280,1611,5,8,0:0:0:0:
125,201,5836,1,8,0:0:0:0:
255,189,9563,1,8,0:0:0:0:
192,176,9687,1,0,0:0:0:0:
192,176,9812,1,0,0:0:0:0:
192,176,9936,1,8,0:0:0:0:
192,176,10060,1,8,0:0:0:0:
192,176,10184,1,0,0:0:0:0:
192,176,10309,1,8,0:0:0:0:
192,176,10433,1,8,0:0:0:0:
186,174,10557,1,0,0:0:0:0:
185,176,10681,1,0,0:0:0:0:
185,176,10806,1,8,0:0:0:0:
259,166,10971,1,8,0:0:0:0:
259,166,11054,1,0,0:0:0:0:
260,175,11178,1,8,0:0:0:0:
146,149,11302,1,8,0:0:0:0:
146,149,11427,1,0,0:0:0:0:
151,156,11551,1,0,0:0:0:0:
151,156,11675,1,8,0:0:0:0:
152,157,11799,1,8,0:0:0:0:
152,157,11924,1,8,0:0:0:0:
155,160,12048,1,0,0:0:0:0:
155,160,12172,1,0,0:0:0:0:
154,158,12296,1,8,0:0:0:0:
153,159,12421,1,0,0:0:0:0:
315,89,12545,1,8,0:0:0:0:
315,89,12628,1,8,0:0:0:0:
334,87,12711,1,8,0:0:0:0:
334,87,12793,1,0,0:0:0:0:
390,286,12918,1,0,0:0:0:0:
390,286,13042,1,8,0:0:0:0:
385,278,13166,1,8,0:0:0:0:
231,238,13290,1,0,0:0:0:0:
231,238,13415,1,0,0:0:0:0:
144,151,13539,1,8,0:0:0:0:
206,153,13663,1,0,0:0:0:0:
400,103,13787,1,8,0:0:0:0:
400,103,13850,1,8,0:0:0:0:
400,103,13912,1,0,0:0:0:0:
177,191,14036,1,0,0:0:0:0:
177,191,14160,1,8,0:0:0:0:
177,191,14284,1,8,0:0:0:0:
177,191,14409,1,0,0:0:0:0:
161,164,14533,1,8,0:0:0:0:
161,164,14616,1,8,0:0:0:0:
161,164,14699,1,8,0:0:0:0:
161,164,14781,1,0,0:0:0:0:
200,164,14906,1,0,0:0:0:0:
200,164,15030,1,8,0:0:0:0:
200,164,15154,1,0,0:0:0:0:
203,157,15278,1,0,0:0:0:0:
203,157,15403,1,8,0:0:0:0:
203,157,15527,1,0,0:0:0:0:
203,157,15692,1,8,0:0:0:0:
349,73,15775,1,0,0:0:0:0:
300,121,15900,1,0,0:0:0:0:
300,121,16024,1,8,0:0:0:0:
293,115,16148,1,0,0:0:0:0:
300,121,16272,1,8,0:0:0:0:
294,115,16397,1,8,0:0:0:0:
294,115,16521,1,8,0:0:0:0:
294,114,16645,1,0,0:0:0:0:
287,116,16769,1,8,0:0:0:0:
271,97,16893,1,8,0:0:0:0:
302,92,17018,1,0,0:0:0:0:
302,92,17080,1,8,0:0:0:0:
302,92,17142,1,8,0:0:0:0:
302,92,17204,1,8,0:0:0:0:
302,92,17266,1,0,0:0:0:0:
296,95,17390,1,0,0:0:0:0:
232,91,17515,1,8,0:0:0:0:
232,91,17639,1,0,0:0:0:0:
235,95,17763,1,8,0:0:0:0:
235,95,17887,1,8,0:0:0:0:
318,103,18012,1,0,0:0:0:0:
318,103,18136,1,8,0:0:0:0:
318,103,18260,1,8,0:0:0:0:
318,103,18384,1,0,0:0:0:0:
185,123,18509,1,8,0:0:0:0:
231,146,18633,1,0,0:0:0:0:
231,146,18695,1,0,0:0:0:0:
231,146,18757,1,0,0:0:0:0:
231,146,18881,1,8,0:0:0:0:
229,155,19006,1,0,0:0:0:0:
361,68,19171,1,8,0:0:0:0:
361,68,19254,1,0,0:0:0:0:
252,107,19378,1,8,0:0:0:0:
186,115,19503,1,0,0:0:0:0:
186,115,19627,1,0,0:0:0:0:
179,112,19751,1,8,0:0:0:0:
179,112,19875,1,0,0:0:0:0:
186,115,20000,1,8,0:0:0:0:
288,117,20165,1,0,0:0:0:0:
288,117,20248,1,8,0:0:0:0:
129,146,20372,1,8,0:0:0:0:
129,146,20497,1,0,0:0:0:0:
129,146,20621,1,8,0:0:0:0:
129,146,20745,1,8,0:0:0:0:
129,146,20869,1,0,0:0:0:0:
131,169,20994,1,8,0:0:0:0:
194,138,21159,1,0,0:0:0:0:
194,138,21242,1,8,0:0:0:0:
231,157,21366,1,0,0:0:0:0:
126,134,21491,1,0,0:0:0:0:
107,123,21615,1,0,0:0:0:0:
126,134,21739,1,8,0:0:0:0:
184,136,21863,1,0,0:0:0:0:
184,135,21987,1,8,0:0:0:0:
184,135,22112,1,0,0:0:0:0:
210,104,22236,1,8,0:0:0:0:
210,104,22360,1,8,0:0:0:0:
210,104,22484,1,8,0:0:0:0:
210,104,22609,1,0,0:0:0:0:
418,221,22671,1,0,0:0:0:0:
210,104,22733,1,8,0:0:0:0:
210,104,22857,1,0,0:0:0:0:
268,228,22981,1,8,0:0:0:0:
268,228,23044,1,8,0:0:0:0:
366,72,23147,1,0,0:0:0:0:
366,72,23230,1,0,0:0:0:0:
400,75,23354,1,8,0:0:0:0:
224,253,23478,1,0,0:0:0:0:
224,253,23603,1,0,0:0:0:0:
224,253,23727,1,8,0:0:0:0:
224,253,23851,1,0,0:0:0:0:
235,251,23975,1,8,0:0:0:0:
251,180,24141,1,8,0:0:0:0:
251,180,24224,1,0,0:0:0:0:
245,132,24348,1,0,0:0:0:0:
249,129,24472,1,8,0:0:0:0:
308,147,24597,1,8,0:0:0:0:
299,147,24721,1,0,0:0:0:0:
277,147,24845,1,8,0:0:0:0:
286,147,24969,1,0,0:0:0:0:
298,149,25135,1,0,0:0:0:0:
281,155,25218,1,0,0:0:0:0:
367,127,25342,1,8,0:0:0:0:
182,135,25466,1,0,0:0:0:0:
182,135,25549,1,8,0:0:0:0:
182,135,25632,1,8,0:0:0:0:
182,135,25715,1,0,0:0:0:0:
182,135,25839,1,8,0:0:0:0:
182,135,25963,1,0,0:0:0:0:
165,133,26212,1,8,0:0:0:0:
165,133,26336,1,0,0:0:0:0:
151,126,26585,1,8,0:0:0:0:
151,126,26647,1,8,0:0:0:0:
151,126,26709,1,0,0:0:0:0:
266,111,26895,1,8,0:0:0:0:
266,111,26957,1,0,0:0:0:0:
266,111,27123,1,8,0:0:0:0:
266,111,27206,1,8,0:0:0:0:
203,125,27330,1,8,0:0:0:0:
199,121,27454,1,0,0:0:0:0:
196,121,27578,1,0,0:0:0:0:
178,194,27786,1,8,0:0:0:0:
178,194,27868,1,0,0:0:0:0:
178,194,27951,1,0,0:0:0:0:
90,157,28075,1,8,0:0:0:0:
90,157,28138,1,8,0:0:0:0:
90,157,28200,1,8,0:0:0:0:
166,134,28324,1,8,0:0:0:0:
186,183,28448,1,0,0:0:0:0:
137,144,28572,1,0,0:0:0:0:
137,144,28697,1,8,0:0:0:0:
137,144,28821,1,8,0:0:0:0:
223,130,28945,1,0,0:0:0:0:
223,130,29028,1,8,0:0:0:0:
223,130,29111,1,8,0:0:0:0:
223,130,29194,1,0,0:0:0:0:
202,115,29318,1,0,0:0:0:0:
182,155,29442,1,8,0:0:0:0:
182,155,29525,1,8,0:0:0:0:
182,155,29608,1,8,0:0:0:0:
182,155,29691,1,0,0:0:0:0:
253,154,29815,1,8,0:0:0:0:
253,154,29939,1,0,0:0:0:0:
262,159,30188,1,8,0:0:0:0:
262,159,30312,1,8,0:0:0:0:
231,151,30560,1,8,0:0:0:0:
231,151,30622,1,0,0:0:0:0:
231,151,30685,1,0,0:0:0:0:
229,128,30871,1,0,0:0:0:0:
229,128,30933,1,0,0:0:0:0:
229,128,31099,1,0,0:0:0:0:
229,128,31182,1,8,0:0:0:0:
190,157,31306,1,8,0:0:0:0:
190,157,31430,1,0,0:0:0:0:
194,119,31554,1,8,0:0:0:0:
327,55,31679,1,8,0:0:0:0:
327,55,31761,1,0,0:0:0:0:
323,62,31844,1,0,0:0:0:0:
418,38,31927,1,8,0:0:0:0:
129,121,31989,1,8,0:0:0:0:
129,121,32051,1,0,0:0:0:0:
129,121,32113,1,8,0:0:0:0:
129,121,32176,1,0,0:0:0:0:
129,121,32238,1,0,0:0:0:0:
129,121,32300,1,8,0:0:0:0:
81,157,32424,1,0,0:0:0:0:
81,157,32548,1,0,0:0:0:0:
200,137,32672,1,8,0:0:0:0:
200,137,32735,1,8,0:0:0:0:
200,137,32797,1,0,0:0:0:0:
232,201,32921,1,8,0:0:0:0:
170,137,33020,1,0,0:0:0:0:
108,166,33070,1,0,0:0:0:0:
170,137,33120,1,8,0:0:0:0:
170,137,33219,1,0,0:0:0:0:
122,149,33269,1,8,0:0:0:0:
170,137,33319,1,0,0:0:0:0:
170,137,33418,1,8,0:0:0:0:
220,175,33791,1,0,0:0:0:0:
220,175,33915,1,8,0:0:0:0:
385,85,34101,1,0,0:0:0:0:
385,85,34163,1,8,0:0:0:0:
408,95,34288,1,8,0:0:0:0:
408,95,34412,1,0,0:0:0:0:
149,221,34660,1,0,0:0:0:0:
397,99,34826,1,0,0:0:0:0:
397,99,34909,1,8,0:0:0:0:
331,97,35033,1,0,0:0:0:0:
331,97,35157,1,8,0:0:0:0:
331,97,35282,1,8,0:0:0:0:
331,97,35406,1,0,0:0:0:0:
331,97,35530,1,8,0:0:0:0:
331,97,35592,1,8,0:0:0:0:
331,97,35654,1,8,0:0:0:0:
331,97,35779,1,0,0:0:0:0:
331,97,35903,1,8,0:0:0:0:
361,85,36069,1,0,0:0:0:0:
361,85,36151,1,8,0:0:0:0:
413,53,36276,1,8,0:0:0:0:
413,53,36400,1,8,0:0:0:0:
413,53,36524,1,0,0:0:0:0:
413,53,36586,1,0,0:0:0:0:
413,53,36648,1,8,0:0:0:0:
288,174,36814,1,8,0:0:0:0:
288,174,36855,1,8,0:0:0:0:
311,58,36897,1,0,0:0:0:0:
243,72,37021,1,0,0:0:0:0:
243,72,37145,1,8,0:0:0:0:
148,143,37270,1,0,0:0:0:0:
148,143,37394,1,8,0:0:0:0:
273,182,37767,1,8,0:0:0:0:
273,182,37808,1,0,0:0:0:0:
164,124,37849,1,8,0:0:0:0:
273,182,37891,1,0,0:0:0:0:
315,120,38326,1,0,0:0:0:0:
273,182,38388,5,8,0:0:0:0:
315,120,38553,1,8,0:0:0:0:
315,120,38636,1,8,0:0:0:0:
318,112,38760,1,0,0:0:0:0:
231,116,38843,1,0,0:0:0:0:
318,112,38885,1,8,0:0:0:0:
318,112,39083,1,0,0:0:0:0:
318,112,39233,1,8,0:0:0:0:
162,128,39320,1,0,0:0:0:0:
172,126,39382,1,8,0:0:0:0:
396,55,39423,1,8,0:0:0:0:
396,55,39465,1,0,0:0:0:0:
396,55,39506,1,0,0:0:0:0:
396,55,39547,1,8,0:0:0:0:
136,155,39879,1,8,0:0:0:0:
136,155,39961,1,8,0:0:0:0:
265,188,40127,1,0,0:0:0:0:
217,140,40376,1,8,0:0:0:0:
258,122,40425,1,8,0:0:0:0:
258,122,40475,1,8,0:0:0:0:
217,140,40574,1,0,0:0:0:0:
258,122,40674,1,0,0:0:0:0:
217,140,40773,1,8,0:0:0:0:
161,111,40873,1,8,0:0:0:0:
217,140,40972,1,0,0:0:0:0:
161,111,41022,1,0,0:0:0:0:
161,111,41071,1,0,0:0:0:0:
120,174,41171,1,8,0:0:0:0:
309,92,41270,1,0,0:0:0:0:
356,123,41370,1,8,0:0:0:0:
356,123,41618,1,8,0:0:0:0:
334,121,41991,1,8,0:0:0:0:
155,184,42115,1,0,0:0:0:0:
155,184,42177,1,8,0:0:0:0:
155,184,42239,1,8,0:0:0:0:
155,184,42364,1,0,0:0:0:0:
155,184,42426,1,8,0:0:0:0:
155,184,42488,1,0,0:0:0:0:
225,227,42861,1,8,0:0:0:0:
225,227,42985,1,8,0:0:0:0:
218,222,43109,1,0,0:0:0:0:
218,222,43192,1,0,0:0:0:0:
218,222,43295,1,0,0:0:0:0:
169,182,43357,1,8,0:0:0:0:
226,154,43544,1,0,0:0:0:0:
132,136,43730,1,0,0:0:0:0:
132,136,43854,1,8,0:0:0:0:
182,165,43979,1,8,0:0:0:0:
223,161,44103,1,0,0:0:0:0:
432,79,44227,1,0,0:0:0:0:
449,61,44289,1,0,0:0:0:0:
433,79,44351,1,8,0:0:0:0:
205,156,44476,1,0,0:0:0:0:
205,156,44600,1,8,0:0:0:0:
205,155,44724,1,0,0:0:0:0:
205,155,44848,1,8,0:0:0:0:
249,176,44973,1,0,0:0:0:0:
249,176,45035,1,0,0:0:0:0:
249,176,45097,1,8,0:0:0:0:
249,176,45159,1,8,0:0:0:0:
249,176,45221,1,0,0:0:0:0:
249,176,45283,1,0,0:0:0:0:
249,176,45345,1,8,0:0:0:0:
172,75,45408,1,0,0:0:0:0:
172,75,45470,1,8,0:0:0:0:
169,81,45718,1,0,0:0:0:0:
371,137,45842,1,8,0:0:0:0:
371,137,45905,1,0,0:0:0:0:
371,137,45967,1,8,0:0:0:0:
371,137,46029,1,8,0:0:0:0:
371,137,46091,1,0,0:0:0:0:
371,137,46215,1,0,0:0:0:0:
344,129,46277,1,8,0:0:0:0:
344,129,46339,1,8,0:0:0:0:
269,122,46588,1,8,0:0:0:0:
269,122,46671,1,0,0:0:0:0:
269,122,46754,1,0,0:0:0:0:
269,122,46836,1,8,0:0:0:0:
269,122,46919,1,0,0:0:0:0:
269,122,47002,1,0,0:0:0:0:
269,122,47085,1,8,0:0:0:0:
269,122,47168,1,8,0:0:0:0:
269,122,47250,1,8,0:0:0:0:
269,122,47333,1,0,0:0:0:0:
391,77,47499,1,8,0:0:0:0:
331,183,47540,1,8,0:0:0:0:
317,194,47720,1,8,0:0:0:0:
188,132,47830,1,0,0:0:0:0:
188,132,47886,1,8,0:0:0:0:
188,132,47941,1,8,0:0:0:0:
188,132,47996,1,0,0:0:0:0:
354,85,48162,1,8,0:0:0:0:
418,62,48286,1,0,0:0:0:0:
418,62,48327,1,8,0:0:0:0:
186,158,48514,1,8,0:0:0:0:
181,155,48700,1,8,0:0:0:0:
181,155,48762,1,8,0:0:0:0:
181,155,48824,1,0,0:0:0:0:
177,156,48948,1,0,0:0:0:0:
177,156,49073,1,8,0:0:0:0:
177,156,49197,1,0,0:0:0:0:
177,156,49321,1,8,0:0:0:0:
178,216,49817,1,0,0:0:0:0:
178,216,49942,1,8,0:0:0:0:
178,216,50004,1,8,0:0:0:0:
178,216,50066,1,0,0:0:0:0:
178,216,50190,1,0,0:0:0:0:
178,216,50314,1,8,0:0:0:0:
162,205,50563,1,0,0:0:0:0:
155,250,50811,1,8,0:0:0:0:
371,122,50936,1,0,0:0:0:0:
371,122,50977,1,8,0:0:0:0:
371,122,51019,1,0,0:0:0:0:
371,122,51060,1,8,0:0:0:0:
471,279,51557,1,8,0:0:0:0:
435,81,51681,1,0,0:0:0:0:
435,81,51743,1,0,0:0:0:0:
435,81,51805,1,0,0:0:0:0:
425,93,51930,1,0,0:0:0:0:
425,93,52054,1,8,0:0:0:0:
471,36,52220,1,8,0:0:0:0:
471,36,52261,1,0,0:0:0:0:
471,36,52302,1,0,0:0:0:0:
216,110,52800,1,8,0:0:0:0:
216,110,52986,1,0,0:0:0:0:
216,110,53172,1,8,0:0:0:0:
194,126,53296,1,0,0:0:0:0:
194,126,53359,1,8,0:0:0:0:
194,126,53421,1,8,0:0:0:0:
163,108,53545,1,0,0:0:0:0:
163,108,53669,1,0,0:0:0:0:
163,108,53793,1,8,0:0:0:0:
163,108,53918,1,0,0:0:0:0:
163,108,54042,1,0,0:0:0:0:
157,104,54166,1,0,0:0:0:0:
155,105,54290,1,8,0:0:0:0:
176,187,54539,1,0,0:0:0:0:
176,187,54663,1,0,0:0:0:0:
176,187,54787,1,8,0:0:0:0:
250,148,54953,1,0,0:0:0:0:
250,148,55036,1,8,0:0:0:0:
357,101,55160,1,0,0:0:0:0:
332,188,55284,1,0,0:0:0:0:
332,188,55326,1,8,0:0:0:0:
329,154,55367,1,8,0:0:0:0:
221,102,55533,1,0,0:0:0:0:
129,125,55781,1,8,0:0:0:0:
129,125,55980,1,8,0:0:0:0:
120,157,56179,1,0,0:0:0:0:
129,125,56278,1,0,0:0:0:0:
129,125,56340,1,0,0:0:0:0:
115,157,56403,1,0,0:0:0:0:
464,138,56577,1,0,0:0:0:0:
158,72,56775,1,8,0:0:0:0:
152,39,57272,1,8,0:0:0:0:
266,104,57355,1,0,0:0:0:0:
266,104,57438,1,0,0:0:0:0:
266,104,57521,1,8,0:0:0:0:
146,136,57645,1,8,0:0:0:0:
34,146,57894,1,8,0:0:0:0:
39,145,58018,1,8,0:0:0:0:
39,146,58059,1,0,0:0:0:0:
211,113,58101,1,0,0:0:0:0:
211,113,58142,1,8,0:0:0:0:
199,141,58390,1,8,0:0:0:0:
199,141,58453,1,8,0:0:0:0:
199,141,58577,1,8,0:0:0:0:
134,60,58763,1,0,0:0:0:0:
231,138,58887,1,0,0:0:0:0:
224,133,59012,1,8,0:0:0:0:
224,133,59074,1,8,0:0:0:0:
224,133,59136,1,0,0:0:0:0:
390,99,59198,1,8,0:0:0:0:
214,126,59322,1,0,0:0:0:0:
204,124,59509,1,8,0:0:0:0:
394,55,59592,1,0,0:0:0:0:
394,55,59695,1,0,0:0:0:0:
385,63,59757,1,8,0:0:0:0:
62,138,59819,1,0,0:0:0:0:
62,138,59881,1,8,0:0:0:0:
62,138,59944,1,8,0:0:0:0:
62,138,60088,1,0,0:0:0:0:
214,135,60171,1,8,0:0:0:0:
214,135,60213,1,8,0:0:0:0:
214,135,60316,1,0,0:0:0:0:
200,162,60503,1,0,0:0:0:0:
208,164,60627,1,0,0:0:0:0:
208,164,60689,1,0,0:0:0:0:
134,61,60751,1,8,0:0:0:0:
284,260,61000,1,0,0:0:0:0:
284,260,61124,1,0,0:0:0:0:
368,236,61186,1,0,0:0:0:0:
152,39,61248,1,8,0:0:0:0:
266,104,61331,1,0,0:0:0:0:
266,104,61414,1,0,0:0:0:0:
266,104,61497,1,8,0:0:0:0:
248,178,61621,1,0,0:0:0:0:
248,178,61662,1,8,0:0:0:0:
34,146,61869,1,8,0:0:0:0:
39,145,61994,1,8,0:0:0:0:
39,146,62035,1,0,0:0:0:0:
211,113,62076,1,0,0:0:0:0:
211,113,62118,1,8,0:0:0:0:
199,141,62366,1,8,0:0:0:0:
199,141,62428,1,8,0:0:0:0:
199,141,62553,1,8,0:0:0:0:
134,60,62739,1,0,0:0:0:0:
231,138,62863,1,0,0:0:0:0:
224,133,62988,1,8,0:0:0:0:
224,133,63050,1,8,0:0:0:0:
224,133,63112,1,0,0:0:0:0:
390,99,63174,1,8,0:0:0:0:
214,126,63298,1,0,0:0:0:0:
204,124,63484,1,8,0:0:0:0:
394,55,63567,1,0,0:0:0:0:
394,55,63671,1,0,0:0:0:0:
385,63,63733,1,8,0:0:0:0:
62,138,63795,1,0,0:0:0:0:
62,138,63857,1,8,0:0:0:0:
62,138,63919,1,8,0:0:0:0:
248,177,63981,1,0,0:0:0:0:
167,184,64230,1,8,0:0:0:0:
167,184,64478,1,0,0:0:0:0:
167,184,64727,1,8,0:0:0:0:
160,179,64975,1,8,0:0:0:0:
160,179,65224,1,0,0:0:0:0:
160,220,65969,1,0,0:0:0:0:
160,220,66218,1,8,0:0:0:0:
263,155,66404,1,0,0:0:0:0:
263,155,66466,1,8,0:0:0:0:
276,132,66591,1,0,0:0:0:0:
276,132,66715,1,8,0:0:0:0:
276,132,66963,1,8,0:0:0:0:
276,132,67212,1,0,0:0:0:0:
318,172,67957,1,8,0:0:0:0:
320,109,68206,1,0,0:0:0:0:
320,109,68289,1,8,0:0:0:0:
320,109,68371,1,8,0:0:0:0:
320,109,68454,1,0,0:0:0:0:
258,211,68703,1,0,0:0:0:0:
296,164,69200,1,8,0:0:0:0:
296,164,69386,1,0,0:0:0:0:
296,164,69572,1,8,0:0:0:0:
296,164,69697,1,0,0:0:0:0:
303,191,70194,1,8,0:0:0:0:
303,191,70318,1,0,0:0:0:0:
300,189,70442,1,0,0:0:0:0:
169,173,70566,1,8,0:0:0:0:
169,173,70691,1,0,0:0:0:0:
174,173,70939,1,8,0:0:0:0:
177,174,71063,1,0,0:0:0:0:
177,174,71126,1,0,0:0:0:0:
177,174,71188,1,0,0:0:0:0:
168,179,71374,1,8,0:0:0:0:
168,180,71560,1,0,0:0:0:0:
168,180,71685,1,8,0:0:0:0:
339,177,71850,1,8,0:0:0:0:
339,177,71933,1,8,0:0:0:0:
307,195,72057,1,0,0:0:0:0:
226,128,72182,1,8,0:0:0:0:
226,128,72306,1,0,0:0:0:0:
241,135,72430,1,0,0:0:0:0:
241,135,72492,1,0,0:0:0:0:
241,135,72554,1,8,0:0:0:0:
241,135,72616,1,8,0:0:0:0:
299,127,72679,1,0,0:0:0:0:
299,127,72761,1,8,0:0:0:0:
299,127,72844,1,8,0:0:0:0:
299,127,72927,1,0,0:0:0:0:
314,131,73051,1,8,0:0:0:0:
314,131,73176,1,0,0:0:0:0:
380,226,73424,1,8,0:0:0:0:
380,226,73548,1,0,0:0:0:0:
315,194,73797,1,8,0:0:0:0:
315,194,73859,1,8,0:0:0:0:
315,194,73921,1,0,0:0:0:0:
232,188,74107,1,0,0:0:0:0:
232,188,74169,1,8,0:0:0:0:
327,98,74335,1,8,0:0:0:0:
327,98,74418,1,8,0:0:0:0:
380,124,74542,1,0,0:0:0:0:
382,131,74666,1,8,0:0:0:0:
189,158,74791,1,0,0:0:0:0:
223,157,74998,1,8,0:0:0:0:
223,157,75081,1,0,0:0:0:0:
223,157,75163,1,0,0:0:0:0:
408,70,75288,1,8,0:0:0:0:
408,70,75350,1,8,0:0:0:0:
408,70,75412,1,0,0:0:0:0:
408,70,75536,1,8,0:0:0:0:
408,70,75660,1,0,0:0:0:0:
166,152,75785,1,8,0:0:0:0:
166,152,75909,1,8,0:0:0:0:
166,152,76033,1,0,0:0:0:0:
164,197,76157,1,8,0:0:0:0:
164,197,76240,1,8,0:0:0:0:
164,197,76323,1,8,0:0:0:0:
164,197,76406,1,0,0:0:0:0:
365,96,76530,1,8,0:0:0:0:
299,127,76654,1,0,0:0:0:0:
299,127,76737,1,8,0:0:0:0:
299,127,76820,1,8,0:0:0:0:
299,127,76903,1,0,0:0:0:0:
314,131,77027,1,8,0:0:0:0:
314,131,77151,1,0,0:0:0:0:
380,226,77400,1,8,0:0:0:0:
380,226,77524,1,8,0:0:0:0:
315,194,77773,1,8,0:0:0:0:
315,194,77835,1,8,0:0:0:0:
315,194,77897,1,0,0:0:0:0:
232,188,78083,1,0,0:0:0:0:
232,188,78145,1,8,0:0:0:0:
277,182,78311,1,0,0:0:0:0:
277,182,78394,1,8,0:0:0:0:
350,101,78518,1,8,0:0:0:0:
350,101,78642,1,0,0:0:0:0:
236,172,78767,1,0,0:0:0:0:
146,182,78891,1,8,0:0:0:0:
302,84,78974,1,8,0:0:0:0:
302,84,79056,1,0,0:0:0:0:
177,144,79139,1,8,0:0:0:0:
177,144,79201,1,8,0:0:0:0:
177,144,79264,1,0,0:0:0:0:
177,144,79326,1,0,0:0:0:0:
177,144,79388,1,8,0:0:0:0:
177,144,79450,1,0,0:0:0:0:
177,144,79512,1,8,0:0:0:0:
177,144,79574,1,8,0:0:0:0:
177,144,79636,1,0,0:0:0:0:
206,188,80133,1,0,0:0:0:0:
181,196,80630,1,0,0:0:0:0:
181,196,80796,1,8,0:0:0:0:
194,201,81044,1,0,0:0:0:0:
194,201,81127,1,8,0:0:0:0:
217,159,81376,1,0,0:0:0:0:
217,159,81624,1,0,0:0:0:0:
217,159,81790,1,8,0:0:0:0:
191,142,82038,1,0,0:0:0:0:
215,143,82121,1,8,0:0:0:0:
165,123,82245,1,0,0:0:0:0:
166,116,82370,1,8,0:0:0:0:
166,121,82618,1,0,0:0:0:0:
172,130,82784,1,8,0:0:0:0:
172,130,83032,1,0,0:0:0:0:
172,130,83115,1,8,0:0:0:0:
173,138,83364,1,0,0:0:0:0:
238,182,83488,1,0,0:0:0:0:
238,182,83612,1,0,0:0:0:0:
251,154,83736,1,8,0:0:0:0:
246,154,83985,1,0,0:0:0:0:
246,154,84109,1,8,0:0:0:0:
214,226,84358,1,0,0:0:0:0:
142,193,84606,1,0,0:0:0:0:
142,193,84772,1,0,0:0:0:0:
142,193,85020,1,0,0:0:0:0:
142,193,85103,1,8,0:0:0:0:
189,159,85351,1,0,0:0:0:0:
227,143,85517,1,8,0:0:0:0:
296,124,85600,1,8,0:0:0:0:
419,191,85786,1,8,0:0:0:0:
189,159,86014,1,0,0:0:0:0:
218,113,86097,1,8,0:0:0:0:
177,120,86221,1,8,0:0:0:0:
177,120,86345,1,0,0:0:0:0:
165,155,86594,1,8,0:0:0:0:
160,121,86842,1,8,0:0:0:0:
160,121,86967,1,0,0:0:0:0:
160,123,87091,1,0,0:0:0:0:
160,123,87215,1,8,0:0:0:0:
166,138,87464,1,0,0:0:0:0:
166,137,87588,1,8,0:0:0:0:
332,159,87774,1,0,0:0:0:0:
332,159,87961,1,0,0:0:0:0:
332,159,88085,1,8,0:0:0:0:
332,159,88209,1,8,0:0:0:0:
332,159,88333,1,0,0:0:0:0:
180,132,88458,1,8,0:0:0:0:
180,132,88582,1,0,0:0:0:0:
377,75,88747,1,8,0:0:0:0:
349,80,88830,1,0,0:0:0:0:
337,86,88996,1,8,0:0:0:0:
337,86,89079,1,8,0:0:0:0:
139,183,89327,1,0,0:0:0:0:
359,73,89452,1,0,0:0:0:0:
139,183,89576,1,0,0:0:0:0:
191,169,89741,1,8,0:0:0:0:
191,169,89824,1,8,0:0:0:0:
386,83,89949,1,8,0:0:0:0:
386,83,89990,1,0,0:0:0:0:
386,83,90073,1,8,0:0:0:0:
402,148,90321,1,0,0:0:0:0:
402,148,90445,1,8,0:0:0:0:
402,148,90570,1,8,0:0:0:0:
418,42,90735,1,0,0:0:0:0:
331,92,90818,1,8,0:0:0:0:
245,160,90942,1,8,0:0:0:0:
245,160,91067,1,0,0:0:0:0:
245,160,91191,1,8,0:0:0:0:
253,140,91315,1,0,0:0:0:0:
253,140,91357,1,8,0:0:0:0:
253,140,91398,1,8,0:0:0:0:
253,140,91439,1,0,0:0:0:0:
253,140,91564,1,0,0:0:0:0:
207,148,91674,1,8,0:0:0:0:
207,148,91729,1,0,0:0:0:0:
252,211,91785,1,0,0:0:0:0:
323,97,91895,1,8,0:0:0:0:
391,83,92143,1,0,0:0:0:0:
391,83,92226,1,0,0:0:0:0:
391,83,92392,1,0,0:0:0:0:
391,83,92558,1,0,0:0:0:0:
348,203,92744,1,8,0:0:0:0:
348,203,92992,1,8,0:0:0:0:
348,203,93055,1,0,0:0:0:0:
348,203,93241,1,8,0:0:0:0:
348,203,93303,1,0,0:0:0:0:
348,203,93427,1,8,0:0:0:0:
348,203,93552,1,0,0:0:0:0:
352,164,93676,1,0,0:0:0:0:
352,164,93717,1,0,0:0:0:0:
352,164,93759,1,8,0:0:0:0:
352,164,93800,1,8,0:0:0:0:
128,137,93924,1,0,0:0:0:0:
128,137,94049,1,8,0:0:0:0:
301,93,94235,1,8,0:0:0:0:
301,93,94421,1,0,0:0:0:0:
301,93,94546,1,8,0:0:0:0:
301,93,94794,1,0,0:0:0:0:
301,93,95291,1,0,0:0:0:0:
354,143,95353,1,0,0:0:0:0:
301,93,95415,1,8,0:0:0:0:
301,93,95539,1,0,0:0:0:0:
301,93,95639,1,8,0:0:0:0:
236,149,95689,1,8,0:0:0:0:
301,93,95738,1,8,0:0:0:0:
301,93,95838,1,0,0:0:0:0:
301,93,95937,1,8,0:0:0:0:
301,93,96035,1,0,0:0:0:0:
255,177,96200,1,8,0:0:0:0:
255,177,96283,1,8,0:0:0:0:
255,177,96449,1,0,0:0:0:0:
255,177,96531,1,8,0:0:0:0:
247,181,96780,1,0,0:0:0:0:
222,184,96904,1,0,0:0:0:0:
222,184,97028,1,8,0:0:0:0:
345,115,97194,1,8,0:0:0:0:
345,115,97277,1,0,0:0:0:0:
304,171,97401,1,8,0:0:0:0:
304,171,97443,1,0,0:0:0:0:
180,275,97525,1,8,0:0:0:0:
295,265,97774,1,0,0:0:0:0:
271,237,97898,1,8,0:0:0:0:
271,237,98022,1,8,0:0:0:0:
242,193,98188,1,0,0:0:0:0:
242,193,98271,1,8,0:0:0:0:
242,193,98395,1,8,0:0:0:0:
58,206,98519,1,0,0:0:0:0:
152,211,98644,1,8,0:0:0:0:
152,211,98768,1,0,0:0:0:0:
348,96,98809,1,8,0:0:0:0:
348,96,98851,1,8,0:0:0:0:
348,96,98892,1,0,0:0:0:0:
257,190,99016,1,8,0:0:0:0:
257,190,99141,1,0,0:0:0:0:
264,195,99265,1,0,0:0:0:0:
257,193,99389,1,8,0:0:0:0:
257,190,99513,1,0,0:0:0:0:
257,190,99638,1,8,0:0:0:0:
257,190,99679,1,8,0:0:0:0:
257,190,99720,1,8,0:0:0:0:
257,190,99762,1,0,0:0:0:0:
251,121,99824,1,0,0:0:0:0:
251,121,99886,1,8,0:0:0:0:
110,157,100010,1,0,0:0:0:0:
142,121,100259,1,8,0:0:0:0:
212,122,100342,1,0,0:0:0:0:
212,122,100424,1,0,0:0:0:0:
212,122,100507,1,8,0:0:0:0:
206,144,100673,1,0,0:0:0:0:
207,144,100756,1,8,0:0:0:0:
208,143,100921,1,8,0:0:0:0:
208,143,101004,1,8,0:0:0:0:
212,122,101153,1,0,0:0:0:0:
212,122,101203,1,8,0:0:0:0:
151,113,101253,1,0,0:0:0:0:
272,111,101377,1,8,0:0:0:0:
272,111,101501,1,0,0:0:0:0:
272,111,101543,1,8,0:0:0:0:
272,111,101584,1,8,0:0:0:0:
272,111,101625,1,0,0:0:0:0:
265,113,101750,1,0,0:0:0:0:
265,113,101915,1,0,0:0:0:0:
176,172,101998,1,0,0:0:0:0:
265,113,102040,1,8,0:0:0:0:
183,124,102185,1,0,0:0:0:0:
151,124,102619,1,0,0:0:0:0:
151,124,102744,1,0,0:0:0:0:
151,124,102868,1,8,0:0:0:0:
169,128,102992,1,8,0:0:0:0:
300,184,103034,1,0,0:0:0:0:
300,184,103075,1,8,0:0:0:0:
151,124,103241,1,0,0:0:0:0:
151,124,103365,1,8,0:0:0:0:
229,103,103489,1,0,0:0:0:0:
229,103,103551,1,8,0:0:0:0:
229,103,103613,1,0,0:0:0:0:
291,143,103676,1,0,0:0:0:0:
291,143,103738,1,8,0:0:0:0:
242,138,103862,1,0,0:0:0:0:
242,138,103986,1,8,0:0:0:0:
255,177,104152,1,8,0:0:0:0:
255,177,104235,1,8,0:0:0:0:
255,177,104400,1,0,0:0:0:0:
255,177,104483,1,8,0:0:0:0:
247,181,104732,1,0,0:0:0:0:
222,184,104856,1,0,0:0:0:0:
222,184,104980,1,8,0:0:0:0:
345,115,105146,1,8,0:0:0:0:
345,115,105229,1,8,0:0:0:0:
304,171,105353,1,0,0:0:0:0:
304,171,105394,1,0,0:0:0:0:
180,275,105477,1,8,0:0:0:0:
295,265,105726,1,0,0:0:0:0:
271,237,105850,1,8,0:0:0:0:
271,237,105974,1,8,0:0:0:0:
242,193,106140,1,0,0:0:0:0:
242,193,106223,1,8,0:0:0:0:
242,193,106347,1,8,0:0:0:0:
58,206,106471,1,0,0:0:0:0:
152,211,106594,1,8,0:0:0:0:
348,96,106636,1,0,0:0:0:0:
348,96,106677,1,0,0:0:0:0:
348,96,106719,1,8,0:0:0:0:
307,158,106844,1,0,0:0:0:0:
257,190,106968,1,8,0:0:0:0:
243,142,107078,1,0,0:0:0:0:
243,142,107189,1,0,0:0:0:0:
243,142,107299,1,8,0:0:0:0:
243,142,107410,1,0,0:0:0:0:
191,120,107465,1,0,0:0:0:0:
243,142,107520,1,8,0:0:0:0:
243,142,107631,1,0,0:0:0:0:
186,109,107741,1,8,0:0:0:0:
243,142,107852,1,8,0:0:0:0:
110,157,107962,1,0,0:0:0:0:
196,175,108024,1,8,0:0:0:0:
201,182,108086,1,0,0:0:0:0:
201,182,108148,1,0,0:0:0:0:
239,167,108210,1,8,0:0:0:0:
165,181,108397,1,0,0:0:0:0:
189,180,108459,1,8,0:0:0:0:
189,180,108645,1,8,0:0:0:0:
189,180,108707,1,8,0:0:0:0:
189,180,108832,1,0,0:0:0:0:
189,162,108956,1,8,0:0:0:0:
317,131,109080,1,0,0:0:0:0:
317,131,109122,1,0,0:0:0:0:
317,131,109163,1,8,0:0:0:0:
317,131,109204,1,8,0:0:0:0:
317,131,109329,1,8,0:0:0:0:
317,131,109453,1,0,0:0:0:0:
317,131,109494,1,8,0:0:0:0:
300,115,109639,1,8,0:0:0:0:
132,150,109826,1,8,0:0:0:0:
132,150,109950,1,0,0:0:0:0:
132,150,110012,1,8,0:0:0:0:
132,150,110074,1,8,0:0:0:0:
200,193,110198,1,0,0:0:0:0:
167,191,110633,1,0,0:0:0:0:
265,144,110778,1,0,0:0:0:0:
265,144,110861,1,0,0:0:0:0:
146,39,110944,1,8,0:0:0:0:
145,44,111043,1,0,0:0:0:0:
371,64,111093,1,0,0:0:0:0:
145,44,111143,1,8,0:0:0:0:
145,44,111242,1,0,0:0:0:0:
328,62,111292,1,0,0:0:0:0:
338,62,111341,1,0,0:0:0:0:
145,44,111441,1,8,0:0:0:0:
182,195,111689,1,0,0:0:0:0:
157,184,111855,1,0,0:0:0:0:
200,181,111937,1,8,0:0:0:0:
234,137,112186,1,8,0:0:0:0:
337,140,112310,1,0,0:0:0:0:
112,153,112434,1,8,0:0:0:0:
191,197,112600,1,8,0:0:0:0:
191,197,112683,1,8,0:0:0:0:
191,197,112807,1,0,0:0:0:0:
174,174,112931,1,8,0:0:0:0:
351,93,113056,1,0,0:0:0:0:
351,93,113180,1,8,0:0:0:0:
351,93,113304,1,8,0:0:0:0:
351,93,113428,1,0,0:0:0:0:
351,93,113528,1,8,0:0:0:0:
320,136,113577,1,8,0:0:0:0:
351,93,113627,1,8,0:0:0:0:
351,93,113727,1,0,0:0:0:0:
351,93,113826,1,8,0:0:0:0:
320,136,113876,1,8,0:0:0:0:
320,136,113925,1,0,0:0:0:0:
351,93,114025,1,8,0:0:0:0:
351,93,114124,1,0,0:0:0:0:
320,136,114174,1,0,0:0:0:0:
351,93,114224,1,8,0:0:0:0:
154,159,114273,1,0,0:0:0:0:
351,93,114323,1,8,0:0:0:0:
351,93,114422,1,0,0:0:0:0:
341,152,114588,1,0,0:0:0:0:
162,134,114671,1,0,0:0:0:0:
334,146,114754,1,8,0:0:0:0:
155,121,114919,1,8,0:0:0:0:
209,52,115002,1,8,0:0:0:0:
208,62,115085,1,0,0:0:0:0:
160,90,115168,1,8,0:0:0:0:
166,81,115251,1,0,0:0:0:0:
152,69,115416,1,8,0:0:0:0:
223,164,115498,1,0,0:0:0:0:
223,164,115581,1,0,0:0:0:0:
223,164,115664,1,8,0:0:0:0:
373,101,115788,1,0,0:0:0:0:
373,101,115850,1,0,0:0:0:0:
373,101,115912,1,8,0:0:0:0:
232,106,116038,1,0,0:0:0:0:
232,106,116079,1,0,0:0:0:0:
232,106,116120,1,8,0:0:0:0:
232,106,116162,1,8,0:0:0:0:
319,75,116327,1,0,0:0:0:0:
319,75,116410,1,8,0:0:0:0:
323,85,116576,1,8,0:0:0:0:
323,85,116659,1,8,0:0:0:0:
374,90,116783,1,0,0:0:0:0:
374,90,116907,1,8,0:0:0:0:
374,90,117031,1,0,0:0:0:0:
158,108,117280,1,8,0:0:0:0:
160,117,117342,1,8,0:0:0:0:
158,108,117404,1,0,0:0:0:0:
182,190,117528,1,8,0:0:0:0:
197,199,117653,1,0,0:0:0:0:
197,199,117777,1,8,0:0:0:0:
197,198,117901,1,8,0:0:0:0:
196,197,118025,1,0,0:0:0:0:
196,197,118150,1,0,0:0:0:0:
196,197,118233,1,8,0:0:0:0:
183,140,118315,1,8,0:0:0:0:
183,140,118398,1,0,0:0:0:0:
225,146,118522,1,8,0:0:0:0:
225,146,118647,1,0,0:0:0:0:
225,146,118771,1,0,0:0:0:0:
225,146,118895,1,8,0:0:0:0:
225,146,119019,1,0,0:0:0:0:
225,146,119144,1,8,0:0:0:0:
225,146,119268,1,0,0:0:0:0:
225,146,119392,1,0,0:0:0:0:
235,138,119475,1,0,0:0:0:0:
235,138,119558,1,8,0:0:0:0:
235,138,119641,1,0,0:0:0:0:
234,138,119723,1,0,0:0:0:0:
234,138,119806,1,8,0:0:0:0:
96,189,119889,1,0,0:0:0:0:
296,63,120013,1,8,0:0:0:0:
296,63,120075,1,8,0:0:0:0:
296,63,120138,1,0,0:0:0:0:
148,103,120200,1,8,0:0:0:0:
296,63,120324,1,8,0:0:0:0:
179,106,120386,1,0,0:0:0:0:
256,138,120469,1,0,0:0:0:0:
312,94,120552,1,0,0:0:0:0:
206,171,120635,1,8,0:0:0:0:
298,171,120717,1,8,0:0:0:0:
298,171,120800,1,8,0:0:0:0:
206,171,120883,1,0,0:0:0:0:
291,170,120966,1,0,0:0:0:0:
291,170,121049,1,0,0:0:0:0:
206,171,121132,1,8,0:0:0:0:
291,170,121214,1,8,0:0:0:0:
291,170,121297,1,8,0:0:0:0:
158,108,121380,1,0,0:0:0:0:
182,190,121504,1,8,0:0:0:0:
197,199,121629,1,0,0:0:0:0:
197,199,121753,1,8,0:0:0:0:
232,130,121877,1,0,0:0:0:0:
232,130,121939,1,8,0:0:0:0:
232,130,122001,1,8,0:0:0:0:
196,97,122063,1,8,0:0:0:0:
196,197,122125,1,0,0:0:0:0:
183,140,122250,1,8,0:0:0:0:
183,140,122374,1,8,0:0:0:0:
225,146,122498,1,0,0:0:0:0:
225,146,122622,1,0,0:0:0:0:
225,146,122747,1,8,0:0:0:0:
225,146,122871,1,0,0:0:0:0:
225,146,122995,1,0,0:0:0:0:
225,146,123119,1,8,0:0:0:0:
225,146,123202,1,0,0:0:0:0:
115,177,123306,1,8,0:0:0:0:
178,117,123368,1,0,0:0:0:0:
184,114,123492,1,8,0:0:0:0:
236,161,123616,1,0,0:0:0:0:
236,161,123679,1,0,0:0:0:0:
235,161,123741,1,8,0:0:0:0:
294,201,123803,1,0,0:0:0:0:
294,201,123865,1,8,0:0:0:0:
233,161,123927,1,8,0:0:0:0:
228,161,123989,1,0,0:0:0:0:
228,161,124113,1,8,0:0:0:0:
228,161,124176,1,8,0:0:0:0:
224,161,124238,1,0,0:0:0:0:
366,213,124300,1,8,0:0:0:0:
224,161,124362,1,8,0:0:0:0:
224,161,124424,1,8,0:0:0:0:
224,161,124486,1,0,0:0:0:0:
357,211,124548,1,0,0:0:0:0:
359,212,124610,1,8,0:0:0:0:
357,211,124735,1,0,0:0:0:0:
357,211,124797,1,8,0:0:0:0:
357,211,124859,1,0,0:0:0:0:
306,181,124983,1,8,0:0:0:0:
306,181,125045,1,8,0:0:0:0:
306,181,125107,1,0,0:0:0:0:
306,181,125169,1,0,0:0:0:0:
306,181,125232,1,8,0:0:0:0:
306,181,125294,1,0,0:0:0:0:
306,181,125356,1,8,0:0:0:0:
