osu file format v14

[General]
AudioFilename: audio.mp3
AudioLeadIn: 0
PreviewTime: 44648
Countdown: 0
SampleSet: Normal
StackLeniency: 0.7
Mode: 3
LetterboxInBreaks: 0
SpecialStyle: 0
WidescreenStoryboard: 1

[Editor]
Bookmarks: 13098,25446,30931,36417
DistanceSpacing: 0.3
BeatDivisor: 8
GridSize: 32
TimelineZoom: 3.599999

[Metadata]
Title:Poseidon
TitleUnicode:Ποσειδών
Artist:1112 vs. Star*
ArtistUnicode:1112 vs. Star*
Creator:Asteria_
Version:Normal
Source:Phigros
Tags:dump superboygamer electronic instrumental cytoid video game videogame axya liaoxingyao dubstep drum and bass d&b dnb
BeatmapID:4118174
BeatmapSetID:1981975

[Difficulty]
HPDrainRate:7
CircleSize:4
OverallDifficulty:7
ApproachRate:5
SliderMultiplier:1.4
SliderTickRate:1

[Events]
//Background and Video events
0,0,"ezgif-1-a5b5944689.jpg",0,0
//Break Periods
//Storyboard Layer 0 (Background)
//Storyboard Layer 1 (Fail)
//Storyboard Layer 2 (Pass)
//Storyboard Layer 3 (Foreground)
//Storyboard Layer 4 (Overlay)
//Storyboard Sound Samples

[TimingPoints]
2176.8452902152,342.857142857143,4,1,1,10,1,0
13148,-100,4,1,1,35,0,0
47433,-100,4,1,1,35,0,1
69376,-100,4,1,1,10,0,0
76233,-100,4,1,1,35,0,0

[HitObjects]
64,192,2176,5,0,0:0:0:0:
192,192,2862,1,0,0:0:0:0:
320,192,3033,1,0,0:0:0:0:
448,192,3205,1,0,0:0:0:0:
320,192,3548,1,0,0:0:0:0:
192,192,3891,1,0,0:0:0:0:
64,192,4062,1,0,0:0:0:0:
64,192,4405,1,0,0:0:0:0:
192,192,4576,1,0,0:0:0:0:
320,192,4748,1,0,0:0:0:0:
448,192,4919,1,0,0:0:0:0:
448,192,5605,1,0,0:0:0:0:
64,192,5776,1,0,0:0:0:0:
192,192,5948,1,0,0:0:0:0:
448,192,6119,1,0,0:0:0:0:
320,192,6291,1,0,0:0:0:0:
192,192,6633,1,0,0:0:0:0:
192,192,6805,1,0,0:0:0:0:
64,192,7491,1,0,0:0:0:0:
448,192,7662,1,0,0:0:0:0:
448,192,8348,1,0,0:0:0:0:
320,192,8519,1,0,0:0:0:0:
192,192,8691,1,0,0:0:0:0:
320,192,8862,1,0,0:0:0:0:
64,192,9033,1,0,0:0:0:0:
64,192,9719,1,0,0:0:0:0:
192,192,10062,1,0,0:0:0:0:
320,192,10405,1,0,0:0:0:0:
192,192,10748,1,0,0:0:0:0:
320,192,10919,1,0,0:0:0:0:
448,192,11262,1,0,0:0:0:0:
448,192,11776,1,0,0:0:0:0:
192,192,12462,1,0,0:0:0:0:
64,192,13148,1,0,0:0:0:0:
448,192,13148,1,0,0:0:0:0:
320,192,13491,1,0,0:0:0:0:
448,192,13491,1,0,0:0:0:0:
192,192,13833,1,0,0:0:0:0:
320,192,14005,1,0,0:0:0:0:
448,192,14176,1,0,0:0:0:0:
64,192,14176,1,0,0:0:0:0:
320,192,14519,1,0,0:0:0:0:
64,192,14862,1,0,0:0:0:0:
448,192,14862,1,0,0:0:0:0:
192,192,15033,1,0,0:0:0:0:
64,192,15376,1,0,0:0:0:0:
192,192,15548,1,0,0:0:0:0:
448,192,15548,1,0,0:0:0:0:
320,192,15719,1,0,0:0:0:0:
448,192,15891,1,0,0:0:0:0:
192,192,16233,1,0,0:0:0:0:
64,192,16233,1,0,0:0:0:0:
448,192,16576,1,0,0:0:0:0:
64,192,16748,1,0,0:0:0:0:
192,192,16919,1,0,0:0:0:0:
320,192,16919,1,0,0:0:0:0:
448,192,17091,1,0,0:0:0:0:
64,192,17262,1,0,0:0:0:0:
320,192,17605,1,0,0:0:0:0:
192,192,17605,1,0,0:0:0:0:
192,192,17776,1,0,0:0:0:0:
192,192,18291,1,0,0:0:0:0:
448,192,18291,1,0,0:0:0:0:
64,192,18462,1,0,0:0:0:0:
448,192,18633,1,0,0:0:0:0:
320,192,18633,1,0,0:0:0:0:
192,192,18976,1,0,0:0:0:0:
64,192,18976,1,0,0:0:0:0:
448,192,19319,1,0,0:0:0:0:
320,192,19491,1,0,0:0:0:0:
192,192,19662,1,0,0:0:0:0:
64,192,19662,1,0,0:0:0:0:
320,192,19833,1,0,0:0:0:0:
64,192,20005,1,0,0:0:0:0:
320,192,20348,1,0,0:0:0:0:
448,192,20348,1,0,0:0:0:0:
64,192,20691,1,0,0:0:0:0:
192,192,21033,1,0,0:0:0:0:
320,192,21033,1,0,0:0:0:0:
448,192,21376,1,0,0:0:0:0:
192,192,21719,1,0,0:0:0:0:
64,192,21719,1,0,0:0:0:0:
320,192,21891,1,0,0:0:0:0:
448,192,22233,1,0,0:0:0:0:
64,192,22405,1,0,0:0:0:0:
320,192,22405,1,0,0:0:0:0:
448,192,22748,1,0,0:0:0:0:
320,192,22919,1,0,0:0:0:0:
192,192,23091,1,0,0:0:0:0:
64,192,23091,1,0,0:0:0:0:
448,192,23262,1,0,0:0:0:0:
192,192,23433,1,0,0:0:0:0:
320,192,23605,1,0,0:0:0:0:
64,192,23776,1,0,0:0:0:0:
448,192,23776,1,0,0:0:0:0:
192,192,23948,1,0,0:0:0:0:
448,192,24119,1,0,0:0:0:0:
192,192,25491,1,0,0:0:0:0:
448,192,25491,1,0,0:0:0:0:
64,192,25662,1,0,0:0:0:0:
320,192,25833,1,0,0:0:0:0:
192,192,25833,1,0,0:0:0:0:
448,192,26005,1,0,0:0:0:0:
192,192,26348,1,0,0:0:0:0:
64,192,26519,1,0,0:0:0:0:
448,192,26519,1,0,0:0:0:0:
320,192,26691,1,0,0:0:0:0:
192,192,26862,1,0,0:0:0:0:
448,192,27205,1,0,0:0:0:0:
64,192,27205,1,0,0:0:0:0:
320,192,27462,1,0,0:0:0:0:
320,192,27633,1,0,0:0:0:0:
192,192,27719,1,0,0:0:0:0:
448,192,27891,1,0,0:0:0:0:
64,192,27891,1,0,0:0:0:0:
192,192,28062,1,0,0:0:0:0:
320,192,28233,1,0,0:0:0:0:
64,192,28576,1,0,0:0:0:0:
192,192,28576,1,0,0:0:0:0:
448,192,28748,1,0,0:0:0:0:
320,192,29091,1,0,0:0:0:0:
192,192,29262,1,0,0:0:0:0:
64,192,29262,1,0,0:0:0:0:
448,192,29433,1,0,0:0:0:0:
192,192,29605,1,0,0:0:0:0:
448,192,29948,1,0,0:0:0:0:
320,192,29948,1,0,0:0:0:0:
192,192,30119,1,0,0:0:0:0:
192,192,30291,1,0,0:0:0:0:
320,192,30376,1,0,0:0:0:0:
64,192,30633,1,0,0:0:0:0:
192,192,30633,1,0,0:0:0:0:
192,192,30891,1,0,0:0:0:0:
320,192,30976,1,0,0:0:0:0:
448,192,30976,1,0,0:0:0:0:
192,192,31148,1,0,0:0:0:0:
64,192,31319,1,0,0:0:0:0:
320,192,31319,1,0,0:0:0:0:
448,192,31491,1,0,0:0:0:0:
320,192,31833,1,0,0:0:0:0:
64,192,32005,1,0,0:0:0:0:
192,192,32005,1,0,0:0:0:0:
448,192,32176,1,0,0:0:0:0:
192,192,32348,1,0,0:0:0:0:
320,192,32691,1,0,0:0:0:0:
448,192,32691,1,0,0:0:0:0:
64,192,32948,1,0,0:0:0:0:
64,192,33119,1,0,0:0:0:0:
192,192,33205,1,0,0:0:0:0:
320,192,33376,1,0,0:0:0:0:
448,192,33376,1,0,0:0:0:0:
192,192,33548,1,0,0:0:0:0:
64,192,33719,1,0,0:0:0:0:
320,192,34062,1,0,0:0:0:0:
192,192,34062,1,0,0:0:0:0:
448,192,34233,1,0,0:0:0:0:
192,192,34576,1,0,0:0:0:0:
448,192,34748,1,0,0:0:0:0:
64,192,34748,1,0,0:0:0:0:
320,192,34919,1,0,0:0:0:0:
448,192,35091,1,0,0:0:0:0:
192,192,35433,1,0,0:0:0:0:
64,192,35433,1,0,0:0:0:0:
320,192,35605,1,0,0:0:0:0:
320,192,35776,1,0,0:0:0:0:
192,192,35862,1,0,0:0:0:0:
64,192,36119,1,0,0:0:0:0:
448,192,36119,1,0,0:0:0:0:
192,192,36376,1,0,0:0:0:0:
320,192,36462,1,0,0:0:0:0:
448,192,36462,1,0,0:0:0:0:
64,192,36633,1,0,0:0:0:0:
320,192,36805,1,0,0:0:0:0:
192,192,36805,1,0,0:0:0:0:
448,192,36976,1,0,0:0:0:0:
192,192,37319,1,0,0:0:0:0:
64,192,37491,1,0,0:0:0:0:
448,192,37491,1,0,0:0:0:0:
320,192,37662,1,0,0:0:0:0:
192,192,37833,1,0,0:0:0:0:
448,192,38176,1,0,0:0:0:0:
64,192,38176,1,0,0:0:0:0:
320,192,38433,1,0,0:0:0:0:
320,192,38605,1,0,0:0:0:0:
192,192,38691,1,0,0:0:0:0:
448,192,38862,1,0,0:0:0:0:
64,192,38862,1,0,0:0:0:0:
192,192,39033,1,0,0:0:0:0:
320,192,39205,1,0,0:0:0:0:
64,192,39548,1,0,0:0:0:0:
192,192,39548,1,0,0:0:0:0:
448,192,39719,1,0,0:0:0:0:
320,192,40062,1,0,0:0:0:0:
192,192,40233,1,0,0:0:0:0:
64,192,40233,1,0,0:0:0:0:
448,192,40405,1,0,0:0:0:0:
192,192,40576,1,0,0:0:0:0:
448,192,40919,1,0,0:0:0:0:
320,192,40919,1,0,0:0:0:0:
192,192,41091,1,0,0:0:0:0:
192,192,41262,1,0,0:0:0:0:
320,192,41348,1,0,0:0:0:0:
64,192,41605,1,0,0:0:0:0:
192,192,41605,1,0,0:0:0:0:
192,192,41862,1,0,0:0:0:0:
320,192,41948,1,0,0:0:0:0:
448,192,41948,1,0,0:0:0:0:
192,192,42119,1,0,0:0:0:0:
64,192,42291,1,0,0:0:0:0:
320,192,42291,1,0,0:0:0:0:
448,192,42462,1,0,0:0:0:0:
320,192,42805,1,0,0:0:0:0:
64,192,42976,1,0,0:0:0:0:
192,192,42976,1,0,0:0:0:0:
448,192,43148,1,0,0:0:0:0:
192,192,43319,1,0,0:0:0:0:
320,192,43662,1,0,0:0:0:0:
448,192,43662,1,0,0:0:0:0:
64,192,43919,1,0,0:0:0:0:
64,192,44091,1,0,0:0:0:0:
192,192,44176,1,0,0:0:0:0:
320,192,44348,1,0,0:0:0:0:
448,192,44348,1,0,0:0:0:0:
192,192,44519,1,0,0:0:0:0:
64,192,44691,1,0,0:0:0:0:
320,192,45033,1,0,0:0:0:0:
192,192,45033,1,0,0:0:0:0:
448,192,45205,1,0,0:0:0:0:
192,192,45548,1,0,0:0:0:0:
448,192,45719,1,0,0:0:0:0:
64,192,45719,1,0,0:0:0:0:
320,192,45891,1,0,0:0:0:0:
448,192,46062,1,0,0:0:0:0:
192,192,46405,5,0,0:0:0:0:
64,192,46405,1,0,0:0:0:0:
320,192,46576,1,0,0:0:0:0:
320,192,46748,1,0,0:0:0:0:
192,192,46833,1,0,0:0:0:0:
64,192,47091,1,0,0:0:0:0:
448,192,47091,1,0,0:0:0:0:
448,192,47348,5,0,0:0:0:0:
320,192,47433,128,0,47776:0:0:0:0:
64,192,47433,1,0,0:0:0:0:
192,192,47776,1,0,0:0:0:0:
192,192,47948,1,0,0:0:0:0:
64,192,48119,128,0,48805:0:0:0:0:
448,192,48119,128,0,48462:0:0:0:0:
192,192,48462,128,0,48805:0:0:0:0:
320,192,48805,128,0,49148:0:0:0:0:
64,192,49148,1,0,0:0:0:0:
192,192,49319,1,0,0:0:0:0:
320,192,49491,1,0,0:0:0:0:
448,192,49491,128,0,49833:0:0:0:0:
64,192,49833,128,0,50176:0:0:0:0:
320,192,50176,128,0,50519:0:0:0:0:
448,192,50176,1,0,0:0:0:0:
192,192,50519,1,0,0:0:0:0:
192,192,50691,1,0,0:0:0:0:
448,192,50862,1,0,0:0:0:0:
64,192,50862,1,0,0:0:0:0:
320,192,51033,1,0,0:0:0:0:
64,192,51205,1,0,0:0:0:0:
192,192,51376,1,0,0:0:0:0:
320,192,51548,1,0,0:0:0:0:
320,192,51719,1,0,0:0:0:0:
192,192,51891,1,0,0:0:0:0:
192,192,52062,1,0,0:0:0:0:
64,192,52233,1,0,0:0:0:0:
448,192,52233,128,0,52576:0:0:0:0:
64,192,52576,128,0,52919:0:0:0:0:
192,192,52576,128,0,52919:0:0:0:0:
320,192,52919,128,0,53262:0:0:0:0:
448,192,52919,1,0,0:0:0:0:
192,192,53262,1,0,0:0:0:0:
192,192,53433,1,0,0:0:0:0:
448,192,53605,128,0,53948:0:0:0:0:
64,192,53605,128,0,54291:0:0:0:0:
192,192,53948,128,0,54291:0:0:0:0:
320,192,54291,128,0,54633:0:0:0:0:
64,192,54633,1,0,0:0:0:0:
192,192,54805,1,0,0:0:0:0:
320,192,54976,1,0,0:0:0:0:
448,192,54976,128,0,55319:0:0:0:0:
64,192,55319,128,0,55662:0:0:0:0:
320,192,55662,128,0,56005:0:0:0:0:
448,192,55662,1,0,0:0:0:0:
192,192,56005,1,0,0:0:0:0:
192,192,56176,1,0,0:0:0:0:
448,192,56348,1,0,0:0:0:0:
64,192,56348,1,0,0:0:0:0:
192,192,56519,1,0,0:0:0:0:
448,192,56691,1,0,0:0:0:0:
320,192,56862,1,0,0:0:0:0:
64,192,57033,1,0,0:0:0:0:
192,192,57205,1,0,0:0:0:0:
320,192,57376,1,0,0:0:0:0:
448,192,57548,1,0,0:0:0:0:
64,192,57719,1,0,0:0:0:0:
192,192,57891,1,0,0:0:0:0:
320,192,58062,1,0,0:0:0:0:
448,192,58233,1,0,0:0:0:0:
192,192,58405,1,0,0:0:0:0:
192,192,58576,1,0,0:0:0:0:
320,192,58748,128,0,59091:0:0:0:0:
448,192,58748,1,0,0:0:0:0:
448,192,59091,128,0,59433:0:0:0:0:
64,192,59091,128,0,59433:0:0:0:0:
192,192,59433,128,0,59776:0:0:0:0:
320,192,59776,128,0,60119:0:0:0:0:
192,192,60119,1,0,0:0:0:0:
192,192,60291,1,0,0:0:0:0:
448,192,60462,1,0,0:0:0:0:
64,192,60462,1,0,0:0:0:0:
448,192,60633,1,0,0:0:0:0:
64,192,60805,1,0,0:0:0:0:
64,192,60976,1,0,0:0:0:0:
320,192,61148,128,0,61491:0:0:0:0:
448,192,61148,1,0,0:0:0:0:
192,192,61491,1,0,0:0:0:0:
192,192,61662,1,0,0:0:0:0:
64,192,61833,1,0,0:0:0:0:
448,192,61833,128,0,62176:0:0:0:0:
320,192,62176,128,0,62348:0:0:0:0:
192,192,62348,128,0,62519:0:0:0:0:
64,192,62519,128,0,62862:0:0:0:0:
448,192,62862,1,0,0:0:0:0:
320,192,63033,1,0,0:0:0:0:
192,192,63205,1,0,0:0:0:0:
448,192,63205,1,0,0:0:0:0:
64,192,63376,1,0,0:0:0:0:
192,192,63548,128,0,63891:0:0:0:0:
320,192,63548,1,0,0:0:0:0:
448,192,63891,1,0,0:0:0:0:
320,192,63891,1,0,0:0:0:0:
320,192,64062,1,0,0:0:0:0:
64,192,64233,1,0,0:0:0:0:
192,192,64405,1,0,0:0:0:0:
320,192,64576,128,0,64919:0:0:0:0:
448,192,64576,1,0,0:0:0:0:
64,192,65091,128,0,65262:0:0:0:0:
448,192,65262,128,0,65433:0:0:0:0:
64,192,65433,1,0,0:0:0:0:
192,192,65519,1,0,0:0:0:0:
320,192,65605,1,0,0:0:0:0:
64,192,65776,1,0,0:0:0:0:
320,192,65948,1,0,0:0:0:0:
448,192,65948,1,0,0:0:0:0:
192,192,66119,1,0,0:0:0:0:
320,192,66291,128,0,66462:0:0:0:0:
192,192,66462,128,0,66633:0:0:0:0:
448,192,66633,128,0,66976:0:0:0:0:
64,192,66633,1,0,0:0:0:0:
192,192,66976,1,0,0:0:0:0:
192,192,67148,1,0,0:0:0:0:
448,192,67319,128,0,68005:0:0:0:0:
64,192,67319,128,0,68005:0:0:0:0:
320,192,68005,128,0,68519:0:0:0:0:
64,192,68519,1,0,0:0:0:0:
448,192,68691,1,0,0:0:0:0:
320,192,68691,1,0,0:0:0:0:
192,192,68862,1,0,0:0:0:0:
448,192,69033,1,0,0:0:0:0:
64,192,69033,1,0,0:0:0:0:
320,192,69205,1,0,0:0:0:0:
448,192,69291,1,0,0:0:0:0:
192,192,69376,1,0,0:0:0:0:
64,192,69376,1,0,0:0:0:0:
192,192,69719,1,0,0:0:0:0:
320,192,69891,1,0,0:0:0:0:
64,192,70233,1,0,0:0:0:0:
192,192,70405,1,0,0:0:0:0:
64,192,70748,1,0,0:0:0:0:
192,192,71776,1,0,0:0:0:0:
320,192,72119,1,0,0:0:0:0:
64,192,72462,1,0,0:0:0:0:
448,192,72633,1,0,0:0:0:0:
320,192,73148,1,0,0:0:0:0:
192,192,73319,1,0,0:0:0:0:
448,192,73491,1,0,0:0:0:0:
64,192,74519,1,0,0:0:0:0:
192,192,74691,1,0,0:0:0:0:
320,192,74862,1,0,0:0:0:0:
448,192,74862,1,0,0:0:0:0:
320,192,75205,1,0,0:0:0:0:
192,192,75376,1,0,0:0:0:0:
64,192,75719,1,0,0:0:0:0:
448,192,75891,1,0,0:0:0:0:
320,192,76233,1,0,0:0:0:0:
192,192,76233,1,0,0:0:0:0:
448,192,77262,1,0,0:0:0:0:
64,192,77605,1,0,0:0:0:0:
320,192,77605,1,0,0:0:0:0:
192,192,77948,1,0,0:0:0:0:
320,192,78119,1,0,0:0:0:0:
448,192,78291,1,0,0:0:0:0:
64,192,78291,1,0,0:0:0:0:
192,192,78633,1,0,0:0:0:0:
320,192,78976,1,0,0:0:0:0:
448,192,78976,1,0,0:0:0:0:
320,192,79491,1,0,0:0:0:0:
320,192,79662,1,0,0:0:0:0:
64,192,80348,1,0,0:0:0:0:
448,192,80348,1,0,0:0:0:0:
320,192,80691,1,0,0:0:0:0:
448,192,80691,1,0,0:0:0:0:
192,192,81033,1,0,0:0:0:0:
320,192,81205,1,0,0:0:0:0:
448,192,81376,1,0,0:0:0:0:
64,192,81376,1,0,0:0:0:0:
320,192,81719,1,0,0:0:0:0:
64,192,82062,1,0,0:0:0:0:
448,192,82062,1,0,0:0:0:0:
192,192,82233,1,0,0:0:0:0:
320,192,82319,1,0,0:0:0:0:
448,192,82491,1,0,0:0:0:0:
64,192,82576,1,0,0:0:0:0:
192,192,82748,1,0,0:0:0:0:
448,192,82748,1,0,0:0:0:0:
320,192,82919,1,0,0:0:0:0:
448,192,83091,1,0,0:0:0:0:
192,192,83433,1,0,0:0:0:0:
64,192,83433,1,0,0:0:0:0:
320,192,83776,1,0,0:0:0:0:
64,192,83948,1,0,0:0:0:0:
192,192,84119,1,0,0:0:0:0:
448,192,84119,1,0,0:0:0:0:
320,192,84291,1,0,0:0:0:0:
448,192,84462,1,0,0:0:0:0:
320,192,84805,1,0,0:0:0:0:
192,192,84805,1,0,0:0:0:0:
320,192,84976,1,0,0:0:0:0:
192,192,85233,1,0,0:0:0:0:
320,192,85319,1,0,0:0:0:0:
448,192,85491,1,0,0:0:0:0:
64,192,85491,1,0,0:0:0:0:
320,192,85662,1,0,0:0:0:0:
448,192,85748,1,0,0:0:0:0:
192,192,85833,1,0,0:0:0:0:
64,192,85833,1,0,0:0:0:0:
64,192,86176,1,0,0:0:0:0:
320,192,86176,1,0,0:0:0:0:
448,192,86519,1,0,0:0:0:0:
320,192,86691,1,0,0:0:0:0:
192,192,86862,1,0,0:0:0:0:
64,192,86862,1,0,0:0:0:0:
320,192,87033,1,0,0:0:0:0:
64,192,87205,1,0,0:0:0:0:
320,192,87548,1,0,0:0:0:0:
448,192,87548,1,0,0:0:0:0:
192,192,87805,1,0,0:0:0:0:
64,192,87891,1,0,0:0:0:0:
320,192,87976,1,0,0:0:0:0:
192,192,88062,1,0,0:0:0:0:
448,192,88233,1,0,0:0:0:0:
64,192,88233,1,0,0:0:0:0:
320,192,88576,1,0,0:0:0:0:
192,192,88919,1,0,0:0:0:0:
64,192,88919,1,0,0:0:0:0:
320,192,89091,1,0,0:0:0:0:
448,192,89433,1,0,0:0:0:0:
64,192,89605,1,0,0:0:0:0:
320,192,89605,1,0,0:0:0:0:
448,192,89948,1,0,0:0:0:0:
192,192,90291,1,0,0:0:0:0:
64,192,90291,1,0,0:0:0:0:
320,192,90633,1,0,0:0:0:0:
448,192,90719,1,0,0:0:0:0:
64,192,90976,1,0,0:0:0:0:
448,192,90976,1,0,0:0:0:0:
192,192,91233,1,0,0:0:0:0:
320,192,91319,1,0,0:0:0:0:
64,192,91319,1,0,0:0:0:0:
448,192,91662,1,0,0:0:0:0:
320,192,91662,1,0,0:0:0:0:
192,192,92005,1,0,0:0:0:0:
320,192,92176,1,0,0:0:0:0:
64,192,92348,1,0,0:0:0:0:
448,192,92348,1,0,0:0:0:0:
320,192,92691,1,0,0:0:0:0:
448,192,93033,1,0,0:0:0:0:
64,192,93033,1,0,0:0:0:0:
192,192,93205,1,0,0:0:0:0:
320,192,93291,1,0,0:0:0:0:
448,192,93462,1,0,0:0:0:0:
64,192,93548,1,0,0:0:0:0:
448,192,93719,1,0,0:0:0:0:
192,192,93719,1,0,0:0:0:0:
320,192,93891,1,0,0:0:0:0:
448,192,94062,1,0,0:0:0:0:
64,192,94405,1,0,0:0:0:0:
192,192,94405,1,0,0:0:0:0:
320,192,94748,1,0,0:0:0:0:
64,192,94919,1,0,0:0:0:0:
448,192,95091,1,0,0:0:0:0:
192,192,95091,1,0,0:0:0:0:
320,192,95262,1,0,0:0:0:0:
448,192,95433,1,0,0:0:0:0:
192,192,95776,1,0,0:0:0:0:
320,192,95776,1,0,0:0:0:0:
320,192,95948,1,0,0:0:0:0:
192,192,96205,1,0,0:0:0:0:
320,192,96291,1,0,0:0:0:0:
448,192,96462,1,0,0:0:0:0:
64,192,96462,1,0,0:0:0:0:
320,192,96633,1,0,0:0:0:0:
448,192,96719,1,0,0:0:0:0:
192,192,96805,1,0,0:0:0:0:
64,192,96805,1,0,0:0:0:0:
64,192,97148,1,0,0:0:0:0:
320,192,97148,1,0,0:0:0:0:
448,192,97491,1,0,0:0:0:0:
320,192,97662,1,0,0:0:0:0:
64,192,97833,1,0,0:0:0:0:
192,192,97833,1,0,0:0:0:0:
320,192,98005,1,0,0:0:0:0:
64,192,98176,1,0,0:0:0:0:
448,192,98519,1,0,0:0:0:0:
320,192,98519,1,0,0:0:0:0:
192,192,98776,1,0,0:0:0:0:
64,192,98862,1,0,0:0:0:0:
320,192,98948,1,0,0:0:0:0:
192,192,99033,1,0,0:0:0:0:
448,192,99205,1,0,0:0:0:0:
64,192,99205,1,0,0:0:0:0:
320,192,99548,1,0,0:0:0:0:
64,192,99891,1,0,0:0:0:0:
192,192,99891,1,0,0:0:0:0:
320,192,100062,1,0,0:0:0:0:
448,192,100405,1,0,0:0:0:0:
320,192,100576,1,0,0:0:0:0:
64,192,100576,1,0,0:0:0:0:
448,192,100919,1,0,0:0:0:0:
64,192,101262,1,0,0:0:0:0:
192,192,101262,1,0,0:0:0:0:
320,192,101605,1,0,0:0:0:0:
448,192,101691,1,0,0:0:0:0:
448,192,101948,1,0,0:0:0:0:
64,192,101948,1,0,0:0:0:0:
192,192,102205,1,0,0:0:0:0:
64,192,102291,1,0,0:0:0:0:
320,192,102291,1,0,0:0:0:0:
448,192,102633,1,0,0:0:0:0:
320,192,102633,1,0,0:0:0:0:
320,192,103148,1,0,0:0:0:0:
448,192,103319,1,0,0:0:0:0:
64,192,103319,1,0,0:0:0:0:
320,192,103833,1,0,0:0:0:0:
64,192,104005,1,0,0:0:0:0:
192,192,104005,1,0,0:0:0:0:
192,192,104519,1,0,0:0:0:0:
320,192,104691,1,0,0:0:0:0:
448,192,104691,1,0,0:0:0:0:
448,192,105033,1,0,0:0:0:0:
64,192,105033,1,0,0:0:0:0:
320,192,105376,1,0,0:0:0:0:
448,192,105376,1,0,0:0:0:0:
192,192,105891,1,0,0:0:0:0:
448,192,106062,1,0,0:0:0:0:
64,192,106062,1,0,0:0:0:0:
320,192,106576,1,0,0:0:0:0:
448,192,106748,1,0,0:0:0:0:
192,192,106748,1,0,0:0:0:0:
64,192,107005,1,0,0:0:0:0:
320,192,107262,1,0,0:0:0:0:
192,192,107433,1,0,0:0:0:0:
64,192,107433,1,0,0:0:0:0:
320,192,107776,1,0,0:0:0:0:
192,192,107776,1,0,0:0:0:0:
448,192,108119,1,0,0:0:0:0:
64,192,108119,1,0,0:0:0:0:
320,192,108633,1,0,0:0:0:0:
192,192,108805,1,0,0:0:0:0:
64,192,108805,1,0,0:0:0:0:
64,192,109319,1,0,0:0:0:0:
320,192,109491,1,0,0:0:0:0:
192,192,109491,1,0,0:0:0:0:
448,192,110005,1,0,0:0:0:0:
320,192,110176,1,0,0:0:0:0:
64,192,110176,1,0,0:0:0:0:
448,192,110519,1,0,0:0:0:0:
64,192,110519,1,0,0:0:0:0:
320,192,110862,1,0,0:0:0:0:
448,192,110862,1,0,0:0:0:0:
192,192,111376,1,0,0:0:0:0:
320,192,111548,1,0,0:0:0:0:
64,192,111548,1,0,0:0:0:0:
448,192,112062,1,0,0:0:0:0:
192,192,112233,1,0,0:0:0:0:
64,192,112233,1,0,0:0:0:0:
320,192,112491,1,0,0:0:0:0:
192,192,112748,1,0,0:0:0:0:
448,192,112919,1,0,0:0:0:0:
64,192,112919,1,0,0:0:0:0:
320,192,113176,1,0,0:0:0:0:
448,192,113262,1,0,0:0:0:0:
64,192,113262,1,0,0:0:0:0:
