osu file format v14

[General]
AudioFilename: audio.mp3
AudioLeadIn: 0
PreviewTime: 44648
Countdown: 0
SampleSet: Normal
StackLeniency: 0.7
Mode: 3
LetterboxInBreaks: 0
SpecialStyle: 0
WidescreenStoryboard: 1

[Editor]
Bookmarks: 13098,25446
DistanceSpacing: 0.3
BeatDivisor: 8
GridSize: 32
TimelineZoom: 3.599999

[Metadata]
Title:Poseidon
TitleUnicode:Ποσειδών
Artist:1112 vs. Star*
ArtistUnicode:1112 vs. Star*
Creator:Asteria_
Version:Hard
Source:Phigros
Tags:dump superboygamer electronic instrumental cytoid video game videogame axya liaoxingyao dubstep drum and bass d&b dnb
BeatmapID:4118999
BeatmapSetID:1981975

[Difficulty]
HPDrainRate:7.5
CircleSize:4
OverallDifficulty:7.5
ApproachRate:5
SliderMultiplier:1.4
SliderTickRate:1

[Events]
//Background and Video events
0,0,"ezgif-1-a5b5944689.jpg",0,0
//Break Periods
//Storyboard Layer 0 (Background)
//Storyboard Layer 1 (Fail)
//Storyboard Layer 2 (Pass)
//Storyboard Layer 3 (Foreground)
//Storyboard Layer 4 (Overlay)
//Storyboard Sound Samples

[TimingPoints]
2176.8452902152,342.857142857143,4,1,1,10,1,0
13148,-100,4,1,1,35,0,0
47433,-100,4,1,1,35,0,1
69376,-100,4,1,1,10,0,0
76233,-100,4,1,1,35,0,0

[HitObjects]
64,192,2176,128,0,2862:0:0:0:0:
192,192,2348,1,0,0:0:0:0:
320,192,2519,1,0,0:0:0:0:
448,192,2691,1,0,0:0:0:0:
192,192,2862,128,0,3033:0:0:0:0:
320,192,3033,128,0,3205:0:0:0:0:
448,192,3205,128,0,3548:0:0:0:0:
320,192,3548,128,0,3891:0:0:0:0:
64,192,3719,1,0,0:0:0:0:
192,192,3891,128,0,4062:0:0:0:0:
64,192,4062,128,0,4405:0:0:0:0:
448,192,4405,128,0,4576:0:0:0:0:
64,192,4576,128,0,4748:0:0:0:0:
192,192,4748,128,0,4919:0:0:0:0:
320,192,4919,128,0,5605:0:0:0:0:
64,192,5091,1,0,0:0:0:0:
192,192,5262,1,0,0:0:0:0:
448,192,5433,1,0,0:0:0:0:
64,192,5605,128,0,5776:0:0:0:0:
192,192,5776,128,0,5948:0:0:0:0:
320,192,5948,128,0,6119:0:0:0:0:
448,192,6119,128,0,6291:0:0:0:0:
320,192,6291,128,0,6633:0:0:0:0:
192,192,6462,1,0,0:0:0:0:
64,192,6633,128,0,6719:0:0:0:0:
64,192,6805,128,0,7491:0:0:0:0:
192,192,7491,128,0,7662:0:0:0:0:
320,192,7662,128,0,8348:0:0:0:0:
448,192,7833,1,0,0:0:0:0:
64,192,8005,1,0,0:0:0:0:
192,192,8176,1,0,0:0:0:0:
448,192,8348,128,0,8519:0:0:0:0:
64,192,8519,128,0,8691:0:0:0:0:
320,192,8691,128,0,8862:0:0:0:0:
192,192,8862,128,0,9033:0:0:0:0:
64,192,9033,128,0,9719:0:0:0:0:
192,192,9205,1,0,0:0:0:0:
320,192,9376,1,0,0:0:0:0:
448,192,9548,1,0,0:0:0:0:
192,192,9719,128,0,10062:0:0:0:0:
320,192,10062,128,0,10405:0:0:0:0:
448,192,10405,128,0,10748:0:0:0:0:
192,192,10576,1,0,0:0:0:0:
64,192,10748,128,0,10919:0:0:0:0:
320,192,10919,128,0,11262:0:0:0:0:
448,192,11262,128,0,11776:0:0:0:0:
320,192,11776,128,0,12462:0:0:0:0:
64,192,11948,1,0,0:0:0:0:
192,192,12119,1,0,0:0:0:0:
448,192,12291,1,0,0:0:0:0:
192,192,12462,128,0,13148:0:0:0:0:
320,192,12805,128,0,13148:0:0:0:0:
64,192,13148,128,0,13833:0:0:0:0:
448,192,13148,1,0,0:0:0:0:
448,192,13491,1,0,0:0:0:0:
320,192,13491,1,0,0:0:0:0:
192,192,13833,128,0,14005:0:0:0:0:
320,192,14005,128,0,14176:0:0:0:0:
448,192,14176,128,0,14519:0:0:0:0:
64,192,14176,1,0,0:0:0:0:
320,192,14519,128,0,14862:0:0:0:0:
192,192,14862,128,0,15033:0:0:0:0:
448,192,14862,1,0,0:0:0:0:
64,192,15033,128,0,15376:0:0:0:0:
320,192,15205,1,0,0:0:0:0:
448,192,15376,128,0,15548:0:0:0:0:
64,192,15548,128,0,15719:0:0:0:0:
320,192,15548,1,0,0:0:0:0:
192,192,15719,128,0,15891:0:0:0:0:
320,192,15891,128,0,16576:0:0:0:0:
192,192,16233,1,0,0:0:0:0:
448,192,16233,1,0,0:0:0:0:
64,192,16576,128,0,16748:0:0:0:0:
192,192,16748,128,0,16919:0:0:0:0:
320,192,16919,128,0,17091:0:0:0:0:
64,192,16919,1,0,0:0:0:0:
448,192,17091,128,0,17262:0:0:0:0:
320,192,17262,128,0,17605:0:0:0:0:
64,192,17605,128,0,17691:0:0:0:0:
448,192,17605,1,0,0:0:0:0:
64,192,17776,128,0,18462:0:0:0:0:
320,192,17948,1,0,0:0:0:0:
448,192,18291,1,0,0:0:0:0:
320,192,18291,1,0,0:0:0:0:
192,192,18462,128,0,18633:0:0:0:0:
320,192,18633,128,0,19319:0:0:0:0:
448,192,18633,1,0,0:0:0:0:
64,192,18976,1,0,0:0:0:0:
192,192,18976,1,0,0:0:0:0:
448,192,19319,128,0,19491:0:0:0:0:
64,192,19491,128,0,19662:0:0:0:0:
320,192,19662,128,0,19833:0:0:0:0:
448,192,19662,1,0,0:0:0:0:
192,192,19833,128,0,20005:0:0:0:0:
64,192,20005,128,0,20691:0:0:0:0:
320,192,20348,1,0,0:0:0:0:
448,192,20348,1,0,0:0:0:0:
192,192,20691,128,0,21033:0:0:0:0:
320,192,21033,128,0,21376:0:0:0:0:
64,192,21033,1,0,0:0:0:0:
448,192,21376,128,0,21719:0:0:0:0:
320,192,21548,1,0,0:0:0:0:
64,192,21719,128,0,21891:0:0:0:0:
192,192,21719,1,0,0:0:0:0:
320,192,21891,128,0,22233:0:0:0:0:
192,192,22062,1,0,0:0:0:0:
448,192,22233,128,0,22748:0:0:0:0:
320,192,22405,1,0,0:0:0:0:
64,192,22405,1,0,0:0:0:0:
192,192,22576,1,0,0:0:0:0:
64,192,22748,1,0,0:0:0:0:
192,192,22833,1,0,0:0:0:0:
320,192,22919,1,0,0:0:0:0:
448,192,23005,1,0,0:0:0:0:
64,192,23091,1,0,0:0:0:0:
192,192,23091,1,0,0:0:0:0:
320,192,23176,1,0,0:0:0:0:
448,192,23262,1,0,0:0:0:0:
64,192,23348,1,0,0:0:0:0:
448,192,23433,1,0,0:0:0:0:
320,192,23519,1,0,0:0:0:0:
192,192,23605,1,0,0:0:0:0:
64,192,23691,1,0,0:0:0:0:
320,192,23776,1,0,0:0:0:0:
448,192,23776,1,0,0:0:0:0:
192,192,23862,1,0,0:0:0:0:
64,192,23948,1,0,0:0:0:0:
448,192,24033,1,0,0:0:0:0:
192,192,24119,1,0,0:0:0:0:
320,192,24291,1,0,0:0:0:0:
448,192,24376,1,0,0:0:0:0:
192,192,24462,1,0,0:0:0:0:
64,192,24633,1,0,0:0:0:0:
448,192,24805,1,0,0:0:0:0:
192,192,24891,1,0,0:0:0:0:
320,192,24976,1,0,0:0:0:0:
192,192,25148,128,0,25491:0:0:0:0:
448,192,25233,1,0,0:0:0:0:
64,192,25405,1,0,0:0:0:0:
320,192,25491,128,0,25662:0:0:0:0:
448,192,25491,1,0,0:0:0:0:
192,192,25662,128,0,25833:0:0:0:0:
448,192,25833,128,0,26005:0:0:0:0:
64,192,25833,1,0,0:0:0:0:
320,192,26005,128,0,26348:0:0:0:0:
192,192,26348,128,0,26519:0:0:0:0:
448,192,26519,128,0,26691:0:0:0:0:
64,192,26519,1,0,0:0:0:0:
192,192,26691,128,0,26862:0:0:0:0:
64,192,26862,128,0,27719:0:0:0:0:
320,192,27205,1,0,0:0:0:0:
448,192,27205,1,0,0:0:0:0:
192,192,27462,1,0,0:0:0:0:
320,192,27462,1,0,0:0:0:0:
448,192,27633,1,0,0:0:0:0:
320,192,27719,128,0,27891:0:0:0:0:
448,192,27891,128,0,28062:0:0:0:0:
192,192,27891,1,0,0:0:0:0:
64,192,28062,128,0,28233:0:0:0:0:
320,192,28233,128,0,28576:0:0:0:0:
192,192,28576,128,0,28748:0:0:0:0:
64,192,28576,1,0,0:0:0:0:
448,192,28748,128,0,29091:0:0:0:0:
320,192,29091,128,0,29262:0:0:0:0:
64,192,29262,128,0,29433:0:0:0:0:
448,192,29262,1,0,0:0:0:0:
320,192,29433,128,0,29605:0:0:0:0:
192,192,29605,128,0,30119:0:0:0:0:
320,192,29948,1,0,0:0:0:0:
448,192,29948,1,0,0:0:0:0:
64,192,30119,128,0,30205:0:0:0:0:
64,192,30291,128,0,30976:0:0:0:0:
448,192,30376,1,0,0:0:0:0:
320,192,30462,1,0,0:0:0:0:
192,192,30633,1,0,0:0:0:0:
448,192,30633,1,0,0:0:0:0:
448,192,30891,1,0,0:0:0:0:
192,192,30976,1,0,0:0:0:0:
320,192,30976,128,0,31148:0:0:0:0:
192,192,31148,128,0,31319:0:0:0:0:
448,192,31319,128,0,31491:0:0:0:0:
64,192,31319,1,0,0:0:0:0:
320,192,31491,128,0,31833:0:0:0:0:
192,192,31833,128,0,32005:0:0:0:0:
64,192,32005,128,0,32176:0:0:0:0:
448,192,32005,1,0,0:0:0:0:
320,192,32176,128,0,32348:0:0:0:0:
448,192,32348,128,0,33205:0:0:0:0:
320,192,32691,1,0,0:0:0:0:
192,192,32691,1,0,0:0:0:0:
192,192,32948,1,0,0:0:0:0:
64,192,32948,1,0,0:0:0:0:
192,192,33119,1,0,0:0:0:0:
320,192,33205,128,0,33376:0:0:0:0:
192,192,33376,128,0,33548:0:0:0:0:
448,192,33376,1,0,0:0:0:0:
64,192,33548,128,0,33719:0:0:0:0:
320,192,33719,128,0,34062:0:0:0:0:
192,192,34062,128,0,34233:0:0:0:0:
64,192,34062,1,0,0:0:0:0:
448,192,34233,128,0,34576:0:0:0:0:
320,192,34576,128,0,34748:0:0:0:0:
64,192,34748,128,0,34919:0:0:0:0:
192,192,34748,1,0,0:0:0:0:
320,192,34919,128,0,35091:0:0:0:0:
448,192,35091,128,0,35605:0:0:0:0:
320,192,35433,1,0,0:0:0:0:
64,192,35433,1,0,0:0:0:0:
192,192,35605,128,0,35691:0:0:0:0:
192,192,35776,128,0,36462:0:0:0:0:
448,192,35862,1,0,0:0:0:0:
320,192,35948,1,0,0:0:0:0:
448,192,36119,1,0,0:0:0:0:
64,192,36119,1,0,0:0:0:0:
448,192,36376,1,0,0:0:0:0:
64,192,36462,1,0,0:0:0:0:
320,192,36462,128,0,36633:0:0:0:0:
192,192,36633,128,0,36805:0:0:0:0:
448,192,36805,128,0,36976:0:0:0:0:
64,192,36805,1,0,0:0:0:0:
320,192,36976,128,0,37319:0:0:0:0:
192,192,37319,128,0,37491:0:0:0:0:
448,192,37491,128,0,37662:0:0:0:0:
64,192,37491,1,0,0:0:0:0:
192,192,37662,128,0,37833:0:0:0:0:
64,192,37833,128,0,38691:0:0:0:0:
320,192,38176,1,0,0:0:0:0:
448,192,38176,1,0,0:0:0:0:
192,192,38433,1,0,0:0:0:0:
320,192,38433,1,0,0:0:0:0:
448,192,38605,1,0,0:0:0:0:
320,192,38691,128,0,38862:0:0:0:0:
448,192,38862,128,0,39033:0:0:0:0:
192,192,38862,1,0,0:0:0:0:
64,192,39033,128,0,39205:0:0:0:0:
320,192,39205,128,0,39548:0:0:0:0:
192,192,39548,128,0,39719:0:0:0:0:
64,192,39548,1,0,0:0:0:0:
448,192,39719,128,0,40062:0:0:0:0:
320,192,40062,128,0,40233:0:0:0:0:
64,192,40233,128,0,40405:0:0:0:0:
448,192,40233,1,0,0:0:0:0:
320,192,40405,128,0,40576:0:0:0:0:
192,192,40576,128,0,41091:0:0:0:0:
320,192,40919,1,0,0:0:0:0:
448,192,40919,1,0,0:0:0:0:
64,192,41091,128,0,41176:0:0:0:0:
64,192,41262,128,0,41948:0:0:0:0:
448,192,41348,1,0,0:0:0:0:
320,192,41433,1,0,0:0:0:0:
448,192,41605,1,0,0:0:0:0:
192,192,41605,1,0,0:0:0:0:
448,192,41862,1,0,0:0:0:0:
192,192,41948,1,0,0:0:0:0:
320,192,41948,128,0,42119:0:0:0:0:
192,192,42119,128,0,42291:0:0:0:0:
448,192,42291,128,0,42462:0:0:0:0:
64,192,42291,1,0,0:0:0:0:
320,192,42462,128,0,42805:0:0:0:0:
192,192,42805,128,0,42976:0:0:0:0:
64,192,42976,128,0,43148:0:0:0:0:
448,192,42976,1,0,0:0:0:0:
320,192,43148,128,0,43319:0:0:0:0:
448,192,43319,128,0,44176:0:0:0:0:
192,192,43662,1,0,0:0:0:0:
320,192,43662,1,0,0:0:0:0:
192,192,43919,1,0,0:0:0:0:
64,192,43919,1,0,0:0:0:0:
192,192,44091,1,0,0:0:0:0:
320,192,44176,128,0,44348:0:0:0:0:
192,192,44348,128,0,44519:0:0:0:0:
448,192,44348,1,0,0:0:0:0:
64,192,44519,128,0,44691:0:0:0:0:
320,192,44691,128,0,45033:0:0:0:0:
192,192,45033,128,0,45205:0:0:0:0:
64,192,45033,1,0,0:0:0:0:
448,192,45205,128,0,45548:0:0:0:0:
320,192,45548,128,0,45719:0:0:0:0:
64,192,45719,128,0,45891:0:0:0:0:
192,192,45719,1,0,0:0:0:0:
320,192,45891,128,0,46062:0:0:0:0:
448,192,46062,128,0,46576:0:0:0:0:
320,192,46405,1,0,0:0:0:0:
64,192,46405,1,0,0:0:0:0:
192,192,46576,128,0,46662:0:0:0:0:
192,192,46748,128,0,47433:0:0:0:0:
448,192,46833,1,0,0:0:0:0:
320,192,46919,1,0,0:0:0:0:
448,192,47091,1,0,0:0:0:0:
64,192,47091,1,0,0:0:0:0:
320,192,47348,1,0,0:0:0:0:
448,192,47433,128,0,47776:0:0:0:0:
64,192,47433,128,0,47776:0:0:0:0:
320,192,47776,1,0,0:0:0:0:
192,192,47776,1,0,0:0:0:0:
320,192,47948,1,0,0:0:0:0:
192,192,47948,1,0,0:0:0:0:
448,192,48119,1,0,0:0:0:0:
64,192,48119,1,0,0:0:0:0:
192,192,48205,1,0,0:0:0:0:
320,192,48291,1,0,0:0:0:0:
448,192,48376,1,0,0:0:0:0:
64,192,48462,1,0,0:0:0:0:
192,192,48548,1,0,0:0:0:0:
448,192,48633,1,0,0:0:0:0:
320,192,48719,1,0,0:0:0:0:
192,192,48805,128,0,49148:0:0:0:0:
64,192,48976,128,0,49148:0:0:0:0:
448,192,49148,1,0,0:0:0:0:
192,192,49233,1,0,0:0:0:0:
320,192,49319,1,0,0:0:0:0:
64,192,49405,1,0,0:0:0:0:
448,192,49491,1,0,0:0:0:0:
320,192,49491,128,0,49662:0:0:0:0:
192,192,49662,128,0,49833:0:0:0:0:
320,192,49833,128,0,50005:0:0:0:0:
192,192,50005,128,0,50176:0:0:0:0:
64,192,50176,128,0,50519:0:0:0:0:
448,192,50176,128,0,50519:0:0:0:0:
320,192,50519,1,0,0:0:0:0:
192,192,50519,1,0,0:0:0:0:
320,192,50691,1,0,0:0:0:0:
192,192,50691,1,0,0:0:0:0:
448,192,50862,1,0,0:0:0:0:
64,192,50862,1,0,0:0:0:0:
192,192,50948,1,0,0:0:0:0:
320,192,51033,1,0,0:0:0:0:
192,192,51119,1,0,0:0:0:0:
448,192,51205,1,0,0:0:0:0:
320,192,51291,1,0,0:0:0:0:
192,192,51376,1,0,0:0:0:0:
320,192,51462,1,0,0:0:0:0:
64,192,51548,1,0,0:0:0:0:
448,192,51633,1,0,0:0:0:0:
64,192,51719,1,0,0:0:0:0:
448,192,51805,1,0,0:0:0:0:
192,192,51891,1,0,0:0:0:0:
320,192,51976,1,0,0:0:0:0:
192,192,52062,1,0,0:0:0:0:
320,192,52148,1,0,0:0:0:0:
64,192,52233,1,0,0:0:0:0:
192,192,52233,128,0,52576:0:0:0:0:
448,192,52405,128,0,52576:0:0:0:0:
320,192,52576,128,0,52919:0:0:0:0:
192,192,52748,128,0,52919:0:0:0:0:
448,192,52919,128,0,53262:0:0:0:0:
64,192,52919,128,0,53262:0:0:0:0:
320,192,53262,1,0,0:0:0:0:
192,192,53262,1,0,0:0:0:0:
320,192,53433,1,0,0:0:0:0:
192,192,53433,1,0,0:0:0:0:
448,192,53605,1,0,0:0:0:0:
64,192,53605,1,0,0:0:0:0:
192,192,53691,1,0,0:0:0:0:
320,192,53776,1,0,0:0:0:0:
448,192,53862,1,0,0:0:0:0:
64,192,53948,1,0,0:0:0:0:
192,192,54033,1,0,0:0:0:0:
448,192,54119,1,0,0:0:0:0:
320,192,54205,1,0,0:0:0:0:
192,192,54291,128,0,54633:0:0:0:0:
64,192,54462,128,0,54633:0:0:0:0:
448,192,54633,1,0,0:0:0:0:
192,192,54719,1,0,0:0:0:0:
320,192,54805,1,0,0:0:0:0:
64,192,54891,1,0,0:0:0:0:
448,192,54976,1,0,0:0:0:0:
320,192,54976,128,0,55148:0:0:0:0:
192,192,55148,128,0,55319:0:0:0:0:
320,192,55319,128,0,55491:0:0:0:0:
192,192,55491,128,0,55662:0:0:0:0:
64,192,55662,128,0,56005:0:0:0:0:
448,192,55662,128,0,56005:0:0:0:0:
320,192,56005,1,0,0:0:0:0:
192,192,56005,1,0,0:0:0:0:
320,192,56176,1,0,0:0:0:0:
192,192,56176,1,0,0:0:0:0:
448,192,56348,1,0,0:0:0:0:
64,192,56348,1,0,0:0:0:0:
192,192,56433,1,0,0:0:0:0:
320,192,56519,1,0,0:0:0:0:
192,192,56605,1,0,0:0:0:0:
448,192,56691,1,0,0:0:0:0:
320,192,56776,1,0,0:0:0:0:
192,192,56862,1,0,0:0:0:0:
320,192,56948,1,0,0:0:0:0:
64,192,57033,128,0,57205:0:0:0:0:
192,192,57205,128,0,57376:0:0:0:0:
320,192,57376,128,0,57548:0:0:0:0:
448,192,57548,128,0,57719:0:0:0:0:
320,192,57719,1,0,0:0:0:0:
64,192,57719,128,0,57891:0:0:0:0:
192,192,57891,128,0,58062:0:0:0:0:
320,192,58062,128,0,58233:0:0:0:0:
448,192,58233,128,0,58405:0:0:0:0:
64,192,58405,1,0,0:0:0:0:
192,192,58405,1,0,0:0:0:0:
448,192,58491,1,0,0:0:0:0:
320,192,58576,1,0,0:0:0:0:
448,192,58662,1,0,0:0:0:0:
192,192,58748,128,0,59091:0:0:0:0:
64,192,58748,128,0,59091:0:0:0:0:
448,192,59091,128,0,59433:0:0:0:0:
320,192,59091,128,0,59776:0:0:0:0:
192,192,59433,128,0,59776:0:0:0:0:
448,192,59776,128,0,59948:0:0:0:0:
64,192,59948,128,0,60119:0:0:0:0:
320,192,60119,1,0,0:0:0:0:
448,192,60205,1,0,0:0:0:0:
320,192,60291,1,0,0:0:0:0:
448,192,60376,1,0,0:0:0:0:
192,192,60462,1,0,0:0:0:0:
320,192,60548,1,0,0:0:0:0:
192,192,60633,1,0,0:0:0:0:
320,192,60719,1,0,0:0:0:0:
64,192,60805,1,0,0:0:0:0:
192,192,60891,1,0,0:0:0:0:
64,192,60976,1,0,0:0:0:0:
192,192,61062,1,0,0:0:0:0:
448,192,61148,128,0,61491:0:0:0:0:
320,192,61148,128,0,61491:0:0:0:0:
64,192,61491,1,0,0:0:0:0:
192,192,61491,1,0,0:0:0:0:
320,192,61662,1,0,0:0:0:0:
192,192,61662,1,0,0:0:0:0:
64,192,61833,1,0,0:0:0:0:
448,192,61833,128,0,62176:0:0:0:0:
320,192,62176,128,0,62348:0:0:0:0:
192,192,62348,1,0,0:0:0:0:
64,192,62519,1,0,0:0:0:0:
192,192,62605,1,0,0:0:0:0:
320,192,62691,1,0,0:0:0:0:
448,192,62776,1,0,0:0:0:0:
64,192,62862,1,0,0:0:0:0:
64,192,63033,1,0,0:0:0:0:
448,192,63205,1,0,0:0:0:0:
64,192,63205,1,0,0:0:0:0:
64,192,63376,1,0,0:0:0:0:
448,192,63548,128,0,63891:0:0:0:0:
320,192,63548,128,0,63891:0:0:0:0:
192,192,63891,128,0,64233:0:0:0:0:
64,192,63891,128,0,64233:0:0:0:0:
320,192,64062,128,0,64233:0:0:0:0:
448,192,64233,1,0,0:0:0:0:
192,192,64319,1,0,0:0:0:0:
320,192,64405,1,0,0:0:0:0:
64,192,64491,1,0,0:0:0:0:
448,192,64576,128,0,64919:0:0:0:0:
320,192,64576,128,0,64919:0:0:0:0:
192,192,65091,128,0,65262:0:0:0:0:
448,192,65262,128,0,65433:0:0:0:0:
64,192,65433,1,0,0:0:0:0:
192,192,65519,1,0,0:0:0:0:
320,192,65605,128,0,65776:0:0:0:0:
64,192,65776,128,0,65948:0:0:0:0:
448,192,65948,1,0,0:0:0:0:
320,192,65948,128,0,66033:0:0:0:0:
320,192,66119,128,0,66205:0:0:0:0:
320,192,66291,1,0,0:0:0:0:
192,192,66376,1,0,0:0:0:0:
320,192,66462,1,0,0:0:0:0:
192,192,66548,1,0,0:0:0:0:
448,192,66633,128,0,66976:0:0:0:0:
64,192,66633,128,0,66976:0:0:0:0:
320,192,66976,1,0,0:0:0:0:
192,192,66976,1,0,0:0:0:0:
320,192,67148,1,0,0:0:0:0:
192,192,67148,1,0,0:0:0:0:
64,192,67319,1,0,0:0:0:0:
448,192,67319,128,0,67662:0:0:0:0:
320,192,67491,128,0,67662:0:0:0:0:
192,192,67662,128,0,68005:0:0:0:0:
64,192,67833,128,0,68005:0:0:0:0:
448,192,68005,128,0,68348:0:0:0:0:
320,192,68005,128,0,68348:0:0:0:0:
320,192,68519,1,0,0:0:0:0:
448,192,68691,1,0,0:0:0:0:
320,192,68691,1,0,0:0:0:0:
192,192,68862,1,0,0:0:0:0:
192,192,69033,1,0,0:0:0:0:
64,192,69033,1,0,0:0:0:0:
448,192,69205,1,0,0:0:0:0:
320,192,69291,1,0,0:0:0:0:
192,192,69376,128,0,69719:0:0:0:0:
320,192,69719,128,0,69891:0:0:0:0:
448,192,69891,128,0,70233:0:0:0:0:
64,192,70233,128,0,70405:0:0:0:0:
192,192,70405,128,0,70748:0:0:0:0:
64,192,70748,128,0,71091:0:0:0:0:
64,192,71776,128,0,72119:0:0:0:0:
320,192,72119,128,0,72462:0:0:0:0:
192,192,72462,128,0,72633:0:0:0:0:
448,192,72633,128,0,73148:0:0:0:0:
320,192,73148,128,0,73319:0:0:0:0:
192,192,73319,128,0,73491:0:0:0:0:
448,192,73491,128,0,73833:0:0:0:0:
64,192,74519,128,0,74691:0:0:0:0:
192,192,74691,128,0,74862:0:0:0:0:
448,192,74862,1,0,0:0:0:0:
320,192,74862,128,0,75205:0:0:0:0:
192,192,75205,128,0,75376:0:0:0:0:
64,192,75376,128,0,75719:0:0:0:0:
192,192,75719,128,0,75891:0:0:0:0:
320,192,75891,128,0,76233:0:0:0:0:
64,192,76233,1,0,0:0:0:0:
448,192,76233,128,0,76576:0:0:0:0:
448,192,77262,128,0,77605:0:0:0:0:
64,192,77605,128,0,77948:0:0:0:0:
320,192,77605,1,0,0:0:0:0:
192,192,77948,128,0,78119:0:0:0:0:
320,192,78119,128,0,78633:0:0:0:0:
64,192,78291,1,0,0:0:0:0:
192,192,78291,1,0,0:0:0:0:
448,192,78633,128,0,78976:0:0:0:0:
64,192,78976,128,0,79491:0:0:0:0:
192,192,78976,1,0,0:0:0:0:
448,192,79148,1,0,0:0:0:0:
320,192,79233,1,0,0:0:0:0:
192,192,79319,1,0,0:0:0:0:
448,192,79491,128,0,79576:0:0:0:0:
448,192,79662,128,0,80005:0:0:0:0:
192,192,79833,1,0,0:0:0:0:
64,192,80005,128,0,80348:0:0:0:0:
320,192,80091,1,0,0:0:0:0:
320,192,80262,1,0,0:0:0:0:
192,192,80348,128,0,80948:0:0:0:0:
448,192,80348,1,0,0:0:0:0:
448,192,80691,1,0,0:0:0:0:
320,192,80691,1,0,0:0:0:0:
192,192,81033,128,0,81205:0:0:0:0:
320,192,81205,128,0,81376:0:0:0:0:
448,192,81376,128,0,81719:0:0:0:0:
64,192,81376,1,0,0:0:0:0:
320,192,81719,128,0,82062:0:0:0:0:
192,192,82062,128,0,82233:0:0:0:0:
448,192,82062,1,0,0:0:0:0:
64,192,82233,128,0,82576:0:0:0:0:
192,192,82319,1,0,0:0:0:0:
320,192,82491,1,0,0:0:0:0:
448,192,82576,128,0,82748:0:0:0:0:
64,192,82748,128,0,82919:0:0:0:0:
320,192,82748,1,0,0:0:0:0:
192,192,82919,128,0,83091:0:0:0:0:
320,192,83091,128,0,83776:0:0:0:0:
192,192,83433,1,0,0:0:0:0:
448,192,83433,1,0,0:0:0:0:
64,192,83776,128,0,83948:0:0:0:0:
192,192,83948,128,0,84119:0:0:0:0:
320,192,84119,128,0,84291:0:0:0:0:
64,192,84119,1,0,0:0:0:0:
448,192,84291,128,0,84462:0:0:0:0:
320,192,84462,128,0,84805:0:0:0:0:
64,192,84805,128,0,84891:0:0:0:0:
448,192,84805,1,0,0:0:0:0:
64,192,84976,128,0,85662:0:0:0:0:
448,192,85233,1,0,0:0:0:0:
320,192,85319,1,0,0:0:0:0:
448,192,85491,1,0,0:0:0:0:
192,192,85491,1,0,0:0:0:0:
192,192,85662,128,0,85833:0:0:0:0:
448,192,85748,1,0,0:0:0:0:
320,192,85833,128,0,86519:0:0:0:0:
64,192,85833,1,0,0:0:0:0:
64,192,86176,1,0,0:0:0:0:
192,192,86176,1,0,0:0:0:0:
448,192,86519,128,0,86691:0:0:0:0:
64,192,86691,128,0,86862:0:0:0:0:
320,192,86862,128,0,87033:0:0:0:0:
448,192,86862,1,0,0:0:0:0:
192,192,87033,128,0,87205:0:0:0:0:
64,192,87205,128,0,87891:0:0:0:0:
320,192,87548,1,0,0:0:0:0:
448,192,87548,1,0,0:0:0:0:
320,192,87805,1,0,0:0:0:0:
192,192,87891,128,0,88233:0:0:0:0:
320,192,87976,1,0,0:0:0:0:
448,192,88062,1,0,0:0:0:0:
320,192,88233,128,0,88576:0:0:0:0:
64,192,88233,1,0,0:0:0:0:
448,192,88576,128,0,88919:0:0:0:0:
64,192,88919,128,0,89091:0:0:0:0:
192,192,88919,1,0,0:0:0:0:
320,192,89091,128,0,89433:0:0:0:0:
448,192,89433,128,0,89776:0:0:0:0:
320,192,89605,1,0,0:0:0:0:
64,192,89605,1,0,0:0:0:0:
448,192,89948,128,0,90633:0:0:0:0:
320,192,90291,1,0,0:0:0:0:
192,192,90291,1,0,0:0:0:0:
64,192,90633,128,0,91319:0:0:0:0:
320,192,90719,1,0,0:0:0:0:
448,192,90805,1,0,0:0:0:0:
320,192,90976,1,0,0:0:0:0:
192,192,90976,1,0,0:0:0:0:
448,192,91233,1,0,0:0:0:0:
192,192,91319,128,0,91919:0:0:0:0:
320,192,91319,1,0,0:0:0:0:
448,192,91662,1,0,0:0:0:0:
320,192,91662,1,0,0:0:0:0:
192,192,92005,128,0,92176:0:0:0:0:
320,192,92176,128,0,92348:0:0:0:0:
448,192,92348,128,0,92691:0:0:0:0:
64,192,92348,1,0,0:0:0:0:
320,192,92691,128,0,93033:0:0:0:0:
192,192,93033,128,0,93205:0:0:0:0:
448,192,93033,1,0,0:0:0:0:
64,192,93205,128,0,93548:0:0:0:0:
192,192,93291,1,0,0:0:0:0:
320,192,93462,1,0,0:0:0:0:
448,192,93548,128,0,93719:0:0:0:0:
64,192,93719,128,0,93891:0:0:0:0:
320,192,93719,1,0,0:0:0:0:
192,192,93891,128,0,94062:0:0:0:0:
320,192,94062,128,0,94748:0:0:0:0:
192,192,94405,1,0,0:0:0:0:
448,192,94405,1,0,0:0:0:0:
64,192,94748,128,0,94919:0:0:0:0:
192,192,94919,128,0,95091:0:0:0:0:
320,192,95091,128,0,95262:0:0:0:0:
64,192,95091,1,0,0:0:0:0:
448,192,95262,128,0,95433:0:0:0:0:
320,192,95433,128,0,95776:0:0:0:0:
64,192,95776,128,0,95862:0:0:0:0:
448,192,95776,1,0,0:0:0:0:
64,192,95948,128,0,96633:0:0:0:0:
448,192,96205,1,0,0:0:0:0:
320,192,96291,1,0,0:0:0:0:
448,192,96462,1,0,0:0:0:0:
192,192,96462,1,0,0:0:0:0:
192,192,96633,128,0,96805:0:0:0:0:
448,192,96719,1,0,0:0:0:0:
320,192,96805,128,0,97491:0:0:0:0:
64,192,96805,1,0,0:0:0:0:
64,192,97148,1,0,0:0:0:0:
192,192,97148,1,0,0:0:0:0:
448,192,97491,128,0,97662:0:0:0:0:
64,192,97662,128,0,97833:0:0:0:0:
320,192,97833,128,0,98005:0:0:0:0:
448,192,97833,1,0,0:0:0:0:
192,192,98005,128,0,98176:0:0:0:0:
64,192,98176,128,0,98862:0:0:0:0:
320,192,98519,1,0,0:0:0:0:
448,192,98519,1,0,0:0:0:0:
320,192,98776,1,0,0:0:0:0:
192,192,98862,128,0,99205:0:0:0:0:
320,192,98948,1,0,0:0:0:0:
448,192,99033,1,0,0:0:0:0:
320,192,99205,128,0,99548:0:0:0:0:
64,192,99205,1,0,0:0:0:0:
448,192,99548,128,0,99891:0:0:0:0:
64,192,99891,128,0,100062:0:0:0:0:
192,192,99891,1,0,0:0:0:0:
320,192,100062,128,0,100405:0:0:0:0:
448,192,100405,128,0,100833:0:0:0:0:
320,192,100576,1,0,0:0:0:0:
64,192,100576,1,0,0:0:0:0:
448,192,100919,128,0,101605:0:0:0:0:
320,192,101262,1,0,0:0:0:0:
192,192,101262,1,0,0:0:0:0:
64,192,101605,128,0,102291:0:0:0:0:
320,192,101691,1,0,0:0:0:0:
448,192,101776,1,0,0:0:0:0:
320,192,101948,1,0,0:0:0:0:
192,192,101948,1,0,0:0:0:0:
448,192,102205,1,0,0:0:0:0:
320,192,102291,128,0,105033:0:0:0:0:
192,192,102633,1,0,0:0:0:0:
64,192,102633,1,0,0:0:0:0:
192,192,102976,1,0,0:0:0:0:
448,192,103148,1,0,0:0:0:0:
192,192,103319,1,0,0:0:0:0:
64,192,103319,1,0,0:0:0:0:
192,192,103662,1,0,0:0:0:0:
448,192,103833,1,0,0:0:0:0:
192,192,104005,1,0,0:0:0:0:
64,192,104005,1,0,0:0:0:0:
192,192,104348,1,0,0:0:0:0:
448,192,104519,1,0,0:0:0:0:
192,192,104691,1,0,0:0:0:0:
64,192,104691,1,0,0:0:0:0:
448,192,105033,1,0,0:0:0:0:
64,192,105033,1,0,0:0:0:0:
192,192,105205,1,0,0:0:0:0:
320,192,105376,1,0,0:0:0:0:
448,192,105376,1,0,0:0:0:0:
64,192,105548,1,0,0:0:0:0:
192,192,105633,1,0,0:0:0:0:
448,192,105719,1,0,0:0:0:0:
192,192,105891,1,0,0:0:0:0:
320,192,106062,1,0,0:0:0:0:
448,192,106062,1,0,0:0:0:0:
192,192,106233,1,0,0:0:0:0:
64,192,106319,1,0,0:0:0:0:
320,192,106405,1,0,0:0:0:0:
192,192,106576,1,0,0:0:0:0:
64,192,106748,1,0,0:0:0:0:
448,192,106748,1,0,0:0:0:0:
192,192,106919,1,0,0:0:0:0:
320,192,107005,1,0,0:0:0:0:
448,192,107091,1,0,0:0:0:0:
192,192,107262,1,0,0:0:0:0:
448,192,107433,1,0,0:0:0:0:
64,192,107433,1,0,0:0:0:0:
320,192,107605,1,0,0:0:0:0:
448,192,107691,1,0,0:0:0:0:
64,192,107776,1,0,0:0:0:0:
192,192,107819,1,0,0:0:0:0:
320,192,107948,1,0,0:0:0:0:
448,192,108119,1,0,0:0:0:0:
64,192,108119,1,0,0:0:0:0:
320,192,108291,1,0,0:0:0:0:
192,192,108376,1,0,0:0:0:0:
448,192,108462,1,0,0:0:0:0:
320,192,108633,1,0,0:0:0:0:
192,192,108805,1,0,0:0:0:0:
64,192,108805,1,0,0:0:0:0:
448,192,108976,1,0,0:0:0:0:
64,192,109062,1,0,0:0:0:0:
192,192,109148,1,0,0:0:0:0:
320,192,109319,1,0,0:0:0:0:
448,192,109491,1,0,0:0:0:0:
64,192,109491,1,0,0:0:0:0:
192,192,109662,1,0,0:0:0:0:
448,192,109748,1,0,0:0:0:0:
320,192,109833,1,0,0:0:0:0:
192,192,110005,1,0,0:0:0:0:
448,192,110176,1,0,0:0:0:0:
64,192,110176,1,0,0:0:0:0:
192,192,110348,1,0,0:0:0:0:
64,192,110433,1,0,0:0:0:0:
448,192,110519,1,0,0:0:0:0:
320,192,110519,1,0,0:0:0:0:
192,192,110691,1,0,0:0:0:0:
448,192,110862,1,0,0:0:0:0:
64,192,110862,1,0,0:0:0:0:
320,192,111033,1,0,0:0:0:0:
192,192,111119,1,0,0:0:0:0:
448,192,111205,1,0,0:0:0:0:
320,192,111376,1,0,0:0:0:0:
192,192,111548,1,0,0:0:0:0:
64,192,111548,1,0,0:0:0:0:
448,192,111719,1,0,0:0:0:0:
320,192,111805,1,0,0:0:0:0:
192,192,111891,1,0,0:0:0:0:
64,192,112062,1,0,0:0:0:0:
192,192,112233,1,0,0:0:0:0:
448,192,112233,1,0,0:0:0:0:
320,192,112405,1,0,0:0:0:0:
64,192,112491,1,0,0:0:0:0:
192,192,112576,1,0,0:0:0:0:
448,192,112748,1,0,0:0:0:0:
192,192,112919,1,0,0:0:0:0:
64,192,112919,1,0,0:0:0:0:
448,192,113005,1,0,0:0:0:0:
320,192,113091,1,0,0:0:0:0:
192,192,113176,1,0,0:0:0:0:
448,192,113262,1,0,0:0:0:0:
64,192,113262,1,0,0:0:0:0:
