osu file format v14

[General]
AudioFilename: audio.mp3
AudioLeadIn: 0
PreviewTime: 15270
Countdown: 1
SampleSet: Normal
StackLeniency: 0.3
Mode: 0
LetterboxInBreaks: 0
WidescreenStoryboard: 0

[Editor]
Bookmarks: 57699,58556,61985,127127
DistanceSpacing: 1
BeatDivisor: 4
GridSize: 8
TimelineZoom: 1

[Metadata]
Title:The Summer Festival of wood elfs
TitleUnicode:木灵们的夏夜祭
Artist:11
ArtistUnicode:时依
Creator:SDpeople
Version:Arcturus
Source:東方夏夜祭 ~ Shining Shooting Star.
Tags:東方Project touhou
BeatmapID:2094676
BeatmapSetID:1000764

[Difficulty]
HPDrainRate:5
CircleSize:3.8
OverallDifficulty:6
ApproachRate:7.5
SliderMultiplier:1.7
SliderTickRate:1

[Events]
//Background and Video events
0,0,"BG.jpg",0,0
//Break Periods
//Storyboard Layer 0 (Background)
//Storyboard Layer 1 (Fail)
//Storyboard Layer 2 (Pass)
//Storyboard Layer 3 (Foreground)
//Storyboard Sound Samples

[TimingPoints]
1985,428.571428571429,4,2,0,40,1,0
15270,-100,4,1,0,50,0,0
27699,-714.285714285714,4,1,0,40,0,0
29413,-133.333333333333,4,1,0,40,0,0
32842,-714.285714285714,4,1,0,40,0,0
34556,-357.142857142857,4,1,0,40,0,0
36270,-714.285714285714,4,1,0,40,0,0
37556,-133.333333333333,4,1,0,40,0,0
39699,-357.142857142857,4,1,0,40,0,0
43127,-133.333333333333,4,1,0,50,0,0
56842,-133.333333333333,4,1,0,20,0,0
57699,-100,4,1,0,50,0,0
57699,-100,4,1,0,50,0,0
85985,-200,4,1,0,50,0,0
91127,-100,4,1,0,50,0,0
104842,-200,4,1,0,50,0,0
106127,-100,4,1,0,50,0,0
116842,-714.285714285714,4,1,0,50,0,0
118556,-133.333333333333,4,1,0,50,0,0
126270,-200,4,1,0,10,0,0

[Colours]
Combo1 : 121,0,0
Combo2 : 0,157,0
Combo3 : 0,255,64
Combo4 : 0,255,128
Combo5 : 255,0,0
Combo6 : 255,66,66

[HitObjects]
97,70,1985,5,2,0:0:0:0:
186,56,2199,1,0,0:0:0:0:
186,56,2306,1,0,0:0:0:0:
186,56,2413,2,0,P|185:98|162:134,1,85,0|8,0:0|0:0,0:0:0:0:
68,156,2842,5,2,0:0:0:0:
7,222,3056,1,0,0:0:0:0:
7,222,3163,1,0,0:0:0:0:
7,222,3270,2,0,P|44:243|92:243,1,85,0|8,0:0|0:0,0:0:0:0:
185,221,3699,5,2,0:0:0:0:
155,318,3913,1,0,0:0:0:0:
155,318,4020,1,0,0:0:0:0:
155,318,4127,1,0,0:0:0:0:
223,132,4342,53,2,0:0:0:0:
271,249,4556,1,10,0:0:0:0:
390,350,4985,5,2,0:0:0:0:
300,334,5199,1,8,0:0:0:0:
271,249,5413,1,2,0:0:0:0:
371,265,5627,1,0,0:0:0:0:
371,265,5735,1,0,0:0:0:0:
371,265,5842,2,0,P|413:251|441:219,1,85,0|8,0:0|0:0,0:0:0:0:
501,151,6270,5,8,0:0:0:0:
486,58,6485,1,0,0:0:0:0:
486,58,6593,1,0,0:0:0:0:
486,58,6700,2,0,P|444:72|416:104,1,85,0|8,0:0|0:0,0:0:0:0:
439,221,7127,1,10,0:0:0:0:
501,151,7342,53,0,0:0:0:0:
501,151,7449,1,0,0:0:0:0:
501,151,7556,1,0,0:0:0:0:
507,289,7770,2,0,B|488:333|488:333|445:358,1,85,2|8,0:0|0:0,0:0:0:0:
149,377,8413,5,2,0:0:0:0:
77,320,8627,1,8,0:0:0:0:
101,232,8842,1,2,0:0:0:0:
163,297,9056,1,0,0:0:0:0:
163,297,9163,1,0,0:0:0:0:
163,297,9270,2,0,P|204:302|259:296,1,85,0|8,0:0|0:0,0:0:0:0:
339,282,9699,5,8,0:0:0:0:
279,219,9913,1,0,0:0:0:0:
279,219,10020,1,0,0:0:0:0:
279,219,10127,2,0,P|238:214|183:220,1,85,0|8,0:0|0:0,0:0:0:0:
101,232,10556,1,2,0:0:0:0:
136,145,10770,1,0,0:0:0:0:
136,145,10877,1,0,0:0:0:0:
136,145,10985,1,0,0:0:0:0:
195,217,11199,2,0,P|226:176|228:128,1,85,2|8,0:0|0:0,0:0:0:0:
356,19,11842,53,2,0:0:0:0:
401,100,12056,1,8,0:0:0:0:
345,174,12270,1,2,0:0:0:0:
247,158,12485,1,0,0:0:0:0:
247,158,12592,1,0,0:0:0:0:
247,158,12699,2,0,P|259:114|314:85,1,85,0|8,0:0|0:0,0:0:0:0:
401,100,13127,6,0,L|496:102,1,85,2|0,0:0|0:0,0:0:0:0:
412,212,13556,2,0,P|370:205|344:173,1,85,10|0,0:0|0:0,0:0:0:0:
289,90,13985,1,4,0:0:0:0:
44,136,15270,6,0,L|103:116,3,42.5
42,171,15699,1,0,0:0:0:0:
128,242,15913,1,0,0:0:0:0:
128,242,16020,1,0,0:0:0:0:
128,242,16127,1,8,0:0:0:0:
161,92,16342,1,0,0:0:0:0:
298,97,16556,53,0,0:0:0:0:
240,28,16770,1,0,0:0:0:0:
240,28,16877,1,0,0:0:0:0:
240,28,16984,1,8,0:0:0:0:
211,181,17199,1,0,0:0:0:0:
301,198,17413,5,0,0:0:0:0:
298,97,17627,1,0,0:0:0:0:
298,97,17734,1,0,0:0:0:0:
298,97,17841,1,8,0:0:0:0:
154,152,18056,1,0,0:0:0:0:
301,198,18270,1,2,0:0:0:0:
215,269,18699,5,0,0:0:0:0:
301,198,18913,1,0,0:0:0:0:
212,137,19127,53,0,0:0:0:0:
296,79,19341,1,0,0:0:0:0:
296,79,19448,1,0,0:0:0:0:
296,79,19555,1,8,0:0:0:0:
151,27,19770,1,0,0:0:0:0:
124,108,19985,5,0,0:0:0:0:
178,193,20199,1,0,0:0:0:0:
178,193,20306,1,0,0:0:0:0:
178,193,20413,1,8,0:0:0:0:
224,54,20628,1,0,0:0:0:0:
296,79,20842,5,0,0:0:0:0:
151,27,21056,2,0,L|108:13,2,42.5,0|0|8,0:0|0:0|0:0,0:0:0:0:
296,79,21485,2,0,B|345:42|329:108|389:61,1,85,0|2,0:0|0:0,0:0:0:0:
216,114,22127,53,0,0:0:0:0:
272,199,22342,1,0,0:0:0:0:
273,300,22556,5,0,0:0:0:0:
361,250,22770,1,0,0:0:0:0:
361,250,22877,1,0,0:0:0:0:
361,250,22985,1,8,0:0:0:0:
186,245,23199,1,0,0:0:0:0:
180,342,23413,5,0,0:0:0:0:
273,300,23627,1,0,0:0:0:0:
273,300,23735,1,0,0:0:0:0:
273,300,23842,1,8,0:0:0:0:
100,299,24056,1,0,0:0:0:0:
92,203,24270,53,0,0:0:0:0:
15,265,24485,1,0,0:0:0:0:
15,265,24592,1,0,0:0:0:0:
15,265,24699,1,8,0:0:0:0:
186,245,24913,1,0,0:0:0:0:
186,245,25127,1,2,0:0:0:0:
93,98,25556,5,0,0:0:0:0:
93,98,25770,1,0,0:0:0:0:
114,198,25985,1,8,0:0:0:0:
215,55,26199,2,0,L|285:45,2,42.5
114,198,26627,5,0,0:0:0:0:
268,125,26842,1,8,0:0:0:0:
186,273,27056,1,0,0:0:0:0:
166,105,27270,1,0,0:0:0:0:
282,229,27485,1,0,0:0:0:0:
114,198,27699,2,0,P|92:172|82:132,1,71.400000871582
82,136,29199,53,0,0:0:0:0:
82,136,29413,2,0,L|230:125,1,127.500004863739
209,126,30270,1,0,0:0:0:0:
377,166,30699,1,0,0:0:0:0:
393,185,30806,1,0,0:0:0:0:
395,208,30913,1,0,0:0:0:0:
386,231,31020,1,0,0:0:0:0:
367,245,31127,2,0,L|219:256,1,127.500004863739
239,254,31770,5,0,0:0:0:0:
180,176,31985,1,0,0:0:0:0:
234,97,32199,1,0,0:0:0:0:
326,125,32413,1,0,0:0:0:0:
327,220,32627,1,0,0:0:0:0:
239,252,32842,6,0,P|213:264|182:274,1,59.5000007263184
137,184,34127,1,0,0:0:0:0:
84,269,34342,1,0,0:0:0:0:
84,269,34449,1,0,0:0:0:0:
84,269,34556,2,0,P|87:313|109:331,1,71.400000871582
195,355,35413,53,0,0:0:0:0:
195,355,35627,1,0,0:0:0:0:
288,312,35842,1,0,0:0:0:0:
311,305,35949,1,0,0:0:0:0:
334,314,36056,1,0,0:0:0:0:
343,337,36163,1,0,0:0:0:0:
339,361,36270,2,0,L|382:385,1,47.6000005810547
174,251,37556,5,0,0:0:0:0:
268,304,37770,1,0,0:0:0:0:
268,304,37877,1,0,0:0:0:0:
268,304,37985,2,0,L|414:281,1,127.500004863739
393,284,38628,5,0,0:0:0:0:
434,190,38842,1,0,0:0:0:0:
361,122,39057,1,0,0:0:0:0:
273,172,39271,1,0,0:0:0:0:
295,270,39485,1,0,0:0:0:0:
392,283,39699,54,0,P|428:292|463:289,1,71.400000871582
461,289,40556,1,0,0:0:0:0:
434,190,40985,5,0,0:0:0:0:
392,283,41199,1,0,0:0:0:0:
392,283,41306,1,0,0:0:0:0:
392,283,41413,2,0,P|359:270|338:238,1,71.400000871582
335,146,42270,5,0,0:0:0:0:
335,146,42485,1,0,0:0:0:0:
332,46,42699,1,0,0:0:0:0:
331,23,42806,1,0,0:0:0:0:
306,12,42913,1,0,0:0:0:0:
285,21,43020,1,0,0:0:0:0:
280,45,43127,2,0,P|248:64|196:67,1,63.7500024318696,2|0,0:0|0:0,0:0:0:0:
142,20,43556,54,0,P|111:27|84:44,1,63.7500024318696,8|0,0:0|0:0,0:0:0:0:
66,136,43985,2,0,P|72:172|108:195,1,63.7500024318696,2|0,0:0|0:0,0:0:0:0:
185,192,44413,2,0,P|207:215|211:246,1,63.7500024318696,8|0,0:0|0:0,0:0:0:0:
141,312,44842,6,0,P|163:336|193:342,2,63.7500024318696,2|0|8,0:0|0:0|0:0,0:0:0:0:
211,246,45485,1,2,0:0:0:0:
295,290,45699,2,0,P|312:316|339:332,1,63.7500024318696,2|0,0:0|0:0,0:0:0:0:
300,195,46127,2,0,P|282:168|255:152,1,63.7500024318696,8|0,0:0|0:0,0:0:0:0:
107,151,46556,2,0,L|18:151,1,63.7500024318696,2|0,0:0|0:0,0:0:0:0:
149,236,46985,2,0,L|238:236,1,63.7500024318696,8|0,0:0|0:0,0:0:0:0:
195,149,47413,6,0,P|190:111|165:90,2,63.7500024318696,2|0|8,0:0|0:0|0:0,0:0:0:0:
107,151,48056,1,2,0:0:0:0:
133,242,48270,2,0,L|154:301,1,63.7500024318696,2|0,0:0|0:0,0:0:0:0:
40,207,48699,2,0,L|18:147,1,63.7500024318696,8|0,0:0|0:0,0:0:0:0:
126,222,49127,2,0,L|138:284,1,63.7500024318696,2|0,0:0|0:0,0:0:0:0:
39,172,49556,2,0,L|27:109,1,63.7500024318696,8|0,0:0|0:0,0:0:0:0:
102,49,49985,54,0,P|77:26|42:17,2,63.7500024318696,2|0|8,0:0|0:0|0:0,0:0:0:0:
27,109,50627,1,2,0:0:0:0:
112,151,50842,2,0,L|205:142,1,63.7500024318696,2|0,0:0|0:0,0:0:0:0:
314,137,51270,2,0,P|304:165|271:195,1,63.7500024318696,8|0,0:0|0:0,0:0:0:0:
195,232,51699,2,0,L|249:286,1,63.7500024318696
236,30,52342,5,2,0:0:0:0:
236,30,52556,1,2,0:0:0:0:
237,186,52877,1,2,0:0:0:0:
236,30,53199,5,2,0:0:0:0:
237,186,53413,1,6,0:0:0:0:
256,192,53627,12,0,56413,0:0:0:0:
256,192,56842,6,0,L|280:183,12,15.9375006079674
211,284,57699,1,0,0:0:0:0:
312,271,57913,1,0,0:0:0:0:
412,256,58127,1,0,0:0:0:0:
512,239,58342,1,0,0:0:0:0:
497,138,58556,6,0,L|485:51,1,85,2|0,0:0|0:0,0:0:0:0:
392,96,58985,2,0,P|354:111|303:97,1,85,2|0,0:0|0:0,0:0:0:0:
206,64,59413,1,0,0:0:0:0:
221,33,59520,1,0,0:0:0:0:
259,28,59627,1,2,0:0:0:0:
359,161,59842,5,2,0:0:0:0:
359,161,60056,1,0,0:0:0:0:
441,229,60270,2,0,P|482:223|510:192,1,85,2|0,0:0|0:0,0:0:0:0:
488,53,60699,2,0,P|448:97|450:141,1,85,2|0,0:0|0:0,0:0:0:0:
358,77,61127,1,0,0:0:0:0:
325,77,61235,1,0,0:0:0:0:
300,96,61342,1,2,0:0:0:0:
240,177,61556,53,2,0:0:0:0:
240,177,61770,1,0,0:0:0:0:
427,41,61985,2,0,P|456:78|437:124,1,85,2|0,0:0|0:0,0:0:0:0:
386,199,62413,2,0,P|420:228|461:223,1,85,2|0,0:0|0:0,0:0:0:0:
337,103,62842,1,0,0:0:0:0:
312,90,62949,1,0,0:0:0:0:
284,104,63056,1,2,0:0:0:0:
214,244,63270,2,0,B|199:144,1,85,2|0,0:0|0:0,0:0:0:0:
183,26,63699,5,2,0:0:0:0:
183,26,63913,1,0,0:0:0:0:
52,109,64127,2,0,L|159:122,1,85,2|0,0:0|0:0,0:0:0:0:
238,130,64556,1,0,0:0:0:0:
267,150,64663,1,0,0:0:0:0:
270,181,64770,1,2,0:0:0:0:
168,214,64985,5,2,0:0:0:0:
168,214,65199,1,0,0:0:0:0:
243,282,65413,2,0,P|289:290|326:262,1,85,2|0,0:0|0:0,0:0:0:0:
356,172,65842,2,0,P|398:185|417:229,1,85,2|0,0:0|0:0,0:0:0:0:
256,183,66270,1,0,0:0:0:0:
250,156,66377,1,0,0:0:0:0:
271,129,66485,1,2,0:0:0:0:
359,78,66699,53,2,0:0:0:0:
359,78,66913,1,0,0:0:0:0:
428,171,67127,2,0,L|512:186,2,85,2|0|8,0:0|0:0|0:0,0:0:0:0:
310,187,67770,6,0,B|269:249|217:122|160:191,1,170,2|0,0:0|0:0,0:0:0:0:
68,232,68413,2,0,P|96:271|132:288,1,85,8|0,0:0|0:0,0:0:0:0:
224,323,68842,6,0,B|279:255|331:382|372:320,1,170,2|0,0:0|0:0,0:0:0:0:
448,252,69485,1,2,0:0:0:0:
424,153,69699,53,0,0:0:0:0:
393,153,69806,1,0,0:0:0:0:
376,181,69913,1,2,0:0:0:0:
448,251,70127,6,0,P|486:234|512:201,1,85,8|0,0:0|0:0,0:0:0:0:
483,1,70556,2,0,B|425:41|482:119|419:155,1,170,2|0,0:0|0:0,0:0:0:0:
344,90,71199,5,2,0:0:0:0:
249,45,71413,1,0,0:0:0:0:
225,72,71520,1,0,0:0:0:0:
236,102,71627,1,10,0:0:0:0:
317,225,71842,53,2,0:0:0:0:
317,225,72056,1,0,0:0:0:0:
245,297,72270,2,0,L|155:344,1,85,2|0,0:0|0:0,0:0:0:0:
66,338,72699,2,0,P|74:297|99:263,1,85,2|0,0:0|0:0,0:0:0:0:
170,185,73127,1,0,0:0:0:0:
167,151,73235,1,0,0:0:0:0:
127,132,73342,1,10,0:0:0:0:
5,237,73556,5,2,0:0:0:0:
5,237,73770,1,0,0:0:0:0:
6,352,73985,2,0,P|87:388|188:369,1,170,2|0,0:0|0:0,0:0:0:0:
264,353,74627,1,2,0:0:0:0:
251,251,74842,1,0,0:0:0:0:
209,259,74949,1,0,0:0:0:0:
183,289,75056,1,10,0:0:0:0:
264,353,75270,6,0,P|306:362|378:353,1,85,2|0,0:0|0:0,0:0:0:0:
438,312,75699,2,0,B|392:283|392:283|327:278,1,85,2|0,0:0|0:0,0:0:0:0:
262,258,76127,53,2,0:0:0:0:
262,258,76342,1,0,0:0:0:0:
275,156,76556,1,0,0:0:0:0:
317,164,76663,1,0,0:0:0:0:
343,194,76770,1,10,0:0:0:0:
262,258,76985,6,0,P|223:275|171:275,1,85,2|0,0:0|0:0,0:0:0:0:
52,241,77413,2,0,P|110:186|226:183,1,170,2|0,0:0|0:0,0:0:0:0:
226,91,78056,1,2,0:0:0:0:
114,101,78270,1,0,0:0:0:0:
95,122,78377,1,0,0:0:0:0:
101,156,78485,1,10,0:0:0:0:
180,271,78699,5,2,0:0:0:0:
180,271,78913,1,0,0:0:0:0:
268,300,79127,2,0,B|306:315|306:315|372:287,1,85,2|0,0:0|0:0,0:0:0:0:
384,211,79556,2,0,B|346:196|346:196|280:224,1,85,2|0,0:0|0:0,0:0:0:0:
177,272,79985,1,0,0:0:0:0:
177,303,80092,1,0,0:0:0:0:
198,329,80199,1,10,0:0:0:0:
308,361,80413,53,2,0:0:0:0:
308,361,80627,1,0,0:0:0:0:
303,121,80842,2,0,B|290:188|290:188|317:220|317:220|304:298,1,170,2|0,0:0|0:0,0:0:0:0:
308,361,81485,1,2,0:0:0:0:
198,329,81699,1,0,0:0:0:0:
177,303,81806,1,0,0:0:0:0:
177,272,81913,1,8,0:0:0:0:
219,189,82127,5,2,0:0:0:0:
219,189,82342,1,0,0:0:0:0:
369,49,82556,2,0,P|288:30|219:76,1,170
337,280,83199,2,0,P|355:197|300:129,1,170,2|0,0:0|0:0,0:0:0:0:
147,61,83842,1,0,0:0:0:0:
179,148,84056,1,0,0:0:0:0:
262,190,84270,2,0,P|345:208|413:153,1,170
480,99,84913,2,0,P|445:75|403:69,1,85
325,120,85342,5,2,0:0:0:0:
341,203,85556,1,2,0:0:0:0:
359,285,85770,1,2,0:0:0:0:
380,367,85985,2,0,P|253:359|109:334,1,255
0,384,87699,54,0,P|8:341|29:297,1,85,4|0,0:0|0:0,0:0:0:0:
106,233,88556,5,0,0:0:0:0:
157,94,88877,1,0,0:0:0:0:
106,233,89199,5,0,0:0:0:0:
157,94,89413,2,0,B|356:66|226:166|453:123,1,297.5,4|0,0:0|0:0,0:0:0:0:
443,124,91127,5,4,0:0:0:0:
351,268,91985,1,0,0:0:0:0:
356,174,92199,1,0,0:0:0:0:
273,217,92413,1,0,0:0:0:0:
278,123,92627,1,0,0:0:0:0:
195,166,92842,5,2,0:0:0:0:
357,85,93163,1,2,0:0:0:0:
195,166,93485,1,2,0:0:0:0:
195,166,93913,5,0,0:0:0:0:
52,226,94127,1,0,0:0:0:0:
14,302,94342,1,0,0:0:0:0:
56,307,94449,1,0,0:0:0:0:
97,296,94556,2,0,P|132:246|122:184,2,127.5,2|2|2,0:0|0:0|0:0,0:0:0:0:
121,183,95841,53,0,0:0:0:0:
159,107,96056,1,0,0:0:0:0:
117,102,96163,1,0,0:0:0:0:
76,113,96270,2,0,P|41:163|51:225,2,127.5,2|2|2,0:0|0:0|0:0,0:0:0:0:
242,146,97342,5,0,0:0:0:0:
161,276,97556,1,0,0:0:0:0:
75,270,97771,1,0,0:0:0:0:
91,231,97878,1,0,0:0:0:0:
122,202,97985,2,0,P|182:196|231:236,2,127.5,2|2|2,0:0|0:0|0:0,0:0:0:0:
214,336,99270,5,0,0:0:0:0:
240,332,99377,1,0,0:0:0:0:
264,322,99485,1,0,0:0:0:0:
272,304,99592,1,0,0:0:0:0:
272,283,99699,2,0,P|213:253|147:295,2,127.5,2|2|2,0:0|0:0|0:0,0:0:0:0:
362,383,100770,1,0,0:0:0:0:
460,244,101200,1,0,0:0:0:0:
472,203,101307,1,0,0:0:0:0:
468,161,101414,2,0,P|424:117|362:116,2,127.5,2|2|2,0:0|0:0|0:0,0:0:0:0:
393,193,102699,53,0,0:0:0:0:
309,209,102913,1,0,0:0:0:0:
318,250,103020,1,0,0:0:0:0:
351,275,103127,2,0,P|405:286|477:225,2,127.5,2|2|2,0:0|0:0|0:0,0:0:0:0:
265,246,104199,5,0,0:0:0:0:
393,193,104413,1,0,0:0:0:0:
310,173,104627,1,0,0:0:0:0:
288,167,104735,1,0,0:0:0:0:
267,161,104842,2,0,B|192:180|196:92|106:128,1,170,4|0,0:0|0:0,0:0:0:0:
93,293,106127,5,0,0:0:0:0:
74,302,106235,1,0,0:0:0:0:
48,301,106342,1,0,0:0:0:0:
28,287,106449,1,0,0:0:0:0:
14,269,106556,2,0,P|61:218|129:216,2,127.5,2|2|2,0:0|0:0|0:0,0:0:0:0:
312,126,107842,53,0,0:0:0:0:
353,52,108056,1,0,0:0:0:0:
311,42,108163,1,0,0:0:0:0:
270,55,108270,2,0,P|231:112|250:181,2,127.5,2|2|2,0:0|0:0|0:0,0:0:0:0:
343,259,109556,5,0,0:0:0:0:
240,166,109770,1,0,0:0:0:0:
242,145,109877,1,0,0:0:0:0:
267,137,109985,2,0,B|354:103|350:191|425:172,1,170,2|0,0:0|0:0,0:0:0:0:
424,172,110627,1,4,0:0:0:0:
418,75,111056,5,2,0:0:0:0:
512,113,111270,1,2,0:0:0:0:
424,172,111485,1,2,0:0:0:0:
512,113,111699,53,2,0:0:0:0:
505,265,112020,1,2,0:0:0:0:
367,323,112342,1,2,0:0:0:0:
367,323,112556,1,2,0:0:0:0:
175,78,112985,54,0,B|184:125|184:125|164:192|164:192|184:241,1,170,0|4,0:0|0:0,0:0:0:0:
272,86,114699,6,0,B|281:132|281:132|261:199|261:199|280:248,1,170,0|4,0:0|0:0,0:0:0:0:
352,196,115770,5,2,0:0:0:0:
352,196,115985,1,2,0:0:0:0:
190,124,116306,1,2,0:0:0:0:
352,196,116627,1,2,0:0:0:0:
190,124,116842,2,0,L|262:130,1,71.400000871582,4|0,0:0|0:0,0:0:0:0:
370,86,118556,5,0,0:0:0:0:
458,137,118985,1,0,0:0:0:0:
393,215,119413,1,0,0:0:0:0:
481,266,119842,1,0,0:0:0:0:
462,366,120270,1,0,0:0:0:0:
316,383,121556,5,0,0:0:0:0:
237,357,121770,1,0,0:0:0:0:
160,323,121985,1,0,0:0:0:0:
316,384,122627,53,0,0:0:0:0:
237,357,122842,1,0,0:0:0:0:
86,290,123163,5,0,0:0:0:0:
237,357,123485,1,0,0:0:0:0:
316,384,123699,5,0,0:0:0:0:
356,366,123913,1,0,0:0:0:0:
361,321,124127,1,0,0:0:0:0:
401,303,124342,1,0,0:0:0:0:
397,175,124556,1,0,0:0:0:0:
350,295,124770,37,0,0:0:0:0:
361,321,124877,1,0,0:0:0:0:
392,325,124985,1,0,0:0:0:0:
397,175,125199,1,0,0:0:0:0:
392,325,125413,5,0,0:0:0:0:
432,307,125627,1,0,0:0:0:0:
437,262,125841,1,0,0:0:0:0:
477,244,126056,1,0,0:0:0:0:
473,116,126270,2,0,L|472:95,8,21.25
