osu file format v14

[General]
AudioFilename: audio.mp3
AudioLeadIn: 0
PreviewTime: -1
Countdown: 1
SampleSet: Soft
StackLeniency: 0.7
Mode: 0
LetterboxInBreaks: 0
WidescreenStoryboard: 0

[Editor]
Bookmarks: 23582,38582
DistanceSpacing: 0.5
BeatDivisor: 4
GridSize: 8
TimelineZoom: 1.1

[Metadata]
Title:Mahou Shoujo Funk Workout
TitleUnicode:Mahou Shoujo Funk Workout
Artist:11
ArtistUnicode:11
Creator:ItsKalesy
Version:Funk
Source:
Tags:Funk EDM Future funk anime japanese 11t
BeatmapID:1564671
BeatmapSetID:741677

[Difficulty]
HPDrainRate:5
CircleSize:4
OverallDifficulty:6
ApproachRate:9
SliderMultiplier:1.4
SliderTickRate:1

[Events]
//Background and Video events
0,0,"1514612574005.jpg",0,0
//Break Periods
//Storyboard Layer 0 (Background)
//Storyboard Layer 1 (Fail)
//Storyboard Layer 2 (Pass)
//Storyboard Layer 3 (Foreground)
//Storyboard Sound Samples

[TimingPoints]
1551,468.75,4,2,0,30,1,0
9051,-66.6666666666667,4,2,0,30,0,0
16199,-62.5,4,2,0,30,0,0
17957,-100,4,2,0,30,0,0
21472,-50,4,2,0,30,0,0
22879,-66.6666666666667,4,2,0,30,0,0
30613,-50,4,2,0,30,0,0
32488,-66.6666666666667,4,2,0,30,0,0
52996,-50,4,2,0,30,0,0
53582,-66.6666666666667,4,2,0,30,0,0
127176,-50,4,2,0,30,0,0
128465,-133.333333333333,4,2,0,30,0,0

[HitObjects]
160,232,613,6,0,L|208:264,3,35
280,176,1082,2,0,P|208:136|144:176,1,140
208,224,1785,2,0,P|280:264|344:224,1,140
424,304,2488,1,0,0:0:0:0:
312,272,2722,2,0,L|328:176,1,70
224,248,3191,2,0,L|240:152,1,70
136,216,3660,2,0,L|152:120,1,70
152,96,4129,2,0,L|184:72,2,35
264,120,4597,2,0,P|288:88|288:144,1,140
296,200,5301,5,0,0:0:0:0:
256,240,5535,2,0,P|208:224|248:256,1,140
384,272,6238,1,0,0:0:0:0:
376,296,6472,2,0,L|392:216,1,70
280,216,6941,2,0,L|296:136,1,70
184,144,7410,2,0,L|200:64,1,70
120,48,7879,2,0,P|56:40|104:72,1,140
288,88,8582,6,0,L|328:112,2,35
312,160,9051,2,0,P|248:144|160:248,1,210.000008010865
112,320,9754,2,0,P|176:336|264:232,1,210.000008010865
360,288,10457,2,0,P|416:240|352:280,1,210.000008010865
304,152,11160,1,0,0:0:0:0:
208,240,11394,2,0,L|176:120,1,105.000004005432
104,208,11863,1,0,0:0:0:0:
88,336,12097,2,0,L|224:296,1,105.000004005432
256,192,12566,5,0,0:0:0:0:
296,304,12801,2,0,P|352:248|352:184,1,105.000004005432
256,192,13269,1,0,0:0:0:0:
192,88,13504,2,0,P|144:64|192:112,1,210.000008010865
104,304,14207,2,0,L|136:176,1,105.000004005432
216,256,14676,2,0,L|248:128,1,105.000004005432
336,200,15144,2,0,L|368:72,1,105.000004005432
288,64,15613,2,0,P|216:48|288:88,1,210.000008010865
128,104,16316,6,0,P|80:216|136:288,1,224
176,208,17019,6,0,P|224:96|168:24,1,224
256,192,17722,1,0,0:0:0:0:
320,88,17957,2,0,P|368:64|336:112,1,140
328,248,18660,1,0,0:0:0:0:
184,264,18894,2,0,L|176:192,2,70
304,264,19597,2,0,P|344:224|304:240,1,140
256,192,20301,1,0,0:0:0:0:
160,80,20535,2,0,L|240:88,1,70
184,176,21004,2,0,L|264:184,1,70
384,280,21472,6,0,L|376:120,1,140
232,224,21941,6,0,L|224:64,1,140
72,160,22410,6,0,L|64:0,1,140
168,56,22879,1,0,0:0:0:0:
212,54,22996,1,0,0:0:0:0:
254,70,23113,1,0,0:0:0:0:
285,103,23230,1,0,0:0:0:0:
300,145,23347,1,0,0:0:0:0:
296,190,23464,1,0,0:0:0:0:
272,224,23582,6,0,P|224:200|272:256,1,210.000008010865
368,176,24285,1,0,0:0:0:0:
368,232,24402,1,0,0:0:0:0:
368,288,24519,1,0,0:0:0:0:
280,312,24754,2,0,L|168:224,1,105.000004005432
392,192,25222,1,0,0:0:0:0:
352,296,25457,6,0,L|280:264,2,52.5000020027161
216,224,25926,1,0,0:0:0:0:
184,184,26043,1,0,0:0:0:0:
176,128,26160,1,0,0:0:0:0:
200,80,26277,1,0,0:0:0:0:
248,64,26394,1,0,0:0:0:0:
312,160,26629,2,0,P|280:216|208:240,1,105.000004005432
208,144,27097,1,0,0:0:0:0:
160,160,27215,1,0,0:0:0:0:
128,200,27332,1,0,0:0:0:0:
128,256,27449,1,0,0:0:0:0:
152,304,27566,1,0,0:0:0:0:
248,312,27801,6,0,L|280:208,1,105.000004005432
200,144,28269,1,0,0:0:0:0:
152,168,28386,1,0,0:0:0:0:
104,192,28504,1,0,0:0:0:0:
96,296,28738,2,0,L|200:312,1,105.000004005432
304,288,29207,2,0,P|336:240|288:280,1,157.500006008148
240,208,29676,2,0,P|210:158|225:219,1,157.500006008148
128,256,30144,2,0,P|97:305|144:263,1,157.500006008148
208,328,30613,2,0,L|488:264,1,280
392,184,31316,6,0,P|392:144|352:112,2,70
280,112,31785,1,0,0:0:0:0:
240,128,31902,1,0,0:0:0:0:
208,160,32019,1,0,0:0:0:0:
192,200,32136,1,0,0:0:0:0:
200,248,32254,1,0,0:0:0:0:
200,328,32488,2,0,P|280:336|232:304,1,210.000008010865
312,280,33191,5,0,0:0:0:0:
352,264,33308,1,0,0:0:0:0:
376,232,33426,1,0,0:0:0:0:
384,192,33543,1,0,0:0:0:0:
368,152,33660,1,0,0:0:0:0:
288,144,33894,2,0,L|256:192,2,52.5000020027161
192,144,34363,2,0,P|144:200|208:320,1,210.000008010865
264,240,35066,1,0,0:0:0:0:
304,208,35183,1,0,0:0:0:0:
336,168,35301,1,0,0:0:0:0:
264,88,35535,5,0,0:0:0:0:
224,112,35652,1,0,0:0:0:0:
208,152,35769,1,0,0:0:0:0:
208,200,35886,1,0,0:0:0:0:
224,240,36004,1,0,0:0:0:0:
256,272,36121,1,0,0:0:0:0:
112,320,36472,1,0,0:0:0:0:
176,240,36707,2,0,L|312:232,1,105.000004005432
296,184,37176,2,0,L|152:160,1,105.000004005432
192,112,37644,2,0,L|320:96,1,105.000004005432
216,184,38113,2,0,P|264:152|224:216,1,210.000008010865
112,192,38816,5,0,0:0:0:0:
128,320,39051,2,0,P|216:288|224:256,1,105.000004005432
224,192,39519,1,0,0:0:0:0:
208,144,39636,1,0,0:0:0:0:
168,112,39754,1,0,0:0:0:0:
224,96,39988,6,0,P|304:104|328:128,1,105.000004005432
256,176,40457,2,0,L|256:232,2,52.5000020027161
344,184,40926,1,0,0:0:0:0:
376,224,41043,1,0,0:0:0:0:
376,272,41160,1,0,0:0:0:0:
248,272,41394,1,0,0:0:0:0:
160,184,41629,6,0,P|136:136|192:184,1,210.000008010865
176,144,42332,2,0,L|304:104,1,105.000004005432
392,192,42801,1,0,0:0:0:0:
288,192,43035,1,0,0:0:0:0:
248,208,43152,1,0,0:0:0:0:
224,240,43269,1,0,0:0:0:0:
192,136,43504,2,0,P|122:198|128:229,2,105.000004005432
256,264,44207,1,0,0:0:0:0:
384,248,44441,6,0,L|328:136,1,105.000004005432
272,240,44910,2,0,L|216:144,1,105.000004005432
160,224,45379,2,0,L|81:154,1,105.000004005432
160,104,45847,2,0,P|248:120|272:152,1,105.000004005432
176,200,46316,1,0,0:0:0:0:
176,200,46433,1,0,0:0:0:0:
176,200,46551,1,0,0:0:0:0:
112,280,46785,2,0,P|144:304|160:312,2,52.5000020027161
256,312,47254,2,0,L|304:208,1,105.000004005432
304,128,47722,6,0,P|208:96|184:112,2,105.000004005432
224,176,48426,2,0,P|288:224|344:232,1,105.000004005432
408,232,48894,1,0,0:0:0:0:
448,216,49011,1,0,0:0:0:0:
464,168,49129,1,0,0:0:0:0:
336,104,49363,2,0,P|264:96|336:128,1,210.000008010865
424,56,50066,1,0,0:0:0:0:
400,144,50301,2,0,L|352:240,1,105.000004005432
256,200,50769,2,0,L|184:184,2,52.5000020027161
232,96,51238,2,0,P|136:112|112:152,1,105.000004005432
128,256,51707,5,0,0:0:0:0:
304,272,51941,1,0,0:0:0:0:
128,168,52176,5,0,0:0:0:0:
304,184,52410,1,0,0:0:0:0:
128,80,52644,5,0,0:0:0:0:
304,96,52878,1,0,0:0:0:0:
216,80,53113,2,0,L|208:296,1,210.000008010865
304,288,53816,1,0,0:0:0:0:
352,272,53933,1,0,0:0:0:0:
376,232,54051,1,0,0:0:0:0:
360,136,54285,2,0,L|304:128,2,52.5000020027161
232,200,54754,1,0,0:0:0:0:
224,240,54871,1,0,0:0:0:0:
208,280,54988,2,0,L|96:240,1,105.000004005432
144,96,55457,5,0,0:0:0:0:
192,104,55574,1,0,0:0:0:0:
240,128,55691,1,0,0:0:0:0:
280,160,55808,1,0,0:0:0:0:
312,192,55926,1,0,0:0:0:0:
296,296,56160,1,0,0:0:0:0:
256,272,56277,1,0,0:0:0:0:
216,240,56394,1,0,0:0:0:0:
184,104,56629,1,0,0:0:0:0:
304,112,56863,2,0,L|352:160,2,52.5000020027161
368,272,57332,5,0,0:0:0:0:
336,296,57449,1,0,0:0:0:0:
288,296,57566,1,0,0:0:0:0:
240,280,57683,1,0,0:0:0:0:
208,248,57801,1,0,0:0:0:0:
304,216,58035,1,0,0:0:0:0:
272,184,58152,1,0,0:0:0:0:
232,176,58269,1,0,0:0:0:0:
184,184,58386,1,0,0:0:0:0:
152,216,58504,1,0,0:0:0:0:
248,176,58738,1,0,0:0:0:0:
240,80,58972,1,0,0:0:0:0:
152,120,59207,1,0,0:0:0:0:
136,296,59441,6,0,L|256:272,1,105.000004005432
160,184,59910,2,0,L|272:152,1,105.000004005432
208,64,60379,2,0,P|304:64|344:96,1,105.000004005432
408,48,60847,5,0,0:0:0:0:
432,88,60965,1,0,0:0:0:0:
440,136,61082,1,0,0:0:0:0:
432,184,61199,1,0,0:0:0:0:
408,216,61316,1,0,0:0:0:0:
272,168,61551,2,0,L|224:192,2,52.5000020027161
128,288,62019,1,0,0:0:0:0:
168,272,62136,1,0,0:0:0:0:
208,248,62254,1,0,0:0:0:0:
264,320,62488,1,0,0:0:0:0:
432,280,62722,2,0,P|384:208|320:200,1,105.000004005432
304,112,63191,5,0,0:0:0:0:
264,136,63309,1,0,0:0:0:0:
240,168,63426,1,0,0:0:0:0:
312,264,63660,1,0,0:0:0:0:
176,296,63894,1,0,0:0:0:0:
144,256,64011,1,0,0:0:0:0:
144,208,64129,1,0,0:0:0:0:
280,248,64363,1,0,0:0:0:0:
384,176,64597,6,0,P|312:128|280:136,2,105.000004005432
240,56,65301,1,0,0:0:0:0:
200,72,65418,1,0,0:0:0:0:
168,112,65535,1,0,0:0:0:0:
224,208,65769,1,0,0:0:0:0:
360,256,66004,1,0,0:0:0:0:
328,288,66121,1,0,0:0:0:0:
296,320,66238,1,0,0:0:0:0:
216,216,66472,1,0,0:0:0:0:
368,144,66707,5,0,0:0:0:0:
384,296,66941,2,0,L|376:184,1,105.000004005432
256,224,67410,2,0,L|248:112,1,105.000004005432
240,120,67879,6,0,P|304:88|248:144,1,210.000008010865
144,192,68582,1,0,0:0:0:0:
288,184,68816,1,0,0:0:0:0:
336,224,68933,1,0,0:0:0:0:
384,256,69051,1,0,0:0:0:0:
256,320,69285,1,0,0:0:0:0:
216,304,69402,1,0,0:0:0:0:
168,280,69519,1,0,0:0:0:0:
192,112,69754,6,0,L|256:152,3,52.5000020027161
328,208,70340,1,0,0:0:0:0:
376,208,70457,1,0,0:0:0:0:
408,184,70574,1,0,0:0:0:0:
424,144,70691,1,0,0:0:0:0:
312,56,70926,1,0,0:0:0:0:
272,88,71043,1,0,0:0:0:0:
232,120,71160,1,0,0:0:0:0:
128,56,71394,1,0,0:0:0:0:
168,208,71629,6,0,L|224:240,2,52.5000020027161
360,224,72097,1,0,0:0:0:0:
328,184,72215,1,0,0:0:0:0:
288,144,72332,1,0,0:0:0:0:
176,112,72566,1,0,0:0:0:0:
216,232,72801,1,0,0:0:0:0:
176,264,72918,1,0,0:0:0:0:
136,296,73035,1,0,0:0:0:0:
352,304,73269,6,0,L|400:272,3,52.5000020027161
312,176,73972,1,0,0:0:0:0:
272,144,74090,1,0,0:0:0:0:
224,136,74207,1,0,0:0:0:0:
96,208,74441,1,0,0:0:0:0:
136,248,74558,1,0,0:0:0:0:
184,264,74676,1,0,0:0:0:0:
232,264,74793,1,0,0:0:0:0:
280,248,74910,1,0,0:0:0:0:
384,152,75144,2,0,P|344:120|304:112,2,52.5000020027161
296,240,75613,5,0,0:0:0:0:
248,248,75730,1,0,0:0:0:0:
216,216,75847,1,0,0:0:0:0:
152,104,76082,6,0,P|88:120|144:120,1,210.000008010865
248,104,76785,1,0,0:0:0:0:
296,112,76902,1,0,0:0:0:0:
336,136,77019,1,0,0:0:0:0:
368,176,77136,1,0,0:0:0:0:
352,280,77488,2,0,P|296:320|240:288,1,105.000004005432
288,232,77957,2,0,P|232:224|184:272,1,105.000004005432
112,288,78426,5,0,0:0:0:0:
72,264,78543,1,0,0:0:0:0:
64,216,78660,1,0,0:0:0:0:
72,168,78777,1,0,0:0:0:0:
104,136,78894,1,0,0:0:0:0:
208,80,79129,2,0,L|296:104,2,52.5000020027161
184,240,79597,6,0,P|248:288|304:272,1,105.000004005432
264,200,80066,2,0,L|296:152,2,52.5000020027161
184,120,80535,1,0,0:0:0:0:
144,144,80652,1,0,0:0:0:0:
112,184,80769,1,0,0:0:0:0:
176,288,81003,1,0,0:0:0:0:
256,192,81238,2,0,L|320:192,2,52.5000020027161
344,120,81707,2,0,L|440:56,1,105.000004005432
440,192,82176,2,0,P|415:260|411:177,1,210.000008010865
296,184,82879,2,0,L|256:224,1,52.5000020027161
368,288,83113,5,0,0:0:0:0:
304,168,83347,2,0,L|280:256,1,52.5000020027161
256,296,83582,2,0,P|192:320|120:304,1,105.000004005432
176,232,84051,2,0,P|240:208|304:224,1,105.000004005432
368,296,84519,1,0,0:0:0:0:
376,248,84636,1,0,0:0:0:0:
384,200,84754,1,0,0:0:0:0:
296,104,84988,2,0,P|216:96|288:136,1,210.000008010865
192,224,85691,5,0,0:0:0:0:
160,264,85808,1,0,0:0:0:0:
128,304,85926,1,0,0:0:0:0:
240,320,86160,1,0,0:0:0:0:
264,272,86277,1,0,0:0:0:0:
288,224,86394,1,0,0:0:0:0:
128,136,86629,1,0,0:0:0:0:
264,152,86863,2,0,P|320:128|264:168,1,210.000008010865
280,320,87566,1,0,0:0:0:0:
128,192,87801,1,0,0:0:0:0:
272,128,88035,6,0,P|328:144|352:176,2,52.5000020027161
336,288,88504,1,0,0:0:0:0:
160,200,88738,1,0,0:0:0:0:
384,88,88972,1,0,0:0:0:0:
376,112,89090,1,0,0:0:0:0:
360,128,89207,6,0,L|248:96,1,105.000004005432
392,232,89676,2,0,L|288:200,1,105.000004005432
352,296,90144,2,0,L|224:256,1,105.000004005432
160,240,90613,2,0,P|112:208|160:264,1,210.000008010865
240,272,91316,6,0,P|296:224|296:184,1,105.000004005432
200,216,91785,2,0,P|208:144|256:112,1,105.000004005432
392,136,92254,1,0,0:0:0:0:
400,184,92371,1,0,0:0:0:0:
408,224,92488,1,0,0:0:0:0:
264,264,92722,1,0,0:0:0:0:
144,160,92957,2,0,P|208:136|256:144,1,105.000004005432
208,224,93426,2,0,P|152:240|96:224,1,105.000004005432
368,96,93894,1,0,0:0:0:0:
384,248,94129,1,0,0:0:0:0:
344,224,94246,1,0,0:0:0:0:
296,192,94363,1,0,0:0:0:0:
160,304,94597,1,0,0:0:0:0:
112,120,94832,6,0,P|168:80|224:80,1,105.000004005432
192,168,95301,2,0,P|144:208|96:224,1,105.000004005432
120,312,95769,1,0,0:0:0:0:
320,256,96004,1,0,0:0:0:0:
344,216,96121,1,0,0:0:0:0:
368,176,96238,1,0,0:0:0:0:
272,72,96472,2,0,P|208:96|192:128,2,105.000004005432
440,88,97176,1,0,0:0:0:0:
272,288,97410,1,0,0:0:0:0:
296,200,97644,6,0,P|248:152|288:216,1,210.000008010865
384,280,98347,1,0,0:0:0:0:
208,280,98582,2,0,P|144:232|176:296,1,210.000008010865
336,272,99285,1,0,0:0:0:0:
360,160,99519,2,0,P|296:104|240:96,1,105.000004005432
264,184,99988,2,0,P|208:168|176:104,1,105.000004005432
376,64,100457,1,0,0:0:0:0:
424,112,100574,1,0,0:0:0:0:
448,176,100691,1,0,0:0:0:0:
328,144,100926,6,0,P|328:216|352:232,2,105.000004005432
336,320,101629,1,0,0:0:0:0:
288,304,101746,1,0,0:0:0:0:
264,264,101863,1,0,0:0:0:0:
320,192,102097,1,0,0:0:0:0:
280,152,102215,1,0,0:0:0:0:
224,144,102332,1,0,0:0:0:0:
112,112,102566,2,0,L|104:224,1,105.000004005432
216,208,103035,6,0,P|280:176|328:192,1,105.000004005432
280,264,103504,2,0,P|360:256|392:208,1,105.000004005432
384,136,103972,1,0,0:0:0:0:
344,88,104090,1,0,0:0:0:0:
288,64,104207,1,0,0:0:0:0:
208,128,104441,2,0,L|296:216,1,105.000004005432
224,312,104910,2,0,L|216:200,1,105.000004005432
88,136,105379,1,0,0:0:0:0:
256,88,105613,2,0,P|328:64|288:104,1,210.000008010865
368,224,106316,6,0,P|312:184|272:192,1,105.000004005432
288,280,106785,1,0,0:0:0:0:
248,304,106902,1,0,0:0:0:0:
200,296,107019,1,0,0:0:0:0:
168,200,107254,2,0,L|208:160,2,52.5000020027161
88,104,107722,2,0,P|192:64|224:80,1,105.000004005432
264,104,108191,1,0,0:0:0:0:
256,144,108308,1,0,0:0:0:0:
264,184,108426,1,0,0:0:0:0:
288,224,108543,1,0,0:0:0:0:
304,272,108660,2,0,L|224:304,2,52.5000020027161
112,248,109129,5,0,0:0:0:0:
152,224,109246,1,0,0:0:0:0:
192,200,109363,1,0,0:0:0:0:
168,88,109597,2,0,P|232:104|264:136,1,105.000004005432
352,288,110066,2,0,L|264:288,2,52.5000020027161
216,272,110535,1,0,0:0:0:0:
192,232,110652,1,0,0:0:0:0:
176,192,110769,1,0,0:0:0:0:
80,128,110886,1,0,0:0:0:0:
112,96,111004,1,0,0:0:0:0:
144,64,111121,1,0,0:0:0:0:
304,88,111472,6,0,L|352:120,1,52.5000020027161
360,144,111707,2,0,L|336:256,1,105.000004005432
256,192,112176,2,0,L|224:304,1,105.000004005432
152,232,112644,2,0,L|120:336,1,105.000004005432
104,160,113113,2,0,P|80:104|120:160,1,210.000008010865
376,128,113816,1,0,0:0:0:0:
216,160,114051,1,0,0:0:0:0:
248,184,114168,1,0,0:0:0:0:
256,224,114285,1,0,0:0:0:0:
160,256,114519,2,0,P|200:336|256:336,1,105.000004005432
264,256,114988,2,0,L|336:256,2,52.5000020027161
368,152,115457,6,0,P|296:112|240:120,1,105.000004005432
288,200,115926,2,0,P|216:176|192:112,1,105.000004005432
128,200,116394,1,0,0:0:0:0:
152,240,116511,1,0,0:0:0:0:
200,256,116629,1,0,0:0:0:0:
264,176,116863,1,0,0:0:0:0:
312,184,116980,1,0,0:0:0:0:
352,216,117097,1,0,0:0:0:0:
248,168,117332,2,0,L|208:128,2,52.5000020027161
296,168,117801,2,0,L|328:120,2,52.5000020027161
256,256,118269,6,0,L|360:272,1,105.000004005432
408,176,118738,1,0,0:0:0:0:
360,152,118855,1,0,0:0:0:0:
320,120,118972,1,0,0:0:0:0:
160,128,119207,2,0,P|160:192|200:224,1,105.000004005432
256,152,119676,1,0,0:0:0:0:
312,136,119793,1,0,0:0:0:0:
368,120,119910,1,0,0:0:0:0:
272,72,120144,2,0,L|216:72,2,52.5000020027161
80,120,120613,6,0,L|168:208,1,105.000004005432
208,120,121082,1,0,0:0:0:0:
256,136,121199,1,0,0:0:0:0:
280,176,121316,1,0,0:0:0:0:
272,80,121551,2,0,L|344:112,2,52.5000020027161
152,88,122019,6,0,L|200:192,1,105.000004005432
104,216,122488,1,0,0:0:0:0:
88,264,122605,1,0,0:0:0:0:
112,304,122722,1,0,0:0:0:0:
256,248,122957,2,0,L|216:200,2,52.5000020027161
304,248,123426,2,0,L|352:200,2,52.5000020027161
264,160,123894,2,0,P|192:128|136:144,1,105.000004005432
176,64,124363,1,0,0:0:0:0:
224,64,124480,1,0,0:0:0:0:
264,80,124597,1,0,0:0:0:0:
240,160,124832,6,0,P|216:216|232:232,2,52.5000020027161
312,232,125301,1,0,0:0:0:0:
328,272,125418,1,0,0:0:0:0:
312,312,125535,1,0,0:0:0:0:
128,296,125769,2,0,P|88:232|96:208,1,105.000004005432
184,248,126238,2,0,P|192:184|144:128,1,105.000004005432
136,64,126707,1,0,0:0:0:0:
184,64,126824,1,0,0:0:0:0:
232,80,126941,1,0,0:0:0:0:
392,80,127176,2,0,P|400:184|376:248,1,140
280,144,127644,2,0,P|288:248|264:312,1,140
72,168,128113,6,0,P|72:104|96:176,1,210.000008010865
