osu file format v14

[General]
AudioFilename: 10lettername - Mario Kart In Detroit.mp3
AudioLeadIn: 0
PreviewTime: 502
Countdown: 0
SampleSet: Soft
StackLeniency: 0.7
Mode: 0
LetterboxInBreaks: 0
WidescreenStoryboard: 0

[Editor]
DistanceSpacing: 1.5
BeatDivisor: 4
GridSize: 4
TimelineZoom: 1

[Metadata]
Title:Mario Kart In Detroit
TitleUnicode:Mario Kart In Detroit
Artist:10lettername
ArtistUnicode:10lettername
Creator:Myxo
Version:Insane
Source:
Tags:Desperate-kun English Novelty Video Game Hip Hop Meme Mashup Vidyagames Super Mario Kart スーパーマリオカート Koopa Beach ノコノコビーチ Soyo Oka 岡素世 Move Bitch Ludacris Word Of Mouf
BeatmapID:3578884
BeatmapSetID:1749468

[Difficulty]
HPDrainRate:6
CircleSize:4
OverallDifficulty:7
ApproachRate:8
SliderMultiplier:2.4
SliderTickRate:2

[Events]
//Background and Video events
0,0,"bg.jpg",0,0
//Break Periods
//Storyboard Layer 0 (Background)
//Storyboard Layer 1 (Fail)
//Storyboard Layer 2 (Pass)
//Storyboard Layer 3 (Foreground)
//Storyboard Layer 4 (Overlay)
//Storyboard Sound Samples

[TimingPoints]
2610.21824041235,648.648648648649,4,2,0,80,1,0

[Colours]
Combo1 : 0,128,255
Combo2 : 255,0,0
Combo3 : 128,255,0
Combo4 : 255,255,0

[HitObjects]
265,320,2610,6,0,P|321:349|381:343,1,120,4|2,0:0|0:0,0:0:0:0:
450,294,3096,1,8,0:3:0:0:
303,223,3258,2,0,P|243:219|191:247,1,120,0|4,1:0|0:3,0:0:0:0:
146,325,3745,1,0,0:0:0:0:
51,207,3907,2,0,L|42:144,1,60,4|0,0:3|1:0,0:0:0:0:
132,78,4231,2,0,L|140:137,1,60,2|8,0:0|0:3,0:0:0:0:
32,240,4556,2,0,L|12:117,1,120,0|2,1:0|0:0,0:0:0:0:
146,325,5204,6,0,P|176:335|208:337,1,60,4|0,0:3|0:0,0:0:0:0:
308,291,5529,2,0,P|338:281|370:279,1,60,2|8,0:0|0:3,0:0:0:0:
485,169,5853,2,0,P|426:185|366:161,1,120,0|4,1:0|0:3,0:0:0:0:
430,97,6339,1,0,0:0:0:0:
279,55,6502,2,0,L|206:62,1,60,4|0,0:3|1:0,0:0:0:0:
263,165,6826,2,0,L|190:172,1,60,2|8,0:0|0:3,0:0:0:0:
246,275,7150,2,0,L|126:285,1,120,0|2,1:0|0:0,0:0:0:0:
392,351,7799,6,0,P|389:289|412:236,1,120,4|2,0:0|0:0,0:0:0:0:
486,187,8285,1,8,0:3:0:0:
419,43,8448,2,0,B|411:72|385:84|385:84|404:113|404:145,1,120,0|4,1:0|0:3,0:0:0:0:
314,145,8934,1,0,0:0:0:0:
188,72,9096,2,0,P|155:66|120:72,1,60,4|0,0:3|1:0,0:0:0:0:
94,176,9421,2,0,P|127:182|162:176,1,60,2|8,0:0|0:3,0:0:0:0:
219,47,9745,2,0,P|160:35|100:41,1,120,0|2,1:0|0:0,0:0:0:0:
37,277,10394,6,0,L|70:332,1,60,4|0,0:3|0:0,0:0:0:0:
170,353,10718,2,0,L|200:301,1,60,2|8,0:0|0:3,0:0:0:0:
308,272,11042,2,0,P|343:324|402:345,1,120,0|4,1:0|0:3,0:0:0:0:
483,327,11529,1,0,0:0:0:0:
368,209,11691,1,4,0:3:0:0:
339,123,11853,1,0,1:0:0:0:
398,55,12015,1,2,0:0:0:0:
427,141,12177,1,8,0:3:0:0:
280,193,12339,2,0,P|215:188|168:154,1,120,0|2,1:0|0:0,0:0:0:0:
246,341,12988,6,0,L|379:321,1,120,4|2,0:0|0:0,0:0:0:0:
425,255,13475,1,8,0:3:0:0:
280,193,13637,2,0,L|161:210,1,120,0|4,1:0|0:3,0:0:0:0:
74,186,14123,1,0,0:0:0:0:
148,48,14285,2,0,P|150:76|143:114,1,60,4|0,0:3|1:0,0:0:0:0:
258,19,14610,2,0,P|260:47|253:85,1,60,2|8,0:0|0:3,0:0:0:0:
369,55,14934,2,0,P|364:110|390:169,1,120,0|2,1:0|0:0,0:0:0:0:
246,325,15583,5,4,0:3:0:0:
156,337,15745,1,0,0:0:0:0:
123,253,15907,1,2,0:0:0:0:
213,241,16069,1,8,0:3:0:0:
334,359,16231,2,0,L|345:237,1,120,0|4,1:0|0:3,0:0:0:0:
385,158,16718,1,0,0:0:0:0:
256,58,16880,2,0,P|226:55|195:61,1,60,4|0,0:3|1:0,0:0:0:0:
237,165,17204,2,0,P|267:168|298:162,1,60,2|8,0:0|0:3,0:0:0:0:
395,38,17529,2,0,L|385:158,1,120,0|2,1:0|0:0,0:0:0:0:
256,326,18177,5,4,0:0:0:0:
160,192,18502,1,0,0:0:0:0:
256,58,18826,1,0,1:0:0:0:
352,192,19151,1,4,0:3:0:0:
156,295,19475,2,0,L|64:299,1,60,4|0,0:3|0:0,0:0:0:0:
57,211,19799,2,0,L|116:208,1,60
163,123,20123,2,0,P|106:104|71:58,2,120,0|2|0,1:0|0:0|0:0,0:0:0:0:
419,108,22231,6,0,L|423:49,1,60,2|0,0:3|0:0,0:0:0:0:
481,258,22718,2,0,P|460:312|410:343,1,120,2|2,0:3|0:0,0:0:0:0:
320,339,23204,1,2,0:3:0:0:
229,208,23366,6,0,P|174:190|118:209,1,120,4|2,0:0|0:0,0:0:0:0:
174,279,23852,1,8,0:3:0:0:
315,252,24015,2,0,B|335:198|310:153|310:153|330:158|330:158|332:88|394:64,1,240,2|4,1:3|0:3,0:0:0:0:
419,151,24826,1,0,0:0:0:0:
259,77,24988,2,0,L|110:85,1,120,2|0,0:3|1:0,0:0:0:0:
71,192,25475,2,0,L|220:200,1,120,2|0,0:3|0:0,0:0:0:0:
127,308,25961,6,0,P|156:317|184:338,1,60,4|0,0:3|0:0,0:0:0:0:
321,305,26285,2,0,P|292:296|264:275,1,60,2|8,0:0|0:3,0:0:0:0:
443,232,26610,2,0,L|425:352,1,120,0|4,1:0|0:3,0:0:0:0:
425,350,27096,1,0,0:0:0:0:
338,201,27258,2,0,L|347:136,1,60,4|0,0:3|0:0,0:0:0:0:
481,32,27583,2,0,P|480:91|445:138,1,120,2|0,0:3|1:0,0:0:0:0:
360,51,28069,2,0,P|314:88|255:91,1,120,2|0,0:3|0:0,0:0:0:0:
105,45,28556,6,0,L|121:172,1,120,4|2,0:0|0:0,0:0:0:0:
93,250,29042,1,8,0:3:0:0:
191,347,29204,2,0,L|252:353,1,60,0|0,1:0|0:0,0:0:0:0:
298,224,29529,2,0,L|237:230,1,60,4|0,0:3|0:0,0:0:0:0:
364,317,29853,2,0,L|425:323,1,60,4|0,0:3|0:0,0:0:0:0:
512,163,30177,2,0,P|477:205|419:214,1,120,2|0,0:3|1:0,0:0:0:0:
318,91,30664,2,0,B|348:92|371:69|371:69|396:93|425:92,1,120,2|0,0:3|0:0,0:0:0:0:
275,190,31150,5,4,0:3:0:0:
186,205,31312,1,0,0:0:0:0:
217,120,31475,1,2,0:0:0:0:
275,190,31637,1,8,0:3:0:0:
207,299,31799,2,0,P|145:288|87:312,1,120,0|4,1:0|0:3,0:0:0:0:
291,362,32285,1,0,0:0:0:0:
387,317,32448,2,0,L|395:253,1,60,4|0,0:3|0:0,0:0:0:0:
470,107,32772,2,0,L|463:167,1,60,2|8,0:0|0:3,0:0:0:0:
340,54,33096,2,0,B|314:60|303:84|303:84|269:67|233:78,1,120,0|2,1:0|0:0,0:0:0:0:
262,277,33745,6,0,L|207:299,1,60,4|0,0:0|0:0,0:0:0:0:
103,239,34069,2,0,L|35:244,1,60,2|8,0:0|0:3,0:0:0:0:
111,111,34394,2,0,P|170:108|226:129,1,120,0|4,1:0|0:3,0:0:0:0:
291,190,34880,1,0,0:0:0:0:
422,57,35042,2,0,L|410:152,1,90,4|0,0:3|0:0,0:0:0:0:
448,169,35366,2,0,L|452:241,1,60,2|2,0:0|0:3,0:0:0:0:
339,342,35691,2,0,B|279:359|281:312|224:329,1,120,0|2,1:0|0:0,0:0:0:0:
138,357,36177,1,0,0:0:0:0:
36,235,36339,6,0,P|90:259|153:248,1,120,4|2,0:3|0:0,0:0:0:0:
212,186,36826,1,8,0:3:0:0:
95,113,36988,2,0,L|81:42,1,60,0|0,1:0|0:0,0:0:0:0:
230,19,37312,2,0,L|224:79,1,60,4|0,0:3|0:0,0:0:0:0:
342,137,37637,2,0,L|370:70,1,60,4|0,0:3|0:0,0:0:0:0:
452,62,37961,1,2,0:0:0:0:
431,243,38123,2,0,L|402:309,1,60,2|0,0:3|1:0,0:0:0:0:
320,321,38447,1,0,0:0:0:0:
194,237,38610,2,0,P|134:237|77:269,1,120,2|2,0:0|0:3,0:0:0:0:
268,54,41529,5,4,0:3:0:0:
457,55,41853,1,4,0:3:0:0:
328,194,42177,2,0,P|267:212|159:164,1,180,0|4,1:0|0:3,0:0:0:0:
322,333,42988,2,0,L|389:321,1,60,2|4,0:3|0:3,0:0:0:0:
176,313,43475,2,0,L|53:336,1,120,2|2,0:3|0:3,0:0:0:0:
58,335,43961,1,2,0:3:0:0:
