osu file format v14

[General]
AudioFilename: 10lettername - Mario Kart In Detroit.mp3
AudioLeadIn: 0
PreviewTime: 502
Countdown: 0
SampleSet: Soft
StackLeniency: 0.7
Mode: 0
LetterboxInBreaks: 0
WidescreenStoryboard: 0

[Editor]
DistanceSpacing: 1.2
BeatDivisor: 4
GridSize: 4
TimelineZoom: 1

[Metadata]
Title:Mario Kart In Detroit
TitleUnicode:Mario Kart In Detroit
Artist:10lettername
ArtistUnicode:10lettername
Creator:Myxo
Version:Easy
Source:
Tags:Desperate-kun English Novelty Video Game Hip Hop Meme Mashup Vidyagames Super Mario Kart スーパーマリオカート Koopa Beach ノコノコビーチ Soyo Oka 岡素世 Move Bitch Ludacris Word Of Mouf
BeatmapID:3578882
BeatmapSetID:1749468

[Difficulty]
HPDrainRate:2.5
CircleSize:3.5
OverallDifficulty:2.5
ApproachRate:3.5
SliderMultiplier:1.5
SliderTickRate:2

[Events]
//Background and Video events
0,0,"bg.jpg",0,0
//Break Periods
//Storyboard Layer 0 (Background)
//Storyboard Layer 1 (Fail)
//Storyboard Layer 2 (Pass)
//Storyboard Layer 3 (Foreground)
//Storyboard Layer 4 (Overlay)
//Storyboard Sound Samples

[TimingPoints]
2610.21824041235,648.648648648649,4,2,0,80,1,0

[Colours]
Combo1 : 0,128,255
Combo2 : 255,0,0
Combo3 : 128,255,0
Combo4 : 255,255,0

[HitObjects]
59,305,2610,6,0,P|96:345|189:331,1,150,4|0,0:0|1:0,0:0:0:0:
239,263,3583,1,4,0:3:0:0:
194,184,3907,2,0,L|158:27,1,150,4|0,0:3|1:0,0:0:0:0:
337,73,5204,6,0,P|349:126|436:160,1,150,4|0,0:3|1:0,0:0:0:0:
508,116,6177,1,4,0:3:0:0:
508,207,6502,1,4,0:3:0:0:
433,256,6826,2,0,B|417:278|424:310|424:310|371:312|348:355,1,150,2|2,0:0|0:0,0:0:0:0:
269,309,7799,6,0,P|203:337|137:305,1,150,4|0,0:0|1:0,0:0:0:0:
106,221,8772,1,4,0:3:0:0:
172,160,9096,2,0,P|238:131|304:163,1,150,4|0,0:3|1:0,0:0:0:0:
477,114,10394,6,0,L|459:268,1,150,4|0,0:3|1:0,0:0:0:0:
417,342,11366,1,4,0:3:0:0:
333,308,11691,1,4,0:3:0:0:
376,229,12015,2,0,B|384:153|384:153|349:139|343:96,1,150,2|2,0:0|0:0,0:0:0:0:
375,12,12988,6,0,P|331:69|259:66,1,150,4|0,0:0|1:0,0:0:0:0:
182,20,13961,1,4,0:3:0:0:
121,86,14285,2,0,L|142:242,1,150,4|0,0:3|1:0,0:0:0:0:
311,174,15583,6,0,L|290:330,1,150,4|0,0:3|1:0,0:0:0:0:
211,360,16555,1,4,0:3:0:0:
126,335,16879,1,4,0:3:0:0:
78,262,17204,2,0,B|67:197|67:197|76:183|76:183|65:113,1,150,2|2,0:0|0:0,0:0:0:0:
129,52,18177,5,4,0:0:0:0:
396,65,18826,1,0,1:0:0:0:
383,332,19475,1,4,0:3:0:0:
116,319,20124,1,0,1:0:0:0:
187,255,20448,1,2,0:0:0:0:
256,192,20772,1,0,0:0:0:0:
376,60,23366,6,0,L|367:135,1,75,4|2,0:0|0:0,0:0:0:0:
441,186,24015,2,0,P|444:243|361:293,1,150,2|4,1:3|0:3,0:0:0:0:
287,268,24988,1,2,0:3:0:0:
239,344,25312,1,0,1:0:0:0:
86,248,25961,6,0,L|61:96,1,150,4|0,0:3|1:0,0:0:0:0:
146,68,26934,1,4,0:3:0:0:
161,156,27258,1,4,0:3:0:0:
177,244,27583,2,0,L|168:323,2,75,2|0|0,0:3|1:0|0:0,0:0:0:0:
246,185,28556,6,0,P|317:179|360:237,1,150,4|0,0:0|1:0,0:0:0:0:
329,322,29529,1,4,0:3:0:0:
329,322,29853,2,0,P|393:351|454:312,1,150,4|0,0:3|1:0,0:0:0:0:
482,135,31150,6,0,L|458:64,1,75,4|2,0:3|0:0,0:0:0:0:
372,34,31799,2,0,B|346:104|406:106|381:182,1,150,0|4,1:0|0:3,0:0:0:0:
295,151,32772,1,2,0:0:0:0:
207,123,33096,2,0,P|176:118|134:130,1,75,0|2,1:0|0:0,0:0:0:0:
179,207,33745,6,0,P|181:257|96:318,1,150,4|0,0:0|1:0,0:0:0:0:
23,291,34718,1,4,0:3:0:0:
36,202,35042,2,0,L|21:84,2,112.5,4|2|2,0:3|0:3|0:0,0:0:0:0:
202,132,36664,6,0,L|223:288,1,150,2|4,0:0|0:3,0:0:0:0:
297,330,37637,2,0,P|353:329|396:288,2,112.5,4|2|2,0:3|0:3|0:0,0:0:0:0:
215,290,38934,1,2,0:3:0:0:
341,77,41529,6,0,L|419:71,1,75,4|4,0:3|0:3,0:0:0:0:
478,136,42177,2,0,P|467:197|321:219,1,225,0|4,1:0|0:3,0:0:0:0:
255,169,43475,2,0,B|181:161|181:161|149:183,1,112.5,2|2,0:3|0:3,0:0:0:0:
