osu file format v14

[General]
AudioFilename: audio.mp3
AudioLeadIn: 0
PreviewTime: 30324
Countdown: 0
SampleSet: Soft
StackLeniency: 0.7
Mode: 3
LetterboxInBreaks: 0
SpecialStyle: 0
WidescreenStoryboard: 1

[Editor]
DistanceSpacing: 1.7
BeatDivisor: 4
GridSize: 4
TimelineZoom: 1.9

[Metadata]
Title:Koakuma x3 no Daidasso!?
TitleUnicode:小悪魔×3の大脱走!?
Artist:101-202-404
ArtistUnicode:101-202-404
Creator:Jinjin
Version:Hard
Source:Cytus II
Tags:ice NEKO#ΦωΦ blocko three little devils retreat!?
BeatmapID:2007971
BeatmapSetID:958979

[Difficulty]
HPDrainRate:7.7
CircleSize:7
OverallDifficulty:7.5
ApproachRate:5
SliderMultiplier:1.4
SliderTickRate:1

[Events]
//Background and Video events
0,0,"Koakuma.jpg",0,0
//Break Periods
//Storyboard Layer 0 (Background)
//Storyboard Layer 1 (Fail)
//Storyboard Layer 2 (Pass)
//Storyboard Layer 3 (Foreground)
//Storyboard Sound Samples

[TimingPoints]
2996,396.039603960396,3,2,0,0,1,0
2996,-75.187969924812,3,2,0,0,0,0
18443,198.019801980198,3,2,0,0,1,0
18443,-151.515151515152,3,2,0,0,0,0
71908,297.029702970297,4,2,0,0,1,0

[HitObjects]
182,192,4184,5,0,0:0:0:0:
329,192,4184,1,0,0:0:0:0:
109,192,4778,1,0,0:0:0:0:
182,192,4976,1,0,0:0:0:0:
256,192,5372,1,0,0:0:0:0:
402,192,5372,1,0,0:0:0:0:
36,192,5768,1,0,0:0:0:0:
256,192,6164,1,0,0:0:0:0:
329,192,6560,1,0,0:0:0:0:
475,192,6560,1,0,0:0:0:0:
256,192,7154,1,0,0:0:0:0:
329,192,7352,1,0,0:0:0:0:
475,192,7748,1,0,0:0:0:0:
182,192,7748,1,0,0:0:0:0:
402,192,8144,1,0,0:0:0:0:
182,192,8540,1,0,0:0:0:0:
329,192,8936,1,0,0:0:0:0:
109,192,8936,1,0,0:0:0:0:
256,192,9332,1,0,0:0:0:0:
182,192,9728,1,0,0:0:0:0:
256,192,10124,1,0,0:0:0:0:
36,192,10124,1,0,0:0:0:0:
182,192,10520,1,0,0:0:0:0:
109,192,10718,1,0,0:0:0:0:
182,192,10916,1,0,0:0:0:0:
402,192,11312,1,0,0:0:0:0:
256,192,11312,1,0,0:0:0:0:
36,192,11708,1,0,0:0:0:0:
109,192,11906,1,0,0:0:0:0:
182,192,12104,1,0,0:0:0:0:
256,192,12302,1,0,0:0:0:0:
329,192,12500,1,0,0:0:0:0:
475,192,12500,1,0,0:0:0:0:
402,192,13689,1,0,0:0:0:0:
182,192,13689,1,0,0:0:0:0:
109,192,14283,1,0,0:0:0:0:
402,192,14481,1,0,0:0:0:0:
475,192,14877,1,0,0:0:0:0:
36,192,14877,1,0,0:0:0:0:
182,192,15273,1,0,0:0:0:0:
475,192,15669,1,0,0:0:0:0:
256,192,16065,1,0,0:0:0:0:
402,192,16065,1,0,0:0:0:0:
182,192,16659,1,0,0:0:0:0:
256,192,16857,1,0,0:0:0:0:
329,192,17253,128,0,18045:0:0:0:0:
182,192,17253,1,0,0:0:0:0:
109,192,17352,1,0,0:0:0:0:
182,192,17451,1,0,0:0:0:0:
109,192,17550,1,0,0:0:0:0:
182,192,17649,1,0,0:0:0:0:
109,192,17748,1,0,0:0:0:0:
182,192,17847,1,0,0:0:0:0:
109,192,17946,1,0,0:0:0:0:
182,192,18045,1,0,0:0:0:0:
256,192,18144,1,0,0:0:0:0:
329,192,18243,1,0,0:0:0:0:
402,192,18342,1,0,0:0:0:0:
36,192,18441,1,0,0:0:0:0:
256,192,18441,1,0,0:0:0:0:
475,192,18443,1,0,0:0:0:0:
109,192,18542,1,0,0:0:0:0:
182,192,18641,1,0,0:0:0:0:
329,192,18740,1,0,0:0:0:0:
475,192,18839,1,0,0:0:0:0:
402,192,19037,1,0,0:0:0:0:
109,192,19037,1,0,0:0:0:0:
36,192,19037,1,0,0:0:0:0:
182,192,19136,1,0,0:0:0:0:
256,192,19235,1,0,0:0:0:0:
329,192,19334,1,0,0:0:0:0:
475,192,19433,1,0,0:0:0:0:
109,192,19631,1,0,0:0:0:0:
402,192,19631,1,0,0:0:0:0:
182,192,19631,1,0,0:0:0:0:
256,192,19730,1,0,0:0:0:0:
329,192,19829,1,0,0:0:0:0:
402,192,19928,1,0,0:0:0:0:
475,192,20027,1,0,0:0:0:0:
402,192,20126,1,0,0:0:0:0:
329,192,20225,1,0,0:0:0:0:
36,192,20225,1,0,0:0:0:0:
256,192,20324,1,0,0:0:0:0:
182,192,20423,1,0,0:0:0:0:
109,192,20522,1,0,0:0:0:0:
36,192,20621,1,0,0:0:0:0:
256,192,20720,1,0,0:0:0:0:
329,192,20819,1,0,0:0:0:0:
475,192,20819,1,0,0:0:0:0:
109,192,20819,1,0,0:0:0:0:
182,192,20918,1,0,0:0:0:0:
256,192,21017,1,0,0:0:0:0:
402,192,21017,1,0,0:0:0:0:
109,192,21116,1,0,0:0:0:0:
329,192,21215,1,0,0:0:0:0:
182,192,21215,1,0,0:0:0:0:
402,192,21314,1,0,0:0:0:0:
256,192,21413,1,0,0:0:0:0:
36,192,21413,1,0,0:0:0:0:
475,192,21512,1,0,0:0:0:0:
182,192,21611,1,0,0:0:0:0:
329,192,21611,1,0,0:0:0:0:
109,192,21710,1,0,0:0:0:0:
256,192,21809,1,0,0:0:0:0:
402,192,21809,1,0,0:0:0:0:
182,192,21908,1,0,0:0:0:0:
329,192,22007,1,0,0:0:0:0:
475,192,22007,1,0,0:0:0:0:
109,192,22106,1,0,0:0:0:0:
256,192,22205,1,0,0:0:0:0:
402,192,22205,1,0,0:0:0:0:
36,192,22304,1,0,0:0:0:0:
329,192,22403,1,0,0:0:0:0:
182,192,22403,1,0,0:0:0:0:
109,192,22502,1,0,0:0:0:0:
256,192,22601,1,0,0:0:0:0:
475,192,22601,1,0,0:0:0:0:
182,192,22700,1,0,0:0:0:0:
329,192,22799,1,0,0:0:0:0:
109,192,22799,1,0,0:0:0:0:
402,192,22898,1,0,0:0:0:0:
182,192,22997,1,0,0:0:0:0:
36,192,22997,1,0,0:0:0:0:
329,192,23096,1,0,0:0:0:0:
475,192,23096,1,0,0:0:0:0:
256,192,23195,1,0,0:0:0:0:
109,192,23195,1,0,0:0:0:0:
402,192,23294,1,0,0:0:0:0:
109,192,23393,1,0,0:0:0:0:
329,192,23393,1,0,0:0:0:0:
182,192,23492,1,0,0:0:0:0:
256,192,23591,1,0,0:0:0:0:
402,192,23591,1,0,0:0:0:0:
109,192,23690,1,0,0:0:0:0:
329,192,23789,1,0,0:0:0:0:
182,192,23789,1,0,0:0:0:0:
36,192,23888,1,0,0:0:0:0:
109,192,23987,1,0,0:0:0:0:
256,192,23987,1,0,0:0:0:0:
402,192,24086,1,0,0:0:0:0:
182,192,24185,1,0,0:0:0:0:
329,192,24185,1,0,0:0:0:0:
109,192,24284,1,0,0:0:0:0:
256,192,24383,1,0,0:0:0:0:
475,192,24383,1,0,0:0:0:0:
402,192,24482,1,0,0:0:0:0:
329,192,24581,1,0,0:0:0:0:
109,192,24581,1,0,0:0:0:0:
182,192,24680,1,0,0:0:0:0:
402,192,24779,1,0,0:0:0:0:
109,192,24779,1,0,0:0:0:0:
329,192,24878,1,0,0:0:0:0:
182,192,24977,1,0,0:0:0:0:
36,192,24977,1,0,0:0:0:0:
256,192,25076,1,0,0:0:0:0:
109,192,25175,1,0,0:0:0:0:
402,192,25175,1,0,0:0:0:0:
329,192,25274,1,0,0:0:0:0:
182,192,25274,1,0,0:0:0:0:
109,192,25373,1,0,0:0:0:0:
402,192,25373,1,0,0:0:0:0:
182,192,25472,1,0,0:0:0:0:
329,192,25472,1,0,0:0:0:0:
475,192,25571,1,0,0:0:0:0:
36,192,25571,1,0,0:0:0:0:
256,192,25571,1,0,0:0:0:0:
402,192,25670,1,0,0:0:0:0:
109,192,25769,1,0,0:0:0:0:
182,192,25769,1,0,0:0:0:0:
329,192,25868,1,0,0:0:0:0:
36,192,25967,1,0,0:0:0:0:
109,192,25967,1,0,0:0:0:0:
182,192,26066,1,0,0:0:0:0:
475,192,26165,1,0,0:0:0:0:
329,192,26165,1,0,0:0:0:0:
109,192,26264,1,0,0:0:0:0:
256,192,26363,1,0,0:0:0:0:
402,192,26363,1,0,0:0:0:0:
36,192,26462,1,0,0:0:0:0:
182,192,26561,1,0,0:0:0:0:
329,192,26561,1,0,0:0:0:0:
402,192,26660,1,0,0:0:0:0:
256,192,26759,1,0,0:0:0:0:
109,192,26759,1,0,0:0:0:0:
475,192,26759,1,0,0:0:0:0:
329,192,26858,1,0,0:0:0:0:
182,192,26957,1,0,0:0:0:0:
36,192,26957,1,0,0:0:0:0:
402,192,27056,1,0,0:0:0:0:
109,192,27155,1,0,0:0:0:0:
256,192,27155,1,0,0:0:0:0:
329,192,27254,1,0,0:0:0:0:
36,192,27353,1,0,0:0:0:0:
475,192,27353,1,0,0:0:0:0:
402,192,27452,1,0,0:0:0:0:
182,192,27551,1,0,0:0:0:0:
329,192,27551,1,0,0:0:0:0:
109,192,27650,1,0,0:0:0:0:
256,192,27749,1,0,0:0:0:0:
402,192,27749,1,0,0:0:0:0:
182,192,27848,1,0,0:0:0:0:
36,192,27947,1,0,0:0:0:0:
475,192,27947,1,0,0:0:0:0:
329,192,27947,1,0,0:0:0:0:
109,192,28046,1,0,0:0:0:0:
402,192,28145,1,0,0:0:0:0:
256,192,28145,1,0,0:0:0:0:
182,192,28244,1,0,0:0:0:0:
475,192,28343,1,0,0:0:0:0:
329,192,28343,1,0,0:0:0:0:
182,192,28443,1,0,0:0:0:0:
109,192,28542,1,0,0:0:0:0:
402,192,28542,1,0,0:0:0:0:
256,192,28542,1,0,0:0:0:0:
329,192,28641,1,0,0:0:0:0:
36,192,28740,1,0,0:0:0:0:
182,192,28740,1,0,0:0:0:0:
402,192,28839,1,0,0:0:0:0:
109,192,28938,1,0,0:0:0:0:
256,192,28938,1,0,0:0:0:0:
182,192,29037,1,0,0:0:0:0:
329,192,29037,1,0,0:0:0:0:
402,192,29136,1,0,0:0:0:0:
256,192,29136,1,0,0:0:0:0:
475,192,29136,1,0,0:0:0:0:
329,192,29334,1,0,0:0:0:0:
402,192,29334,1,0,0:0:0:0:
182,192,29433,1,0,0:0:0:0:
109,192,29433,1,0,0:0:0:0:
329,192,29532,1,0,0:0:0:0:
402,192,29532,1,0,0:0:0:0:
182,192,29631,1,0,0:0:0:0:
109,192,29631,1,0,0:0:0:0:
256,192,29730,1,0,0:0:0:0:
475,192,29730,1,0,0:0:0:0:
36,192,29730,1,0,0:0:0:0:
36,192,29928,1,0,0:0:0:0:
256,192,29928,1,0,0:0:0:0:
475,192,29928,1,0,0:0:0:0:
109,192,30324,1,0,0:0:0:0:
402,192,30324,1,0,0:0:0:0:
256,192,30324,1,0,0:0:0:0:
329,192,30522,1,0,0:0:0:0:
475,192,30522,1,0,0:0:0:0:
36,192,30621,1,0,0:0:0:0:
182,192,30621,1,0,0:0:0:0:
256,192,30720,1,0,0:0:0:0:
402,192,30720,1,0,0:0:0:0:
329,192,30918,1,0,0:0:0:0:
475,192,30918,1,0,0:0:0:0:
182,192,30918,1,0,0:0:0:0:
109,192,31116,1,0,0:0:0:0:
256,192,31116,1,0,0:0:0:0:
329,192,31215,1,0,0:0:0:0:
182,192,31215,1,0,0:0:0:0:
256,192,31314,1,0,0:0:0:0:
402,192,31314,1,0,0:0:0:0:
182,192,31512,1,0,0:0:0:0:
109,192,31512,1,0,0:0:0:0:
329,192,31512,1,0,0:0:0:0:
256,192,31710,1,0,0:0:0:0:
402,192,31710,1,0,0:0:0:0:
36,192,31809,1,0,0:0:0:0:
182,192,31809,1,0,0:0:0:0:
475,192,31908,1,0,0:0:0:0:
329,192,31908,1,0,0:0:0:0:
402,192,32106,1,0,0:0:0:0:
182,192,32106,1,0,0:0:0:0:
256,192,32106,1,0,0:0:0:0:
256,192,32304,1,0,0:0:0:0:
109,192,32304,1,0,0:0:0:0:
402,192,32403,1,0,0:0:0:0:
475,192,32403,1,0,0:0:0:0:
36,192,32502,1,0,0:0:0:0:
182,192,32502,1,0,0:0:0:0:
475,192,32700,1,0,0:0:0:0:
329,192,32700,1,0,0:0:0:0:
109,192,32700,1,0,0:0:0:0:
402,192,32898,1,0,0:0:0:0:
256,192,32898,1,0,0:0:0:0:
329,192,33096,1,0,0:0:0:0:
182,192,33096,1,0,0:0:0:0:
402,192,33294,1,0,0:0:0:0:
256,192,33294,1,0,0:0:0:0:
475,192,33294,1,0,0:0:0:0:
36,192,33492,1,0,0:0:0:0:
182,192,33492,1,0,0:0:0:0:
329,192,33591,1,0,0:0:0:0:
402,192,33591,1,0,0:0:0:0:
109,192,33690,1,0,0:0:0:0:
256,192,33690,1,0,0:0:0:0:
182,192,33888,1,0,0:0:0:0:
329,192,33888,1,0,0:0:0:0:
475,192,33888,1,0,0:0:0:0:
36,192,34086,1,0,0:0:0:0:
402,192,34086,1,0,0:0:0:0:
109,192,34185,1,0,0:0:0:0:
182,192,34284,1,0,0:0:0:0:
402,192,34284,1,0,0:0:0:0:
256,192,34383,1,0,0:0:0:0:
329,192,34482,1,0,0:0:0:0:
475,192,34482,1,0,0:0:0:0:
109,192,34581,1,0,0:0:0:0:
182,192,34581,1,0,0:0:0:0:
256,192,34680,1,0,0:0:0:0:
402,192,34680,1,0,0:0:0:0:
109,192,34779,1,0,0:0:0:0:
36,192,34779,1,0,0:0:0:0:
182,192,34878,1,0,0:0:0:0:
329,192,34878,1,0,0:0:0:0:
402,192,34977,1,0,0:0:0:0:
475,192,34977,1,0,0:0:0:0:
36,192,35076,1,0,0:0:0:0:
109,192,35076,1,0,0:0:0:0:
256,192,35076,1,0,0:0:0:0:
402,192,35274,1,0,0:0:0:0:
329,192,35274,1,0,0:0:0:0:
109,192,35373,1,0,0:0:0:0:
182,192,35373,1,0,0:0:0:0:
402,192,35472,1,0,0:0:0:0:
475,192,35472,1,0,0:0:0:0:
256,192,35670,1,0,0:0:0:0:
329,192,35670,1,0,0:0:0:0:
109,192,35670,1,0,0:0:0:0:
36,192,35868,1,0,0:0:0:0:
182,192,35868,1,0,0:0:0:0:
402,192,35967,1,0,0:0:0:0:
329,192,35967,1,0,0:0:0:0:
109,192,36066,1,0,0:0:0:0:
256,192,36066,1,0,0:0:0:0:
475,192,36264,1,0,0:0:0:0:
182,192,36264,1,0,0:0:0:0:
329,192,36264,1,0,0:0:0:0:
256,192,36462,1,0,0:0:0:0:
402,192,36462,1,0,0:0:0:0:
109,192,36561,1,0,0:0:0:0:
182,192,36561,1,0,0:0:0:0:
329,192,36660,1,0,0:0:0:0:
475,192,36660,1,0,0:0:0:0:
256,192,36858,1,0,0:0:0:0:
36,192,36858,1,0,0:0:0:0:
402,192,36858,1,0,0:0:0:0:
182,192,37056,1,0,0:0:0:0:
329,192,37056,1,0,0:0:0:0:
256,192,37155,1,0,0:0:0:0:
402,192,37155,1,0,0:0:0:0:
329,192,37254,1,0,0:0:0:0:
475,192,37254,1,0,0:0:0:0:
182,192,37353,1,0,0:0:0:0:
36,192,37353,1,0,0:0:0:0:
256,192,37452,1,0,0:0:0:0:
402,192,37452,1,0,0:0:0:0:
109,192,37452,1,0,0:0:0:0:
182,192,37650,1,0,0:0:0:0:
329,192,37650,1,0,0:0:0:0:
36,192,37749,1,0,0:0:0:0:
109,192,37749,1,0,0:0:0:0:
182,192,37848,1,0,0:0:0:0:
329,192,37848,1,0,0:0:0:0:
402,192,38046,1,0,0:0:0:0:
475,192,38046,1,0,0:0:0:0:
256,192,38046,1,0,0:0:0:0:
182,192,38244,1,0,0:0:0:0:
329,192,38244,1,0,0:0:0:0:
109,192,38443,1,0,0:0:0:0:
256,192,38443,1,0,0:0:0:0:
475,192,38641,1,0,0:0:0:0:
329,192,38641,1,0,0:0:0:0:
182,192,38641,1,0,0:0:0:0:
402,192,38839,1,0,0:0:0:0:
182,192,38839,1,0,0:0:0:0:
109,192,38938,1,0,0:0:0:0:
36,192,39037,1,0,0:0:0:0:
475,192,39037,1,0,0:0:0:0:
402,192,39136,1,0,0:0:0:0:
256,192,39235,1,0,0:0:0:0:
182,192,39235,1,0,0:0:0:0:
329,192,39334,1,0,0:0:0:0:
475,192,39334,1,0,0:0:0:0:
182,192,39433,1,0,0:0:0:0:
109,192,39433,1,0,0:0:0:0:
256,192,39532,1,0,0:0:0:0:
402,192,39532,1,0,0:0:0:0:
109,192,39631,1,0,0:0:0:0:
36,192,39631,1,0,0:0:0:0:
182,192,39730,1,0,0:0:0:0:
329,192,39730,1,0,0:0:0:0:
256,192,39829,1,0,0:0:0:0:
36,192,39829,1,0,0:0:0:0:
475,192,39829,1,0,0:0:0:0:
182,192,40027,1,0,0:0:0:0:
329,192,40027,1,0,0:0:0:0:
109,192,40126,1,0,0:0:0:0:
402,192,40126,1,0,0:0:0:0:
182,192,40225,1,0,0:0:0:0:
329,192,40225,1,0,0:0:0:0:
402,192,40423,1,0,0:0:0:0:
475,192,40423,1,0,0:0:0:0:
256,192,40423,1,0,0:0:0:0:
109,192,40621,1,0,0:0:0:0:
36,192,40621,1,0,0:0:0:0:
329,192,40720,1,0,0:0:0:0:
182,192,40720,1,0,0:0:0:0:
402,192,40819,1,0,0:0:0:0:
475,192,40819,1,0,0:0:0:0:
182,192,41017,1,0,0:0:0:0:
329,192,41017,1,0,0:0:0:0:
109,192,41017,1,0,0:0:0:0:
475,192,41215,1,0,0:0:0:0:
36,192,41215,1,0,0:0:0:0:
109,192,41314,1,0,0:0:0:0:
402,192,41314,1,0,0:0:0:0:
36,192,41413,1,0,0:0:0:0:
475,192,41413,1,0,0:0:0:0:
109,192,41611,1,0,0:0:0:0:
402,192,41611,1,0,0:0:0:0:
256,192,41611,1,0,0:0:0:0:
329,192,41809,1,0,0:0:0:0:
182,192,41809,1,0,0:0:0:0:
402,192,41908,1,0,0:0:0:0:
475,192,41908,1,0,0:0:0:0:
256,192,42007,1,0,0:0:0:0:
109,192,42007,1,0,0:0:0:0:
182,192,42106,1,0,0:0:0:0:
329,192,42106,1,0,0:0:0:0:
475,192,42205,1,0,0:0:0:0:
256,192,42205,1,0,0:0:0:0:
402,192,42205,1,0,0:0:0:0:
182,192,42403,1,0,0:0:0:0:
329,192,42403,1,0,0:0:0:0:
109,192,42601,1,0,0:0:0:0:
256,192,42601,1,0,0:0:0:0:
182,192,42799,1,0,0:0:0:0:
402,192,42799,1,0,0:0:0:0:
329,192,42799,1,0,0:0:0:0:
36,192,42997,1,0,0:0:0:0:
256,192,42997,1,0,0:0:0:0:
109,192,43096,1,0,0:0:0:0:
329,192,43096,1,0,0:0:0:0:
182,192,43195,1,0,0:0:0:0:
402,192,43195,1,0,0:0:0:0:
256,192,43393,1,0,0:0:0:0:
475,192,43393,1,0,0:0:0:0:
36,192,43393,1,0,0:0:0:0:
109,192,43591,1,0,0:0:0:0:
329,192,43591,1,0,0:0:0:0:
182,192,43690,1,0,0:0:0:0:
256,192,43789,1,0,0:0:0:0:
475,192,43789,1,0,0:0:0:0:
329,192,43888,1,0,0:0:0:0:
402,192,43987,1,0,0:0:0:0:
36,192,43987,1,0,0:0:0:0:
182,192,44086,1,0,0:0:0:0:
256,192,44086,1,0,0:0:0:0:
329,192,44185,1,0,0:0:0:0:
475,192,44185,1,0,0:0:0:0:
109,192,44284,1,0,0:0:0:0:
182,192,44284,1,0,0:0:0:0:
256,192,44383,1,0,0:0:0:0:
402,192,44383,1,0,0:0:0:0:
36,192,44482,1,0,0:0:0:0:
109,192,44482,1,0,0:0:0:0:
475,192,44581,1,0,0:0:0:0:
182,192,44581,1,0,0:0:0:0:
329,192,44581,1,0,0:0:0:0:
256,192,44779,1,0,0:0:0:0:
402,192,44779,1,0,0:0:0:0:
109,192,44878,1,0,0:0:0:0:
182,192,44878,1,0,0:0:0:0:
329,192,44977,1,0,0:0:0:0:
475,192,44977,1,0,0:0:0:0:
182,192,45175,1,0,0:0:0:0:
36,192,45175,1,0,0:0:0:0:
402,192,45175,1,0,0:0:0:0:
109,192,45373,1,0,0:0:0:0:
256,192,45373,1,0,0:0:0:0:
402,192,45472,1,0,0:0:0:0:
475,192,45472,1,0,0:0:0:0:
182,192,45571,1,0,0:0:0:0:
329,192,45571,1,0,0:0:0:0:
36,192,45769,1,0,0:0:0:0:
256,192,45769,1,0,0:0:0:0:
475,192,45769,1,0,0:0:0:0:
109,192,45967,1,0,0:0:0:0:
329,192,45967,1,0,0:0:0:0:
402,192,46066,1,0,0:0:0:0:
182,192,46066,1,0,0:0:0:0:
109,192,46165,1,0,0:0:0:0:
329,192,46165,1,0,0:0:0:0:
256,192,46363,1,0,0:0:0:0:
475,192,46363,1,0,0:0:0:0:
36,192,46363,1,0,0:0:0:0:
109,192,46561,1,0,0:0:0:0:
182,192,46561,1,0,0:0:0:0:
329,192,46660,1,0,0:0:0:0:
402,192,46660,1,0,0:0:0:0:
36,192,46759,1,0,0:0:0:0:
109,192,46759,1,0,0:0:0:0:
402,192,46858,1,0,0:0:0:0:
475,192,46858,1,0,0:0:0:0:
182,192,46957,1,0,0:0:0:0:
256,192,46957,1,0,0:0:0:0:
329,192,46957,1,0,0:0:0:0:
402,192,47155,1,0,0:0:0:0:
475,192,47155,1,0,0:0:0:0:
182,192,47254,1,0,0:0:0:0:
36,192,47254,1,0,0:0:0:0:
329,192,47353,1,0,0:0:0:0:
402,192,47353,1,0,0:0:0:0:
109,192,47551,1,0,0:0:0:0:
475,192,47551,1,0,0:0:0:0:
256,192,47551,1,0,0:0:0:0:
182,192,47749,1,0,0:0:0:0:
402,192,47749,1,0,0:0:0:0:
109,192,47947,1,0,0:0:0:0:
329,192,47947,1,0,0:0:0:0:
256,192,48145,1,0,0:0:0:0:
36,192,48145,1,0,0:0:0:0:
475,192,48145,1,0,0:0:0:0:
182,192,48343,1,0,0:0:0:0:
109,192,48343,1,0,0:0:0:0:
402,192,48542,1,0,0:0:0:0:
329,192,48542,1,0,0:0:0:0:
182,192,48740,1,0,0:0:0:0:
329,192,48740,1,0,0:0:0:0:
109,192,48839,1,0,0:0:0:0:
36,192,48839,1,0,0:0:0:0:
256,192,48938,1,0,0:0:0:0:
402,192,48938,1,0,0:0:0:0:
182,192,49037,1,0,0:0:0:0:
109,192,49037,1,0,0:0:0:0:
329,192,49136,1,0,0:0:0:0:
475,192,49136,1,0,0:0:0:0:
182,192,49235,1,0,0:0:0:0:
256,192,49235,1,0,0:0:0:0:
402,192,49334,1,0,0:0:0:0:
36,192,49334,1,0,0:0:0:0:
109,192,49334,1,0,0:0:0:0:
329,192,49433,1,0,0:0:0:0:
182,192,49433,1,0,0:0:0:0:
182,192,49631,1,0,0:0:0:0:
329,192,49631,1,0,0:0:0:0:
109,192,49829,1,0,0:0:0:0:
402,192,49829,1,0,0:0:0:0:
182,192,49928,1,0,0:0:0:0:
329,192,49928,1,0,0:0:0:0:
109,192,50126,1,0,0:0:0:0:
182,192,50225,1,0,0:0:0:0:
329,192,50324,1,0,0:0:0:0:
402,192,50423,1,0,0:0:0:0:
36,192,50522,1,0,0:0:0:0:
475,192,50522,1,0,0:0:0:0:
182,192,50621,1,0,0:0:0:0:
329,192,50621,1,0,0:0:0:0:
182,192,50819,1,0,0:0:0:0:
329,192,50819,1,0,0:0:0:0:
475,192,51017,1,0,0:0:0:0:
36,192,51017,1,0,0:0:0:0:
182,192,51116,1,0,0:0:0:0:
329,192,51116,1,0,0:0:0:0:
109,192,51314,1,0,0:0:0:0:
182,192,51413,1,0,0:0:0:0:
329,192,51512,1,0,0:0:0:0:
402,192,51611,1,0,0:0:0:0:
475,192,51710,1,0,0:0:0:0:
256,192,51710,1,0,0:0:0:0:
36,192,51710,1,0,0:0:0:0:
402,192,51809,1,0,0:0:0:0:
182,192,51908,1,0,0:0:0:0:
329,192,51908,1,0,0:0:0:0:
109,192,52007,1,0,0:0:0:0:
402,192,52106,1,0,0:0:0:0:
256,192,52106,1,0,0:0:0:0:
182,192,52205,1,0,0:0:0:0:
329,192,52304,1,0,0:0:0:0:
475,192,52304,1,0,0:0:0:0:
256,192,52403,1,0,0:0:0:0:
182,192,52502,1,0,0:0:0:0:
36,192,52502,1,0,0:0:0:0:
402,192,52601,1,0,0:0:0:0:
182,192,52700,1,0,0:0:0:0:
329,192,52700,1,0,0:0:0:0:
109,192,52799,1,0,0:0:0:0:
402,192,52898,1,0,0:0:0:0:
256,192,52898,1,0,0:0:0:0:
475,192,52898,1,0,0:0:0:0:
182,192,52997,1,0,0:0:0:0:
329,192,53096,1,0,0:0:0:0:
109,192,53096,1,0,0:0:0:0:
182,192,53195,1,0,0:0:0:0:
256,192,53294,1,0,0:0:0:0:
402,192,53294,1,0,0:0:0:0:
475,192,53393,1,0,0:0:0:0:
329,192,53492,1,0,0:0:0:0:
182,192,53492,1,0,0:0:0:0:
109,192,53492,1,0,0:0:0:0:
36,192,53690,1,0,0:0:0:0:
256,192,53690,1,0,0:0:0:0:
109,192,53789,1,0,0:0:0:0:
329,192,53789,1,0,0:0:0:0:
182,192,53888,1,0,0:0:0:0:
402,192,53888,1,0,0:0:0:0:
256,192,53987,1,0,0:0:0:0:
475,192,53987,1,0,0:0:0:0:
109,192,54086,1,0,0:0:0:0:
329,192,54086,1,0,0:0:0:0:
182,192,54185,1,0,0:0:0:0:
402,192,54185,1,0,0:0:0:0:
402,192,54383,1,0,0:0:0:0:
182,192,54383,1,0,0:0:0:0:
109,192,54581,1,0,0:0:0:0:
329,192,54581,1,0,0:0:0:0:
402,192,54680,1,0,0:0:0:0:
182,192,54680,1,0,0:0:0:0:
109,192,54878,1,0,0:0:0:0:
329,192,54878,1,0,0:0:0:0:
182,192,54977,1,0,0:0:0:0:
256,192,55076,1,0,0:0:0:0:
36,192,55076,1,0,0:0:0:0:
329,192,55175,1,0,0:0:0:0:
402,192,55274,1,0,0:0:0:0:
182,192,55274,1,0,0:0:0:0:
109,192,55373,1,0,0:0:0:0:
329,192,55373,1,0,0:0:0:0:
109,192,55571,1,0,0:0:0:0:
329,192,55571,1,0,0:0:0:0:
329,192,55769,1,0,0:0:0:0:
109,192,55769,1,0,0:0:0:0:
182,192,55868,1,0,0:0:0:0:
402,192,55868,1,0,0:0:0:0:
475,192,56066,1,0,0:0:0:0:
329,192,56066,1,0,0:0:0:0:
182,192,56165,1,0,0:0:0:0:
36,192,56165,1,0,0:0:0:0:
329,192,56264,1,0,0:0:0:0:
402,192,56264,1,0,0:0:0:0:
109,192,56363,1,0,0:0:0:0:
36,192,56363,1,0,0:0:0:0:
475,192,56462,1,0,0:0:0:0:
182,192,56462,1,0,0:0:0:0:
256,192,56462,1,0,0:0:0:0:
402,192,56561,1,0,0:0:0:0:
329,192,56660,1,0,0:0:0:0:
109,192,56660,1,0,0:0:0:0:
182,192,56759,1,0,0:0:0:0:
256,192,56858,1,0,0:0:0:0:
475,192,56858,1,0,0:0:0:0:
402,192,56957,1,0,0:0:0:0:
329,192,57056,1,0,0:0:0:0:
182,192,57056,1,0,0:0:0:0:
109,192,57155,1,0,0:0:0:0:
36,192,57155,1,0,0:0:0:0:
402,192,57254,1,0,0:0:0:0:
256,192,57254,1,0,0:0:0:0:
182,192,57353,1,0,0:0:0:0:
109,192,57353,1,0,0:0:0:0:
329,192,57452,1,0,0:0:0:0:
475,192,57452,1,0,0:0:0:0:
182,192,57551,1,0,0:0:0:0:
256,192,57551,1,0,0:0:0:0:
402,192,57650,1,0,0:0:0:0:
109,192,57650,1,0,0:0:0:0:
36,192,57650,1,0,0:0:0:0:
36,192,57848,1,0,0:0:0:0:
36,192,58046,1,0,0:0:0:0:
402,192,58046,1,0,0:0:0:0:
329,192,58145,1,0,0:0:0:0:
109,192,58244,1,0,0:0:0:0:
475,192,58244,1,0,0:0:0:0:
475,192,58442,1,0,0:0:0:0:
475,192,58641,1,0,0:0:0:0:
36,192,58641,1,0,0:0:0:0:
109,192,58740,1,0,0:0:0:0:
182,192,58839,1,0,0:0:0:0:
329,192,58839,1,0,0:0:0:0:
402,192,58839,1,0,0:0:0:0:
182,192,59037,1,0,0:0:0:0:
182,192,59235,1,0,0:0:0:0:
402,192,59235,1,0,0:0:0:0:
256,192,59334,1,0,0:0:0:0:
329,192,59433,1,0,0:0:0:0:
109,192,59433,1,0,0:0:0:0:
36,192,59433,1,0,0:0:0:0:
329,192,59631,1,0,0:0:0:0:
329,192,59829,1,0,0:0:0:0:
182,192,59829,1,0,0:0:0:0:
402,192,59928,1,0,0:0:0:0:
109,192,59928,1,0,0:0:0:0:
475,192,60027,1,0,0:0:0:0:
36,192,60027,1,0,0:0:0:0:
256,192,60027,1,0,0:0:0:0:
402,192,60225,1,0,0:0:0:0:
329,192,60225,1,0,0:0:0:0:
109,192,60324,1,0,0:0:0:0:
182,192,60324,1,0,0:0:0:0:
329,192,60423,1,0,0:0:0:0:
402,192,60423,1,0,0:0:0:0:
182,192,60522,1,0,0:0:0:0:
109,192,60522,1,0,0:0:0:0:
475,192,60621,1,0,0:0:0:0:
256,192,60621,1,0,0:0:0:0:
36,192,60621,1,0,0:0:0:0:
182,192,60819,1,0,0:0:0:0:
402,192,60819,1,0,0:0:0:0:
256,192,60918,1,0,0:0:0:0:
329,192,61017,1,0,0:0:0:0:
109,192,61017,1,0,0:0:0:0:
182,192,61116,1,0,0:0:0:0:
475,192,61215,1,0,0:0:0:0:
256,192,61215,1,0,0:0:0:0:
36,192,61215,1,0,0:0:0:0:
109,192,61314,1,0,0:0:0:0:
402,192,61314,1,0,0:0:0:0:
182,192,61413,1,0,0:0:0:0:
329,192,61413,1,0,0:0:0:0:
109,192,61512,1,0,0:0:0:0:
402,192,61512,1,0,0:0:0:0:
36,192,61611,1,0,0:0:0:0:
475,192,61611,1,0,0:0:0:0:
109,192,61710,1,0,0:0:0:0:
402,192,61710,1,0,0:0:0:0:
182,192,61809,128,0,62403:0:0:0:0:
329,192,61809,128,0,62403:0:0:0:0:
36,192,62403,1,0,0:0:0:0:
402,192,62601,1,0,0:0:0:0:
109,192,62601,1,0,0:0:0:0:
329,192,62700,1,0,0:0:0:0:
256,192,62799,1,0,0:0:0:0:
109,192,62799,1,0,0:0:0:0:
329,192,62898,1,0,0:0:0:0:
402,192,62997,1,0,0:0:0:0:
182,192,62997,1,0,0:0:0:0:
402,192,63195,1,0,0:0:0:0:
182,192,63195,1,0,0:0:0:0:
109,192,63294,1,0,0:0:0:0:
36,192,63393,1,0,0:0:0:0:
109,192,63492,1,0,0:0:0:0:
329,192,63591,1,0,0:0:0:0:
182,192,63591,1,0,0:0:0:0:
329,192,63789,1,0,0:0:0:0:
475,192,63789,1,0,0:0:0:0:
256,192,63888,1,0,0:0:0:0:
182,192,63987,1,0,0:0:0:0:
402,192,63987,1,0,0:0:0:0:
256,192,64086,1,0,0:0:0:0:
329,192,64185,1,0,0:0:0:0:
109,192,64185,1,0,0:0:0:0:
402,192,64383,1,0,0:0:0:0:
182,192,64383,1,0,0:0:0:0:
109,192,64482,1,0,0:0:0:0:
475,192,64581,1,0,0:0:0:0:
36,192,64581,1,0,0:0:0:0:
109,192,64680,1,0,0:0:0:0:
402,192,64779,1,0,0:0:0:0:
182,192,64779,1,0,0:0:0:0:
329,192,64878,1,0,0:0:0:0:
256,192,64977,1,0,0:0:0:0:
475,192,64977,1,0,0:0:0:0:
402,192,65076,1,0,0:0:0:0:
182,192,65175,1,0,0:0:0:0:
329,192,65175,1,0,0:0:0:0:
109,192,65274,1,0,0:0:0:0:
256,192,65373,1,0,0:0:0:0:
402,192,65373,1,0,0:0:0:0:
182,192,65472,1,0,0:0:0:0:
329,192,65571,1,0,0:0:0:0:
475,192,65571,1,0,0:0:0:0:
256,192,65670,1,0,0:0:0:0:
109,192,65769,1,0,0:0:0:0:
402,192,65769,1,0,0:0:0:0:
36,192,65868,1,0,0:0:0:0:
475,192,65967,1,0,0:0:0:0:
256,192,65967,1,0,0:0:0:0:
402,192,66066,1,0,0:0:0:0:
329,192,66165,1,0,0:0:0:0:
182,192,66165,1,0,0:0:0:0:
109,192,66264,1,0,0:0:0:0:
256,192,66363,1,0,0:0:0:0:
402,192,66363,1,0,0:0:0:0:
182,192,66462,1,0,0:0:0:0:
329,192,66561,1,0,0:0:0:0:
475,192,66561,1,0,0:0:0:0:
256,192,66660,1,0,0:0:0:0:
182,192,66759,1,0,0:0:0:0:
402,192,66759,1,0,0:0:0:0:
109,192,66858,1,0,0:0:0:0:
329,192,66957,1,0,0:0:0:0:
182,192,66957,1,0,0:0:0:0:
402,192,67056,1,0,0:0:0:0:
36,192,67155,1,0,0:0:0:0:
256,192,67155,1,0,0:0:0:0:
182,192,67353,1,0,0:0:0:0:
329,192,67353,1,0,0:0:0:0:
109,192,67452,1,0,0:0:0:0:
36,192,67551,1,0,0:0:0:0:
329,192,67551,1,0,0:0:0:0:
109,192,67650,1,0,0:0:0:0:
475,192,67749,1,0,0:0:0:0:
182,192,67749,1,0,0:0:0:0:
475,192,67947,1,0,0:0:0:0:
182,192,67947,1,0,0:0:0:0:
329,192,68145,1,0,0:0:0:0:
36,192,68145,1,0,0:0:0:0:
36,192,68343,1,0,0:0:0:0:
329,192,68343,1,0,0:0:0:0:
475,192,68542,1,0,0:0:0:0:
182,192,68542,1,0,0:0:0:0:
402,192,68641,1,0,0:0:0:0:
329,192,68740,1,0,0:0:0:0:
182,192,68740,1,0,0:0:0:0:
402,192,68839,1,0,0:0:0:0:
475,192,68938,1,0,0:0:0:0:
109,192,68938,1,0,0:0:0:0:
402,192,69136,1,0,0:0:0:0:
109,192,69136,1,0,0:0:0:0:
109,192,69334,1,0,0:0:0:0:
329,192,69334,1,0,0:0:0:0:
182,192,69532,1,0,0:0:0:0:
36,192,69532,1,0,0:0:0:0:
329,192,69730,128,0,69928:0:0:0:0:
109,192,69829,1,0,0:0:0:0:
182,192,69928,1,0,0:0:0:0:
329,192,70126,1,0,0:0:0:0:
109,192,70126,1,0,0:0:0:0:
402,192,70324,128,0,70522:0:0:0:0:
182,192,70423,1,0,0:0:0:0:
256,192,70522,1,0,0:0:0:0:
182,192,70720,1,0,0:0:0:0:
402,192,70720,1,0,0:0:0:0:
329,192,70918,1,0,0:0:0:0:
109,192,70918,1,0,0:0:0:0:
256,192,71017,1,0,0:0:0:0:
182,192,71116,1,0,0:0:0:0:
402,192,71116,1,0,0:0:0:0:
256,192,71215,1,0,0:0:0:0:
329,192,71314,1,0,0:0:0:0:
36,192,71314,1,0,0:0:0:0:
109,192,71413,1,0,0:0:0:0:
182,192,71512,1,0,0:0:0:0:
256,192,71611,1,0,0:0:0:0:
329,192,71710,1,0,0:0:0:0:
402,192,71809,1,0,0:0:0:0:
475,192,71908,1,0,0:0:0:0:
36,192,71908,1,0,0:0:0:0:
182,192,71908,1,0,0:0:0:0:
256,192,72056,1,0,0:0:0:0:
329,192,72205,1,0,0:0:0:0:
402,192,72353,1,0,0:0:0:0:
475,192,72502,1,0,0:0:0:0:
109,192,72502,1,0,0:0:0:0:
182,192,72502,1,0,0:0:0:0:
402,192,72799,1,0,0:0:0:0:
329,192,72947,1,0,0:0:0:0:
329,192,73096,1,0,0:0:0:0:
109,192,73096,1,0,0:0:0:0:
36,192,73096,1,0,0:0:0:0:
182,192,73244,1,0,0:0:0:0:
256,192,73393,1,0,0:0:0:0:
329,192,73541,1,0,0:0:0:0:
182,192,73690,1,0,0:0:0:0:
475,192,73690,1,0,0:0:0:0:
402,192,73690,1,0,0:0:0:0:
402,192,73987,1,0,0:0:0:0:
329,192,74135,1,0,0:0:0:0:
329,192,74284,1,0,0:0:0:0:
36,192,74284,1,0,0:0:0:0:
109,192,74284,1,0,0:0:0:0:
182,192,74432,1,0,0:0:0:0:
256,192,74581,1,0,0:0:0:0:
402,192,74581,1,0,0:0:0:0:
329,192,74729,1,0,0:0:0:0:
475,192,74878,1,0,0:0:0:0:
109,192,74878,1,0,0:0:0:0:
329,192,74878,1,0,0:0:0:0:
402,192,75175,1,0,0:0:0:0:
329,192,75323,1,0,0:0:0:0:
109,192,75472,1,0,0:0:0:0:
475,192,75472,1,0,0:0:0:0:
182,192,75472,1,0,0:0:0:0:
256,192,75769,1,0,0:0:0:0:
182,192,76066,1,0,0:0:0:0:
36,192,76066,1,0,0:0:0:0:
402,192,76066,1,0,0:0:0:0:
182,192,76363,1,0,0:0:0:0:
109,192,76511,1,0,0:0:0:0:
402,192,76660,1,0,0:0:0:0:
109,192,76660,1,0,0:0:0:0:
329,192,76660,1,0,0:0:0:0:
182,192,76957,1,0,0:0:0:0:
109,192,77106,1,0,0:0:0:0:
329,192,77106,1,0,0:0:0:0:
402,192,77254,1,0,0:0:0:0:
109,192,77254,1,0,0:0:0:0:
475,192,77551,1,0,0:0:0:0:
329,192,77848,1,0,0:0:0:0:
109,192,77848,1,0,0:0:0:0:
36,192,77848,1,0,0:0:0:0:
256,192,78145,1,0,0:0:0:0:
402,192,78442,1,0,0:0:0:0:
329,192,78739,1,0,0:0:0:0:
109,192,79036,128,0,79630:0:0:0:0:
402,192,79036,128,0,79630:0:0:0:0:
329,192,80224,128,0,80818:0:0:0:0:
36,192,80224,128,0,80818:0:0:0:0:
36,192,81412,1,0,0:0:0:0:
475,192,81412,1,0,0:0:0:0:
182,192,81412,1,0,0:0:0:0:
256,192,81561,1,0,0:0:0:0:
329,192,81635,1,0,0:0:0:0:
402,192,81709,1,0,0:0:0:0:
109,192,81709,1,0,0:0:0:0:
329,192,81858,1,0,0:0:0:0:
182,192,82007,1,0,0:0:0:0:
475,192,82007,1,0,0:0:0:0:
109,192,82155,1,0,0:0:0:0:
36,192,82304,1,0,0:0:0:0:
329,192,82304,1,0,0:0:0:0:
109,192,82452,1,0,0:0:0:0:
475,192,82601,1,0,0:0:0:0:
182,192,82601,1,0,0:0:0:0:
402,192,82675,1,0,0:0:0:0:
329,192,82749,1,0,0:0:0:0:
256,192,82823,1,0,0:0:0:0:
36,192,82898,1,0,0:0:0:0:
109,192,82972,1,0,0:0:0:0:
182,192,83046,1,0,0:0:0:0:
256,192,83120,1,0,0:0:0:0:
475,192,83195,1,0,0:0:0:0:
402,192,83269,1,0,0:0:0:0:
329,192,83343,1,0,0:0:0:0:
256,192,83417,1,0,0:0:0:0:
36,192,83492,1,0,0:0:0:0:
109,192,83566,1,0,0:0:0:0:
182,192,83640,1,0,0:0:0:0:
256,192,83714,1,0,0:0:0:0:
475,192,83789,1,0,0:0:0:0:
329,192,83789,1,0,0:0:0:0:
36,192,83789,1,0,0:0:0:0:
109,192,83937,1,0,0:0:0:0:
182,192,84011,1,0,0:0:0:0:
256,192,84086,1,0,0:0:0:0:
402,192,84086,1,0,0:0:0:0:
329,192,84234,1,0,0:0:0:0:
109,192,84383,1,0,0:0:0:0:
475,192,84383,1,0,0:0:0:0:
402,192,84531,1,0,0:0:0:0:
329,192,84680,1,0,0:0:0:0:
182,192,84680,1,0,0:0:0:0:
402,192,84828,1,0,0:0:0:0:
475,192,84977,1,0,0:0:0:0:
256,192,84977,1,0,0:0:0:0:
182,192,85051,1,0,0:0:0:0:
109,192,85125,1,0,0:0:0:0:
36,192,85200,1,0,0:0:0:0:
256,192,85274,1,0,0:0:0:0:
329,192,85348,1,0,0:0:0:0:
402,192,85422,1,0,0:0:0:0:
475,192,85497,1,0,0:0:0:0:
256,192,85571,1,0,0:0:0:0:
182,192,85645,1,0,0:0:0:0:
109,192,85719,1,0,0:0:0:0:
36,192,85794,1,0,0:0:0:0:
475,192,85868,1,0,0:0:0:0:
402,192,85942,1,0,0:0:0:0:
329,192,86016,1,0,0:0:0:0:
256,192,86091,1,0,0:0:0:0:
36,192,86165,1,0,0:0:0:0:
182,192,86165,1,0,0:0:0:0:
475,192,86313,1,0,0:0:0:0:
402,192,86388,1,0,0:0:0:0:
329,192,86462,1,0,0:0:0:0:
109,192,86462,1,0,0:0:0:0:
256,192,86610,1,0,0:0:0:0:
36,192,86610,1,0,0:0:0:0:
329,192,86759,1,0,0:0:0:0:
109,192,86759,1,0,0:0:0:0:
475,192,86759,1,0,0:0:0:0:
36,192,87205,1,0,0:0:0:0:
109,192,87279,1,0,0:0:0:0:
182,192,87353,1,0,0:0:0:0:
329,192,87353,1,0,0:0:0:0:
475,192,87502,1,0,0:0:0:0:
402,192,87576,1,0,0:0:0:0:
329,192,87650,1,0,0:0:0:0:
109,192,87650,1,0,0:0:0:0:
256,192,87799,1,0,0:0:0:0:
36,192,87799,1,0,0:0:0:0:
109,192,87947,1,0,0:0:0:0:
329,192,87947,1,0,0:0:0:0:
475,192,87947,1,0,0:0:0:0:
109,192,88393,1,0,0:0:0:0:
182,192,88467,1,0,0:0:0:0:
256,192,88541,1,0,0:0:0:0:
182,192,88690,1,0,0:0:0:0:
329,192,88987,1,0,0:0:0:0:
402,192,89061,1,0,0:0:0:0:
475,192,89135,1,0,0:0:0:0:
402,192,89284,1,0,0:0:0:0:
182,192,89581,1,0,0:0:0:0:
109,192,89655,1,0,0:0:0:0:
256,192,89729,1,0,0:0:0:0:
402,192,89729,1,0,0:0:0:0:
329,192,89878,1,0,0:0:0:0:
475,192,89878,1,0,0:0:0:0:
36,192,90026,1,0,0:0:0:0:
256,192,90026,1,0,0:0:0:0:
109,192,90175,1,0,0:0:0:0:
329,192,90175,1,0,0:0:0:0:
182,192,90323,1,0,0:0:0:0:
402,192,90323,1,0,0:0:0:0:
256,192,90472,1,0,0:0:0:0:
475,192,90472,1,0,0:0:0:0:
329,192,90620,1,0,0:0:0:0:
36,192,90620,1,0,0:0:0:0:
402,192,90769,1,0,0:0:0:0:
109,192,90769,1,0,0:0:0:0:
475,192,90917,1,0,0:0:0:0:
182,192,90917,1,0,0:0:0:0:
329,192,90917,1,0,0:0:0:0:
256,192,91066,1,0,0:0:0:0:
329,192,91140,1,0,0:0:0:0:
402,192,91214,1,0,0:0:0:0:
109,192,91214,1,0,0:0:0:0:
36,192,91214,1,0,0:0:0:0:
329,192,91363,1,0,0:0:0:0:
182,192,91511,1,0,0:0:0:0:
256,192,91511,1,0,0:0:0:0:
475,192,91511,1,0,0:0:0:0:
109,192,91660,1,0,0:0:0:0:
36,192,91808,1,0,0:0:0:0:
256,192,91808,1,0,0:0:0:0:
402,192,91808,1,0,0:0:0:0:
329,192,91957,1,0,0:0:0:0:
475,192,92106,1,0,0:0:0:0:
109,192,92106,1,0,0:0:0:0:
36,192,92106,1,0,0:0:0:0:
402,192,92180,1,0,0:0:0:0:
329,192,92254,1,0,0:0:0:0:
182,192,92328,1,0,0:0:0:0:
36,192,92403,1,0,0:0:0:0:
109,192,92477,1,0,0:0:0:0:
256,192,92551,1,0,0:0:0:0:
402,192,92625,1,0,0:0:0:0:
475,192,92700,1,0,0:0:0:0:
329,192,92774,1,0,0:0:0:0:
256,192,92848,1,0,0:0:0:0:
182,192,92922,1,0,0:0:0:0:
36,192,92997,1,0,0:0:0:0:
109,192,93071,1,0,0:0:0:0:
256,192,93145,1,0,0:0:0:0:
402,192,93219,1,0,0:0:0:0:
36,192,93294,1,0,0:0:0:0:
475,192,93294,1,0,0:0:0:0:
182,192,93294,1,0,0:0:0:0:
109,192,93442,1,0,0:0:0:0:
256,192,93516,1,0,0:0:0:0:
402,192,93591,1,0,0:0:0:0:
475,192,93591,1,0,0:0:0:0:
36,192,93591,1,0,0:0:0:0:
182,192,93739,1,0,0:0:0:0:
109,192,93888,1,0,0:0:0:0:
329,192,93888,1,0,0:0:0:0:
475,192,93888,1,0,0:0:0:0:
256,192,94036,1,0,0:0:0:0:
109,192,94185,1,0,0:0:0:0:
402,192,94185,1,0,0:0:0:0:
329,192,94185,1,0,0:0:0:0:
182,192,94333,1,0,0:0:0:0:
256,192,94482,1,0,0:0:0:0:
475,192,94482,1,0,0:0:0:0:
36,192,94482,1,0,0:0:0:0:
402,192,94556,1,0,0:0:0:0:
329,192,94630,1,0,0:0:0:0:
182,192,94705,1,0,0:0:0:0:
36,192,94779,1,0,0:0:0:0:
109,192,94853,1,0,0:0:0:0:
256,192,94927,1,0,0:0:0:0:
402,192,95002,1,0,0:0:0:0:
475,192,95076,1,0,0:0:0:0:
329,192,95150,1,0,0:0:0:0:
256,192,95224,1,0,0:0:0:0:
182,192,95299,1,0,0:0:0:0:
36,192,95373,1,0,0:0:0:0:
109,192,95447,1,0,0:0:0:0:
256,192,95521,1,0,0:0:0:0:
329,192,95596,1,0,0:0:0:0:
402,192,95670,1,0,0:0:0:0:
475,192,95670,1,0,0:0:0:0:
36,192,95670,1,0,0:0:0:0:
182,192,95818,1,0,0:0:0:0:
256,192,95893,1,0,0:0:0:0:
329,192,95967,1,0,0:0:0:0:
109,192,95967,1,0,0:0:0:0:
475,192,95967,1,0,0:0:0:0:
256,192,96115,1,0,0:0:0:0:
475,192,96412,1,0,0:0:0:0:
329,192,96412,1,0,0:0:0:0:
182,192,96412,1,0,0:0:0:0:
475,192,96561,1,0,0:0:0:0:
329,192,96561,1,0,0:0:0:0:
182,192,96561,1,0,0:0:0:0:
256,192,96709,1,0,0:0:0:0:
402,192,96858,1,0,0:0:0:0:
475,192,96858,1,0,0:0:0:0:
36,192,96858,1,0,0:0:0:0:
182,192,97007,1,0,0:0:0:0:
256,192,97081,1,0,0:0:0:0:
329,192,97155,1,0,0:0:0:0:
109,192,97155,1,0,0:0:0:0:
475,192,97155,1,0,0:0:0:0:
256,192,97304,1,0,0:0:0:0:
329,192,97601,1,0,0:0:0:0:
475,192,97601,1,0,0:0:0:0:
109,192,97601,1,0,0:0:0:0:
329,192,97749,1,0,0:0:0:0:
475,192,97749,1,0,0:0:0:0:
109,192,97749,1,0,0:0:0:0:
182,192,97898,1,0,0:0:0:0:
402,192,98046,1,0,0:0:0:0:
256,192,98046,1,0,0:0:0:0:
36,192,98046,1,0,0:0:0:0:
182,192,98195,1,0,0:0:0:0:
256,192,98269,1,0,0:0:0:0:
329,192,98343,1,0,0:0:0:0:
475,192,98343,1,0,0:0:0:0:
109,192,98343,1,0,0:0:0:0:
256,192,98492,1,0,0:0:0:0:
182,192,98640,1,0,0:0:0:0:
402,192,98640,1,0,0:0:0:0:
475,192,98640,1,0,0:0:0:0:
109,192,98789,1,0,0:0:0:0:
36,192,98937,1,0,0:0:0:0:
329,192,98937,1,0,0:0:0:0:
402,192,98937,1,0,0:0:0:0:
109,192,99086,1,0,0:0:0:0:
182,192,99234,1,0,0:0:0:0:
402,192,99234,1,0,0:0:0:0:
475,192,99234,1,0,0:0:0:0:
329,192,99383,1,0,0:0:0:0:
36,192,99531,1,0,0:0:0:0:
109,192,99531,1,0,0:0:0:0:
256,192,99531,1,0,0:0:0:0:
182,192,99680,1,0,0:0:0:0:
402,192,99680,1,0,0:0:0:0:
109,192,99977,1,0,0:0:0:0:
402,192,99977,1,0,0:0:0:0:
256,192,99977,1,0,0:0:0:0:
109,192,100125,1,0,0:0:0:0:
402,192,100125,1,0,0:0:0:0:
256,192,100125,1,0,0:0:0:0:
329,192,100422,1,0,0:0:0:0:
475,192,100422,1,0,0:0:0:0:
182,192,100422,1,0,0:0:0:0:
109,192,100571,1,0,0:0:0:0:
36,192,100719,1,0,0:0:0:0:
256,192,100719,1,0,0:0:0:0:
402,192,100719,1,0,0:0:0:0:
475,192,100868,1,0,0:0:0:0:
329,192,100868,1,0,0:0:0:0:
109,192,101165,1,0,0:0:0:0:
402,192,101165,1,0,0:0:0:0:
256,192,101165,1,0,0:0:0:0:
109,192,101313,1,0,0:0:0:0:
402,192,101313,1,0,0:0:0:0:
256,192,101313,1,0,0:0:0:0:
329,192,101610,1,0,0:0:0:0:
475,192,101610,1,0,0:0:0:0:
109,192,101610,1,0,0:0:0:0:
182,192,101759,1,0,0:0:0:0:
256,192,101908,1,0,0:0:0:0:
402,192,101908,1,0,0:0:0:0:
36,192,101908,1,0,0:0:0:0:
329,192,102056,1,0,0:0:0:0:
109,192,102056,1,0,0:0:0:0:
182,192,102353,1,0,0:0:0:0:
475,192,102353,1,0,0:0:0:0:
402,192,102353,1,0,0:0:0:0:
182,192,102502,1,0,0:0:0:0:
475,192,102502,1,0,0:0:0:0:
402,192,102502,1,0,0:0:0:0:
475,192,102799,1,0,0:0:0:0:
402,192,102799,1,0,0:0:0:0:
256,192,102799,1,0,0:0:0:0:
182,192,102947,1,0,0:0:0:0:
36,192,103096,1,0,0:0:0:0:
109,192,103096,1,0,0:0:0:0:
329,192,103096,1,0,0:0:0:0:
402,192,103244,1,0,0:0:0:0:
475,192,103244,1,0,0:0:0:0:
329,192,103541,1,0,0:0:0:0:
475,192,103541,1,0,0:0:0:0:
109,192,103541,1,0,0:0:0:0:
329,192,103690,1,0,0:0:0:0:
475,192,103690,1,0,0:0:0:0:
109,192,103690,1,0,0:0:0:0:
36,192,103987,128,0,106066:0:0:0:0:
475,192,103987,128,0,106066:0:0:0:0:
256,192,103987,128,0,106066:0:0:0:0:
109,192,106363,1,0,0:0:0:0:
475,192,106363,128,0,106957:0:0:0:0:
182,192,106660,1,0,0:0:0:0:
36,192,106957,1,0,0:0:0:0:
182,192,107254,1,0,0:0:0:0:
329,192,107551,1,0,0:0:0:0:
36,192,107551,128,0,107848:0:0:0:0:
402,192,107848,1,0,0:0:0:0:
402,192,107997,1,0,0:0:0:0:
109,192,108145,128,0,108442:0:0:0:0:
329,192,108145,1,0,0:0:0:0:
475,192,108442,1,0,0:0:0:0:
182,192,108739,128,0,109333:0:0:0:0:
329,192,108739,1,0,0:0:0:0:
402,192,109036,1,0,0:0:0:0:
329,192,109333,1,0,0:0:0:0:
402,192,109630,1,0,0:0:0:0:
36,192,109927,128,0,110521:0:0:0:0:
182,192,109927,1,0,0:0:0:0:
329,192,110224,1,0,0:0:0:0:
329,192,110373,1,0,0:0:0:0:
182,192,110521,1,0,0:0:0:0:
329,192,110818,1,0,0:0:0:0:
402,192,111115,128,0,111709:0:0:0:0:
109,192,111115,1,0,0:0:0:0:
182,192,111412,1,0,0:0:0:0:
36,192,111709,1,0,0:0:0:0:
109,192,112007,1,0,0:0:0:0:
182,192,112304,128,0,112601:0:0:0:0:
329,192,112304,1,0,0:0:0:0:
402,192,112601,1,0,0:0:0:0:
402,192,112749,1,0,0:0:0:0:
109,192,112898,1,0,0:0:0:0:
256,192,112898,128,0,113195:0:0:0:0:
182,192,113195,1,0,0:0:0:0:
329,192,113492,128,0,114086:0:0:0:0:
109,192,113492,1,0,0:0:0:0:
182,192,113789,1,0,0:0:0:0:
36,192,114086,1,0,0:0:0:0:
182,192,114383,1,0,0:0:0:0:
109,192,114680,1,0,0:0:0:0:
256,192,114680,128,0,115274:0:0:0:0:
402,192,114977,1,0,0:0:0:0:
402,192,115125,1,0,0:0:0:0:
109,192,115274,1,0,0:0:0:0:
256,192,115571,1,0,0:0:0:0:
402,192,115868,128,0,116165:0:0:0:0:
182,192,115868,128,0,116165:0:0:0:0:
36,192,116462,128,0,116759:0:0:0:0:
256,192,116462,128,0,116759:0:0:0:0:
109,192,117056,128,0,117650:0:0:0:0:
402,192,117056,128,0,117650:0:0:0:0:
256,192,117056,128,0,117650:0:0:0:0:
182,192,117947,128,0,118244:0:0:0:0:
329,192,118244,128,0,118541:0:0:0:0:
475,192,118244,128,0,118541:0:0:0:0:
182,192,118838,128,0,119135:0:0:0:0:
36,192,118838,128,0,119135:0:0:0:0:
36,192,119432,128,0,120026:0:0:0:0:
475,192,119432,128,0,120026:0:0:0:0:
256,192,119432,128,0,120026:0:0:0:0:
182,192,120323,128,0,120620:0:0:0:0:
475,192,120620,1,0,0:0:0:0:
402,192,120917,1,0,0:0:0:0:
329,192,121214,1,0,0:0:0:0:
256,192,121511,1,0,0:0:0:0:
182,192,121808,1,0,0:0:0:0:
109,192,121957,1,0,0:0:0:0:
182,192,122106,1,0,0:0:0:0:
109,192,122254,1,0,0:0:0:0:
36,192,122403,1,0,0:0:0:0:
109,192,122700,1,0,0:0:0:0:
402,192,122997,1,0,0:0:0:0:
329,192,123294,1,0,0:0:0:0:
256,192,123591,1,0,0:0:0:0:
182,192,123888,1,0,0:0:0:0:
109,192,124185,1,0,0:0:0:0:
256,192,124779,1,0,0:0:0:0:
329,192,124853,1,0,0:0:0:0:
402,192,124927,1,0,0:0:0:0:
475,192,125002,1,0,0:0:0:0:
36,192,125076,1,0,0:0:0:0:
109,192,125150,1,0,0:0:0:0:
182,192,125224,1,0,0:0:0:0:
256,192,125299,1,0,0:0:0:0:
329,192,125373,1,0,0:0:0:0:
475,192,125373,1,0,0:0:0:0:
109,192,125373,1,0,0:0:0:0:
256,192,125521,1,0,0:0:0:0:
329,192,125596,1,0,0:0:0:0:
109,192,125670,1,0,0:0:0:0:
402,192,125670,1,0,0:0:0:0:
182,192,125818,1,0,0:0:0:0:
475,192,125818,1,0,0:0:0:0:
256,192,125967,1,0,0:0:0:0:
402,192,125967,1,0,0:0:0:0:
36,192,126115,1,0,0:0:0:0:
182,192,126115,1,0,0:0:0:0:
329,192,126264,1,0,0:0:0:0:
475,192,126264,1,0,0:0:0:0:
402,192,126412,1,0,0:0:0:0:
256,192,126412,1,0,0:0:0:0:
109,192,126487,1,0,0:0:0:0:
182,192,126561,1,0,0:0:0:0:
329,192,126561,1,0,0:0:0:0:
475,192,126561,1,0,0:0:0:0:
109,192,126709,1,0,0:0:0:0:
256,192,126784,1,0,0:0:0:0:
402,192,126858,1,0,0:0:0:0:
475,192,126858,1,0,0:0:0:0:
182,192,127007,1,0,0:0:0:0:
329,192,127007,1,0,0:0:0:0:
402,192,127155,1,0,0:0:0:0:
109,192,127155,1,0,0:0:0:0:
36,192,127304,1,0,0:0:0:0:
256,192,127304,1,0,0:0:0:0:
109,192,127452,1,0,0:0:0:0:
329,192,127452,1,0,0:0:0:0:
475,192,127526,1,0,0:0:0:0:
182,192,127601,1,0,0:0:0:0:
402,192,127601,1,0,0:0:0:0:
36,192,127675,1,0,0:0:0:0:
109,192,127749,1,0,0:0:0:0:
256,192,127749,1,0,0:0:0:0:
475,192,127749,1,0,0:0:0:0:
329,192,127898,1,0,0:0:0:0:
182,192,127972,1,0,0:0:0:0:
256,192,128046,1,0,0:0:0:0:
402,192,128046,1,0,0:0:0:0:
109,192,128195,1,0,0:0:0:0:
329,192,128195,1,0,0:0:0:0:
402,192,128343,1,0,0:0:0:0:
182,192,128343,1,0,0:0:0:0:
36,192,128492,1,0,0:0:0:0:
256,192,128492,1,0,0:0:0:0:
475,192,128640,1,0,0:0:0:0:
182,192,128640,1,0,0:0:0:0:
402,192,128789,1,0,0:0:0:0:
109,192,128789,1,0,0:0:0:0:
329,192,128937,1,0,0:0:0:0:
36,192,128937,1,0,0:0:0:0:
256,192,128937,1,0,0:0:0:0:
182,192,129011,1,0,0:0:0:0:
329,192,129086,1,0,0:0:0:0:
182,192,129160,1,0,0:0:0:0:
475,192,129234,1,0,0:0:0:0:
402,192,129234,1,0,0:0:0:0:
109,192,129383,1,0,0:0:0:0:
256,192,129383,1,0,0:0:0:0:
182,192,129531,1,0,0:0:0:0:
329,192,129531,1,0,0:0:0:0:
36,192,129680,1,0,0:0:0:0:
256,192,129680,1,0,0:0:0:0:
109,192,129828,1,0,0:0:0:0:
329,192,129828,1,0,0:0:0:0:
256,192,129903,1,0,0:0:0:0:
182,192,129977,1,0,0:0:0:0:
402,192,129977,1,0,0:0:0:0:
329,192,130051,1,0,0:0:0:0:
256,192,130125,1,0,0:0:0:0:
475,192,130125,1,0,0:0:0:0:
36,192,130125,1,0,0:0:0:0:
182,192,130274,1,0,0:0:0:0:
109,192,130348,1,0,0:0:0:0:
36,192,130422,1,0,0:0:0:0:
402,192,130422,1,0,0:0:0:0:
182,192,130571,1,0,0:0:0:0:
329,192,130571,1,0,0:0:0:0:
109,192,130719,1,0,0:0:0:0:
402,192,130719,1,0,0:0:0:0:
475,192,130719,1,0,0:0:0:0:
182,192,130868,1,0,0:0:0:0:
329,192,130868,1,0,0:0:0:0:
36,192,131016,1,0,0:0:0:0:
256,192,131016,1,0,0:0:0:0:
109,192,131165,1,0,0:0:0:0:
402,192,131165,1,0,0:0:0:0:
182,192,131313,1,0,0:0:0:0:
329,192,131313,1,0,0:0:0:0:
475,192,131313,1,0,0:0:0:0:
36,192,131462,1,0,0:0:0:0:
109,192,131536,1,0,0:0:0:0:
182,192,131610,1,0,0:0:0:0:
402,192,131610,1,0,0:0:0:0:
256,192,131759,1,0,0:0:0:0:
329,192,131759,1,0,0:0:0:0:
109,192,131908,1,0,0:0:0:0:
402,192,131908,1,0,0:0:0:0:
475,192,131908,1,0,0:0:0:0:
182,192,132056,1,0,0:0:0:0:
256,192,132056,1,0,0:0:0:0:
36,192,132205,1,0,0:0:0:0:
329,192,132205,1,0,0:0:0:0:
109,192,132353,1,0,0:0:0:0:
182,192,132353,1,0,0:0:0:0:
402,192,132502,1,0,0:0:0:0:
475,192,132502,1,0,0:0:0:0:
36,192,132502,1,0,0:0:0:0:
256,192,132502,1,0,0:0:0:0:
109,192,132799,1,0,0:0:0:0:
402,192,132799,1,0,0:0:0:0:
182,192,132873,1,0,0:0:0:0:
256,192,132947,1,0,0:0:0:0:
329,192,133021,1,0,0:0:0:0:
475,192,133096,1,0,0:0:0:0:
36,192,133096,1,0,0:0:0:0:
182,192,133170,1,0,0:0:0:0:
256,192,133244,1,0,0:0:0:0:
402,192,133318,1,0,0:0:0:0:
36,192,133393,1,0,0:0:0:0:
475,192,133393,1,0,0:0:0:0:
109,192,133467,1,0,0:0:0:0:
256,192,133541,1,0,0:0:0:0:
402,192,133615,1,0,0:0:0:0:
475,192,133690,1,0,0:0:0:0:
36,192,133690,1,0,0:0:0:0:
182,192,133764,1,0,0:0:0:0:
256,192,133838,1,0,0:0:0:0:
329,192,133912,1,0,0:0:0:0:
109,192,133987,1,0,0:0:0:0:
475,192,133987,1,0,0:0:0:0:
182,192,134061,1,0,0:0:0:0:
329,192,134135,1,0,0:0:0:0:
402,192,134209,1,0,0:0:0:0:
475,192,134284,1,0,0:0:0:0:
36,192,134284,1,0,0:0:0:0:
109,192,134358,1,0,0:0:0:0:
182,192,134432,1,0,0:0:0:0:
329,192,134507,1,0,0:0:0:0:
402,192,134581,1,0,0:0:0:0:
36,192,134581,1,0,0:0:0:0:
182,192,134655,1,0,0:0:0:0:
256,192,134729,1,0,0:0:0:0:
329,192,134804,1,0,0:0:0:0:
475,192,134878,1,0,0:0:0:0:
36,192,134878,1,0,0:0:0:0:
109,192,134878,1,0,0:0:0:0:
402,192,134878,1,0,0:0:0:0:
182,192,135175,1,0,0:0:0:0:
329,192,135175,1,0,0:0:0:0:
109,192,135472,1,0,0:0:0:0:
402,192,135472,1,0,0:0:0:0:
36,192,135769,1,0,0:0:0:0:
256,192,135769,1,0,0:0:0:0:
109,192,135917,1,0,0:0:0:0:
329,192,135917,1,0,0:0:0:0:
182,192,136066,1,0,0:0:0:0:
402,192,136066,1,0,0:0:0:0:
182,192,136660,128,0,142007:0:0:0:0:
329,192,136660,128,0,142007:0:0:0:0:
