osu file format v14

[General]
AudioFilename: audio.mp3
AudioLeadIn: 0
PreviewTime: 568710
Countdown: 0
SampleSet: Normal
StackLeniency: 0.2
Mode: 1
LetterboxInBreaks: 0
WidescreenStoryboard: 0

[Editor]
DistanceSpacing: 0.73
BeatDivisor: 4
GridSize: 32
TimelineZoom: 3.899999

[Metadata]
Title:songsevery1hasheardb4
TitleUnicode:songsevery1hasheardb4
Artist:100mi
ArtistUnicode:100mi
Creator:Genjuro
Version:beatmap
Source:
Tags:electronic english japanese dubstep pop nightcore experimental loud marathon mashup miathon
BeatmapID:2384945
BeatmapSetID:1141949

[Difficulty]
HPDrainRate:2.6
CircleSize:2
OverallDifficulty:7.1
ApproachRate:10
SliderMultiplier:1.4
SliderTickRate:1

[Events]
//Background and Video events
0,0,"bg.jpg",0,-50
//Break Periods
2,166971,176956
2,769625,779542
2,1004334,1014318
2,1014968,1019373
2,1020186,1024753
2,1088042,1094363
2,1119346,1139566
2,1202824,1223044
2,1244400,1254348
2,1307172,1316957
2,1327842,1337826
//Storyboard Layer 0 (Background)
//Storyboard Layer 1 (Fail)
//Storyboard Layer 2 (Pass)
//Storyboard Layer 3 (Foreground)
//Storyboard Layer 4 (Overlay)
//Storyboard Sound Samples

[TimingPoints]
15,326.086956521739,4,1,0,100,1,0
15,-133.333333333333,4,1,0,100,0,0
10449,-100,4,1,0,100,0,0
11101,-114.285714285714,4,1,0,100,0,0
20884,-100,4,1,0,100,0,0
22188,-133.333333333333,4,1,0,100,0,0
41754,-100,4,1,0,100,0,0
42406,-114.285714285714,4,1,0,100,0,0
52188,-100,4,1,0,100,0,0
52841,-114.285714285714,4,1,0,100,0,0
60014,-133.333333333333,4,1,0,100,0,0
62623,-114.285714285714,4,1,0,100,0,0
73058,-100,4,1,0,100,0,0
78357,-99.3810547907631,4,1,0,100,0,0
78438,-98.7696267594574,4,1,0,100,0,0
78520,-98.1657725400884,4,1,0,100,0,0
78601,-97.5692570979195,4,1,0,100,0,0
78683,-96.9798534052536,4,1,0,100,0,0
78764,-96.397620906716,4,1,0,100,0,0
78846,-95.8222459009639,4,1,0,100,0,0
78928,-95.2537894338782,4,1,0,100,0,0
79009,-94.6920378199999,4,1,0,100,0,0
79091,-94.1367845133693,4,1,0,100,0,0
79172,-93.5880925998024,4,1,0,100,0,0
79254,-93.0457599047211,4,1,0,100,0,0
79335,-92.5095909318399,4,1,0,100,0,0
79417,-91.9796504221406,4,1,0,100,0,0
79498,-91.4556632090329,4,1,0,100,0,0
79580,-90.9090909090909,4,1,0,100,0,0
79661,-90.1408450704225,4,1,0,100,0,0
79743,-89.3854748603352,4,1,0,100,0,0
79824,-88.6426592797784,4,1,0,100,0,0
79906,-87.9120879120879,4,1,0,100,0,0
79987,-87.1934604904632,4,1,0,100,0,0
80069,-86.4864864864865,4,1,0,100,0,0
80150,-85.7908847184987,4,1,0,100,0,0
80232,-85.1063829787234,4,1,0,100,0,0
80313,-86.0215053763441,4,1,0,100,0,0
80395,-86.9565217391304,4,1,0,100,0,0
80476,-87.9120879120879,4,1,0,100,0,0
80558,-88.8888888888889,4,1,0,100,0,0
80639,-89.8876404494382,4,1,0,100,0,0
80721,-90.9090909090909,4,1,0,100,0,0
80803,-91.9540229885058,4,1,0,100,0,0
80884,-93.0232558139535,4,1,0,100,0,0
82188,-133.333333333333,4,1,0,100,0,0
83493,-100,4,1,0,100,0,1
91319,-100,4,1,0,100,0,0
91482,-101.910828025478,4,1,0,100,0,0
91563,-102.893890675241,4,1,0,100,0,0
91645,-103.896103896104,4,1,0,100,0,0
91808,-105.960264900662,4,1,0,100,0,0
91971,-108.108108108108,4,1,0,100,0,0
92053,-109.215017064846,4,1,0,100,0,0
92134,-110.344827586207,4,1,0,100,0,0
92297,-112.676056338028,4,1,0,100,0,0
92542,-116.363636363636,4,1,0,100,0,0
92623,-117.647058823529,4,1,0,100,0,0
92786,-115.120767441084,4,1,0,100,0,0
92949,-112.700691756846,4,1,0,100,0,0
93031,-111.528475450352,4,1,0,100,0,0
93112,-110.38027107187,4,1,0,100,0,0
93194,-109.255587057583,4,1,0,100,0,0
93275,-108.153591077761,4,1,0,100,0,0
93438,-106.014859042643,4,1,0,100,0,0
93493,-105.320585329685,4,1,0,100,0,0
93547,-104.635455305488,4,1,0,100,0,0
93601,-103.959073391987,4,1,0,100,0,0
93764,-101.981500555799,4,1,0,100,0,0
93928,-100.077760419846,4,1,0,100,0,1
101754,-100.077760419846,4,1,0,100,0,0
102080,-103.896103896104,4,1,0,100,0,0
102569,-110.344827586207,4,1,0,100,0,0
103058,-117.647058823529,4,1,0,100,0,0
103221,-115.107913669065,4,1,0,100,0,0
103384,-112.676056338028,4,1,0,100,0,0
103466,-111.498257839721,4,1,0,100,0,0
103547,-110.344827586207,4,1,0,100,0,0
103710,-108.108108108108,4,1,0,100,0,0
103873,-105.960264900662,4,1,0,100,0,0
103955,-104.918032786885,4,1,0,100,0,0
104036,-103.896103896104,4,1,0,100,0,0
104118,-102.893890675241,4,1,0,100,0,0
104199,-101.910828025478,4,1,0,100,0,0
104362,-100,4,1,0,100,0,1
109743,-101.587301587302,4,1,0,100,0,1
110069,-104.918032786885,4,1,0,100,0,1
110232,-106.666666666667,4,1,0,100,0,1
110558,-110.344827586207,4,1,0,100,0,1
110721,-112.280701754386,4,1,0,100,0,1
110884,-114.285714285714,4,1,0,100,0,1
111047,-116.363636363636,4,1,0,100,0,1
111210,-118.518518518519,4,1,0,100,0,1
111373,-120.754716981132,4,1,0,100,0,1
111536,-123.076923076923,4,1,0,100,0,1
111862,-128,4,1,0,100,0,1
112188,-100,4,1,0,100,0,0
112351,-101.900754778891,4,1,0,100,0,0
112433,-102.87843575396,4,1,0,100,0,0
112514,-103.875166979331,4,1,0,100,0,0
112678,-105.927602720645,4,1,0,100,0,0
112841,-108.062663377239,4,1,0,100,0,0
112922,-109.16291692047,4,1,0,100,0,0
113004,-110.285684035927,4,1,0,100,0,0
113167,-112.602087867913,4,1,0,100,0,0
113411,-116.265009812767,4,1,0,100,0,0
113493,-117.647058823529,4,1,0,100,0,0
113656,-115.107913669065,4,1,0,100,0,0
113819,-112.676056338028,4,1,0,100,0,0
113900,-111.498257839721,4,1,0,100,0,0
113982,-110.344827586207,4,1,0,100,0,0
114063,-109.215017064846,4,1,0,100,0,0
114145,-108.108108108108,4,1,0,100,0,0
114308,-105.960264900662,4,1,0,100,0,0
114362,-105.263157894737,4,1,0,100,0,0
114417,-104.575163398693,4,1,0,100,0,0
114471,-103.896103896104,4,1,0,100,0,0
114634,-101.910828025478,4,1,0,100,0,0
114797,-100,4,1,0,100,0,1
120178,-101.583070571791,4,1,0,100,0,1
120504,-104.904604997446,4,1,0,100,0,1
120667,-106.648237851166,4,1,0,100,0,1
120993,-110.315126189473,4,1,0,100,0,1
121156,-112.244909412746,4,1,0,100,0,1
121319,-114.243281067032,4,1,0,100,0,1
121482,-116.314234536023,4,1,0,100,0,1
121645,-118.46151659172,4,1,0,100,0,1
121808,-120.68971759813,4,1,0,100,0,1
121971,-123.003196853086,4,1,0,100,0,1
122297,-127.907006490002,4,1,0,100,0,1
122623,-100,4,1,0,100,0,0
123928,-133.333333333333,4,1,0,100,0,0
125232,-100,4,1,0,100,0,0
126536,-133.333333333333,4,1,0,100,0,0
135341,-100,4,1,0,100,0,0
135667,-114.285714285714,4,1,0,100,0,0
155232,-100,4,1,0,100,0,0
156536,-114.285714285714,4,1,0,100,0,0
165993,-118.518518518519,4,1,0,100,0,0
166319,-123.076923076923,4,1,0,100,0,0
166645,-128,4,1,0,100,0,0
166971,-133.333333333333,4,1,0,100,0,0
177732,-131.958849952231,4,1,0,100,0,0
178384,-129.292845709676,4,1,0,100,0,0
178710,-128,4,1,0,100,0,0
179036,-126.73275357323,4,1,0,100,0,0
179688,-124.271767442785,4,1,0,100,0,0
180014,-123.076923076923,4,1,0,100,0,0
180341,-121.904836208662,4,1,0,100,0,0
180993,-119.626096672241,4,1,0,100,0,0
181319,-118.518518518519,4,1,0,100,0,0
181645,-117.431261611016,4,1,0,100,0,0
182297,-115.315248827244,4,1,0,100,0,0
182623,-114.285714285714,4,1,0,100,0,0
182949,-112.2858708443,4,1,0,100,0,0
183275,-110.354691012383,4,1,0,100,0,0
183601,-108.48893358633,4,1,0,100,0,0
183928,-106.685101852267,4,1,0,100,0,0
184254,-104.940383368209,4,1,0,100,0,0
184580,-103.25181258557,4,1,0,100,0,0
184906,-101.616618788303,4,1,0,100,0,0
185232,-100.032510565934,4,1,0,100,0,0
186482,-101.204843663818,4,1,0,100,0,0
186536,-101.818167008267,4,1,0,100,0,0
186699,-103.703672976689,4,1,0,100,0,0
186808,-104.99999475,4,1,0,100,0,0
186862,-105.660329512304,4,1,0,100,0,0
187025,-107.692357396473,4,1,0,100,0,0
187134,-109.090869421502,4,1,0,100,0,0
187297,-111.258219200943,4,1,0,100,0,0
187351,-112.000017920003,4,1,0,100,0,0
187514,-114.285714285714,4,1,0,100,0,0
187841,-100.032510565934,4,1,0,100,0,1
197705,-100,4,1,0,100,0,0
197786,-101.26582278481,4,1,0,100,0,0
197868,-102.564102564103,4,1,0,100,0,0
197949,-103.896103896104,4,1,0,100,0,0
198112,-106.666666666667,4,1,0,100,0,0
198167,-107.623279776402,4,1,0,100,0,0
198221,-108.597324379122,4,1,0,100,0,0
198275,-109.58904109589,4,1,0,100,0,0
198520,-103.626943005181,4,1,0,100,0,0
198601,-100,4,1,0,100,0,1
207406,-100,4,1,0,100,0,0
208058,-106.666666666667,4,1,0,100,0,0
208167,-107.865207322322,4,1,0,100,0,0
208221,-108.474576271186,4,1,0,100,0,0
208384,-110.344827586207,4,1,0,100,0,0
208710,-114.285714285714,4,1,0,100,0,0
209036,-100,4,1,0,100,0,1
216536,-100,4,1,0,100,0,0
216781,-102.387261386487,4,1,0,100,0,0
216944,-104.04311546705,4,1,0,100,0,0
217025,-104.891290666353,4,1,0,100,0,0
217188,-106.629815402464,4,1,0,100,0,0
217433,-109.348414666684,4,1,0,100,0,0
217841,-114.285714285714,4,1,0,100,0,0
217868,-113.946609176804,4,1,0,100,0,0
218004,-112.280701754386,4,1,0,100,0,0
218112,-110.982617902384,4,1,0,100,0,0
218167,-110.344827586207,4,1,0,100,0,0
218330,-108.474576271186,4,1,0,100,0,0
218438,-107.262531481553,4,1,0,100,0,0
218601,-105.49446839755,4,1,0,100,0,0
218656,-104.918032786885,4,1,0,100,0,0
218819,-103.225806451613,4,1,0,100,0,0
219145,-100,4,1,0,100,0,0
240178,-100.786334985557,4,1,0,100,0,0
240341,-101.585237633267,4,1,0,100,0,0
240504,-102.396801943082,4,1,0,100,0,0
240830,-104.059572023792,4,1,0,100,0,0
240993,-104.911318462504,4,1,0,100,0,0
241156,-105.777123369975,4,1,0,100,0,0
241319,-106.65745146286,4,1,0,100,0,0
241482,-107.552439880875,4,1,0,100,0,0
241645,-108.462575530626,4,1,0,100,0,0
241808,-109.388365890957,4,1,0,100,0,0
242134,-111.287935274937,4,1,0,100,0,0
242297,-112.26280273068,4,1,0,100,0,0
242460,-113.254772272967,4,1,0,100,0,0
242623,-114.264428455042,4,1,0,100,0,0
242786,-115.292381479432,4,1,0,100,0,0
242949,-116.338862531673,4,1,0,100,0,0
243112,-117.404514908025,4,1,0,100,0,0
243438,-119.595623278571,4,1,0,100,0,0
243601,-120.722062802032,4,1,0,100,0,0
243764,-121.870071878968,4,1,0,100,0,0
243928,-123.039973226502,4,1,0,100,0,0
244091,-124.232707738828,4,1,0,100,0,0
244254,-125.448635683363,4,1,0,100,0,0
244417,-126.688600686399,4,1,0,100,0,0
244743,-129.243717462894,4,1,0,100,0,0
244906,-130.560233963939,4,1,0,100,0,0
245069,-131.904021357899,4,1,0,100,0,0
245232,-133.333333333333,4,1,0,100,0,0
245558,-131.958849952231,4,1,0,100,0,0
245966,-130.279919434898,4,1,0,100,0,0
246047,-129.949280795705,4,1,0,100,0,0
246210,-129.292845709676,4,1,0,100,0,0
246536,-128,4,1,0,100,0,0
246862,-126.73275357323,4,1,0,100,0,0
247514,-124.271767442785,4,1,0,100,0,0
247841,-123.076923076923,4,1,0,100,0,0
248167,-121.904836208662,4,1,0,100,0,0
248574,-120.47060637675,4,1,0,100,0,0
248656,-120.187829540005,4,1,0,100,0,0
248819,-119.626096672241,4,1,0,100,0,0
249145,-118.518518518519,4,1,0,100,0,0
249471,-117.431261611016,4,1,0,100,0,0
250123,-115.315248827244,4,1,0,100,0,0
250449,-114.285714285714,4,1,0,100,0,0
261129,-115.8329781122,4,1,0,100,0,0
261373,-117.422850251813,4,1,0,100,0,0
261618,-119.05683177865,4,1,0,100,0,0
261862,-120.736929925493,4,1,0,100,0,0
262107,-122.465274971282,4,1,0,100,0,0
262188,-123.052388323805,4,1,0,100,0,0
262351,-124.243666679091,4,1,0,100,0,0
262596,-126.074469667743,4,1,0,100,0,0
262841,-127.960035521706,4,1,0,100,0,0
263085,-129.903027390053,4,1,0,100,0,0
263330,-131.905761247934,4,1,0,100,0,0
263493,-133.333333333333,4,1,0,100,0,0
263737,-131.282008194623,4,1,0,100,0,0
263982,-129.292845709676,4,1,0,100,0,0
264226,-127.363224633067,4,1,0,100,0,0
264471,-125.490196078431,4,1,0,100,0,0
264716,-123.671459347955,4,1,0,100,0,0
264797,-123.076923076923,4,1,0,100,0,0
264960,-121.904836208662,4,1,0,100,0,0
265205,-120.187829540005,4,1,0,100,0,0
265449,-118.518518518519,4,1,0,100,0,0
265694,-116.894943007871,4,1,0,100,0,0
265938,-115.315248827244,4,1,0,100,0,0
266101,-114.285714285714,4,1,0,100,0,0
266346,-115.8329781122,4,1,0,100,0,0
266591,-117.422850251813,4,1,0,100,0,0
266835,-119.05683177865,4,1,0,100,0,0
267080,-120.736929925493,4,1,0,100,0,0
267324,-122.465274971282,4,1,0,100,0,0
267406,-123.052388323805,4,1,0,100,0,0
267569,-124.243666679091,4,1,0,100,0,0
267813,-126.074469667743,4,1,0,100,0,0
268058,-127.960035521706,4,1,0,100,0,0
268303,-129.903027390053,4,1,0,100,0,0
268547,-131.905761247934,4,1,0,100,0,0
268710,-133.333333333333,4,1,0,100,0,0
268955,-131.287351251431,4,1,0,100,0,0
269199,-129.303043664345,4,1,0,100,0,0
269444,-127.377987809927,4,1,0,100,0,0
269688,-125.509411323208,4,1,0,100,0,0
269933,-123.694711556302,4,1,0,100,0,0
270014,-123.101467615697,4,1,0,100,0,0
270178,-121.93188884689,4,1,0,100,0,0
270422,-120.218605512264,4,1,0,100,0,0
270667,-118.552802232586,4,1,0,100,0,0
270911,-116.932395535521,4,1,0,100,0,0
271156,-115.35582079704,4,1,0,100,0,0
271319,-114.285714285714,4,1,0,100,0,0
276862,-112.2858708443,4,1,0,100,0,0
277188,-110.354691012383,4,1,0,100,0,0
277514,-108.48893358633,4,1,0,100,0,0
277841,-106.685101852267,4,1,0,100,0,0
278167,-104.940383368209,4,1,0,100,0,0
278493,-103.25181258557,4,1,0,100,0,0
278819,-101.616618788303,4,1,0,100,0,0
279145,-100,4,1,0,100,0,0
279308,-98.7654320987654,4,1,0,100,0,0
279471,-97.5609756097561,4,1,0,100,0,0
279634,-96.3855421686747,4,1,0,100,0,0
279797,-95.2380952380952,4,1,0,100,0,0
279879,-94.1176470588235,4,1,0,100,0,0
279960,-93.0232558139535,4,1,0,100,0,0
280042,-91.9540229885058,4,1,0,100,0,0
280123,-90.9090909090909,4,1,0,100,0,0
280205,-89.8876404494382,4,1,0,100,0,0
280286,-88.8888888888889,4,1,0,100,0,0
280368,-87.9120879120879,4,1,0,100,0,0
280449,-86.9565217391304,4,1,0,100,0,0
281101,-66.6666666666667,4,1,0,100,0,0
281754,-100,4,1,0,100,0,1
285667,-100,4,1,0,100,0,0
285884,-102.857166367352,4,1,0,100,0,0
285993,-104.347862381865,4,1,0,100,0,0
286210,-107.462635241726,4,1,0,100,0,0
286319,-109.090869421502,4,1,0,100,0,0
286536,-112.499985937502,4,1,0,100,0,0
286645,-114.285714285714,4,1,0,100,0,0
286971,-100,4,1,0,100,0,1
290884,-100,4,1,0,100,0,0
291210,-104.347862381865,4,1,0,100,0,0
291373,-106.666666666667,4,1,0,100,0,0
291536,-109.090869421502,4,1,0,100,0,0
292188,-100,4,1,0,100,0,1
296101,-100,4,1,0,100,0,0
296319,-102.836857552442,4,1,0,100,0,0
296428,-104.316512991057,4,1,0,100,0,0
296645,-107.407463100166,4,1,0,100,0,0
296754,-109.022601475512,4,1,0,100,0,0
296971,-112.403122558745,4,1,0,100,0,0
297080,-114.173237336475,4,1,0,100,0,0
297406,-100,4,1,0,100,0,1
301319,-100,4,1,0,100,0,0
301645,-104.347862381865,4,1,0,100,0,0
301862,-107.462635241726,4,1,0,100,0,0
301971,-109.090869421502,4,1,0,100,0,0
302623,-100,4,1,0,100,0,1
306428,-100,4,1,0,100,0,0
306862,-114.285714285714,4,1,0,100,0,0
307188,-109.1251545485,4,1,0,100,0,0
307514,-104.410399693451,4,1,0,100,0,0
307841,-100,4,1,0,100,0,1
311645,-100,4,1,0,100,0,0
312080,-114.285714285714,4,1,0,100,0,0
312406,-109.090869421502,4,1,0,100,0,0
312569,-106.666666666667,4,1,0,100,0,0
312732,-104.347862381865,4,1,0,100,0,0
312813,-103.225806451613,4,1,0,100,0,0
312895,-102.127624807617,4,1,0,100,0,0
313058,-100,4,1,0,100,0,0
313384,-101.587301587302,4,1,0,100,0,0
313547,-102.400052428827,4,1,0,100,0,0
313710,-103.225806451613,4,1,0,100,0,0
314036,-104.918032786885,4,1,0,100,0,0
314362,-106.666666666667,4,1,0,100,0,0
314688,-108.474576271186,4,1,0,100,0,0
314851,-109.401769245412,4,1,0,100,0,0
315014,-110.344827586207,4,1,0,100,0,0
315341,-112.280701754386,4,1,0,100,0,0
315667,-114.285714285714,4,1,0,100,0,0
315993,-116.363636363636,4,1,0,100,0,0
316156,-117.431261611016,4,1,0,100,0,0
316319,-118.518518518519,4,1,0,100,0,0
316645,-120.754716981132,4,1,0,100,0,0
316971,-123.076923076923,4,1,0,100,0,0
317297,-125.490196078431,4,1,0,100,0,0
317460,-126.732592961525,4,1,0,100,0,0
317623,-128,4,1,0,100,0,0
317949,-130.612244897959,4,1,0,100,0,0
318275,-133.333333333333,4,1,0,100,0,0
318601,-130.615656898792,4,1,0,100,0,0
318764,-129.298028075774,4,1,0,100,0,0
318928,-128.00671779255,4,1,0,100,0,0
319091,-126.740784677546,4,1,0,100,0,0
319254,-125.499802965309,4,1,0,100,0,0
319580,-123.089194122737,4,1,0,100,0,0
319906,-120.76959214901,4,1,0,100,0,0
320069,-119.642126471299,4,1,0,100,0,0
320232,-118.535657896608,4,1,0,100,0,0
320558,-116.382867045377,4,1,0,100,0,0
320884,-114.307008048356,4,1,0,100,0,0
321210,-112.303777225243,4,1,0,100,0,0
321373,-111.328325043084,4,1,0,100,0,0
321536,-110.369550365489,4,1,0,100,0,0
321699,-109.427268618776,4,1,0,100,0,0
321862,-108.500940160646,4,1,0,100,0,0
322188,-106.694435671791,4,1,0,100,0,0
322514,-104.947101413533,4,1,0,100,0,0
322678,-104.094776211845,4,1,0,100,0,0
322841,-103.25607713642,4,1,0,100,0,0
323167,-100,4,1,0,100,0,0
323248,-103.225806451613,4,1,0,100,0,0
323330,-106.666666666667,4,1,0,100,0,0
323411,-110.344827586207,4,1,0,100,0,0
323493,-114.285714285714,4,1,0,100,0,0
334091,-113.609510479341,4,1,0,100,0,0
334172,-113.274400438598,4,1,0,100,0,0
334254,-112.941133951573,4,1,0,100,0,0
334417,-112.280701754386,4,1,0,100,0,0
334580,-111.627948512725,4,1,0,100,0,0
334743,-110.982617902384,4,1,0,100,0,0
334824,-110.662803797062,4,1,0,100,0,0
334987,-110.028673472307,4,1,0,100,0,0
335069,-109.714325838382,4,1,0,100,0,0
335232,-109.090869421502,4,1,0,100,0,0
335395,-108.474576271186,4,1,0,100,0,0
335476,-108.169033585403,4,1,0,100,0,0
335558,-107.865207322322,4,1,0,100,0,0
335639,-107.562967361093,4,1,0,100,0,0
335721,-107.262531481553,4,1,0,100,0,0
335884,-106.666666666667,4,1,0,100,0,0
336047,-106.077385574324,4,1,0,100,0,0
336129,-105.785179919434,4,1,0,100,0,0
336292,-105.20546100507,4,1,0,100,0,0
336373,-104.918032786885,4,1,0,100,0,0
336536,-104.347862381865,4,1,0,100,0,0
336699,-103.783747880217,4,1,0,100,0,0
336781,-103.504025271543,4,1,0,100,0,0
336862,-103.225806451613,4,1,0,100,0,0
337025,-102.673831931151,4,1,0,100,0,0
337188,-102.127624807617,4,1,0,100,0,0
337351,-101.587301587302,4,1,0,100,0,0
337433,-101.319278323044,4,1,0,100,0,0
337596,-100.787350784327,4,1,0,100,0,0
337678,-100.523526526148,4,1,0,100,0,0
337841,-100,4,1,0,100,0,0
338982,-133.333333333333,4,1,0,100,0,0
339145,-114.285714285714,4,1,0,100,0,0
349580,-100,4,1,0,100,0,0
370449,-100,4,1,0,100,0,1
373221,-108.108108108108,4,1,0,100,0,1
373303,-105.263157894737,4,1,0,100,0,1
373384,-102.564102564103,4,1,0,100,0,1
373710,-100,4,1,0,100,0,1
373873,-108.108108108108,4,1,0,100,0,1
373955,-105.263157894737,4,1,0,100,0,1
374036,-102.564102564103,4,1,0,100,0,1
374362,-100,4,1,0,100,0,0
374444,-101.26582278481,4,1,0,100,0,0
374525,-102.564102564103,4,1,0,100,0,0
374607,-103.896103896104,4,1,0,100,0,0
374688,-105.263157894737,4,1,0,100,0,0
375014,-111.111111111111,4,1,0,100,0,0
375259,-117.647058823529,4,1,0,100,0,0
375341,-113.69993223484,4,1,0,100,0,0
375422,-110.009064746935,4,1,0,100,0,0
375504,-106.550171812152,4,1,0,100,0,0
375667,-100.246506158644,4,1,0,100,0,1
378438,-108.108108108108,4,1,0,100,0,1
378520,-105.263157894737,4,1,0,100,0,1
378601,-102.564102564103,4,1,0,100,0,1
378928,-100,4,1,0,100,0,1
379091,-108.108108108108,4,1,0,100,0,1
379172,-105.263157894737,4,1,0,100,0,1
379254,-102.564102564103,4,1,0,100,0,1
379580,-86.9565217391304,4,1,0,100,0,1
379906,-100,4,1,0,100,0,0
379987,-101.05266561774,4,1,0,100,0,0
380232,-104.347862381865,4,1,0,100,0,0
380313,-105.49446839755,4,1,0,100,0,0
380558,-109.090869421502,4,1,0,100,0,0
380639,-110.344827586207,4,1,0,100,0,0
380721,-111.627948512725,4,1,0,100,0,0
380884,-100,4,1,0,100,0,1
382188,-100,4,1,0,100,0,0
383493,-100,4,1,0,100,0,1
383656,-108.108108108108,4,1,0,100,0,1
383737,-105.263157894737,4,1,0,100,0,1
383819,-102.564102564103,4,1,0,100,0,1
384145,-100,4,1,0,100,0,1
384308,-108.108108108108,4,1,0,100,0,1
384389,-105.263157894737,4,1,0,100,0,1
384471,-102.564102564103,4,1,0,100,0,1
384797,-100,4,1,0,100,0,0
384879,-101.26582278481,4,1,0,100,0,0
384960,-102.564102564103,4,1,0,100,0,0
385042,-103.896103896104,4,1,0,100,0,0
385123,-105.263157894737,4,1,0,100,0,0
385449,-111.111111111111,4,1,0,100,0,0
385694,-117.647058823529,4,1,0,100,0,0
385775,-113.69993223484,4,1,0,100,0,0
385857,-110.009064746935,4,1,0,100,0,0
385938,-106.550171812152,4,1,0,100,0,0
386101,-100.246506158644,4,1,0,100,0,1
388873,-108.108108108108,4,1,0,100,0,1
388955,-105.263157894737,4,1,0,100,0,1
389036,-102.564102564103,4,1,0,100,0,1
389362,-100,4,1,0,100,0,1
389525,-108.108108108108,4,1,0,100,0,1
389607,-105.263157894737,4,1,0,100,0,1
389688,-102.564102564103,4,1,0,100,0,1
390014,-86.9565217391304,4,1,0,100,0,1
390341,-100,4,1,0,100,0,0
390667,-104.347862381865,4,1,0,100,0,0
390993,-109.090869421502,4,1,0,100,0,0
391319,-114.285714285714,4,1,0,100,0,0
407134,-114.970015819874,4,1,0,100,0,0
407216,-115.315248827244,4,1,0,100,0,0
407297,-115.662695195256,4,1,0,100,0,0
407460,-116.363636363636,4,1,0,100,0,0
407623,-117.073125044634,4,1,0,100,0,0
407786,-117.791457292351,4,1,0,100,0,0
407949,-118.518518518519,4,1,0,100,0,0
408112,-119.254610979534,4,1,0,100,0,0
408275,-120.000048000019,4,1,0,100,0,0
408601,-121.518938118911,4,1,0,100,0,0
408928,-123.076923076923,4,1,0,100,0,0
409254,-124.675376488468,4,1,0,100,0,0
409580,-126.315736288111,4,1,0,100,0,0
409906,-128,4,1,0,100,0,0
410232,-129.729785829097,4,1,0,100,0,0
410558,-131.506791668256,4,1,0,100,0,0
410884,-133.333333333333,4,1,0,100,0,0
412188,-100,4,1,0,100,0,1
432406,-100,4,1,0,100,0,0
432650,-104.918032786885,4,1,0,100,0,0
432895,-110.344827586207,4,1,0,100,0,0
433058,-114.285714285714,4,1,0,100,0,0
433445,-133.333333333333,4,1,0,50,0,0
433934,-129.87012987013,4,1,0,52,0,0
434342,-127.118590203987,4,1,0,54,0,0
434423,-126.582278481013,4,1,0,56,0,0
434831,-123.966890922772,4,1,0,57,0,0
434913,-123.456790123457,4,1,0,59,0,0
435320,-120.967693158188,4,1,0,61,0,0
435402,-120.481927710843,4,1,0,63,0,0
435667,-119.047619047619,4,1,0,63,0,0
435809,-118.110189720398,4,1,0,67,0,0
435891,-117.647058823529,4,1,0,69,0,0
436298,-115.384571005934,4,1,0,70,0,0
436380,-114.942528735632,4,1,0,72,0,0
436462,-114.503860497657,4,1,0,74,0,0
436788,-112.781912488003,4,1,0,76,0,0
436869,-112.359550561798,4,1,0,78,0,0
436951,-111.940340276246,4,1,0,80,0,0
437277,-110.294077097766,4,1,0,81,0,0
437358,-109.89010989011,4,1,0,83,0,0
437433,-109.489091054413,4,1,0,85,0,0
437487,-109.22324794988,4,1,0,87,0,0
437542,-108.958811390118,4,1,0,89,0,0
437596,-108.695652173913,4,1,0,91,0,0
437759,-107.913630246896,4,1,0,93,0,0
437813,-107.655489514894,4,1,0,94,0,0
437868,-107.398580835153,4,1,0,96,0,0
437922,-107.142895408177,4,1,0,98,0,0
438255,-105.633765621914,4,1,0,100,0,0
438357,-105.263157894737,4,1,0,100,0,0
438601,-104.166666666667,4,1,0,100,0,0
438764,-103.448240190262,4,1,0,100,0,0
438846,-103.092783505155,4,1,0,100,0,0
439091,-102.040816326531,4,1,0,100,0,0
439254,-101.351317111042,4,1,0,100,0,0
439335,-101.010101010101,4,1,0,100,0,0
439417,-100.671174721871,4,1,0,100,0,0
439580,-100,4,1,0,100,0,0
440884,-66.6666666666667,4,1,0,100,0,0
442188,-100,4,1,0,100,0,0
443167,-80,4,1,0,100,0,0
443493,-100,4,1,0,100,0,0
447732,-104.347862381865,4,1,0,100,0,0
448058,-109.090869421502,4,1,0,100,0,0
448384,-114.285714285714,4,1,0,100,0,0
448547,-106.666666666667,4,1,0,100,0,0
448710,-100,4,1,0,100,0,0
452623,-90.9090909090909,4,1,0,100,0,0
452949,-97.5609756097561,4,1,0,100,0,0
453275,-105.263157894737,4,1,0,100,0,0
453601,-114.285714285714,4,1,0,100,0,0
453764,-106.666666666667,4,1,0,100,0,0
453928,-100,4,1,0,100,0,0
458167,-104.347862381865,4,1,0,100,0,0
458493,-109.090869421502,4,1,0,100,0,0
458819,-114.285714285714,4,1,0,100,0,0
458982,-106.666666666667,4,1,0,100,0,0
459145,-100,4,1,0,100,0,0
463058,-90.9090909090909,4,1,0,100,0,0
463384,-97.5609756097561,4,1,0,100,0,0
463710,-105.263157894737,4,1,0,100,0,0
464036,-114.285714285714,4,1,0,100,0,0
464362,-100,4,1,0,100,0,0
464688,-100.786842882383,4,1,0,100,0,0
465014,-101.586269599801,4,1,0,100,0,0
465178,-101.990757597547,4,1,0,100,0,0
465341,-102.398374732996,4,1,0,100,0,0
465667,-103.223675382186,4,1,0,100,0,0
465830,-103.6412272365,4,1,0,100,0,0
465993,-104.062279192851,4,1,0,100,0,0
466319,-104.914730552743,4,1,0,100,0,0
466645,-105.781151491303,4,1,0,100,0,0
466726,-106.000025440006,4,1,0,100,0,0
466808,-106.219807019855,4,1,0,100,0,0
466889,-106.440388592571,4,1,0,100,0,0
466971,-106.66200198178,4,1,0,100,0,0
467297,-107.557761206712,4,1,0,100,0,0
467623,-108.468575568972,4,1,0,100,0,0
467786,-108.929851354325,4,1,0,100,0,0
467949,-109.395067157632,4,1,0,100,0,0
468275,-110.337400737716,4,1,0,100,0,0
468438,-110.814743236699,4,1,0,100,0,0
468601,-111.296109978364,4,1,0,100,0,0
468764,-111.781801922647,4,1,0,100,0,0
468928,-112.271751529141,4,1,0,100,0,0
469254,-113.264521361122,4,1,0,100,0,0
469335,-113.515495432704,4,1,0,100,0,0
469417,-113.767584202233,4,1,0,100,0,0
469498,-114.020795112613,4,1,0,100,0,0
469580,-114.275135673155,4,1,0,100,0,0
469906,-115.30381401956,4,1,0,100,0,0
470232,-116.351315817031,4,1,0,100,0,0
470395,-116.882099857053,4,1,0,100,0,0
470558,-117.417886736358,4,1,0,100,0,0
470884,-118.504192678337,4,1,0,100,0,0
471047,-119.054989118374,4,1,0,100,0,0
471210,-119.6109295683,4,1,0,100,0,0
471536,-120.738387683719,4,1,0,100,0,0
471862,-121.887451564974,4,1,0,100,0,0
471944,-122.177993788471,4,1,0,100,0,0
472025,-122.470074437311,4,1,0,100,0,0
472107,-122.763554937918,4,1,0,100,0,0
472188,-123.058445378048,4,1,0,100,0,0
472514,-124.252157328082,4,1,0,100,0,0
472841,-125.469412439288,4,1,0,100,0,0
473004,-126.08702778832,4,1,0,100,0,0
473167,-126.710593005575,4,1,0,100,0,0
473493,-127.976738947929,4,1,0,100,0,0
473656,-128.619183036673,4,1,0,100,0,0
473819,-129.268276918503,4,1,0,100,0,0
473982,-129.923955508841,4,1,0,100,0,0
474145,-130.586319515995,4,1,0,100,0,0
474471,-131.578947368421,4,1,0,100,0,0
474634,-122.324159021407,4,1,0,100,0,0
474797,-114.285714285714,4,1,0,100,0,0
474960,-113.777810141244,4,1,0,100,0,0
475042,-113.525547221519,4,1,0,100,0,0
475123,-113.274400438598,4,1,0,100,0,0
475286,-112.775298600797,4,1,0,100,0,0
475449,-112.280701754386,4,1,0,100,0,0
475531,-112.035026630726,4,1,0,100,0,0
475612,-111.790424255839,4,1,0,100,0,0
475694,-111.546887618742,4,1,0,100,0,0
475775,-111.304285882832,4,1,0,100,0,0
475938,-110.822480118447,4,1,0,100,0,0
476101,-110.344827586207,4,1,0,100,0,0
476264,-109.871274814427,4,1,0,100,0,0
476346,-109.636019379263,4,1,0,100,0,0
476428,-109.401769245412,4,1,0,100,0,0
476591,-108.936140545051,4,1,0,100,0,0
476754,-108.474576271186,4,1,0,100,0,0
476835,-108.245257775257,4,1,0,100,0,0
476917,-108.016906806253,4,1,0,100,0,0
476998,-107.789517253868,4,1,0,100,0,0
477080,-107.562967361093,4,1,0,100,0,0
477161,-107.337483000426,4,1,0,100,0,0
477243,-107.112942028334,4,1,0,100,0,0
477406,-106.666666666667,4,1,0,100,0,0
477569,-106.22409459893,4,1,0,100,0,0
477650,-106.004182925058,4,1,0,100,0,0
477732,-105.785179919434,4,1,0,100,0,0
477895,-105.349766492243,4,1,0,100,0,0
478058,-104.918032786885,4,1,0,100,0,0
478139,-104.703490186142,4,1,0,100,0,0
478221,-104.489823213668,4,1,0,100,0,0
478303,-104.277026519733,4,1,0,100,0,0
478384,-104.064986502771,4,1,0,100,0,0
478547,-103.643697841309,4,1,0,100,0,0
478710,-103.225806451613,4,1,0,100,0,0
478873,-102.811271405307,4,1,0,100,0,0
478955,-102.605249900216,4,1,0,100,0,0
479036,-102.400052428827,4,1,0,100,0,0
479199,-101.99200586658,4,1,0,100,0,0
479362,-101.587301587302,4,1,0,100,0,0
479444,-101.386151462799,4,1,0,100,0,0
479525,-101.185796347395,4,1,0,100,0,0
479688,-86.9565217391304,4,1,0,100,0,0
480014,-100,4,1,0,100,0,0
480096,-99.6892685499299,4,1,0,100,0,0
480178,-99.3804621986536,4,1,0,100,0,0
480259,-99.0735631113458,4,1,0,100,0,0
480341,-98.7685536728074,4,1,0,100,0,0
480422,-98.4655134385733,4,1,0,100,0,0
480504,-98.1642307212813,4,1,0,100,0,0
480585,-97.864786096937,4,1,0,100,0,0
480667,-97.5671627956895,4,1,0,100,0,0
480748,-97.271344251069,4,1,0,100,0,0
480830,-96.9773140969133,4,1,0,100,0,0
480911,-96.6850561643491,4,1,0,100,0,0
480993,-96.3945544788284,4,1,0,100,0,0
481074,-96.1058856205413,4,1,0,100,0,0
481156,-95.8188487173689,4,1,0,100,0,0
481237,-95.5335212796142,4,1,0,100,0,0
481319,-95.2498880813815,4,1,0,100,0,0
481400,-94.9679340770589,4,1,0,100,0,0
481482,-94.6876443986577,4,1,0,100,0,0
481563,-94.4090043531992,4,1,0,100,0,0
481645,-94.1319994201469,4,1,0,100,0,0
481726,-93.8566152488843,4,1,0,100,0,0
481808,-93.5829252337935,4,1,0,100,0,0
481889,-93.3107396928957,4,1,0,100,0,0
481971,-93.0401328613097,4,1,0,100,0,0
482053,-92.7710910436933,4,1,0,100,0,0
482134,-92.5036007026573,4,1,0,100,0,0
482216,-92.2376484564952,4,1,0,100,0,0
482297,-91.9732210769512,4,1,0,100,0,0
482379,-91.7103054870276,4,1,0,100,0,0
482460,-91.4489723878973,4,1,0,100,0,0
482542,-91.1890412657769,4,1,0,100,0,0
482623,-90.9090909090909,4,1,0,100,0,0
482705,-90.3980951313394,4,1,0,100,0,0
482786,-89.8928926184451,4,1,0,100,0,0
482868,-89.3932256025774,4,1,0,100,0,0
482949,-88.8991616809054,4,1,0,100,0,0
483031,-88.4104508225708,4,1,0,100,0,0
483112,-87.9270838279232,4,1,0,100,0,0
483194,-87.4490499972454,4,1,0,100,0,0
483275,-86.9761102717917,4,1,0,100,0,0
483357,-86.5082585108987,4,1,0,100,0,0
483438,-86.0454870862933,4,1,0,100,0,0
483520,-85.5875672076372,4,1,0,100,0,0
483601,-85.1345679548378,4,1,0,100,0,0
483683,-84.6862670208811,4,1,0,100,0,0
483764,-84.2426626746877,4,1,0,100,0,0
483846,-83.8037517263573,4,1,0,100,0,0
483928,-83.3333333333333,4,1,0,100,0,0
484009,-84.6153976331381,4,1,0,100,0,0
484172,-87.301552658114,4,1,0,100,0,0
484335,-90.1639270357437,4,1,0,100,0,0
484498,-93.2203626831431,4,1,0,100,0,0
484661,-96.4911942136161,4,1,0,100,0,0
484716,-97.6331765344518,4,1,0,100,0,0
484906,-93.0232558139535,4,1,0,100,0,0
484960,-94.1176470588235,4,1,0,100,0,0
485014,-95.2380952380952,4,1,0,100,0,0
485069,-96.3855421686747,4,1,0,100,0,0
485232,-100,4,1,0,100,0,0
490123,-93.0232558139535,4,1,0,100,0,0
490178,-94.1176470588235,4,1,0,100,0,0
490232,-95.2380952380952,4,1,0,100,0,0
490286,-96.3855421686747,4,1,0,100,0,0
490449,-100,4,1,0,100,0,0
494444,-101.001633196409,4,1,0,100,0,0
494525,-102.023638877128,4,1,0,100,0,0
494688,-104.130763247255,4,1,0,100,0,0
494851,-106.326874330141,4,1,0,100,0,0
494933,-107.45997921724,4,1,0,100,0,0
495014,-108.617612780383,4,1,0,100,0,0
495178,-111.009229307325,4,1,0,100,0,0
495341,-93.0232558139535,4,1,0,100,0,0
495395,-94.1176470588235,4,1,0,100,0,0
495449,-95.2380952380952,4,1,0,100,0,0
495504,-96.3855421686747,4,1,0,100,0,0
495667,-100,4,1,0,100,0,0
500558,-93.0232558139535,4,1,0,100,0,0
500612,-94.1176470588235,4,1,0,100,0,0
500667,-95.2380952380952,4,1,0,100,0,0
500721,-96.3855421686747,4,1,0,100,0,0
500884,-100,4,1,0,100,0,0
504879,-101.010101010101,4,1,0,100,0,0
504960,-102.040816326531,4,1,0,100,0,0
505123,-104.166666666667,4,1,0,100,0,0
505286,-106.382978723404,4,1,0,100,0,0
505341,-107.142895408177,4,1,0,100,0,0
505395,-107.913630246896,4,1,0,100,0,0
505449,-108.695652173913,4,1,0,100,0,0
505612,-111.111111111111,4,1,0,100,0,0
505775,-93.0232558139535,4,1,0,100,0,0
505830,-94.1176470588235,4,1,0,100,0,0
505884,-95.2380952380952,4,1,0,100,0,0
505938,-96.3855421686747,4,1,0,100,0,0
506101,-100,4,1,0,100,0,0
506428,-101.585237633267,4,1,0,100,0,0
506591,-102.396801943082,4,1,0,100,0,0
506754,-103.221437853985,4,1,0,100,0,0
507080,-104.911318462504,4,1,0,100,0,0
507406,-106.65745146286,4,1,0,100,0,0
507732,-108.462575530626,4,1,0,100,0,0
507895,-109.388365890957,4,1,0,100,0,0
508058,-110.329974888898,4,1,0,100,0,0
508221,-111.287935274937,4,1,0,100,0,0
508384,-112.26280273068,4,1,0,100,0,0
508710,-114.264428455042,4,1,0,100,0,0
509036,-116.338862531673,4,1,0,100,0,0
509199,-117.404514908025,4,1,0,100,0,0
509362,-118.490010699648,4,1,0,100,0,0
509688,-120.722062802032,4,1,0,100,0,0
510014,-123.039973226502,4,1,0,100,0,0
510341,-125.448635683363,4,1,0,100,0,0
510504,-126.688600686399,4,1,0,100,0,0
510667,-127.953486348643,4,1,0,100,0,0
510830,-129.243717462894,4,1,0,100,0,0
510993,-130.560233963939,4,1,0,100,0,0
511319,-114.285714285714,4,1,0,100,0,0
511400,-113.779104694981,4,1,0,100,0,0
511482,-113.276966714696,4,1,0,100,0,0
511563,-112.779241401711,4,1,0,100,0,0
511645,-112.2858708443,4,1,0,100,0,0
511726,-111.7966731546,4,1,0,100,0,0
511808,-111.311843468833,4,1,0,100,0,0
511889,-110.831200756312,4,1,0,100,0,0
511971,-110.354691012383,4,1,0,100,0,0
512053,-109.88226115717,4,1,0,100,0,0
512134,-109.413859015866,4,1,0,100,0,0
512216,-108.949433299523,4,1,0,100,0,0
512297,-108.48893358633,4,1,0,100,0,0
512379,-108.032310303366,4,1,0,100,0,0
512460,-107.579514708809,4,1,0,100,0,0
512542,-107.130384105279,4,1,0,100,0,0
512623,-106.685101852267,4,1,0,100,0,0
512705,-106.243505865704,4,1,0,100,0,0
512786,-105.805550559182,4,1,0,100,0,0
512868,-105.37119109487,4,1,0,100,0,0
512949,-104.940383368209,4,1,0,100,0,0
513031,-104.513083992985,4,1,0,100,0,0
513112,-104.089250286766,4,1,0,100,0,0
513194,-103.668840256684,4,1,0,100,0,0
513275,-103.25181258557,4,1,0,100,0,0
513357,-102.838020861721,4,1,0,100,0,0
513438,-102.427637434843,4,1,0,100,0,0
513520,-102.020516325833,4,1,0,100,0,0
513601,-101.616618788303,4,1,0,100,0,0
513683,-101.215906687031,4,1,0,100,0,0
513764,-100.818342485959,4,1,0,100,0,0
513846,-100.423889236467,4,1,0,100,0,0
513928,-100,4,1,0,100,0,0
513982,-99.5850291833928,4,1,0,100,0,0
514036,-99.173586503665,4,1,0,100,0,0
514091,-98.7654320987654,4,1,0,100,0,0
514172,-98.159509202454,4,1,0,100,0,0
514254,-97.5609756097561,4,1,0,100,0,0
514308,-97.1659604320776,4,1,0,100,0,0
514362,-96.774224765879,4,1,0,100,0,0
514417,-96.3855421686747,4,1,0,100,0,0
514498,-95.8083832335329,4,1,0,100,0,0
514580,-95.2380952380952,4,1,0,100,0,0
514634,-94.861630083279,4,1,0,100,0,0
514688,-94.4882187364469,4,1,0,100,0,0
514743,-94.1176470588235,4,1,0,100,0,0
514824,-93.5672514619883,4,1,0,100,0,0
514906,-93.0232558139535,4,1,0,100,0,0
514960,-92.6640640419879,4,1,0,100,0,0
515014,-92.3077207100679,4,1,0,100,0,0
515069,-91.9540229885058,4,1,0,100,0,0
515123,-91.6030254647251,4,1,0,100,0,0
515178,-91.2547806098192,4,1,0,100,0,0
515232,-90.9090909090909,4,1,0,100,0,0
515884,-100,4,1,0,100,0,0
515986,-96.969696969697,4,1,0,100,0,0
516047,-95.2380952380952,4,1,0,100,0,0
516149,-92.485549132948,4,1,0,100,0,0
516210,-90.9090909090909,4,1,0,100,0,0
516536,-100,4,1,0,100,0,1
521428,-93.0232558139535,4,1,0,100,0,0
521482,-94.1176470588235,4,1,0,100,0,0
521536,-95.2380952380952,4,1,0,100,0,0
521591,-96.3855421686747,4,1,0,100,0,0
521754,-100,4,1,0,100,0,1
525667,-100,4,1,0,100,0,0
525748,-101.010101010101,4,1,0,100,0,0
525830,-102.040816326531,4,1,0,100,0,0
525993,-104.166666666667,4,1,0,100,0,0
526156,-106.382978723404,4,1,0,100,0,0
526237,-107.52688172043,4,1,0,100,0,0
526319,-108.695652173913,4,1,0,100,0,0
526482,-111.111111111111,4,1,0,100,0,0
526645,-93.0232558139535,4,1,0,100,0,0
526699,-94.1176470588235,4,1,0,100,0,0
526754,-95.2380952380952,4,1,0,100,0,0
526808,-96.3855421686747,4,1,0,100,0,0
526971,-100,4,1,0,100,0,1
531862,-93.0232558139535,4,1,0,100,0,0
531917,-94.1176470588235,4,1,0,100,0,0
531971,-95.2380952380952,4,1,0,100,0,0
532025,-96.3855421686747,4,1,0,100,0,0
532188,-100,4,1,0,100,0,1
536101,-100,4,1,0,100,0,0
536183,-101.001633196409,4,1,0,100,0,0
536264,-102.023638877128,4,1,0,100,0,0
536428,-104.130763247255,4,1,0,100,0,0
536591,-106.326874330141,4,1,0,100,0,0
536672,-107.45997921724,4,1,0,100,0,0
536754,-108.617612780383,4,1,0,100,0,0
536917,-111.009229307325,4,1,0,100,0,0
537080,-93.0232558139535,4,1,0,100,0,0
537243,-96.3855421686747,4,1,0,100,0,0
537406,-100,4,1,0,100,0,0
537732,-101.587301587302,4,1,0,100,0,0
538058,-103.225806451613,4,1,0,100,0,0
538221,-104.064986502771,4,1,0,100,0,0
538384,-104.918032786885,4,1,0,100,0,0
538547,-105.785179919434,4,1,0,100,0,0
538710,-106.666666666667,4,1,0,100,0,0
539036,-108.474576271186,4,1,0,100,0,0
539362,-110.344827586207,4,1,0,100,0,0
539525,-111.304285882832,4,1,0,100,0,0
539688,-112.280701754386,4,1,0,100,0,0
540014,-114.285714285714,4,1,0,100,0,0
540341,-116.363636363636,4,1,0,100,0,0
540667,-118.518518518519,4,1,0,100,0,0
540830,-119.626096672241,4,1,0,100,0,0
540993,-120.754716981132,4,1,0,100,0,0
541156,-121.904687600952,4,1,0,100,0,0
541319,-123.076923076923,4,1,0,100,0,0
541645,-125.490196078431,4,1,0,100,0,0
541971,-128,4,1,0,100,0,0
542134,-129.292845709676,4,1,0,100,0,0
542297,-130.612244897959,4,1,0,100,0,0
542460,-131.95867582108,4,1,0,100,0,0
542623,-133.333333333333,4,1,0,100,0,0
546699,-130.250563008059,4,1,0,100,0,0
546862,-127.306961271949,4,1,0,100,0,0
547025,-124.493622191735,4,1,0,100,0,0
547188,-121.801789511892,4,1,0,100,0,0
547351,-119.224042243463,4,1,0,100,0,0
547406,-118.388729392962,4,1,0,100,0,0
547460,-117.565178134758,4,1,0,100,0,0
547514,-116.753005514244,4,1,0,100,0,0
547678,-114.382449157001,4,1,0,100,0,0
547841,-100,4,1,0,100,0,0
567569,-102.564102564103,4,1,0,100,0,0
567732,-105.263157894737,4,1,0,100,0,0
567895,-108.108108108108,4,1,0,100,0,0
568221,-114.285714285714,4,1,0,100,0,0
568384,-109.090869421502,4,1,0,100,0,0
568547,-104.347862381865,4,1,0,100,0,0
568710,-100,4,1,0,100,0,1
578819,-80,4,1,0,100,0,0
579145,-100,4,1,0,100,0,1
579226,-100.111724684748,4,1,0,100,0,1
579308,-100.223699296831,4,1,0,100,0,1
579389,-100.335924675815,4,1,0,100,0,1
579471,-100.448401665033,4,1,0,100,0,1
579553,-100.561131111603,4,1,0,100,0,1
579634,-100.67411386645,4,1,0,100,0,1
579716,-100.787350784327,4,1,0,100,0,1
579797,-100.900944533742,4,1,0,100,0,1
579879,-101.014692587037,4,1,0,100,0,1
579960,-101.128697391588,4,1,0,100,0,1
580042,-101.242959817682,4,1,0,100,0,1
580123,-101.357480739545,4,1,0,100,0,1
580205,-101.472261035362,4,1,0,100,0,1
580286,-101.587301587302,4,1,0,100,0,1
580449,-101.818167008267,4,1,0,100,0,1
580531,-101.933993661744,4,1,0,100,0,1
580612,-102.050084140294,4,1,0,100,0,1
580694,-102.166439346339,4,1,0,100,0,1
580775,-102.283060186421,4,1,0,100,0,1
580857,-102.400052428827,4,1,0,100,0,1
580938,-102.517207513281,4,1,0,100,0,1
581020,-102.634630977184,4,1,0,100,0,1
581101,-102.752323743801,4,1,0,100,0,1
581183,-102.870286740637,4,1,0,100,0,1
581264,-102.988520899461,4,1,0,100,0,1
581346,-103.107027156329,4,1,0,100,0,1
581428,-103.225806451613,4,1,0,100,0,1
581509,-103.344859730022,4,1,0,100,0,1
581591,-103.464187940628,4,1,0,100,0,1
581754,-103.703672976689,4,1,0,100,0,1
581835,-103.823831722334,4,1,0,100,0,1
581917,-103.944269240604,4,1,0,100,0,1
581998,-104.064986502771,4,1,0,100,0,1
582080,-104.18609303193,4,1,0,100,0,1
582161,-104.307372966658,4,1,0,100,0,1
582243,-104.428935587188,4,1,0,100,0,1
582406,-104.672912848286,4,1,0,100,0,1
582487,-104.795329481756,4,1,0,100,0,1
582569,-104.918032786885,4,1,0,100,0,1
582650,-105.041023771834,4,1,0,100,0,1
582732,-105.164303449494,4,1,0,100,0,1
582813,-105.287872837519,4,1,0,100,0,1
582895,-105.411732958349,4,1,0,100,0,1
583058,-105.660329512304,4,1,0,100,0,1
583139,-105.785179919434,4,1,0,100,0,1
583221,-105.910213557355,4,1,0,100,0,1
583303,-106.035543114052,4,1,0,100,0,1
583384,-106.161169641303,4,1,0,100,0,1
583547,-106.413317839554,4,1,0,100,0,1
583629,-106.539841639179,4,1,0,100,0,1
583710,-106.666666666667,4,1,0,100,0,1
583792,-106.793793999043,4,1,0,100,0,1
583873,-106.921224718476,4,1,0,100,0,1
584036,-107.177000673072,4,1,0,100,0,1
584118,-107.305348098549,4,1,0,100,0,1
584199,-107.434003291778,4,1,0,100,0,1
584362,-107.692357396473,4,1,0,100,0,1
584525,-107.951840524905,4,1,0,100,0,1
584607,-108.08205157027,4,1,0,100,0,1
584688,-108.212577114988,4,1,0,100,0,1
584851,-108.474576271186,4,1,0,100,0,1
585014,-108.737847186354,4,1,0,100,0,1
585178,-109.002399142805,4,1,0,100,0,1
585259,-109.135158436966,4,1,0,100,0,1
585341,-109.268241513409,4,1,0,100,0,1
585422,-109.401769245412,4,1,0,100,0,1
585504,-109.535503742828,4,1,0,100,0,1
585667,-109.803956016927,4,1,0,100,0,1
585830,-110.073727382601,4,1,0,100,0,1
585911,-110.209110766769,4,1,0,100,0,1
585993,-110.344827586207,4,1,0,100,0,1
586156,-110.617266470358,4,1,0,100,0,1
586319,-110.891053975112,4,1,0,100,0,1
586482,-111.16620013918,4,1,0,100,0,1
586563,-111.304285882832,4,1,0,100,0,1
586645,-111.442839296082,4,1,0,100,0,1
586726,-111.581613581714,4,1,0,100,0,1
586808,-111.720733915845,4,1,0,100,0,1
586971,-112.000017920003,4,1,0,100,0,1
587134,-112.280701754386,4,1,0,100,0,1
587216,-112.421571900903,4,1,0,100,0,1
587297,-112.562795969802,4,1,0,100,0,1
587460,-112.846311223356,4,1,0,100,0,1
587623,-113.131258279794,4,1,0,100,0,1
587786,-113.417776648641,4,1,0,100,0,1
587868,-113.561516273365,4,1,0,100,0,1
587949,-113.705620696242,4,1,0,100,0,1
588112,-113.994929505536,4,1,0,100,0,1
588275,-66.6666666666667,4,1,0,100,0,0
589580,-100,4,1,0,100,0,1
599199,-117.647058823529,4,1,0,100,0,0
599362,-113.636363636364,4,1,0,100,0,0
599525,-109.89010989011,4,1,0,100,0,0
599607,-108.108108108108,4,1,0,100,0,0
599688,-106.382978723404,4,1,0,100,0,0
599851,-103.092783505155,4,1,0,100,0,0
600014,-100,4,1,0,100,0,1
609553,-97.5609756097561,4,1,0,100,0,1
609634,-95.2380952380952,4,1,0,100,0,1
609716,-93.0232558139535,4,1,0,100,0,1
609797,-90.9090909090909,4,1,0,100,0,0
610449,-100,4,1,0,100,0,1
620232,-117.647058823529,4,1,0,100,0,0
620395,-112.676056338028,4,1,0,100,0,0
620476,-110.344827586207,4,1,0,100,0,0
620558,-108.108108108108,4,1,0,100,0,0
620721,-103.896103896104,4,1,0,100,0,0
620884,-100,4,1,0,100,0,1
628792,-99.3810547907631,4,1,0,100,0,1
628873,-98.7696267594574,4,1,0,100,0,1
628955,-98.1657725400884,4,1,0,100,0,1
629036,-97.5692570979195,4,1,0,100,0,1
629199,-96.397620906716,4,1,0,100,0,1
629362,-95.2537894338782,4,1,0,100,0,1
629444,-94.6920378199999,4,1,0,100,0,1
629525,-94.1367845133693,4,1,0,100,0,1
629607,-93.5880925998024,4,1,0,100,0,1
629688,-93.0457599047211,4,1,0,100,0,1
629851,-91.9796504221406,4,1,0,100,0,1
630014,-90.9376949476836,4,1,0,100,0,1
630096,-90.4255607741151,4,1,0,100,0,1
630178,-89.9190818182717,4,1,0,100,0,1
630341,-88.9231144075898,4,1,0,100,0,1
630504,-87.9488911403805,4,1,0,100,0,1
630667,-80.0332297970117,4,1,0,100,0,0
631319,-100,4,1,0,100,0,0
631808,-101.184977268795,4,1,0,100,0,0
632134,-101.990757597547,4,1,0,100,0,0
632297,-102.398374732996,4,1,0,100,0,0
632460,-102.809368812161,4,1,0,100,0,0
632623,-103.223675382186,4,1,0,100,0,0
632786,-103.6412272365,4,1,0,100,0,0
632949,-104.062279192851,4,1,0,100,0,0
633112,-104.486766228623,4,1,0,100,0,0
633438,-105.346104090379,4,1,0,100,0,0
633601,-105.781151491303,4,1,0,100,0,0
633683,-106.000025440006,4,1,0,100,0,0
633764,-106.219807019855,4,1,0,100,0,0
633846,-106.440388592571,4,1,0,100,0,0
633928,-106.66200198178,4,1,0,100,0,0
634091,-107.108008787141,4,1,0,100,0,0
634254,-107.557761206712,4,1,0,100,0,0
634417,-108.01118995928,4,1,0,100,0,0
634743,-108.929851354325,4,1,0,100,0,0
634906,-109.395067157632,4,1,0,100,0,0
635069,-109.864152974847,4,1,0,100,0,0
635232,-110.337400737716,4,1,0,100,0,0
635395,-110.814743236699,4,1,0,100,0,0
635476,-111.054966655746,4,1,0,100,0,0
635721,-111.781801922647,4,1,0,100,0,0
635884,-112.271751529141,4,1,0,100,0,0
635966,-112.5183404895,4,1,0,100,0,0
636129,-113.014654610263,4,1,0,100,0,0
636210,-113.264521361122,4,1,0,100,0,0
636292,-113.515495432704,4,1,0,100,0,0
636373,-113.767584202233,4,1,0,100,0,0
636455,-114.020795112613,4,1,0,100,0,0
636536,-114.275135673155,4,1,0,100,0,0
636699,-114.787104357548,4,1,0,100,0,0
636862,-115.30381401956,4,1,0,100,0,0
637025,-115.825196613271,4,1,0,100,0,0
637351,-116.882099857053,4,1,0,100,0,0
637514,-117.417886736358,4,1,0,100,0,0
637678,-117.958608324339,4,1,0,100,0,0
637841,-118.504192678337,4,1,0,100,0,0
638004,-119.054989118374,4,1,0,100,0,0
638085,-119.332311848744,4,1,0,100,0,0
638330,-120.171942014635,4,1,0,100,0,0
638411,-120.454498915307,4,1,0,100,0,0
638574,-121.023617759006,4,1,0,100,0,0
638737,-121.59814003485,4,1,0,100,0,0
638819,-121.887451564974,4,1,0,100,0,0
638900,-122.177993788471,4,1,0,100,0,0
638982,-122.470074437311,4,1,0,100,0,0
639063,-122.763554937918,4,1,0,100,0,0
639145,-123.058445378048,4,1,0,100,0,0
639308,-123.65249691487,4,1,0,100,0,0
639389,-123.951678677584,4,1,0,100,0,0
639634,-124.857818159571,4,1,0,100,0,0
639960,-126.08702778832,4,1,0,100,0,0
640123,-126.710593005575,4,1,0,100,0,0
640286,-127.340518734337,4,1,0,100,0,0
640368,-127.657836148614,4,1,0,100,0,0
640449,-127.976738947929,4,1,0,100,0,0
640531,-128.297239043416,4,1,0,100,0,0
640612,-128.619183036673,4,1,0,100,0,0
640694,-128.942913104081,4,1,0,100,0,0
640775,-129.268276918503,4,1,0,100,0,0
640938,-129.923955508841,4,1,0,100,0,0
641101,-130.586319515995,4,1,0,100,0,0
641264,-131.255299432715,4,1,0,100,0,0
641319,-131.479818505259,4,1,0,100,0,0
641373,-131.705280459809,4,1,0,100,0,0
641428,-131.93134292914,4,1,0,100,0,0
641536,-132.385804005465,4,1,0,100,0,0
641645,-132.843583322817,4,1,0,100,0,0
641754,-133.333333333333,4,1,0,100,0,0
641917,-132.64253103172,4,1,0,100,0,0
641998,-132.299807239181,4,1,0,100,0,0
642080,-131.958849952231,4,1,0,100,0,0
642243,-131.282008194623,4,1,0,100,0,0
642324,-130.946270126442,4,1,0,100,0,0
642406,-130.612244897959,4,1,0,100,0,0
642487,-130.279919434898,4,1,0,100,0,0
642569,-129.949280795705,4,1,0,100,0,0
642732,-129.292845709676,4,1,0,100,0,0
642813,-128.967192036018,4,1,0,100,0,0
642895,-128.643174707723,4,1,0,100,0,0
642976,-128.320781422231,4,1,0,100,0,0
643058,-128,4,1,0,100,0,0
643139,-127.680818382974,4,1,0,100,0,0
643221,-127.363224633067,4,1,0,100,0,0
643303,-127.047206930679,4,1,0,100,0,0
643384,-126.73275357323,4,1,0,100,0,0
643466,-126.419693154121,4,1,0,100,0,0
643629,-125.798506016943,4,1,0,100,0,0
643710,-125.490196078431,4,1,0,100,0,0
643873,-124.878087766818,4,1,0,100,0,0
643955,-124.57426744102,4,1,0,100,0,0
644036,-124.271767442785,4,1,0,100,0,0
644118,-123.970886676973,4,1,0,100,0,0
644199,-123.671459347955,4,1,0,100,0,0
644362,-123.076923076923,4,1,0,100,0,0
644525,-122.488075785822,4,1,0,100,0,0
644607,-122.195760051518,4,1,0,100,0,0
644688,-121.904836208662,4,1,0,100,0,0
644851,-121.32697741741,4,1,0,100,0,0
644933,-121.040170811889,4,1,0,100,0,0
645014,-120.754716981132,4,1,0,100,0,0
645096,-120.47060637675,4,1,0,100,0,0
645178,-120.187829540005,4,1,0,100,0,0
645341,-119.626096672241,4,1,0,100,0,0
645422,-119.347265933158,4,1,0,100,0,0
645504,-119.069731997847,4,1,0,100,0,0
645585,-118.79348584041,4,1,0,100,0,0
645667,-118.518518518519,4,1,0,100,0,0
645748,-118.244821172445,4,1,0,100,0,0
645830,-117.972385024114,4,1,0,100,0,0
645911,-117.701201376162,4,1,0,100,0,0
645993,-117.431261611016,4,1,0,100,0,0
646074,-117.162419919486,4,1,0,100,0,0
646237,-116.628684591718,4,1,0,100,0,0
646319,-116.363636363636,4,1,0,100,0,0
646482,-115.837137617995,4,1,0,100,0,0
646563,-115.575670858982,4,1,0,100,0,0
646645,-115.315248827244,4,1,0,100,0,0
646726,-115.056130133085,4,1,0,100,0,0
646808,-114.798173331466,4,1,0,100,0,0
646971,-114.285714285714,4,1,0,100,0,0
647134,-113.276966714696,4,1,0,100,0,0
647216,-112.779241401711,4,1,0,100,0,0
647297,-112.2858708443,4,1,0,100,0,0
647460,-111.311843468833,4,1,0,100,0,0
647623,-110.354691012383,4,1,0,100,0,0
647705,-109.88226115717,4,1,0,100,0,0
647786,-109.413859015866,4,1,0,100,0,0
647868,-108.949433299523,4,1,0,100,0,0
647949,-108.48893358633,4,1,0,100,0,0
648112,-107.579514708809,4,1,0,100,0,0
648275,-106.685101852267,4,1,0,100,0,0
648438,-105.805550559182,4,1,0,100,0,0
648520,-105.37119109487,4,1,0,100,0,0
648601,-104.940383368209,4,1,0,100,0,0
648764,-104.089250286766,4,1,0,100,0,0
648928,-103.25181258557,4,1,0,100,0,0
649009,-102.838020861721,4,1,0,100,0,0
649091,-102.427637434843,4,1,0,100,0,0
649172,-102.020516325833,4,1,0,100,0,0
649254,-101.616618788303,4,1,0,100,0,0
649417,-100.818342485959,4,1,0,100,0,0
649580,-100,4,1,0,100,0,0
649661,-99.3788819875776,4,1,0,100,0,0
649743,-98.7654320987654,4,1,0,100,0,0
649824,-98.159509202454,4,1,0,100,0,0
649906,-97.5609756097561,4,1,0,100,0,0
649987,-96.969696969697,4,1,0,100,0,0
650069,-96.3855421686747,4,1,0,100,0,0
650150,-95.8083832335329,4,1,0,100,0,0
650232,-95.2380952380952,4,1,0,100,0,0
650313,-94.6745562130178,4,1,0,100,0,0
650395,-94.1176470588235,4,1,0,100,0,0
650476,-93.5672514619883,4,1,0,100,0,0
650558,-93.0232558139535,4,1,0,100,0,0
650639,-92.485549132948,4,1,0,100,0,0
650721,-91.9540229885058,4,1,0,100,0,0
650803,-91.4285714285714,4,1,0,100,0,0
650884,-90.9090909090909,4,1,0,100,0,0
650938,-90.2255910452905,4,1,0,100,0,0
650993,-89.5522120739665,4,1,0,100,0,0
651047,-88.8888888888889,4,1,0,100,0,0
651129,-87.9120879120879,4,1,0,100,0,0
651210,-86.9565217391304,4,1,0,100,0,0
651264,-86.3309600952403,4,1,0,100,0,0
651319,-85.7142612244968,4,1,0,100,0,0
651373,-85.1063829787234,4,1,0,100,0,0
651455,-84.2105263157895,4,1,0,100,0,0
651536,-83.3333333333333,4,1,0,100,0,0
651699,-86.9565217391304,4,1,0,100,0,0
651781,-88.8888888888889,4,1,0,100,0,0
651862,-90.9090909090909,4,1,0,100,0,0
651944,-93.0232558139535,4,1,0,100,0,0
652025,-95.2380952380952,4,1,0,100,0,0
652188,-100,4,1,0,100,0,1
670449,-100,4,1,0,100,0,0
670612,-101.048989560629,4,1,0,100,0,0
670694,-101.581729103876,4,1,0,100,0,0
670775,-102.120115722515,4,1,0,100,0,0
670938,-103.214299721941,4,1,0,100,0,0
671020,-103.770178111134,4,1,0,100,0,0
671101,-104.332076479585,4,1,0,100,0,0
671183,-104.900203191694,4,1,0,100,0,0
671264,-105.474439851619,4,1,0,100,0,0
671428,-106.642096327673,4,1,0,100,0,0
671509,-107.235615950654,4,1,0,100,0,0
671591,-107.835779048802,4,1,0,100,0,0
671672,-108.442815392373,4,1,0,100,0,0
671754,-109.056605831257,4,1,0,100,0,0
671835,-109.677383975037,4,1,0,100,0,0
671917,-110.305391506926,4,1,0,100,0,0
671998,-110.940509261314,4,1,0,100,0,0
672080,-111.582983148738,4,1,0,100,0,0
672161,-112.233067677662,4,1,0,100,0,0
672243,-112.8906439621,4,1,0,100,0,0
672324,-113.55597117041,4,1,0,100,0,0
672406,-114.285714285714,4,1,0,100,0,0
672460,-112.941133951573,4,1,0,100,0,0
672514,-111.627948512725,4,1,0,100,0,0
672569,-110.344827586207,4,1,0,100,0,0
672623,-109.090869421502,4,1,0,100,0,0
672678,-107.865207322322,4,1,0,100,0,0
672732,-106.666666666667,4,1,0,100,0,0
672895,-103.225806451613,4,1,0,100,0,0
673058,-100,4,1,0,100,0,1
683493,-90.9090909090909,4,1,0,100,0,1
691319,-90.9090909090909,4,1,0,100,0,0
691482,-92.2569651702279,4,1,0,100,0,0
691563,-92.9460457499026,4,1,0,100,0,0
691645,-93.6454974776585,4,1,0,100,0,0
691726,-94.3555562684642,4,1,0,100,0,0
691808,-95.0763748519185,4,1,0,100,0,0
691971,-96.5517507728968,4,1,0,100,0,0
692053,-97.3066492552636,4,1,0,100,0,0
692134,-98.0735414257735,4,1,0,100,0,0
692297,-99.6441706665498,4,1,0,100,0,0
692460,-101.26582278481,4,1,0,100,0,0
692542,-102.096656947065,4,1,0,100,0,0
692623,-102.941131055383,4,1,0,100,0,0
692786,-104.672912848286,4,1,0,100,0,0
692949,-106.463845942556,4,1,0,100,0,0
693031,-107.38255033557,4,1,0,100,0,0
693275,-110.236203112409,4,1,0,100,0,0
693601,-114.285714285714,4,1,0,100,0,0
693764,-106.812044980688,4,1,0,100,0,0
693928,-100.255752424435,4,1,0,100,0,0
704688,-101.585237633267,4,1,0,100,0,0
704797,-102.124808771296,4,1,0,100,0,0
705014,-103.221437853985,4,1,0,100,0,0
705341,-104.911318462504,4,1,0,100,0,0
705667,-106.65745146286,4,1,0,100,0,0
705993,-108.462575530626,4,1,0,100,0,0
706101,-109.078018052412,4,1,0,100,0,0
706319,-110.329974888898,4,1,0,100,0,0
706645,-112.26280273068,4,1,0,100,0,0
706971,-114.264428455042,4,1,0,100,0,0
707297,-116.338862531673,4,1,0,100,0,0
707406,-117.047226214833,4,1,0,100,0,0
707623,-118.490010699648,4,1,0,100,0,0
707949,-120.722062802032,4,1,0,100,0,0
708275,-123.039973226502,4,1,0,100,0,0
708601,-125.448635683363,4,1,0,100,0,0
708710,-126.27251123194,4,1,0,100,0,0
708928,-127.953486348643,4,1,0,100,0,0
709254,-130.560233963939,4,1,0,100,0,0
709580,-133.333333333333,4,1,0,100,0,0
709688,-131.506791668256,4,1,0,100,0,0
709797,-129.729785829097,4,1,0,100,0,0
709906,-128,4,1,0,100,0,0
710014,-126.315736288111,4,1,0,100,0,0
710123,-124.675376488468,4,1,0,100,0,0
710232,-123.076923076923,4,1,0,100,0,0
710341,-121.518938118911,4,1,0,100,0,0
710449,-120.000048000019,4,1,0,100,0,0
710558,-118.518518518519,4,1,0,100,0,0
710667,-117.073125044634,4,1,0,100,0,0
710775,-115.662695195256,4,1,0,100,0,0
710884,-114.285714285714,4,1,0,100,0,0
710993,-112.941133951573,4,1,0,100,0,0
711101,-111.627948512725,4,1,0,100,0,0
711210,-110.344827586207,4,1,0,100,0,0
711319,-109.090869421502,4,1,0,100,0,0
711428,-107.865207322322,4,1,0,100,0,0
711536,-106.666666666667,4,1,0,100,0,0
711645,-105.49446839755,4,1,0,100,0,0
711754,-104.347862381865,4,1,0,100,0,0
711862,-103.225806451613,4,1,0,100,0,0
711971,-102.127624807617,4,1,0,100,0,0
712080,-101.05266561774,4,1,0,100,0,0
712188,-100,4,1,0,100,0,0
712243,-99.3820424599838,4,1,0,100,0,0
712297,-98.7717730027113,4,1,0,100,0,0
712351,-98.1688563230069,4,1,0,100,0,0
712433,-97.2782517930814,4,1,0,100,0,0
712514,-96.4035684744906,4,1,0,100,0,0
712569,-95.8292246553262,4,1,0,100,0,0
712623,-95.261593097726,4,1,0,100,0,0
712678,-94.7006465213138,4,1,0,100,0,0
712759,-93.8715930478698,4,1,0,100,0,0
712841,-93.0569294377221,4,1,0,100,0,0
712895,-92.5215737179517,4,1,0,100,0,0
712949,-91.9923425574055,4,1,0,100,0,0
713004,-91.4692151209589,4,1,0,100,0,0
713085,-90.6954618711743,4,1,0,100,0,0
713167,-89.9347703110934,4,1,0,100,0,0
713221,-89.434638930004,4,1,0,100,0,0
713275,-88.9401183970856,4,1,0,100,0,0
713330,-88.4509583661339,4,1,0,100,0,0
713411,-87.7273014380259,4,1,0,100,0,0
713493,-50,4,1,0,100,0,0
714145,-66.6666666666667,4,1,0,100,0,0
714471,-80,4,1,0,100,0,0
714797,-100,4,1,0,100,0,1
715409,-133.333333333333,4,1,0,100,0,1
725232,-80,4,1,0,100,0,0
725558,-100,4,1,0,100,0,1
729471,-111.111111111111,4,1,0,100,0,1
729553,-112.149490785237,4,1,0,100,0,1
729634,-113.207589889657,4,1,0,100,0,1
729716,-114.285714285714,4,1,0,100,0,1
729797,-115.384571005934,4,1,0,100,0,1
729879,-116.504899613553,4,1,0,100,0,1
730042,-118.811834133927,4,1,0,100,0,1
730286,-122.448929612682,4,1,0,100,0,1
730449,-80,4,1,0,100,0,0
730775,-100,4,1,0,100,0,1
734362,-100,4,1,0,100,0,0
734688,-111.111111111111,4,1,0,100,0,0
734770,-112.142322063778,4,1,0,100,0,0
734851,-113.192853456004,4,1,0,100,0,0
734933,-114.263253394761,4,1,0,100,0,0
735014,-115.353957851971,4,1,0,100,0,0
735096,-116.465821357735,4,1,0,100,0,0
735259,-118.755113892092,4,1,0,100,0,0
735341,-119.933844491379,4,1,0,100,0,0
735504,-122.362925991231,4,1,0,100,0,0
735667,-100,4,1,0,100,0,1
739743,-101.26582278481,4,1,0,100,0,1
739824,-101.910828025478,4,1,0,100,0,1
739987,-103.225806451613,4,1,0,100,0,1
740069,-103.896103896104,4,1,0,100,0,1
740150,-104.575163398693,4,1,0,100,0,1
740232,-105.263157894737,4,1,0,100,0,1
740313,-105.960264900662,4,1,0,100,0,1
740476,-107.38255033557,4,1,0,100,0,1
740721,-109.58904109589,4,1,0,100,0,1
740884,-80,4,1,0,100,0,0
741129,-100,4,1,0,100,0,1
745123,-111.111111111111,4,1,0,100,0,1
745205,-112.149490785237,4,1,0,100,0,1
745286,-113.207589889657,4,1,0,100,0,1
745368,-114.285714285714,4,1,0,100,0,1
745449,-115.384571005934,4,1,0,100,0,1
745531,-116.504899613553,4,1,0,100,0,1
745694,-118.811834133927,4,1,0,100,0,1
745938,-122.448929612682,4,1,0,100,0,1
746101,-100,4,1,0,100,0,0
746346,-101.184260585897,4,1,0,100,0,0
746591,-102.396801943082,4,1,0,100,0,0
746754,-103.221437853985,4,1,0,100,0,0
747080,-104.911318462504,4,1,0,100,0,0
747406,-106.65745146286,4,1,0,100,0,0
747650,-108.005590369358,4,1,0,100,0,0
747895,-109.388365890957,4,1,0,100,0,0
748058,-110.329974888898,4,1,0,100,0,0
748384,-112.26280273068,4,1,0,100,0,0
748710,-114.264428455042,4,1,0,100,0,0
748955,-115.813258070157,4,1,0,100,0,0
749199,-117.404514908025,4,1,0,100,0,0
749362,-118.490010699648,4,1,0,100,0,0
749688,-120.722062802032,4,1,0,100,0,0
750014,-123.039973226502,4,1,0,100,0,0
750259,-124.837710975732,4,1,0,100,0,0
750504,-126.688600686399,4,1,0,100,0,0
750667,-127.953486348643,4,1,0,100,0,0
750993,-130.560233963939,4,1,0,100,0,0
751319,-133.333333333333,4,1,0,100,0,0
751563,-131.282008194623,4,1,0,100,0,0
751808,-129.292845709676,4,1,0,100,0,0
751971,-128,4,1,0,100,0,0
752297,-125.490196078431,4,1,0,100,0,0
752623,-123.076923076923,4,1,0,100,0,0
752868,-121.32697741741,4,1,0,100,0,0
753112,-119.626096672241,4,1,0,100,0,0
753275,-118.518518518519,4,1,0,100,0,0
753601,-116.363636363636,4,1,0,100,0,0
753928,-114.285714285714,4,1,0,100,0,0
754172,-112.775298600797,4,1,0,100,0,0
754417,-111.304285882832,4,1,0,100,0,0
754580,-110.344827586207,4,1,0,100,0,0
754906,-108.474576271186,4,1,0,100,0,0
755232,-106.666666666667,4,1,0,100,0,0
755476,-105.349766492243,4,1,0,100,0,0
755721,-104.065094798098,4,1,0,100,0,0
755884,-103.225806451613,4,1,0,100,0,0
756210,-101.587301587302,4,1,0,100,0,0
756536,-100,4,1,0,100,0,0
766971,-66.6666666666667,4,1,0,100,0,0
768275,-100,4,1,0,100,0,0
769580,326.086956521739,4,1,0,100,1,8
769625,323.974082073434,4,1,0,100,1,0
769625,-133.333333333333,4,1,0,100,0,0
779992,326.086956521739,4,1,0,100,1,0
779992,-114.285714285714,4,1,0,100,0,0
790209,-111.111111111111,4,1,0,100,0,0
790426,-105.263157894737,4,1,0,100,0,0
790535,-102.564102564103,4,1,0,100,0,0
790752,-97.5609756097561,4,1,0,100,0,0
790861,-95.2380952380952,4,1,0,100,0,0
791078,-90.9090909090909,4,1,0,100,0,0
791242,-98.8655181788972,4,1,0,100,0,0
791486,-113.805908575161,4,1,0,100,0,0
792818,-111.111111111111,4,1,0,100,0,0
793035,-105.263157894737,4,1,0,100,0,0
793144,-102.564102564103,4,1,0,100,0,0
793361,-97.5609756097561,4,1,0,100,0,0
793470,-95.2380952380952,4,1,0,100,0,0
793687,-90.9090909090909,4,1,0,100,0,0
793850,-98.8655181788972,4,1,0,100,0,0
794095,-113.805908575161,4,1,0,100,0,0
795644,-100,4,1,0,100,0,0
795970,-100.813057307182,4,1,0,100,0,0
796622,-102.479386271452,4,1,0,100,0,0
796948,-103.333326444445,4,1,0,100,0,0
797274,-104.201726205796,4,1,0,100,0,0
797926,-105.98294946309,4,1,0,100,0,0
798252,-106.896536979788,4,1,0,100,0,0
798578,-107.826128211736,4,1,0,100,0,0
799231,-109.734552118426,4,1,0,100,0,0
799557,-110.714261989801,4,1,0,100,0,0
799883,-111.711747942549,4,1,0,100,0,0
800535,-113.76150128778,4,1,0,100,0,0
800861,-114.814780795621,4,1,0,100,0,0
801187,-115.88788079309,4,1,0,100,0,0
801839,-118.095265088442,4,1,0,100,0,0
802165,-119.230723372799,4,1,0,100,0,0
802492,-120.388372890946,4,1,0,100,0,0
803144,-122.772296676799,4,1,0,100,0,0
803470,-123.999940480029,4,1,0,100,0,0
803796,-125.252540434651,4,1,0,100,0,0
804448,-127.83506208949,4,1,0,100,0,0
804774,-129.166591319488,4,1,0,100,0,0
805100,-130.526321285319,4,1,0,100,0,0
805752,-133.333333333333,4,1,0,100,0,0
805915,-93.0232558139535,4,1,0,100,0,1
805997,-96.3855421686747,4,1,0,100,0,1
806078,-100,4,1,0,100,0,1
806242,-93.0232558139535,4,1,0,100,0,1
806323,-96.3855421686747,4,1,0,100,0,1
806405,-100,4,1,0,100,0,1
806568,-93.0232558139535,4,1,0,100,0,1
806649,-96.3855421686747,4,1,0,100,0,1
806731,-100,4,1,0,100,0,1
806894,-93.0232558139535,4,1,0,100,0,1
806975,-94.1176470588235,4,1,0,100,0,1
807057,-95.2380952380952,4,1,0,100,0,1
807138,-96.3855421686747,4,1,0,100,0,1
807220,-97.5609756097561,4,1,0,100,0,1
807301,-98.7654320987654,4,1,0,100,0,1
807383,-100,4,1,0,100,0,1
808524,-93.0232558139535,4,1,0,100,0,1
808606,-96.3855421686747,4,1,0,100,0,1
808687,-100,4,1,0,100,0,1
808850,-93.0232558139535,4,1,0,100,0,1
808932,-96.3855421686747,4,1,0,100,0,1
809013,-100,4,1,0,100,0,1
809176,-93.0232558139535,4,1,0,100,0,1
809258,-96.3855421686747,4,1,0,100,0,1
809339,-100,4,1,0,100,0,1
809502,-93.0232558139535,4,1,0,100,0,1
809584,-94.1176470588235,4,1,0,100,0,1
809665,-95.2380952380952,4,1,0,100,0,1
809747,-96.3855421686747,4,1,0,100,0,1
809828,-97.5609756097561,4,1,0,100,0,1
809910,-98.7654320987654,4,1,0,100,0,1
809992,-100,4,1,0,100,0,1
811133,-93.0232558139535,4,1,0,100,0,1
811214,-96.3855421686747,4,1,0,100,0,1
811296,-100,4,1,0,100,0,1
811459,-93.0232558139535,4,1,0,100,0,1
811540,-96.3855421686747,4,1,0,100,0,1
811622,-100,4,1,0,100,0,1
811785,-93.0232558139535,4,1,0,100,0,1
811867,-96.3855421686747,4,1,0,100,0,1
811948,-100,4,1,0,100,0,1
812111,-93.0232558139535,4,1,0,100,0,1
812193,-94.1176470588235,4,1,0,100,0,1
812274,-95.2380952380952,4,1,0,100,0,1
812356,-96.3855421686747,4,1,0,100,0,1
812437,-97.5609756097561,4,1,0,100,0,1
812519,-98.7654320987654,4,1,0,100,0,1
812600,-100,4,1,0,100,0,1
813742,-93.0232558139535,4,1,0,100,0,1
813823,-96.3855421686747,4,1,0,100,0,1
813905,-100,4,1,0,100,0,1
814068,-93.0232558139535,4,1,0,100,0,1
814149,-96.3855421686747,4,1,0,100,0,1
814231,-100,4,1,0,100,0,1
814394,-93.0232558139535,4,1,0,100,0,1
814475,-96.3855421686747,4,1,0,100,0,1
814557,-100,4,1,0,100,0,1
814720,-93.0232558139535,4,1,0,100,0,1
814801,-94.1176470588235,4,1,0,100,0,1
814883,-95.2380952380952,4,1,0,100,0,1
814964,-96.3855421686747,4,1,0,100,0,1
815046,-97.5609756097561,4,1,0,100,0,1
815127,-98.7654320987654,4,1,0,100,0,1
815209,-100,4,1,0,100,0,1
816513,-100,4,1,0,100,0,0
816839,-100.900231868733,4,1,0,100,0,0
817165,-101.816819324018,4,1,0,100,0,0
817328,-102.28138632191,4,1,0,100,0,0
817492,-102.750212179188,4,1,0,100,0,0
817818,-103.700876894615,4,1,0,100,0,0
817981,-104.182836711115,4,1,0,100,0,0
818144,-104.669297355007,4,1,0,100,0,0
818470,-105.655975690673,4,1,0,100,0,0
818633,-106.156323679123,4,1,0,100,0,0
818796,-106.66143314568,4,1,0,100,0,0
819122,-107.686095032979,4,1,0,100,0,0
819285,-108.205902848412,4,1,0,100,0,0
819448,-108.730753297532,4,1,0,100,0,0
819774,-109.795878482314,4,1,0,100,0,0
819937,-110.336305057816,4,1,0,100,0,0
820100,-110.882078018848,4,1,0,100,0,0
820426,-111.989983615865,4,1,0,100,0,0
820589,-112.552280534308,4,1,0,100,0,0
820752,-113.120252484404,4,1,0,100,0,0
821078,-114.273568637848,4,1,0,100,0,0
821242,-114.859090867324,4,1,0,100,0,0
821405,-115.45064427232,4,1,0,100,0,0
821731,-116.652221233271,4,1,0,100,0,0
821894,-117.262438026802,4,1,0,100,0,0
822057,-117.879072574609,4,1,0,100,0,0
822383,-119.132004217273,4,1,0,100,0,0
822546,-119.768511421125,4,1,0,100,0,0
822709,-120.411856714707,4,1,0,100,0,0
823035,-121.719507133372,4,1,0,100,0,0
823198,-122.384041121038,4,1,0,100,0,0
823361,-123.055871057136,4,1,0,100,0,0
823687,-124.421904725171,4,1,0,100,0,0
823850,-125.116201672303,4,1,0,100,0,0
824013,-125.818449010815,4,1,0,100,0,0
824339,-127.246861456162,4,1,0,100,0,0
824502,-127.973299650761,4,1,0,100,0,0
824665,-128.708079778416,4,1,0,100,0,0
824992,-130.203247268987,4,1,0,100,0,0
825155,-130.963933842259,4,1,0,100,0,0
825318,-131.733560968927,4,1,0,100,0,0
825644,-114.285714285714,4,1,0,100,0,0
826948,326.086956521739,4,1,0,100,1,8
826971,326.086956521739,4,1,0,100,1,0
832351,-99.3804621986536,4,1,0,100,0,0
832514,-98.7685536728074,4,1,0,100,0,0
832596,-98.4655134385733,4,1,0,100,0,0
832677,-98.1642307212813,4,1,0,100,0,0
832840,-97.5671627956895,4,1,0,100,0,0
833003,-96.9773140969133,4,1,0,100,0,0
833085,-96.6850561643491,4,1,0,100,0,0
833166,-96.3945544788284,4,1,0,100,0,0
833248,-96.1058856205413,4,1,0,100,0,0
833329,-95.8188487173689,4,1,0,100,0,0
833492,-95.2498880813815,4,1,0,100,0,0
833655,-94.6876443986577,4,1,0,100,0,0
833818,-94.1319994201469,4,1,0,100,0,0
833900,-93.8566152488843,4,1,0,100,0,0
833981,-93.5829252337935,4,1,0,100,0,0
834144,-93.0401328613097,4,1,0,100,0,0
834307,-92.5036007026573,4,1,0,100,0,0
834389,-92.2376484564952,4,1,0,100,0,0
834471,-91.9732210769512,4,1,0,100,0,0
834552,-91.7103054870276,4,1,0,100,0,0
834634,-91.4489723878973,4,1,0,100,0,0
834797,-90.9090909090909,4,1,0,100,0,0
834878,-90.3954802259887,4,1,0,100,0,0
834960,-89.8876404494382,4,1,0,100,0,0
835041,-89.3854748603352,4,1,0,100,0,0
835123,-88.8888888888889,4,1,0,100,0,0
835204,-88.3977900552486,4,1,0,100,0,0
835286,-87.9120879120879,4,1,0,100,0,0
835367,-87.431693989071,4,1,0,100,0,0
835449,-86.9565217391304,4,1,0,100,0,0
835530,-86.4864864864865,4,1,0,100,0,0
835612,-86.0215053763441,4,1,0,100,0,0
835693,-85.5614973262032,4,1,0,100,0,0
835775,-85.1063829787234,4,1,0,100,0,0
835856,-84.6560846560847,4,1,0,100,0,0
835938,-84.2105263157895,4,1,0,100,0,0
836019,-83.7696335078534,4,1,0,100,0,0
836101,-83.3333333333333,4,1,0,100,0,0
837242,-133.333333333333,4,1,0,100,0,0
837405,-100,4,1,0,100,0,1
853057,-100,4,1,0,100,0,0
853547,-102.886162634215,4,1,0,100,0,0
853710,-103.885634382821,4,1,0,100,0,0
854036,-105.943875172689,4,1,0,100,0,0
854362,-108.085322553624,4,1,0,100,0,0
854525,-109.188901166574,4,1,0,100,0,0
854688,-110.315126189473,4,1,0,100,0,0
855014,-112.638996521708,4,1,0,100,0,0
855340,-115.062749470424,4,1,0,100,0,0
855503,-116.314234536023,4,1,0,100,0,0
855666,-117.647058823529,4,1,0,100,0,0
855829,-115.120767441084,4,1,0,100,0,0
855992,-112.700691756846,4,1,0,100,0,0
856155,-110.38027107187,4,1,0,100,0,0
856318,-108.153591077761,4,1,0,100,0,0
856481,-106.014859042643,4,1,0,100,0,0
856644,-103.959073391987,4,1,0,100,0,0
856726,-102.960739011,4,1,0,100,0,0
856807,-101.981500555799,4,1,0,100,0,0
856930,-100.077760419846,4,1,0,100,0,0
857134,-101.910828025478,4,1,0,100,0,0
857297,-103.896103896104,4,1,0,100,0,0
857460,-105.960264900662,4,1,0,100,0,0
857623,-108.108108108108,4,1,0,100,0,0
857704,-109.215017064846,4,1,0,100,0,0
857786,-110.344827586207,4,1,0,100,0,0
857867,-111.498257839721,4,1,0,100,0,0
857949,-112.676056338028,4,1,0,100,0,0
858112,-115.107913669065,4,1,0,100,0,0
858275,-100,4,1,0,100,0,0
858601,-101.587301587302,4,1,0,100,0,0
858927,-103.225806451613,4,1,0,100,0,0
859253,-104.918032786885,4,1,0,100,0,0
859579,-106.666666666667,4,1,0,100,0,0
859905,-108.474576271186,4,1,0,100,0,0
860231,-110.344827586207,4,1,0,100,0,0
860557,-112.280701754386,4,1,0,100,0,0
860884,-114.285714285714,4,1,0,100,0,0
861210,-116.363636363636,4,1,0,100,0,0
861536,-118.518518518519,4,1,0,100,0,0
861862,-120.754716981132,4,1,0,100,0,0
862188,-123.076923076923,4,1,0,100,0,0
862514,-125.490196078431,4,1,0,100,0,0
862840,-128,4,1,0,100,0,0
863166,-130.612244897959,4,1,0,100,0,0
863492,-133.333333333333,4,1,0,100,0,0
863655,-131.962332671762,4,1,0,100,0,0
863818,-130.61923969153,4,1,0,100,0,0
863981,-129.303043664345,4,1,0,100,0,0
864144,-128.013272416084,4,1,0,100,0,0
864307,-126.748977452624,4,1,0,100,0,0
864471,-125.509411323208,4,1,0,100,0,0
864634,-124.293855533252,4,1,0,100,0,0
864797,-123.101467615697,4,1,0,100,0,0
864960,-121.93188884689,4,1,0,100,0,0
865123,-120.784325093427,4,1,0,100,0,0
865286,-119.658160566893,4,1,0,100,0,0
865449,-118.552802232586,4,1,0,100,0,0
865612,-117.467540781793,4,1,0,100,0,0
865775,-116.402104084433,4,1,0,100,0,0
865938,-115.35582079704,4,1,0,100,0,0
866101,-114.285714285714,4,1,0,100,0,0
866182,-113.274400438598,4,1,0,100,0,0
866264,-112.280701754386,4,1,0,100,0,0
866346,-111.304285882832,4,1,0,100,0,0
866427,-110.344827586207,4,1,0,100,0,0
866509,-109.401769245412,4,1,0,100,0,0
866590,-108.474576271186,4,1,0,100,0,0
866672,-107.562967361093,4,1,0,100,0,0
866753,-106.666666666667,4,1,0,100,0,0
866835,-105.785179919434,4,1,0,100,0,0
866916,-104.918032786885,4,1,0,100,0,0
866998,-104.064986502771,4,1,0,100,0,0
867079,-103.225806451613,4,1,0,100,0,0
867161,-102.400052428827,4,1,0,100,0,0
867242,-101.587301587302,4,1,0,100,0,0
867324,-100.787350784327,4,1,0,100,0,0
867405,-100,4,1,0,100,0,0
868384,-133.333333333333,4,1,0,100,0,0
868710,-100,4,1,0,100,0,1
872949,-100,4,1,0,100,0,0
873112,-101.694949727102,4,1,0,100,0,0
873275,-103.448240190262,4,1,0,100,0,0
873438,-105.263157894737,4,1,0,100,0,0
873519,-106.194652674459,4,1,0,100,0,0
873601,-107.142895408177,4,1,0,100,0,0
873764,-109.090869421502,4,1,0,100,0,0
873927,-100,4,1,0,100,0,1
878492,-100,4,1,0,100,0,0
878818,-105.263157894737,4,1,0,100,0,0
878900,-106.666666666667,4,1,0,100,0,0
878981,-108.108108108108,4,1,0,100,0,0
879144,-100,4,1,0,100,0,1
883384,-100,4,1,0,100,0,0
883547,-101.694949727102,4,1,0,100,0,0
883710,-103.448240190262,4,1,0,100,0,0
883873,-105.263157894737,4,1,0,100,0,0
883954,-106.194652674459,4,1,0,100,0,0
884036,-107.142895408177,4,1,0,100,0,0
884199,-109.090869421502,4,1,0,100,0,0
884362,-100,4,1,0,100,0,1
888927,-100,4,1,0,100,0,0
889090,-102.564102564103,4,1,0,100,0,0
889172,-103.896103896104,4,1,0,100,0,0
889253,-105.263157894737,4,1,0,100,0,0
889335,-106.666666666667,4,1,0,100,0,0
889416,-108.108108108108,4,1,0,100,0,0
889579,-90.9090909090909,4,1,0,100,0,1
893818,-90.9090909090909,4,1,0,100,0,0
893981,-92.2979229275424,4,1,0,100,0,0
894144,-93.7297602299004,4,1,0,100,0,0
894307,-95.2068129995382,4,1,0,100,0,0
894389,-95.962935275879,4,1,0,100,0,0
894471,-96.7311637823046,4,1,0,100,0,0
894634,-98.3051214019097,4,1,0,100,0,0
894797,-90.9090909090909,4,1,0,100,0,1
899362,-90.9090909090909,4,1,0,100,0,0
899688,-100,4,1,0,100,0,0
899769,-102.564102564103,4,1,0,100,0,0
899851,-105.263157894737,4,1,0,100,0,0
900014,-90.9090909090909,4,1,0,100,0,1
904253,-90.9090909090909,4,1,0,100,0,0
904416,-92.3077207100679,4,1,0,100,0,0
904579,-93.7499707031342,4,1,0,100,0,0
904742,-95.2380952380952,4,1,0,100,0,0
904824,-95.9999692800098,4,1,0,100,0,0
904905,-96.774224765879,4,1,0,100,0,0
905068,-98.3606234883202,4,1,0,100,0,0
905231,-90.9090909090909,4,1,0,100,0,1
909797,-90.9090909090909,4,1,0,100,0,0
910286,-111.111111111111,4,1,0,100,0,0
910449,-100,4,1,0,100,0,0
910612,-100.240979314271,4,1,0,100,0,0
910693,-100.361905029537,4,1,0,100,0,0
910775,-100.483122854685,4,1,0,100,0,0
910938,-100.726439078635,4,1,0,100,0,0
911101,-100.970834574433,4,1,0,100,0,0
911182,-101.093528699947,4,1,0,100,0,0
911264,-101.21652137035,4,1,0,100,0,0
911346,-101.339813676619,4,1,0,100,0,0
911427,-101.463406715051,4,1,0,100,0,0
911590,-101.711499400411,4,1,0,100,0,0
911753,-101.960808304504,4,1,0,100,0,0
911916,-102.211342392665,4,1,0,100,0,0
911998,-102.337071706563,4,1,0,100,0,0
912079,-102.463005731781,4,1,0,100,0,0
912242,-102.716016919382,4,1,0,100,0,0
912405,-102.970280717579,4,1,0,100,0,0
912487,-103.097885256178,4,1,0,100,0,0
912568,-103.225806451613,4,1,0,100,0,0
912731,-103.482603539519,4,1,0,100,0,0
912894,-103.740681493285,4,1,0,100,0,0
913057,-104.000049920024,4,1,0,100,0,0
913221,-104.260609820307,4,1,0,100,0,0
913302,-104.391434474019,4,1,0,100,0,0
913384,-104.522587853848,4,1,0,100,0,0
913547,-104.785885760332,4,1,0,100,0,0
913710,-105.050513539435,4,1,0,100,0,0
913791,-105.183329283775,4,1,0,100,0,0
913873,-105.316481292107,4,1,0,100,0,0
914036,-105.583799221847,4,1,0,100,0,0
914199,-105.852365588666,4,1,0,100,0,0
914362,-106.122414327375,4,1,0,100,0,0
914525,-106.393844477734,4,1,0,100,0,0
914688,-106.666666666667,4,1,0,100,0,0
914851,-106.940891630378,4,1,0,100,0,0
915014,-107.216530215763,4,1,0,100,0,0
915177,-107.493593381834,4,1,0,100,0,0
915340,-107.771976053067,4,1,0,100,0,0
915503,-108.051921109131,4,1,0,100,0,0
915666,-108.333324305556,4,1,0,100,0,0
915992,-108.900550927887,4,1,0,100,0,0
916155,-109.186397558592,4,1,0,100,0,0
916318,-109.473628897535,4,1,0,100,0,0
916481,-109.762495911347,4,1,0,100,0,0
916644,-110.052891419616,4,1,0,100,0,0
916971,-110.638316704394,4,1,0,100,0,0
917134,-110.933371198591,4,1,0,100,0,0
917460,-111.528102293575,4,1,0,100,0,0
917786,-112.129370382372,4,1,0,100,0,0
917949,-112.432442156319,4,1,0,100,0,0
918275,-113.043527410229,4,1,0,100,0,0
918601,-113.66116243544,4,1,0,100,0,0
918927,-114.285714285714,4,1,0,100,0,0
919416,-120.000048000019,4,1,0,100,0,0
919579,-122.033964492998,4,1,0,100,0,0
919905,-126.315736288111,4,1,0,100,0,0
920394,-133.333333333333,4,1,0,100,0,0
920884,-100,4,1,0,100,0,1
931318,-100,4,1,0,100,0,0
931481,-100.391627739813,4,1,0,100,0,0
931644,-100.786334985557,4,1,0,100,0,0
931807,-101.184260585897,4,1,0,100,0,0
931971,-101.585237633267,4,1,0,100,0,0
932134,-101.989405340573,4,1,0,100,0,0
932297,-102.396801943082,4,1,0,100,0,0
932460,-102.807466289432,4,1,0,100,0,0
932623,-103.221437853985,4,1,0,100,0,0
932786,-103.638864159504,4,1,0,100,0,0
932949,-104.059572023792,4,1,0,100,0,0
933112,-104.483709422445,4,1,0,100,0,0
933275,-104.911318462504,4,1,0,100,0,0
933438,-105.342441943147,4,1,0,100,0,0
933601,-105.777123369975,4,1,0,100,0,0
933764,-106.215519786889,4,1,0,100,0,0
933927,-106.65745146286,4,1,0,100,0,0
934090,-107.103076000343,4,1,0,100,0,0
934253,-107.552439880875,4,1,0,100,0,0
934416,-108.005590369358,4,1,0,100,0,0
934579,-108.462575530626,4,1,0,100,0,0
934742,-108.923562889742,4,1,0,100,0,0
934905,-109.388365890957,4,1,0,100,0,0
935068,-109.857152744287,4,1,0,100,0,0
935231,-110.329974888898,4,1,0,100,0,0
935394,-110.806884653357,4,1,0,100,0,0
935557,-111.287935274937,4,1,0,100,0,0
935721,-111.773305852003,4,1,0,100,0,0
935884,-112.26280273068,4,1,0,100,0,0
936047,-112.756605845753,4,1,0,100,0,0
936210,-113.254772272967,4,1,0,100,0,0
936373,-113.757360101199,4,1,0,100,0,0
936536,-114.285714285714,4,1,0,100,0,0
936617,-113.777810141244,4,1,0,100,0,0
936699,-113.274400438598,4,1,0,100,0,0
936780,-112.775298600797,4,1,0,100,0,0
936862,-112.280701754386,4,1,0,100,0,0
936943,-111.790424255839,4,1,0,100,0,0
937025,-111.304285882832,4,1,0,100,0,0
937106,-110.822480118447,4,1,0,100,0,0
937188,-110.344827586207,4,1,0,100,0,0
937269,-109.871274814427,4,1,0,100,0,0
937351,-109.401769245412,4,1,0,100,0,0
937432,-108.936140545051,4,1,0,100,0,0
937514,-108.474576271186,4,1,0,100,0,0
937596,-108.016906806253,4,1,0,100,0,0
937677,-107.562967361093,4,1,0,100,0,0
937759,-107.112942028334,4,1,0,100,0,0
937840,-106.666666666667,4,1,0,100,0,0
937922,-106.22409459893,4,1,0,100,0,0
938003,-105.785179919434,4,1,0,100,0,0
938085,-105.349766492243,4,1,0,100,0,0
938166,-104.918032786885,4,1,0,100,0,0
938248,-104.489823213668,4,1,0,100,0,0
938329,-104.064986502771,4,1,0,100,0,0
938411,-103.643697841309,4,1,0,100,0,0
938492,-103.225806451613,4,1,0,100,0,0
938574,-102.811271405307,4,1,0,100,0,0
938655,-102.400052428827,4,1,0,100,0,0
938737,-101.99200586658,4,1,0,100,0,0
938818,-101.587301587302,4,1,0,100,0,0
938900,-101.185796347395,4,1,0,100,0,0
938981,-100.787350784327,4,1,0,100,0,0
939063,-100.392131666289,4,1,0,100,0,0
939144,-100,4,1,0,100,0,0
939199,-99.587211010362,4,1,0,100,0,0
939253,-99.1778159061381,4,1,0,100,0,0
939307,-98.7717730027113,4,1,0,100,0,0
939389,-98.1688563230069,4,1,0,100,0,0
939471,-97.5733507664387,4,1,0,100,0,0
939525,-97.1802187721085,4,1,0,100,0,0
939579,-96.7903356785632,4,1,0,100,0,0
939634,-96.4035684744906,4,1,0,100,0,0
939715,-95.8292246553262,4,1,0,100,0,0
939797,-95.261593097726,4,1,0,100,0,0
939851,-94.8869232535587,4,1,0,100,0,0
939905,-94.5151890634585,4,1,0,100,0,0
939960,-94.1463561594312,4,1,0,100,0,0
940041,-93.5984290439669,4,1,0,100,0,0
940123,-93.0569294377221,4,1,0,100,0,0
940177,-92.6993685319016,4,1,0,100,0,0
940231,-92.3444596094568,4,1,0,100,0,0
940286,-91.9923425574055,4,1,0,100,0,0
940367,-91.4692151209589,4,1,0,100,0,0
940449,-90.9519209955233,4,1,0,100,0,0
941753,-100,4,1,0,100,0,1
947297,-100,4,1,0,100,0,0
947623,-100,4,1,0,100,0,1
952188,-100,4,1,0,100,0,0
952840,-100,4,1,0,100,0,1
957731,-100,4,1,0,100,0,0
958057,-100,4,1,0,100,0,1
960666,-100,4,1,0,100,0,0
961155,-104.326960694818,4,1,0,100,0,0
961318,-105.853710172542,4,1,0,100,0,0
961644,-109.045189416946,4,1,0,100,0,0
962134,-114.210531124654,4,1,0,100,0,0
962623,-100,4,1,0,100,0,1
973057,-90.9090909090909,4,1,0,100,0,0
973221,-91.4931499078664,4,1,0,100,0,0
973384,-92.0847621818932,4,1,0,100,0,0
973547,-92.684075207566,4,1,0,100,0,0
973710,-93.2912403256984,4,1,0,100,0,0
973873,-93.9065010531614,4,1,0,100,0,0
974036,-94.5298416530623,4,1,0,100,0,0
974199,-95.1615128777317,4,1,0,100,0,0
974362,-95.801682852361,4,1,0,100,0,0
974525,-96.4505242568246,4,1,0,100,0,0
974688,-97.1082144809712,4,1,0,100,0,0
974851,-97.7749357863109,4,1,0,100,0,0
975014,-98.4508754744102,4,1,0,100,0,0
975177,-99.136226062319,4,1,0,100,0,0
975340,-99.831185465378,4,1,0,100,0,0
975503,-100.536058262656,4,1,0,100,0,0
975666,-101.250853038437,4,1,0,100,0,0
975829,-101.975884742776,4,1,0,100,0,0
975992,-102.711374873922,4,1,0,100,0,0
976155,-103.457551366674,4,1,0,100,0,0
976318,-104.214648827898,4,1,0,100,0,0
976481,-104.98290878245,4,1,0,100,0,0
976644,-105.76257993007,4,1,0,100,0,0
976807,-106.553918413796,4,1,0,100,0,0
976950,-107.357303356311,4,1,0,100,0,0
977134,-108.172777887753,4,1,0,100,0,0
977297,-109.000735754966,4,1,0,100,0,0
977460,-109.841465812393,4,1,0,100,0,0
977623,-110.695265895563,4,1,0,100,0,0
977786,-111.562443172881,4,1,0,100,0,0
977949,-112.443314514071,4,1,0,100,0,0
978112,-113.338206876229,4,1,0,100,0,0
978275,-114.285714285714,4,1,0,100,0,0
978356,-113.779104694981,4,1,0,100,0,0
978438,-113.276966714696,4,1,0,100,0,0
978519,-112.779241401711,4,1,0,100,0,0
978601,-112.2858708443,4,1,0,100,0,0
978682,-111.7966731546,4,1,0,100,0,0
978764,-111.311843468833,4,1,0,100,0,0
978846,-110.831200756312,4,1,0,100,0,0
978927,-110.354691012383,4,1,0,100,0,0
979009,-109.88226115717,4,1,0,100,0,0
979090,-109.413859015866,4,1,0,100,0,0
979172,-108.949433299523,4,1,0,100,0,0
979253,-108.48893358633,4,1,0,100,0,0
979335,-108.032310303366,4,1,0,100,0,0
979416,-107.579514708809,4,1,0,100,0,0
979498,-107.130384105279,4,1,0,100,0,0
979579,-106.685101852267,4,1,0,100,0,0
979661,-106.243505865704,4,1,0,100,0,0
979742,-105.805550559182,4,1,0,100,0,0
979824,-105.37119109487,4,1,0,100,0,0
979905,-104.940383368209,4,1,0,100,0,0
979987,-104.513083992985,4,1,0,100,0,0
980068,-104.089250286766,4,1,0,100,0,0
980150,-103.668840256684,4,1,0,100,0,0
980231,-103.25181258557,4,1,0,100,0,0
980313,-102.838020861721,4,1,0,100,0,0
980394,-102.427637434843,4,1,0,100,0,0
980476,-102.020516325833,4,1,0,100,0,0
980557,-101.616618788303,4,1,0,100,0,0
980639,-101.215906687031,4,1,0,100,0,0
980721,-100.818342485959,4,1,0,100,0,0
980802,-100.423889236467,4,1,0,100,0,0
980884,-100,4,1,0,100,0,0
980938,-99.5850291833928,4,1,0,100,0,0
980992,-99.173586503665,4,1,0,100,0,0
981047,-98.7654320987654,4,1,0,100,0,0
981128,-98.159509202454,4,1,0,100,0,0
981210,-97.5609756097561,4,1,0,100,0,0
981264,-97.1659604320776,4,1,0,100,0,0
981318,-96.774224765879,4,1,0,100,0,0
981373,-96.3855421686747,4,1,0,100,0,0
981454,-95.8083832335329,4,1,0,100,0,0
981536,-95.2380952380952,4,1,0,100,0,0
981590,-94.861630083279,4,1,0,100,0,0
981644,-94.4882187364469,4,1,0,100,0,0
981699,-94.1176470588235,4,1,0,100,0,0
981780,-93.5672514619883,4,1,0,100,0,0
981862,-93.0232558139535,4,1,0,100,0,0
981916,-92.6640640419879,4,1,0,100,0,0
981971,-92.3077207100679,4,1,0,100,0,0
982025,-91.9540229885058,4,1,0,100,0,0
982106,-91.4285714285714,4,1,0,100,0,0
982188,-90.9090909090909,4,1,0,100,0,0
982242,-90.2255910452905,4,1,0,100,0,0
982297,-89.5522120739665,4,1,0,100,0,0
982351,-88.8888888888889,4,1,0,100,0,0
982432,-87.9120879120879,4,1,0,100,0,0
982514,-86.9565217391304,4,1,0,100,0,0
982568,-86.3309600952403,4,1,0,100,0,0
982623,-85.7142612244968,4,1,0,100,0,0
982677,-85.1063829787234,4,1,0,100,0,0
982759,-84.2105263157895,4,1,0,100,0,0
982840,-83.3333333333333,4,1,0,100,0,0
982894,-82.7586435196258,4,1,0,100,0,0
982949,-82.1917583036279,4,1,0,100,0,0
983003,-81.6326530612245,4,1,0,100,0,0
983085,-80.8080808080808,4,1,0,100,0,0
983166,-80,4,1,0,100,0,0
983492,-88.8888888888889,4,1,0,100,0,0
983818,-100,4,1,0,100,0,1
993601,-100,4,1,0,100,0,0
994090,-100,4,1,0,100,0,1
1003873,-100,4,1,0,100,0,0
1004334,326.086956521739,4,1,0,100,1,0
1004334,-133.333333333333,4,1,0,100,0,0
1035964,-131.958849952231,4,1,0,100,0,0
1036290,-130.612244897959,4,1,0,100,0,0
1036616,-129.292845709676,4,1,0,100,0,0
1036942,-128,4,1,0,100,0,0
1037268,-126.73275357323,4,1,0,100,0,0
1037594,-125.490196078431,4,1,0,100,0,0
1037920,-124.271767442785,4,1,0,100,0,0
1038084,-123.671459347955,4,1,0,100,0,0
1038247,-123.076923076923,4,1,0,100,0,0
1038573,-121.904836208662,4,1,0,100,0,0
1038899,-120.754716981132,4,1,0,100,0,0
1039225,-119.626096672241,4,1,0,100,0,0
1039551,-118.518518518519,4,1,0,100,0,0
1039877,-117.431261611016,4,1,0,100,0,0
1040203,-116.363636363636,4,1,0,100,0,0
1040366,-115.837137617995,4,1,0,100,0,0
1040529,-115.315248827244,4,1,0,100,0,0
1040611,-115.056130133085,4,1,0,100,0,0
1040855,-114.285714285714,4,1,0,100,0,0
1041018,-113.276966714696,4,1,0,100,0,0
1041181,-112.2858708443,4,1,0,100,0,0
1041344,-111.311843468833,4,1,0,100,0,0
1041507,-110.354691012383,4,1,0,100,0,0
1041670,-109.413859015866,4,1,0,100,0,0
1041834,-108.48893358633,4,1,0,100,0,0
1041997,-107.579514708809,4,1,0,100,0,0
1042160,-106.685101852267,4,1,0,100,0,0
1042323,-105.805550559182,4,1,0,100,0,0
1042486,-104.940383368209,4,1,0,100,0,0
1042649,-104.089250286766,4,1,0,100,0,0
1042812,-103.25181258557,4,1,0,100,0,0
1042975,-102.427637434843,4,1,0,100,0,0
1043138,-101.616618788303,4,1,0,100,0,0
1043301,-100.818342485959,4,1,0,100,0,0
1043464,-100,4,1,0,100,0,0
1043627,-97.5609756097561,4,1,0,100,0,0
1043790,-95.2380952380952,4,1,0,100,0,0
1043953,-93.0232558139535,4,1,0,100,0,0
1044116,-90.9090909090909,4,1,0,100,0,0
1044198,-89.3854748603352,4,1,0,100,0,0
1044279,-87.9120879120879,4,1,0,100,0,0
1044361,-86.4864864864865,4,1,0,100,0,0
1044442,-85.1063829787234,4,1,0,100,0,0
1044524,-83.7696335078534,4,1,0,100,0,0
1044605,-82.4742268041237,4,1,0,100,0,0
1044687,-81.2182741116751,4,1,0,100,0,0
1044768,324.324324324324,5,1,0,100,1,0
1044768,-80.4347826086956,4,1,0,100,0,0
1045740,-66.6666666666667,4,1,0,100,0,0
1046103,326.086956521739,4,1,0,100,1,1
1050994,-100,4,1,0,100,0,0
1051320,-100,4,1,0,100,0,1
1055559,-100,4,1,0,100,0,0
1056537,-100,4,1,0,100,0,1
1061429,-100,4,1,0,100,0,0
1061755,-100,4,1,0,100,0,1
1065668,-100,4,1,0,100,0,0
1065994,-106.666666666667,4,1,0,100,0,0
1066320,-114.285714285714,4,1,0,100,0,0
1066972,-100,4,1,0,100,0,1
1071863,-100,4,1,0,100,0,0
1072189,-100,4,1,0,100,0,1
1076103,-100,4,1,0,100,0,0
1077407,-100,4,1,0,100,0,1
1082298,-100,4,1,0,100,0,0
1082624,-100,4,1,0,100,0,1
1087189,-100,4,1,0,100,0,0
1089146,-133.333333333333,4,1,0,100,0,0
1098276,-114.285714285714,4,1,0,100,0,0
1120450,-133.333333333333,4,1,0,100,0,0
1140016,-114.285714285714,4,1,0,100,0,0
1150776,-113.275683562112,4,1,0,100,0,0
1151103,-112.283223202205,4,1,0,100,0,0
1151429,-111.308126495007,4,1,0,100,0,0
1151755,-110.349819964269,4,1,0,100,0,0
1152081,-109.407753946338,4,1,0,100,0,0
1152407,-108.481754453718,4,1,0,100,0,0
1152733,-107.571298256484,4,1,0,100,0,0
1152896,-107.121662356805,4,1,0,100,0,0
1153059,-106.675883462998,4,1,0,100,0,0
1153385,-105.795364258729,4,1,0,100,0,0
1153711,-104.929261938064,4,1,0,100,0,0
1154037,-104.077116980598,4,1,0,100,0,0
1154363,-103.238807880838,4,1,0,100,0,0
1154689,-102.413895517344,4,1,0,100,0,0
1155016,-101.601958072936,4,1,0,100,0,0
1155179,-101.200849277527,4,1,0,100,0,0
1155342,-100.802895059146,4,1,0,100,0,0
1155423,-100.605038702758,4,1,0,100,0,0
1155668,-100,4,1,0,100,0,0
1155831,-99.3788819875776,4,1,0,100,0,0
1155994,-98.7654320987654,4,1,0,100,0,0
1156157,-98.159509202454,4,1,0,100,0,0
1156320,-97.5609756097561,4,1,0,100,0,0
1156483,-96.969696969697,4,1,0,100,0,0
1156646,-96.3855421686747,4,1,0,100,0,0
1156809,-95.8083832335329,4,1,0,100,0,0
1156972,-95.2380952380952,4,1,0,100,0,0
1157135,-94.6745562130178,4,1,0,100,0,0
1157298,-94.1176470588235,4,1,0,100,0,0
1157461,-93.5672514619883,4,1,0,100,0,0
1157624,-93.0232558139535,4,1,0,100,0,0
1157787,-92.485549132948,4,1,0,100,0,0
1157950,-91.9540229885058,4,1,0,100,0,0
1158113,-91.4285714285714,4,1,0,100,0,0
1158276,-80,4,1,0,100,0,0
1159581,-133.333333333333,4,1,0,100,0,0
1160559,-80,4,1,0,100,0,0
1160885,-100,4,1,0,100,0,1
1170016,-100,4,1,0,100,0,0
1170260,-104.918032786885,4,1,0,100,0,0
1170505,-110.344827586207,4,1,0,100,0,0
1170668,-114.285714285714,4,1,0,100,0,0
1170831,-110.344827586207,4,1,0,100,0,0
1170912,-108.474576271186,4,1,0,100,0,0
1170994,-106.666666666667,4,1,0,100,0,0
1171075,-104.918032786885,4,1,0,100,0,0
1171157,-103.225806451613,4,1,0,100,0,0
1171320,-100,4,1,0,100,0,1
1180450,-100,4,1,0,100,0,0
1180695,-104.864892073053,4,1,0,100,0,0
1180939,-110.227332851272,4,1,0,100,0,0
1181266,-110.344827586207,4,1,0,100,0,0
1181347,-108.474576271186,4,1,0,100,0,0
1181429,-106.666666666667,4,1,0,100,0,0
1181510,-104.918032786885,4,1,0,100,0,0
1181592,-103.225806451613,4,1,0,100,0,0
1181755,-86.9565217391304,4,1,0,100,0,1
1182407,-100,4,1,0,100,0,1
1184363,-86.9565217391304,4,1,0,100,0,1
1185016,-100,4,1,0,100,0,1
1186972,-86.9565217391304,4,1,0,100,0,1
1187624,-100,4,1,0,100,0,1
1190885,-100,4,1,0,100,0,0
1191130,-104.918032786885,4,1,0,100,0,0
1191374,-110.344827586207,4,1,0,100,0,0
1191537,-114.285714285714,4,1,0,100,0,0
1191700,-110.344827586207,4,1,0,100,0,0
1191782,-108.474576271186,4,1,0,100,0,0
1191863,-106.666666666667,4,1,0,100,0,0
1191945,-104.918032786885,4,1,0,100,0,0
1192026,-103.225806451613,4,1,0,100,0,0
1192189,-86.9565217391304,4,1,0,100,0,1
1192842,-100,4,1,0,100,0,1
1194798,-86.9565217391304,4,1,0,100,0,1
1195450,-100,4,1,0,100,0,1
1197407,-86.9565217391304,4,1,0,100,0,1
1198059,-100,4,1,0,100,0,1
1201320,-100,4,1,0,100,0,0
1201564,-104.918032786885,4,1,0,100,0,0
1201809,-110.344827586207,4,1,0,100,0,0
1201972,-114.285714285714,4,1,0,100,0,0
1202624,-100,4,1,0,100,0,0
1203929,-133.333333333333,4,1,0,100,0,0
1255104,-133.333333333333,4,1,0,30,0,0
1255430,-133.333333333333,4,1,0,40,0,0
1256082,-120.000048000019,4,1,0,50,0,0
1256734,-120.000048000019,4,1,0,60,0,0
1257386,-109.090869421502,4,1,0,70,0,0
1258039,-109.090869421502,4,1,0,80,0,0
1258691,-100,4,1,0,90,0,0
1259343,-100,4,1,0,100,0,0
1259689,-133.333333333333,4,1,0,100,0,0
1260016,-114.285714285714,4,1,0,100,0,0
1262787,-111.645770299992,4,1,0,100,0,0
1262950,-109.1251545485,4,1,0,100,0,0
1263113,-106.715727443763,4,1,0,100,0,0
1263276,-104.410399693451,4,1,0,100,0,0
1263439,-102.202671986656,4,1,0,100,0,0
1263603,-100,4,1,0,100,0,0
1263684,-97.5609756097561,4,1,0,100,0,0
1263766,-95.2380952380952,4,1,0,100,0,0
1263847,-93.0232558139535,4,1,0,100,0,0
1263929,-90.9090909090909,4,1,0,100,0,0
1265233,-100,4,1,0,100,0,1
1274363,-100,4,1,0,100,0,0
1275668,-100,4,1,0,100,0,1
1282189,-133.333333333333,4,1,0,100,0,1
1282842,-80,4,1,0,100,0,0
1283494,-100,4,1,0,100,0,1
1284798,-100,4,1,0,100,0,0
1285450,-133.333333333333,4,1,0,100,0,0
1286082,-100,4,1,0,100,0,0
1286103,-100,4,1,0,100,0,1
1295885,-100,4,1,0,100,0,0
1296537,-100,4,1,0,100,0,1
1305668,-100,4,1,0,100,0,0
1306646,-80,4,1,0,100,0,0
1306972,-100,4,1,0,100,0,0
1308276,-133.333333333333,4,1,0,100,0,0
1317407,-114.285714285714,4,1,0,100,0,0
1327842,-133.333333333333,4,1,0,100,0,0
1338582,-133.333333333333,4,1,0,30,0,0
1338908,-133.333333333333,4,1,0,40,0,0
1339560,-120.000048000019,4,1,0,50,0,0
1340213,-120.000048000019,4,1,0,60,0,0
1340865,-109.090869421502,4,1,0,70,0,0
1341517,-109.090869421502,4,1,0,80,0,0
1342169,-100,4,1,0,90,0,0
1342821,-100,4,1,0,100,0,0
1343168,-133.333333333333,4,1,0,100,0,0
1343494,-114.285714285714,4,1,0,100,0,0
1346266,-111.645770299992,4,1,0,100,0,0
1346429,-109.1251545485,4,1,0,100,0,0
1346592,-106.715727443763,4,1,0,100,0,0
1346755,-104.410399693451,4,1,0,100,0,0
1346918,-102.202671986656,4,1,0,100,0,0
1347081,-100,4,1,0,100,0,0
1347162,-97.5609756097561,4,1,0,100,0,0
1347244,-95.2380952380952,4,1,0,100,0,0
1347325,-93.0232558139535,4,1,0,100,0,0
1347407,-90.9090909090909,4,1,0,100,0,0
1348711,-80,4,1,0,100,0,1
1349689,-100,4,1,0,100,0,1
1353929,-80,4,1,0,100,0,1
1354907,-100,4,1,0,100,0,1
1358820,-100,4,1,0,100,0,0
1359146,-80,4,1,0,100,0,1
1360124,-100,4,1,0,100,0,1
1364363,-80,4,1,0,100,0,1
1365342,-100,4,1,0,100,0,1
1369255,-100,4,1,0,100,0,0
1369581,-80,4,1,0,100,0,1
1370559,-100,4,1,0,100,0,1
1374798,-80,4,1,0,100,0,1
1375776,-100,4,1,0,100,0,1
1379689,-100,4,1,0,100,0,0
1380016,-80,4,1,0,100,0,1
1380994,-100,4,1,0,100,0,1
1385233,-80,4,1,0,100,0,1
1386211,-100,4,1,0,100,0,1
1390124,-100,4,1,0,100,0,0
1390450,-93.0232558139535,4,1,0,100,0,0
1391755,-133.333333333333,4,1,0,100,0,0

[HitObjects]
256,192,10449,5,4,0:0:0:0:
256,192,11101,1,8,0:0:0:0:
256,192,11917,1,8,0:0:0:0:
256,192,12080,1,0,0:0:0:0:
256,192,12406,1,8,0:0:0:0:
256,192,13058,1,0,0:0:0:0:
256,192,13710,1,8,0:0:0:0:
256,192,14036,1,0,0:0:0:0:
256,192,14525,1,8,0:0:0:0:
256,192,14688,1,0,0:0:0:0:
256,192,15014,1,8,0:0:0:0:
256,192,15667,1,0,0:0:0:0:
256,192,16319,1,8,0:0:0:0:
256,192,17134,1,8,0:0:0:0:
256,192,17297,1,0,0:0:0:0:
256,192,17623,1,8,0:0:0:0:
256,192,18275,1,0,0:0:0:0:
256,192,18928,1,8,0:0:0:0:
256,192,19254,1,0,0:0:0:0:
256,192,19743,1,8,0:0:0:0:
256,192,19906,1,0,0:0:0:0:
256,192,20232,1,8,0:0:0:0:
256,192,20558,1,8,0:0:0:0:
256,192,20599,1,8,0:0:0:0:
256,192,20721,1,8,0:0:0:0:
256,192,20762,1,8,0:0:0:0:
256,192,20884,1,4,0:0:0:0:
256,192,22188,1,0,0:0:0:0:
256,192,23493,1,8,0:0:0:0:
256,192,24145,1,8,0:0:0:0:
256,192,24634,1,8,0:0:0:0:
256,192,26101,1,0,0:0:0:0:
256,192,27406,1,0,0:0:0:0:
256,192,28710,1,8,0:0:0:0:
256,192,29362,1,8,0:0:0:0:
256,192,29851,1,8,0:0:0:0:
256,192,31319,1,0,0:0:0:0:
256,192,32623,1,0,0:0:0:0:
256,192,33928,1,8,0:0:0:0:
256,192,34580,1,8,0:0:0:0:
256,192,35069,1,8,0:0:0:0:
256,192,36536,1,0,0:0:0:0:
256,192,37841,1,0,0:0:0:0:
256,192,39145,1,8,0:0:0:0:
256,192,39797,1,8,0:0:0:0:
256,192,40286,1,8,0:0:0:0:
256,192,41754,1,4,0:0:0:0:
256,192,42406,1,8,0:0:0:0:
256,192,43058,1,8,0:0:0:0:
256,192,43384,1,8,0:0:0:0:
256,192,43710,1,8,0:0:0:0:
256,192,44688,1,8,0:0:0:0:
256,192,45014,1,8,0:0:0:0:
256,192,45667,1,8,0:0:0:0:
256,192,45993,1,8,0:0:0:0:
256,192,46319,1,8,0:0:0:0:
256,192,47297,1,8,0:0:0:0:
256,192,47623,1,8,0:0:0:0:
256,192,48275,1,8,0:0:0:0:
256,192,48601,1,8,0:0:0:0:
256,192,48928,1,8,0:0:0:0:
256,192,49906,1,8,0:0:0:0:
256,192,50232,1,8,0:0:0:0:
256,192,50558,1,8,0:0:0:0:
256,192,50721,1,8,0:0:0:0:
256,192,50884,1,8,0:0:0:0:
256,192,51210,1,8,0:0:0:0:
256,192,51536,1,8,0:0:0:0:
256,192,52188,1,4,0:0:0:0:
256,192,52841,1,8,0:0:0:0:
256,192,53330,1,8,0:0:0:0:
256,192,54471,1,8,0:0:0:0:
256,192,54797,1,8,0:0:0:0:
256,192,54960,1,8,0:0:0:0:
256,192,55123,1,8,0:0:0:0:
256,192,55449,1,8,0:0:0:0:
256,192,55775,1,8,0:0:0:0:
256,192,56101,1,8,0:0:0:0:
256,192,56428,1,8,0:0:0:0:
256,192,56754,1,8,0:0:0:0:
256,192,56917,1,8,0:0:0:0:
256,192,57080,1,8,0:0:0:0:
256,192,57732,1,8,0:0:0:0:
256,192,58058,1,8,0:0:0:0:
256,192,58384,1,8,0:0:0:0:
256,192,58547,1,8,0:0:0:0:
256,192,59688,1,8,0:0:0:0:
256,192,60014,8,0,62297,0:0:0:0:
256,192,62623,5,12,0:0:0:0:
256,192,62786,1,0,0:0:0:0:
256,192,62868,1,0,0:0:0:0:
256,192,62949,1,8,0:0:0:0:
256,192,63112,1,0,0:0:0:0:
256,192,63275,1,8,0:0:0:0:
256,192,63357,1,0,0:0:0:0:
256,192,63438,1,0,0:0:0:0:
256,192,63520,1,0,0:0:0:0:
256,192,63601,1,8,0:0:0:0:
256,192,63764,1,0,0:0:0:0:
256,192,63928,1,8,0:0:0:0:
256,192,64091,1,0,0:0:0:0:
256,192,64172,1,0,0:0:0:0:
256,192,64254,1,8,0:0:0:0:
256,192,64417,1,0,0:0:0:0:
256,192,64580,1,8,0:0:0:0:
256,192,64661,1,8,0:0:0:0:
256,192,64743,1,0,0:0:0:0:
256,192,64824,1,0,0:0:0:0:
256,192,64906,1,8,0:0:0:0:
256,192,65069,1,0,0:0:0:0:
256,192,65232,1,8,0:0:0:0:
256,192,65395,1,0,0:0:0:0:
256,192,65476,1,0,0:0:0:0:
256,192,65558,1,8,0:0:0:0:
256,192,65721,1,0,0:0:0:0:
256,192,65884,1,8,0:0:0:0:
256,192,65966,1,0,0:0:0:0:
256,192,66047,1,0,0:0:0:0:
256,192,66129,1,0,0:0:0:0:
256,192,66210,1,8,0:0:0:0:
256,192,66373,1,0,0:0:0:0:
256,192,66536,1,8,0:0:0:0:
256,192,66699,1,0,0:0:0:0:
256,192,66781,1,0,0:0:0:0:
256,192,66862,1,8,0:0:0:0:
256,192,67025,1,0,0:0:0:0:
256,192,67188,1,8,0:0:0:0:
256,192,67270,1,8,0:0:0:0:
256,192,67351,1,0,0:0:0:0:
256,192,67433,1,0,0:0:0:0:
256,192,67514,1,8,0:0:0:0:
256,192,67678,1,0,0:0:0:0:
256,192,67841,1,8,0:0:0:0:
256,192,68004,1,0,0:0:0:0:
256,192,68085,1,0,0:0:0:0:
256,192,68167,1,8,0:0:0:0:
256,192,68330,1,0,0:0:0:0:
256,192,68493,1,8,0:0:0:0:
256,192,68574,1,0,0:0:0:0:
256,192,68656,1,0,0:0:0:0:
256,192,68737,1,0,0:0:0:0:
256,192,68819,1,8,0:0:0:0:
256,192,68982,1,0,0:0:0:0:
256,192,69145,1,8,0:0:0:0:
256,192,69308,1,0,0:0:0:0:
256,192,69389,1,0,0:0:0:0:
256,192,69471,1,8,0:0:0:0:
256,192,69634,1,0,0:0:0:0:
256,192,69797,1,8,0:0:0:0:
256,192,69879,1,8,0:0:0:0:
256,192,69960,1,0,0:0:0:0:
256,192,70042,1,0,0:0:0:0:
256,192,70123,1,8,0:0:0:0:
256,192,70286,1,0,0:0:0:0:
256,192,70449,1,8,0:0:0:0:
256,192,70612,1,0,0:0:0:0:
256,192,70694,1,8,0:0:0:0:
256,192,70775,1,0,0:0:0:0:
256,192,70938,1,8,0:0:0:0:
256,192,71101,1,0,0:0:0:0:
256,192,71183,1,0,0:0:0:0:
256,192,71264,1,8,0:0:0:0:
256,192,71346,1,8,0:0:0:0:
256,192,71428,1,0,0:0:0:0:
256,192,71591,1,8,0:0:0:0:
256,192,71754,1,8,0:0:0:0:
256,192,71917,1,0,0:0:0:0:
256,192,71998,1,8,0:0:0:0:
256,192,72080,1,0,0:0:0:0:
256,192,72243,1,8,0:0:0:0:
256,192,72406,1,0,0:0:0:0:
256,192,72487,1,8,0:0:0:0:
256,192,72569,1,8,0:0:0:0:
256,192,72650,1,8,0:0:0:0:
256,192,72732,1,0,0:0:0:0:
256,192,72895,1,8,0:0:0:0:
256,192,73058,1,0,0:0:0:0:
256,192,73221,1,8,0:0:0:0:
256,192,73303,1,8,0:0:0:0:
256,192,73384,1,0,0:0:0:0:
256,192,73547,1,8,0:0:0:0:
256,192,73601,1,8,0:0:0:0:
256,192,73656,1,8,0:0:0:0:
256,192,73710,1,0,0:0:0:0:
256,192,73792,1,0,0:0:0:0:
256,192,73873,1,8,0:0:0:0:
256,192,74036,1,0,0:0:0:0:
256,192,74199,1,8,0:0:0:0:
256,192,74254,1,8,0:0:0:0:
256,192,74308,1,8,0:0:0:0:
256,192,74362,1,0,0:0:0:0:
256,192,74525,1,8,0:0:0:0:
256,192,74607,1,8,0:0:0:0:
256,192,74688,1,0,0:0:0:0:
256,192,74851,1,8,0:0:0:0:
256,192,74906,1,8,0:0:0:0:
256,192,74960,1,8,0:0:0:0:
256,192,75014,1,0,0:0:0:0:
256,192,75096,1,0,0:0:0:0:
256,192,75178,1,8,0:0:0:0:
256,192,75259,1,8,0:0:0:0:
256,192,75341,1,0,0:0:0:0:
256,192,75504,1,8,0:0:0:0:
256,192,75558,1,8,0:0:0:0:
256,192,75612,1,8,0:0:0:0:
256,192,75667,1,0,0:0:0:0:
256,192,75830,1,8,0:0:0:0:
256,192,75911,1,8,0:0:0:0:
256,192,75993,1,0,0:0:0:0:
256,192,76156,1,8,0:0:0:0:
256,192,76210,1,8,0:0:0:0:
256,192,76264,1,8,0:0:0:0:
256,192,76319,1,0,0:0:0:0:
256,192,76400,1,0,0:0:0:0:
256,192,76482,1,8,0:0:0:0:
256,192,76645,1,0,0:0:0:0:
256,192,76808,1,8,0:0:0:0:
256,192,76862,1,8,0:0:0:0:
256,192,76917,1,8,0:0:0:0:
256,192,76971,1,0,0:0:0:0:
256,192,77134,1,8,0:0:0:0:
256,192,77216,1,8,0:0:0:0:
256,192,77297,1,0,0:0:0:0:
256,192,77460,1,8,0:0:0:0:
256,192,77514,1,8,0:0:0:0:
256,192,77569,1,8,0:0:0:0:
256,192,77623,1,0,0:0:0:0:
256,192,77705,1,0,0:0:0:0:
256,192,77786,1,8,0:0:0:0:
256,192,77868,1,8,0:0:0:0:
256,192,77949,1,0,0:0:0:0:
256,192,78031,1,0,0:0:0:0:
256,192,78112,1,8,0:0:0:0:
256,192,78167,1,8,0:0:0:0:
256,192,78221,1,8,0:0:0:0:
256,192,78275,1,0,0:0:0:0:
256,192,78357,1,0,0:0:0:0:
256,192,78438,1,8,0:0:0:0:
256,192,78520,1,8,0:0:0:0:
256,192,78601,1,0,0:0:0:0:
256,192,78683,1,0,0:0:0:0:
256,192,78764,1,8,0:0:0:0:
256,192,78846,1,8,0:0:0:0:
256,192,78928,1,0,0:0:0:0:
256,192,79009,1,0,0:0:0:0:
256,192,79091,1,8,0:0:0:0:
256,192,79172,1,8,0:0:0:0:
256,192,79254,1,0,0:0:0:0:
256,192,79335,1,0,0:0:0:0:
256,192,79417,1,8,0:0:0:0:
256,192,79498,1,8,0:0:0:0:
256,192,79580,1,0,0:0:0:0:
256,192,79661,1,8,0:0:0:0:
256,192,79743,1,8,0:0:0:0:
256,192,79824,1,8,0:0:0:0:
256,192,79906,1,0,0:0:0:0:
256,192,79987,1,8,0:0:0:0:
256,192,80069,1,8,0:0:0:0:
256,192,80150,1,8,0:0:0:0:
256,192,80232,1,0,0:0:0:0:
256,192,80313,1,0,0:0:0:0:
256,192,80395,1,0,0:0:0:0:
256,192,80476,1,0,0:0:0:0:
256,192,80558,1,0,0:0:0:0:
256,192,80639,1,0,0:0:0:0:
256,192,80721,1,0,0:0:0:0:
256,192,80803,1,0,0:0:0:0:
256,192,83493,1,4,0:0:0:0:
256,192,83656,1,8,0:0:0:0:
256,192,83819,1,0,0:0:0:0:
256,192,83982,1,0,0:0:0:0:
256,192,84145,1,8,0:0:0:0:
256,192,84308,1,0,0:0:0:0:
256,192,84471,1,8,0:0:0:0:
256,192,84634,1,4,0:0:0:0:
256,192,84797,1,0,0:0:0:0:
256,192,84960,1,8,0:0:0:0:
256,192,85123,1,0,0:0:0:0:
256,192,85286,1,0,0:0:0:0:
256,192,85449,1,8,0:0:0:0:
256,192,85612,1,0,0:0:0:0:
256,192,85694,1,0,0:0:0:0:
256,192,85775,1,12,0:0:0:0:
256,192,85938,1,8,0:0:0:0:
256,192,85993,1,8,0:0:0:0:
256,192,86047,1,8,0:0:0:0:
256,192,86101,1,4,0:0:0:0:
256,192,86264,1,8,0:0:0:0:
256,192,86428,1,0,0:0:0:0:
256,192,86591,1,0,0:0:0:0:
256,192,86754,1,8,0:0:0:0:
256,192,86917,1,0,0:0:0:0:
256,192,87080,1,8,0:0:0:0:
256,192,87243,1,4,0:0:0:0:
256,192,87406,1,0,0:0:0:0:
256,192,87569,1,8,0:0:0:0:
256,192,87732,1,0,0:0:0:0:
256,192,87895,1,0,0:0:0:0:
256,192,88058,1,8,0:0:0:0:
256,192,88221,1,0,0:0:0:0:
256,192,88303,1,0,0:0:0:0:
256,192,88384,1,8,0:0:0:0:
256,192,88425,1,8,0:0:0:0:
256,192,88547,1,8,0:0:0:0:
256,192,88588,1,8,0:0:0:0:
256,192,88710,1,4,0:0:0:0:
256,192,88873,1,8,0:0:0:0:
256,192,89036,1,0,0:0:0:0:
256,192,89199,1,0,0:0:0:0:
256,192,89362,1,8,0:0:0:0:
256,192,89525,1,0,0:0:0:0:
256,192,89688,1,8,0:0:0:0:
256,192,89851,1,4,0:0:0:0:
256,192,90014,1,0,0:0:0:0:
256,192,90178,1,8,0:0:0:0:
256,192,90341,1,0,0:0:0:0:
256,192,90504,1,0,0:0:0:0:
256,192,90667,1,8,0:0:0:0:
256,192,90830,1,0,0:0:0:0:
256,192,90911,1,0,0:0:0:0:
256,192,90993,1,12,0:0:0:0:
256,192,91156,1,8,0:0:0:0:
256,192,91210,1,8,0:0:0:0:
256,192,91264,1,8,0:0:0:0:
256,192,91319,1,4,0:0:0:0:
256,192,91482,1,8,0:0:0:0:
256,192,91563,1,8,0:0:0:0:
256,192,91645,1,0,0:0:0:0:
256,192,91808,1,8,0:0:0:0:
256,192,91971,1,0,0:0:0:0:
256,192,92053,1,8,0:0:0:0:
256,192,92134,1,0,0:0:0:0:
256,192,92297,1,8,0:0:0:0:
256,192,92542,1,8,0:0:0:0:
256,192,92623,1,0,0:0:0:0:
256,192,92786,1,0,0:0:0:0:
256,192,92949,1,8,0:0:0:0:
256,192,93031,1,8,0:0:0:0:
256,192,93112,1,0,0:0:0:0:
256,192,93194,1,8,0:0:0:0:
256,192,93275,1,0,0:0:0:0:
256,192,93438,1,0,0:0:0:0:
256,192,93493,1,0,0:0:0:0:
256,192,93547,1,0,0:0:0:0:
256,192,93601,1,8,0:0:0:0:
256,192,93764,1,8,0:0:0:0:
256,192,93928,1,4,0:0:0:0:
256,192,94091,1,8,0:0:0:0:
256,192,94254,1,0,0:0:0:0:
256,192,94417,1,0,0:0:0:0:
256,192,94580,1,8,0:0:0:0:
256,192,94743,1,0,0:0:0:0:
256,192,94906,1,8,0:0:0:0:
256,192,95069,1,4,0:0:0:0:
256,192,95232,1,0,0:0:0:0:
256,192,95395,1,8,0:0:0:0:
256,192,95558,1,0,0:0:0:0:
256,192,95721,1,0,0:0:0:0:
256,192,95884,1,8,0:0:0:0:
256,192,96047,1,0,0:0:0:0:
256,192,96129,1,0,0:0:0:0:
256,192,96210,1,12,0:0:0:0:
256,192,96373,1,8,0:0:0:0:
256,192,96428,1,8,0:0:0:0:
256,192,96482,1,8,0:0:0:0:
256,192,96536,1,4,0:0:0:0:
256,192,96699,1,8,0:0:0:0:
256,192,96862,1,0,0:0:0:0:
256,192,97025,1,0,0:0:0:0:
256,192,97188,1,8,0:0:0:0:
256,192,97351,1,0,0:0:0:0:
256,192,97514,1,8,0:0:0:0:
256,192,97678,1,4,0:0:0:0:
256,192,97841,1,0,0:0:0:0:
256,192,98004,1,8,0:0:0:0:
256,192,98167,1,0,0:0:0:0:
256,192,98330,1,0,0:0:0:0:
256,192,98493,1,8,0:0:0:0:
256,192,98656,1,0,0:0:0:0:
256,192,98737,1,0,0:0:0:0:
256,192,98819,1,8,0:0:0:0:
256,192,98860,1,8,0:0:0:0:
256,192,98982,1,8,0:0:0:0:
256,192,99023,1,8,0:0:0:0:
256,192,99145,1,4,0:0:0:0:
256,192,99308,1,8,0:0:0:0:
256,192,99471,1,0,0:0:0:0:
256,192,99634,1,0,0:0:0:0:
256,192,99797,1,8,0:0:0:0:
256,192,99960,1,0,0:0:0:0:
256,192,100123,1,8,0:0:0:0:
256,192,100286,1,4,0:0:0:0:
256,192,100449,1,0,0:0:0:0:
256,192,100612,1,8,0:0:0:0:
256,192,100775,1,0,0:0:0:0:
256,192,100938,1,0,0:0:0:0:
256,192,101101,1,8,0:0:0:0:
256,192,101264,1,0,0:0:0:0:
256,192,101346,1,0,0:0:0:0:
256,192,101428,1,12,0:0:0:0:
256,192,101591,1,8,0:0:0:0:
256,192,101645,1,8,0:0:0:0:
256,192,101699,1,8,0:0:0:0:
256,192,101754,1,4,0:0:0:0:
256,192,102080,1,0,0:0:0:0:
256,192,102569,1,0,0:0:0:0:
256,192,103058,1,0,0:0:0:0:
256,192,103221,1,0,0:0:0:0:
256,192,103384,1,8,0:0:0:0:
256,192,103466,1,8,0:0:0:0:
256,192,103547,1,0,0:0:0:0:
256,192,103710,1,8,0:0:0:0:
256,192,103873,1,0,0:0:0:0:
256,192,103955,1,8,0:0:0:0:
256,192,104036,1,0,0:0:0:0:
256,192,104118,1,0,0:0:0:0:
256,192,104199,1,8,0:0:0:0:
256,192,104362,1,4,0:0:0:0:
256,192,104525,1,8,0:0:0:0:
256,192,104851,1,0,0:0:0:0:
256,192,105014,1,8,0:0:0:0:
256,192,105341,1,8,0:0:0:0:
256,192,105504,1,4,0:0:0:0:
256,192,105830,1,8,0:0:0:0:
256,192,105993,1,4,0:0:0:0:
256,192,106156,1,0,0:0:0:0:
256,192,106319,1,8,0:0:0:0:
256,192,106645,1,12,0:0:0:0:
256,192,106971,1,4,0:0:0:0:
256,192,107134,1,8,0:0:0:0:
256,192,107460,1,0,0:0:0:0:
256,192,107623,1,8,0:0:0:0:
256,192,107949,1,8,0:0:0:0:
256,192,108112,1,4,0:0:0:0:
256,192,108438,1,8,0:0:0:0:
256,192,108601,1,4,0:0:0:0:
256,192,108764,1,0,0:0:0:0:
256,192,108928,1,8,0:0:0:0:
256,192,109254,1,8,0:0:0:0:
256,192,109294,1,8,0:0:0:0:
256,192,109417,1,8,0:0:0:0:
256,192,109457,1,8,0:0:0:0:
256,192,109580,1,4,0:0:0:0:
256,192,109743,1,8,0:0:0:0:
256,192,110069,1,0,0:0:0:0:
256,192,110232,1,8,0:0:0:0:
256,192,110558,1,8,0:0:0:0:
256,192,110721,1,4,0:0:0:0:
256,192,111047,1,8,0:0:0:0:
256,192,111210,1,4,0:0:0:0:
256,192,111373,1,0,0:0:0:0:
256,192,111536,1,8,0:0:0:0:
256,192,111862,1,12,0:0:0:0:
256,192,112188,1,4,0:0:0:0:
256,192,112351,1,8,0:0:0:0:
256,192,112433,1,8,0:0:0:0:
256,192,112514,1,0,0:0:0:0:
256,192,112678,1,8,0:0:0:0:
256,192,112841,1,0,0:0:0:0:
256,192,112922,1,8,0:0:0:0:
256,192,113004,1,0,0:0:0:0:
256,192,113167,1,8,0:0:0:0:
256,192,113411,1,8,0:0:0:0:
256,192,113493,1,0,0:0:0:0:
256,192,113656,1,0,0:0:0:0:
256,192,113819,1,8,0:0:0:0:
256,192,113900,1,8,0:0:0:0:
256,192,113982,1,0,0:0:0:0:
256,192,114063,1,0,0:0:0:0:
256,192,114145,1,8,0:0:0:0:
256,192,114308,1,0,0:0:0:0:
256,192,114362,1,0,0:0:0:0:
256,192,114417,1,0,0:0:0:0:
256,192,114471,1,8,0:0:0:0:
256,192,114634,1,8,0:0:0:0:
256,192,114797,1,4,0:0:0:0:
256,192,114960,1,8,0:0:0:0:
256,192,115286,1,0,0:0:0:0:
256,192,115449,1,8,0:0:0:0:
256,192,115775,1,8,0:0:0:0:
256,192,115938,1,4,0:0:0:0:
256,192,116264,1,8,0:0:0:0:
256,192,116428,1,4,0:0:0:0:
256,192,116591,1,0,0:0:0:0:
256,192,116754,1,8,0:0:0:0:
256,192,117080,1,12,0:0:0:0:
256,192,117406,1,4,0:0:0:0:
256,192,117569,1,8,0:0:0:0:
256,192,117895,1,0,0:0:0:0:
256,192,118058,1,8,0:0:0:0:
256,192,118384,1,8,0:0:0:0:
256,192,118547,1,4,0:0:0:0:
256,192,118873,1,8,0:0:0:0:
256,192,119036,1,4,0:0:0:0:
256,192,119199,1,0,0:0:0:0:
256,192,119362,1,8,0:0:0:0:
256,192,119688,1,8,0:0:0:0:
256,192,119729,1,8,0:0:0:0:
256,192,119851,1,8,0:0:0:0:
256,192,119892,1,8,0:0:0:0:
256,192,120014,1,4,0:0:0:0:
256,192,120178,1,8,0:0:0:0:
256,192,120504,1,0,0:0:0:0:
256,192,120667,1,8,0:0:0:0:
256,192,120993,1,8,0:0:0:0:
256,192,121156,1,4,0:0:0:0:
256,192,121482,1,8,0:0:0:0:
256,192,121645,1,4,0:0:0:0:
256,192,121808,1,0,0:0:0:0:
256,192,121971,1,8,0:0:0:0:
256,192,122297,1,12,0:0:0:0:
256,192,122623,1,4,0:0:0:0:
256,192,125232,1,4,0:0:0:0:
256,192,126536,1,8,0:0:0:0:
256,192,127841,1,0,0:0:0:0:
256,192,129145,1,8,0:0:0:0:
256,192,130449,1,0,0:0:0:0:
256,192,131754,1,8,0:0:0:0:
256,192,133058,1,0,0:0:0:0:
256,192,134362,1,8,0:0:0:0:
256,192,135341,1,12,0:0:0:0:
256,192,135667,1,0,0:0:0:0:
256,192,136156,1,0,0:0:0:0:
256,192,136645,1,0,0:0:0:0:
256,192,136971,1,8,0:0:0:0:
256,192,137460,1,8,0:0:0:0:
256,192,137949,1,8,0:0:0:0:
256,192,138275,1,0,0:0:0:0:
256,192,138764,1,0,0:0:0:0:
256,192,139254,1,0,0:0:0:0:
256,192,139580,1,8,0:0:0:0:
256,192,140069,1,8,0:0:0:0:
256,192,140558,1,8,0:0:0:0:
256,192,140884,1,0,0:0:0:0:
256,192,141373,1,0,0:0:0:0:
256,192,141862,1,0,0:0:0:0:
256,192,142188,1,8,0:0:0:0:
256,192,142678,1,8,0:0:0:0:
256,192,143167,1,8,0:0:0:0:
256,192,143493,1,0,0:0:0:0:
256,192,143982,1,0,0:0:0:0:
256,192,144471,1,0,0:0:0:0:
256,192,144797,1,8,0:0:0:0:
256,192,145286,1,8,0:0:0:0:
256,192,145775,1,8,0:0:0:0:
256,192,146101,1,0,0:0:0:0:
256,192,146428,1,8,0:0:0:0:
256,192,146591,1,0,0:0:0:0:
256,192,147080,1,0,0:0:0:0:
256,192,147406,1,8,0:0:0:0:
256,192,147732,1,0,0:0:0:0:
256,192,147895,1,8,0:0:0:0:
256,192,148384,1,8,0:0:0:0:
256,192,148710,1,0,0:0:0:0:
256,192,149036,1,8,0:0:0:0:
256,192,149199,1,0,0:0:0:0:
256,192,149688,1,0,0:0:0:0:
256,192,150014,1,8,0:0:0:0:
256,192,150341,1,0,0:0:0:0:
256,192,150504,1,8,0:0:0:0:
256,192,150993,1,8,0:0:0:0:
256,192,151319,1,0,0:0:0:0:
256,192,151645,1,8,0:0:0:0:
256,192,151808,1,0,0:0:0:0:
256,192,152297,1,0,0:0:0:0:
256,192,152623,1,8,0:0:0:0:
256,192,152949,1,0,0:0:0:0:
256,192,153112,1,8,0:0:0:0:
256,192,153601,1,8,0:0:0:0:
256,192,153928,1,0,0:0:0:0:
256,192,154254,1,8,0:0:0:0:
256,192,154417,1,0,0:0:0:0:
256,192,154906,1,0,0:0:0:0:
256,192,155232,1,4,0:0:0:0:
256,192,156536,1,0,0:0:0:0:
256,192,156862,1,0,0:0:0:0:
256,192,157188,1,0,0:0:0:0:
256,192,157514,1,0,0:0:0:0:
256,192,157841,1,8,0:0:0:0:
256,192,158167,1,8,0:0:0:0:
256,192,158493,1,8,0:0:0:0:
256,192,158819,1,8,0:0:0:0:
256,192,159145,1,0,0:0:0:0:
256,192,159471,1,0,0:0:0:0:
256,192,159797,1,0,0:0:0:0:
256,192,160123,1,0,0:0:0:0:
256,192,160449,1,8,0:0:0:0:
256,192,160775,1,8,0:0:0:0:
256,192,161101,1,8,0:0:0:0:
256,192,161428,1,8,0:0:0:0:
256,192,161754,1,0,0:0:0:0:
256,192,162080,1,0,0:0:0:0:
256,192,162406,1,0,0:0:0:0:
256,192,162732,1,0,0:0:0:0:
256,192,163058,1,8,0:0:0:0:
256,192,163384,1,8,0:0:0:0:
256,192,163710,1,8,0:0:0:0:
256,192,164036,1,8,0:0:0:0:
256,192,164362,1,0,0:0:0:0:
256,192,164688,1,0,0:0:0:0:
256,192,165014,1,0,0:0:0:0:
256,192,165341,1,0,0:0:0:0:
256,192,165667,1,8,0:0:0:0:
256,192,165993,1,8,0:0:0:0:
256,192,166319,1,8,0:0:0:0:
256,192,166645,1,8,0:0:0:0:
256,192,177406,5,0,0:0:0:0:
256,192,177732,1,8,0:0:0:0:
256,192,178384,1,8,0:0:0:0:
256,192,179036,1,8,0:0:0:0:
256,192,179688,1,8,0:0:0:0:
256,192,180341,1,8,0:0:0:0:
256,192,180993,1,8,0:0:0:0:
256,192,181645,1,8,0:0:0:0:
256,192,182297,1,8,0:0:0:0:
256,192,182623,1,0,0:0:0:0:
256,192,182949,1,8,0:0:0:0:
256,192,183275,1,8,0:0:0:0:
256,192,183601,1,8,0:0:0:0:
256,192,183928,1,0,0:0:0:0:
256,192,184254,1,8,0:0:0:0:
256,192,184580,1,8,0:0:0:0:
256,192,184906,1,8,0:0:0:0:
256,192,185232,1,4,0:0:0:0:
256,192,186373,1,8,0:0:0:0:
256,192,186482,1,0,0:0:0:0:
256,192,186536,1,8,0:0:0:0:
256,192,186699,1,8,0:0:0:0:
256,192,186808,1,0,0:0:0:0:
256,192,186862,1,0,0:0:0:0:
256,192,187025,1,0,0:0:0:0:
256,192,187134,1,8,0:0:0:0:
256,192,187297,1,8,0:0:0:0:
256,192,187351,1,0,0:0:0:0:
256,192,187514,1,8,0:0:0:0:
256,192,187841,1,4,0:0:0:0:
256,192,188004,1,8,0:0:0:0:
256,192,188085,1,8,0:0:0:0:
256,192,188167,1,0,0:0:0:0:
256,192,188330,1,8,0:0:0:0:
256,192,188493,1,0,0:0:0:0:
256,192,188737,1,8,0:0:0:0:
256,192,188819,1,0,0:0:0:0:
256,192,188982,1,8,0:0:0:0:
256,192,189145,1,0,0:0:0:0:
256,192,189226,1,0,0:0:0:0:
256,192,189308,1,8,0:0:0:0:
256,192,189389,1,8,0:0:0:0:
256,192,189471,1,0,0:0:0:0:
256,192,189634,1,8,0:0:0:0:
256,192,189797,1,0,0:0:0:0:
256,192,189879,1,0,0:0:0:0:
256,192,189960,1,8,0:0:0:0:
256,192,190123,1,0,0:0:0:0:
256,192,190205,1,8,0:0:0:0:
256,192,190449,1,0,0:0:0:0:
256,192,190612,1,8,0:0:0:0:
256,192,190694,1,8,0:0:0:0:
256,192,190775,1,0,0:0:0:0:
256,192,190857,1,0,0:0:0:0:
256,192,190938,1,8,0:0:0:0:
256,192,191101,1,0,0:0:0:0:
256,192,191346,1,8,0:0:0:0:
256,192,191428,1,0,0:0:0:0:
256,192,191591,1,8,0:0:0:0:
256,192,191754,1,0,0:0:0:0:
256,192,191835,1,0,0:0:0:0:
256,192,191917,1,8,0:0:0:0:
256,192,191998,1,8,0:0:0:0:
256,192,192080,1,0,0:0:0:0:
256,192,192243,1,8,0:0:0:0:
256,192,192406,1,0,0:0:0:0:
256,192,192487,1,0,0:0:0:0:
256,192,192569,1,8,0:0:0:0:
256,192,192732,1,0,0:0:0:0:
256,192,192813,1,8,0:0:0:0:
256,192,193058,1,0,0:0:0:0:
256,192,193221,1,8,0:0:0:0:
256,192,193303,1,8,0:0:0:0:
256,192,193384,1,0,0:0:0:0:
256,192,193547,1,8,0:0:0:0:
256,192,193710,1,0,0:0:0:0:
256,192,193955,1,8,0:0:0:0:
256,192,194036,1,0,0:0:0:0:
256,192,194199,1,8,0:0:0:0:
256,192,194362,1,0,0:0:0:0:
256,192,194444,1,0,0:0:0:0:
256,192,194525,1,8,0:0:0:0:
256,192,194607,1,8,0:0:0:0:
256,192,194688,1,0,0:0:0:0:
256,192,194851,1,8,0:0:0:0:
256,192,195014,1,0,0:0:0:0:
256,192,195096,1,0,0:0:0:0:
256,192,195178,1,8,0:0:0:0:
256,192,195341,1,0,0:0:0:0:
256,192,195422,1,8,0:0:0:0:
256,192,195667,1,0,0:0:0:0:
256,192,195830,1,8,0:0:0:0:
256,192,195911,1,8,0:0:0:0:
256,192,195993,1,0,0:0:0:0:
256,192,196074,1,0,0:0:0:0:
256,192,196156,1,8,0:0:0:0:
256,192,196319,1,0,0:0:0:0:
256,192,196563,1,8,0:0:0:0:
256,192,196645,1,0,0:0:0:0:
256,192,196808,1,8,0:0:0:0:
256,192,197243,1,0,0:0:0:0:
256,192,197501,1,8,0:0:0:0:
256,192,197705,1,0,0:0:0:0:
256,192,197786,1,0,0:0:0:0:
256,192,197868,1,0,0:0:0:0:
256,192,197949,1,8,0:0:0:0:
256,192,198112,1,0,0:0:0:0:
256,192,198167,1,0,0:0:0:0:
256,192,198221,1,8,0:0:0:0:
256,192,198520,1,8,0:0:0:0:
256,192,198601,1,4,0:0:0:0:
256,192,198764,1,8,0:0:0:0:
256,192,198928,1,0,0:0:0:0:
256,192,199172,1,8,0:0:0:0:
256,192,199254,1,0,0:0:0:0:
256,192,199417,1,8,0:0:0:0:
256,192,199580,1,0,0:0:0:0:
256,192,199743,1,8,0:0:0:0:
256,192,199824,1,8,0:0:0:0:
256,192,199906,1,0,0:0:0:0:
256,192,200069,1,8,0:0:0:0:
256,192,200232,1,0,0:0:0:0:
256,192,200313,1,0,0:0:0:0:
256,192,200395,1,8,0:0:0:0:
256,192,200558,1,0,0:0:0:0:
256,192,200639,1,0,0:0:0:0:
256,192,200721,1,8,0:0:0:0:
256,192,200884,1,0,0:0:0:0:
256,192,201047,1,8,0:0:0:0:
256,192,201129,1,8,0:0:0:0:
256,192,201210,1,0,0:0:0:0:
256,192,201319,1,8,0:0:0:0:
256,192,201428,1,8,0:0:0:0:
256,192,201536,1,0,0:0:0:0:
256,192,201781,1,8,0:0:0:0:
256,192,201862,1,0,0:0:0:0:
256,192,202025,1,8,0:0:0:0:
256,192,202188,1,0,0:0:0:0:
256,192,202270,1,0,0:0:0:0:
256,192,202351,1,8,0:0:0:0:
256,192,202433,1,8,0:0:0:0:
256,192,202514,1,0,0:0:0:0:
256,192,202678,1,8,0:0:0:0:
256,192,202841,1,0,0:0:0:0:
256,192,202922,1,0,0:0:0:0:
256,192,203004,1,8,0:0:0:0:
256,192,203167,1,0,0:0:0:0:
256,192,203248,1,0,0:0:0:0:
256,192,203330,1,8,0:0:0:0:
256,192,203493,1,0,0:0:0:0:
256,192,203656,1,8,0:0:0:0:
256,192,203737,1,8,0:0:0:0:
256,192,203819,1,0,0:0:0:0:
256,192,203928,1,8,0:0:0:0:
256,192,204036,1,8,0:0:0:0:
256,192,204145,1,0,0:0:0:0:
256,192,204389,1,8,0:0:0:0:
256,192,204471,1,0,0:0:0:0:
256,192,204634,1,8,0:0:0:0:
256,192,204797,1,0,0:0:0:0:
256,192,204960,1,8,0:0:0:0:
256,192,205042,1,8,0:0:0:0:
256,192,205123,1,0,0:0:0:0:
256,192,205286,1,8,0:0:0:0:
256,192,205449,1,0,0:0:0:0:
256,192,205531,1,0,0:0:0:0:
256,192,205612,1,8,0:0:0:0:
256,192,205775,1,0,0:0:0:0:
256,192,205857,1,0,0:0:0:0:
256,192,205938,1,8,0:0:0:0:
256,192,206101,1,0,0:0:0:0:
256,192,206264,1,8,0:0:0:0:
256,192,206346,1,8,0:0:0:0:
256,192,206428,1,0,0:0:0:0:
256,192,206536,1,8,0:0:0:0:
256,192,206645,1,8,0:0:0:0:
256,192,206754,1,0,0:0:0:0:
256,192,206998,1,8,0:0:0:0:
256,192,207080,1,0,0:0:0:0:
256,192,207243,1,8,0:0:0:0:
256,192,207406,1,0,0:0:0:0:
256,192,208058,1,8,0:0:0:0:
256,192,208167,1,8,0:0:0:0:
256,192,208221,1,0,0:0:0:0:
256,192,208384,1,8,0:0:0:0:
256,192,208710,1,0,0:0:0:0:
256,192,209036,1,12,0:0:0:0:
256,192,209362,1,0,0:0:0:0:
256,192,209607,1,8,0:0:0:0:
256,192,209688,1,0,0:0:0:0:
256,192,209851,1,8,0:0:0:0:
256,192,210014,1,0,0:0:0:0:
256,192,210178,1,8,0:0:0:0:
256,192,210259,1,8,0:0:0:0:
256,192,210341,1,0,0:0:0:0:
256,192,210504,1,8,0:0:0:0:
256,192,210667,1,0,0:0:0:0:
256,192,210748,1,8,0:0:0:0:
256,192,210830,1,0,0:0:0:0:
256,192,210911,1,0,0:0:0:0:
256,192,210993,1,8,0:0:0:0:
256,192,211074,1,0,0:0:0:0:
256,192,211156,1,8,0:0:0:0:
256,192,211319,1,0,0:0:0:0:
256,192,211482,1,8,0:0:0:0:
256,192,211563,1,8,0:0:0:0:
256,192,211645,1,0,0:0:0:0:
256,192,211726,1,0,0:0:0:0:
256,192,211808,1,8,0:0:0:0:
256,192,211971,1,0,0:0:0:0:
256,192,212216,1,8,0:0:0:0:
256,192,212297,1,0,0:0:0:0:
256,192,212460,1,8,0:0:0:0:
256,192,212623,1,0,0:0:0:0:
256,192,212705,1,0,0:0:0:0:
256,192,212786,1,8,0:0:0:0:
256,192,212868,1,8,0:0:0:0:
256,192,212949,1,0,0:0:0:0:
256,192,213112,1,8,0:0:0:0:
256,192,213275,1,0,0:0:0:0:
256,192,213357,1,8,0:0:0:0:
256,192,213438,1,8,0:0:0:0:
256,192,213520,1,0,0:0:0:0:
256,192,213601,1,8,0:0:0:0:
256,192,213683,1,0,0:0:0:0:
256,192,213764,1,8,0:0:0:0:
256,192,213928,1,0,0:0:0:0:
256,192,214091,1,8,0:0:0:0:
256,192,214172,1,8,0:0:0:0:
256,192,214254,1,0,0:0:0:0:
256,192,214417,1,8,0:0:0:0:
256,192,214580,1,0,0:0:0:0:
256,192,214824,1,8,0:0:0:0:
256,192,214906,1,0,0:0:0:0:
256,192,215069,1,8,0:0:0:0:
256,192,215232,1,0,0:0:0:0:
256,192,215313,1,0,0:0:0:0:
256,192,215395,1,8,0:0:0:0:
256,192,215558,1,0,0:0:0:0:
256,192,215721,1,8,0:0:0:0:
256,192,215884,1,0,0:0:0:0:
256,192,215966,1,8,0:0:0:0:
256,192,216047,1,0,0:0:0:0:
256,192,216210,1,8,0:0:0:0:
256,192,216292,1,0,0:0:0:0:
256,192,216373,1,8,0:0:0:0:
256,192,216536,1,0,0:0:0:0:
256,192,216781,1,8,0:0:0:0:
256,192,216944,1,0,0:0:0:0:
256,192,217025,1,8,0:0:0:0:
256,192,217188,1,0,0:0:0:0:
256,192,217433,1,8,0:0:0:0:
256,192,217868,1,8,0:0:0:0:
256,192,218004,1,0,0:0:0:0:
256,192,218112,1,0,0:0:0:0:
256,192,218167,1,8,0:0:0:0:
256,192,218330,1,0,0:0:0:0:
256,192,218438,1,8,0:0:0:0:
256,192,218601,1,8,0:0:0:0:
256,192,218656,1,0,0:0:0:0:
256,192,218819,1,8,0:0:0:0:
256,192,219145,1,12,0:0:0:0:
256,192,219308,1,0,0:0:0:0:
256,192,219389,1,0,0:0:0:0:
256,192,219471,1,8,0:0:0:0:
256,192,219634,1,0,0:0:0:0:
256,192,219797,1,8,0:0:0:0:
256,192,219879,1,0,0:0:0:0:
256,192,219960,1,0,0:0:0:0:
256,192,220042,1,0,0:0:0:0:
256,192,220123,1,8,0:0:0:0:
256,192,220286,1,0,0:0:0:0:
256,192,220449,1,8,0:0:0:0:
256,192,220531,1,0,0:0:0:0:
256,192,220612,1,8,0:0:0:0:
256,192,220775,1,0,0:0:0:0:
256,192,220938,1,8,0:0:0:0:
256,192,221020,1,8,0:0:0:0:
256,192,221101,1,0,0:0:0:0:
256,192,221264,1,0,0:0:0:0:
256,192,221346,1,8,0:0:0:0:
256,192,221428,1,0,0:0:0:0:
256,192,221591,1,0,0:0:0:0:
256,192,221672,1,8,0:0:0:0:
256,192,221754,1,0,0:0:0:0:
256,192,221917,1,8,0:0:0:0:
256,192,222080,1,0,0:0:0:0:
256,192,222161,1,0,0:0:0:0:
256,192,222243,1,0,0:0:0:0:
256,192,222406,1,8,0:0:0:0:
256,192,222487,1,8,0:0:0:0:
256,192,222569,1,0,0:0:0:0:
256,192,222650,1,0,0:0:0:0:
256,192,222732,1,8,0:0:0:0:
256,192,222895,1,0,0:0:0:0:
256,192,223058,1,8,0:0:0:0:
256,192,223139,1,0,0:0:0:0:
256,192,223221,1,8,0:0:0:0:
256,192,223384,1,0,0:0:0:0:
256,192,223547,1,8,0:0:0:0:
256,192,223710,1,0,0:0:0:0:
256,192,223792,1,0,0:0:0:0:
256,192,223873,1,8,0:0:0:0:
256,192,224036,1,0,0:0:0:0:
256,192,224118,1,0,0:0:0:0:
256,192,224199,1,8,0:0:0:0:
256,192,224281,1,8,0:0:0:0:
256,192,224362,1,0,0:0:0:0:
256,192,224525,1,0,0:0:0:0:
256,192,224607,1,0,0:0:0:0:
256,192,224688,1,8,0:0:0:0:
256,192,224851,1,0,0:0:0:0:
256,192,225014,1,8,0:0:0:0:
256,192,225096,1,0,0:0:0:0:
256,192,225178,1,0,0:0:0:0:
256,192,225259,1,0,0:0:0:0:
256,192,225341,1,8,0:0:0:0:
256,192,225504,1,0,0:0:0:0:
256,192,225667,1,8,0:0:0:0:
256,192,225748,1,0,0:0:0:0:
256,192,225830,1,8,0:0:0:0:
256,192,225993,1,0,0:0:0:0:
256,192,226156,1,8,0:0:0:0:
256,192,226237,1,8,0:0:0:0:
256,192,226319,1,0,0:0:0:0:
256,192,226482,1,0,0:0:0:0:
256,192,226645,1,8,0:0:0:0:
256,192,226699,1,0,0:0:0:0:
256,192,226754,1,0,0:0:0:0:
256,192,226808,1,8,0:0:0:0:
256,192,226971,1,0,0:0:0:0:
256,192,227134,1,8,0:0:0:0:
256,192,227216,1,8,0:0:0:0:
256,192,227297,1,0,0:0:0:0:
256,192,227379,1,0,0:0:0:0:
256,192,227460,1,8,0:0:0:0:
256,192,227623,1,0,0:0:0:0:
256,192,227786,1,8,0:0:0:0:
256,192,227868,1,0,0:0:0:0:
256,192,227949,1,8,0:0:0:0:
256,192,228004,1,0,0:0:0:0:
256,192,228058,1,0,0:0:0:0:
256,192,228112,1,8,0:0:0:0:
256,192,228275,1,0,0:0:0:0:
256,192,228438,1,8,0:0:0:0:
256,192,228520,1,8,0:0:0:0:
256,192,228601,1,0,0:0:0:0:
256,192,228683,1,0,0:0:0:0:
256,192,228764,1,8,0:0:0:0:
256,192,228928,1,0,0:0:0:0:
256,192,229091,1,0,0:0:0:0:
256,192,229172,1,8,0:0:0:0:
256,192,229254,1,0,0:0:0:0:
256,192,229417,1,8,0:0:0:0:
256,192,229580,1,0,0:0:0:0:
256,192,229743,1,8,0:0:0:0:
256,192,229824,1,8,0:0:0:0:
256,192,229906,1,0,0:0:0:0:
256,192,230069,1,0,0:0:0:0:
256,192,230232,1,8,0:0:0:0:
256,192,230313,1,0,0:0:0:0:
256,192,230395,1,0,0:0:0:0:
256,192,230476,1,0,0:0:0:0:
256,192,230558,1,8,0:0:0:0:
256,192,230721,1,0,0:0:0:0:
256,192,230884,1,8,0:0:0:0:
256,192,230966,1,0,0:0:0:0:
256,192,231047,1,8,0:0:0:0:
256,192,231210,1,0,0:0:0:0:
256,192,231373,1,8,0:0:0:0:
256,192,231455,1,8,0:0:0:0:
256,192,231536,1,0,0:0:0:0:
256,192,231618,1,0,0:0:0:0:
256,192,231699,1,8,0:0:0:0:
256,192,231862,1,0,0:0:0:0:
256,192,231944,1,0,0:0:0:0:
256,192,232025,1,8,0:0:0:0:
256,192,232107,1,8,0:0:0:0:
256,192,232188,1,0,0:0:0:0:
256,192,232351,1,0,0:0:0:0:
256,192,232514,1,8,0:0:0:0:
256,192,232596,1,0,0:0:0:0:
256,192,232678,1,0,0:0:0:0:
256,192,232759,1,0,0:0:0:0:
256,192,232841,1,8,0:0:0:0:
256,192,233004,1,0,0:0:0:0:
256,192,233085,1,0,0:0:0:0:
256,192,233167,1,8,0:0:0:0:
256,192,233330,1,0,0:0:0:0:
256,192,233493,1,8,0:0:0:0:
256,192,233574,1,0,0:0:0:0:
256,192,233656,1,8,0:0:0:0:
256,192,233819,1,0,0:0:0:0:
256,192,233900,1,0,0:0:0:0:
256,192,233982,1,8,0:0:0:0:
256,192,234145,1,0,0:0:0:0:
256,192,234226,1,0,0:0:0:0:
256,192,234308,1,8,0:0:0:0:
256,192,234389,1,8,0:0:0:0:
256,192,234471,1,0,0:0:0:0:
256,192,234553,1,0,0:0:0:0:
256,192,234634,1,8,0:0:0:0:
256,192,234716,1,8,0:0:0:0:
256,192,234797,1,0,0:0:0:0:
256,192,234960,1,0,0:0:0:0:
256,192,235042,1,0,0:0:0:0:
256,192,235123,1,8,0:0:0:0:
256,192,235286,1,0,0:0:0:0:
256,192,235449,1,8,0:0:0:0:
256,192,235531,1,0,0:0:0:0:
256,192,235612,1,0,0:0:0:0:
256,192,235694,1,0,0:0:0:0:
256,192,235775,1,8,0:0:0:0:
256,192,235938,1,0,0:0:0:0:
256,192,236101,1,8,0:0:0:0:
256,192,236183,1,0,0:0:0:0:
256,192,236264,1,8,0:0:0:0:
256,192,236428,1,0,0:0:0:0:
256,192,236591,1,8,0:0:0:0:
256,192,236672,1,8,0:0:0:0:
256,192,236754,1,0,0:0:0:0:
256,192,236917,1,0,0:0:0:0:
256,192,237080,1,8,0:0:0:0:
256,192,237243,1,0,0:0:0:0:
256,192,237406,1,8,0:0:0:0:
256,192,237487,1,0,0:0:0:0:
256,192,237569,1,8,0:0:0:0:
256,192,237650,1,8,0:0:0:0:
256,192,237732,1,0,0:0:0:0:
256,192,237895,1,8,0:0:0:0:
256,192,237976,1,8,0:0:0:0:
256,192,238058,1,0,0:0:0:0:
256,192,238221,1,0,0:0:0:0:
256,192,238384,1,8,0:0:0:0:
256,192,238547,1,0,0:0:0:0:
256,192,238710,1,8,0:0:0:0:
256,192,238792,1,0,0:0:0:0:
256,192,238873,1,8,0:0:0:0:
256,192,238955,1,8,0:0:0:0:
256,192,239036,1,0,0:0:0:0:
256,192,239199,1,8,0:0:0:0:
256,192,239281,1,8,0:0:0:0:
256,192,239362,1,0,0:0:0:0:
256,192,240178,1,8,0:0:0:0:
256,192,240341,1,8,0:0:0:0:
256,192,240504,1,8,0:0:0:0:
256,192,240830,1,8,0:0:0:0:
256,192,240993,1,8,0:0:0:0:
256,192,241156,1,8,0:0:0:0:
256,192,241482,1,8,0:0:0:0:
256,192,241645,1,8,0:0:0:0:
256,192,241808,1,8,0:0:0:0:
256,192,242134,1,8,0:0:0:0:
256,192,242297,1,8,0:0:0:0:
256,192,242460,1,8,0:0:0:0:
256,192,242786,1,8,0:0:0:0:
256,192,242949,1,8,0:0:0:0:
256,192,243112,1,8,0:0:0:0:
256,192,243438,1,8,0:0:0:0:
256,192,243601,1,8,0:0:0:0:
256,192,243764,1,8,0:0:0:0:
256,192,244091,1,8,0:0:0:0:
256,192,244254,1,8,0:0:0:0:
256,192,244417,1,8,0:0:0:0:
256,192,244743,1,8,0:0:0:0:
256,192,244906,1,8,0:0:0:0:
256,192,245069,1,8,0:0:0:0:
256,192,245232,1,0,0:0:0:0:
256,192,245558,1,8,0:0:0:0:
256,192,245966,1,8,0:0:0:0:
256,192,246047,1,0,0:0:0:0:
256,192,246210,1,8,0:0:0:0:
256,192,246536,1,0,0:0:0:0:
256,192,246862,1,8,0:0:0:0:
256,192,247514,1,8,0:0:0:0:
256,192,247841,1,0,0:0:0:0:
256,192,248167,1,8,0:0:0:0:
256,192,248574,1,8,0:0:0:0:
256,192,248656,1,0,0:0:0:0:
256,192,248819,1,8,0:0:0:0:
256,192,249145,1,0,0:0:0:0:
256,192,249471,1,8,0:0:0:0:
256,192,250123,1,8,0:0:0:0:
256,192,250449,1,4,0:0:0:0:
256,192,250612,1,8,0:0:0:0:
256,192,250694,1,0,0:0:0:0:
256,192,250775,1,8,0:0:0:0:
256,192,250938,1,0,0:0:0:0:
256,192,251183,1,8,0:0:0:0:
256,192,251264,1,0,0:0:0:0:
256,192,251428,1,8,0:0:0:0:
256,192,251591,1,8,0:0:0:0:
256,192,251754,1,0,0:0:0:0:
256,192,251917,1,0,0:0:0:0:
256,192,251998,1,0,0:0:0:0:
256,192,252080,1,8,0:0:0:0:
256,192,252243,1,0,0:0:0:0:
256,192,252406,1,8,0:0:0:0:
256,192,252487,1,8,0:0:0:0:
256,192,252569,1,0,0:0:0:0:
256,192,252732,1,8,0:0:0:0:
256,192,253058,1,0,0:0:0:0:
256,192,253221,1,8,0:0:0:0:
256,192,253303,1,0,0:0:0:0:
256,192,253384,1,8,0:0:0:0:
256,192,253466,1,8,0:0:0:0:
256,192,253547,1,0,0:0:0:0:
256,192,253792,1,8,0:0:0:0:
256,192,253873,1,0,0:0:0:0:
256,192,254036,1,8,0:0:0:0:
256,192,254199,1,8,0:0:0:0:
256,192,254362,1,0,0:0:0:0:
256,192,254525,1,0,0:0:0:0:
256,192,254607,1,0,0:0:0:0:
256,192,254688,1,8,0:0:0:0:
256,192,254851,1,0,0:0:0:0:
256,192,255014,1,8,0:0:0:0:
256,192,255096,1,8,0:0:0:0:
256,192,255178,1,0,0:0:0:0:
256,192,255259,1,0,0:0:0:0:
256,192,255341,1,8,0:0:0:0:
256,192,255667,1,0,0:0:0:0:
256,192,255830,1,8,0:0:0:0:
256,192,255911,1,0,0:0:0:0:
256,192,255993,1,8,0:0:0:0:
256,192,256156,1,0,0:0:0:0:
256,192,256400,1,8,0:0:0:0:
256,192,256482,1,0,0:0:0:0:
256,192,256645,1,8,0:0:0:0:
256,192,256808,1,8,0:0:0:0:
256,192,256971,1,0,0:0:0:0:
256,192,257134,1,0,0:0:0:0:
256,192,257216,1,0,0:0:0:0:
256,192,257297,1,8,0:0:0:0:
256,192,257460,1,0,0:0:0:0:
256,192,257623,1,8,0:0:0:0:
256,192,257705,1,8,0:0:0:0:
256,192,257786,1,0,0:0:0:0:
256,192,257949,1,8,0:0:0:0:
256,192,258275,1,0,0:0:0:0:
256,192,258438,1,8,0:0:0:0:
256,192,258520,1,0,0:0:0:0:
256,192,258601,1,8,0:0:0:0:
256,192,258683,1,8,0:0:0:0:
256,192,258764,1,0,0:0:0:0:
256,192,258928,1,0,0:0:0:0:
256,192,259009,1,8,0:0:0:0:
256,192,259091,1,0,0:0:0:0:
256,192,259254,1,8,0:0:0:0:
256,192,259417,1,8,0:0:0:0:
256,192,259580,1,0,0:0:0:0:
256,192,259661,1,8,0:0:0:0:
256,192,259743,1,0,0:0:0:0:
256,192,259824,1,0,0:0:0:0:
256,192,259906,1,8,0:0:0:0:
256,192,260069,1,0,0:0:0:0:
256,192,260232,1,8,0:0:0:0:
256,192,260313,1,8,0:0:0:0:
256,192,260395,1,0,0:0:0:0:
256,192,260476,1,0,0:0:0:0:
256,192,260558,1,8,0:0:0:0:
256,192,260884,1,0,0:0:0:0:
256,192,261129,1,8,0:0:0:0:
256,192,261373,1,8,0:0:0:0:
256,192,261618,1,8,0:0:0:0:
256,192,261862,1,8,0:0:0:0:
256,192,262107,1,8,0:0:0:0:
256,192,262351,1,0,0:0:0:0:
256,192,262596,1,0,0:0:0:0:
256,192,262841,1,0,0:0:0:0:
256,192,263085,1,0,0:0:0:0:
256,192,263330,1,0,0:0:0:0:
256,192,263493,1,8,0:0:0:0:
256,192,263737,1,8,0:0:0:0:
256,192,263982,1,8,0:0:0:0:
256,192,264226,1,8,0:0:0:0:
256,192,264471,1,8,0:0:0:0:
256,192,264716,1,0,0:0:0:0:
256,192,264960,1,8,0:0:0:0:
256,192,265205,1,8,0:0:0:0:
256,192,265449,1,8,0:0:0:0:
256,192,265694,1,8,0:0:0:0:
256,192,265938,1,8,0:0:0:0:
256,192,266101,1,0,0:0:0:0:
256,192,266346,1,8,0:0:0:0:
256,192,266591,1,8,0:0:0:0:
256,192,266835,1,8,0:0:0:0:
256,192,267080,1,8,0:0:0:0:
256,192,267324,1,8,0:0:0:0:
256,192,267569,1,0,0:0:0:0:
256,192,267813,1,0,0:0:0:0:
256,192,268058,1,0,0:0:0:0:
256,192,268303,1,0,0:0:0:0:
256,192,268547,1,0,0:0:0:0:
256,192,268710,1,8,0:0:0:0:
256,192,268955,1,8,0:0:0:0:
256,192,269199,1,8,0:0:0:0:
256,192,269444,1,8,0:0:0:0:
256,192,269688,1,8,0:0:0:0:
256,192,269933,1,0,0:0:0:0:
256,192,270178,1,8,0:0:0:0:
256,192,270422,1,8,0:0:0:0:
256,192,270667,1,8,0:0:0:0:
256,192,270911,1,8,0:0:0:0:
256,192,271156,1,8,0:0:0:0:
256,192,271319,1,0,0:0:0:0:
256,192,271645,1,8,0:0:0:0:
256,192,272053,1,8,0:0:0:0:
256,192,272134,1,0,0:0:0:0:
256,192,272297,1,8,0:0:0:0:
256,192,272623,1,0,0:0:0:0:
256,192,272949,1,8,0:0:0:0:
256,192,273601,1,8,0:0:0:0:
256,192,273928,1,0,0:0:0:0:
256,192,274254,1,8,0:0:0:0:
256,192,274661,1,8,0:0:0:0:
256,192,274743,1,0,0:0:0:0:
256,192,274906,1,8,0:0:0:0:
256,192,275232,1,0,0:0:0:0:
256,192,275558,1,8,0:0:0:0:
256,192,276047,1,0,0:0:0:0:
256,192,276210,1,8,0:0:0:0:
256,192,276536,1,0,0:0:0:0:
256,192,276862,1,8,0:0:0:0:
256,192,277188,1,8,0:0:0:0:
256,192,277514,1,8,0:0:0:0:
256,192,277841,1,0,0:0:0:0:
256,192,278167,1,8,0:0:0:0:
256,192,278493,1,8,0:0:0:0:
256,192,278819,1,8,0:0:0:0:
256,192,279145,1,0,0:0:0:0:
256,192,279308,1,0,0:0:0:0:
256,192,279471,1,8,0:0:0:0:
256,192,279634,1,8,0:0:0:0:
256,192,279797,1,0,0:0:0:0:
256,192,279879,1,0,0:0:0:0:
256,192,279960,1,0,0:0:0:0:
256,192,280042,1,0,0:0:0:0:
256,192,280123,1,8,0:0:0:0:
256,192,280205,1,8,0:0:0:0:
256,192,280286,1,8,0:0:0:0:
256,192,280368,1,8,0:0:0:0:
256,192,280449,1,0,0:0:0:0:
256,192,281101,1,8,0:0:0:0:
256,192,281754,1,4,0:0:0:0:
256,192,281917,1,8,0:0:0:0:
256,192,281998,1,8,0:0:0:0:
256,192,282080,1,0,0:0:0:0:
256,192,282243,1,8,0:0:0:0:
256,192,282406,1,0,0:0:0:0:
256,192,282487,1,0,0:0:0:0:
256,192,282569,1,8,0:0:0:0:
256,192,282650,1,8,0:0:0:0:
256,192,282732,1,0,0:0:0:0:
256,192,282895,1,8,0:0:0:0:
256,192,283058,1,0,0:0:0:0:
256,192,283139,1,8,0:0:0:0:
256,192,283221,1,8,0:0:0:0:
256,192,283303,1,8,0:0:0:0:
256,192,283384,1,0,0:0:0:0:
256,192,283547,1,8,0:0:0:0:
256,192,283710,1,0,0:0:0:0:
256,192,283819,1,8,0:0:0:0:
256,192,283928,1,8,0:0:0:0:
256,192,284036,1,0,0:0:0:0:
256,192,284362,1,0,0:0:0:0:
256,192,284525,1,8,0:0:0:0:
256,192,284607,1,8,0:0:0:0:
256,192,284688,1,0,0:0:0:0:
256,192,284851,1,8,0:0:0:0:
256,192,285014,1,0,0:0:0:0:
256,192,285096,1,0,0:0:0:0:
256,192,285178,1,8,0:0:0:0:
256,192,285259,1,8,0:0:0:0:
256,192,285341,1,0,0:0:0:0:
256,192,285504,1,8,0:0:0:0:
256,192,285667,1,0,0:0:0:0:
256,192,285884,1,8,0:0:0:0:
256,192,285993,1,0,0:0:0:0:
256,192,286210,1,0,0:0:0:0:
256,192,286319,1,8,0:0:0:0:
256,192,286536,1,8,0:0:0:0:
256,192,286645,1,0,0:0:0:0:
256,192,286971,1,4,0:0:0:0:
256,192,287134,1,8,0:0:0:0:
256,192,287216,1,0,0:0:0:0:
256,192,287297,1,8,0:0:0:0:
256,192,287460,1,8,0:0:0:0:
256,192,287623,1,0,0:0:0:0:
256,192,287705,1,0,0:0:0:0:
256,192,287786,1,8,0:0:0:0:
256,192,287868,1,8,0:0:0:0:
256,192,287949,1,0,0:0:0:0:
256,192,288112,1,8,0:0:0:0:
256,192,288275,1,0,0:0:0:0:
256,192,288357,1,8,0:0:0:0:
256,192,288438,1,8,0:0:0:0:
256,192,288520,1,8,0:0:0:0:
256,192,288601,1,0,0:0:0:0:
256,192,288764,1,8,0:0:0:0:
256,192,288928,1,0,0:0:0:0:
256,192,289009,1,8,0:0:0:0:
256,192,289091,1,0,0:0:0:0:
256,192,289254,1,8,0:0:0:0:
256,192,289417,1,8,0:0:0:0:
256,192,289580,1,0,0:0:0:0:
256,192,289743,1,8,0:0:0:0:
256,192,289824,1,8,0:0:0:0:
256,192,289906,1,0,0:0:0:0:
256,192,289987,1,8,0:0:0:0:
256,192,290069,1,0,0:0:0:0:
256,192,290150,1,0,0:0:0:0:
256,192,290232,1,8,0:0:0:0:
256,192,290395,1,0,0:0:0:0:
256,192,290476,1,8,0:0:0:0:
256,192,290558,1,0,0:0:0:0:
256,192,290721,1,8,0:0:0:0:
256,192,290884,1,0,0:0:0:0:
256,192,291210,1,8,0:0:0:0:
256,192,291373,1,0,0:0:0:0:
256,192,291536,1,8,0:0:0:0:
256,192,292188,1,4,0:0:0:0:
256,192,292351,1,8,0:0:0:0:
256,192,292433,1,8,0:0:0:0:
256,192,292514,1,0,0:0:0:0:
256,192,292678,1,8,0:0:0:0:
256,192,292841,1,0,0:0:0:0:
256,192,292922,1,0,0:0:0:0:
256,192,293004,1,8,0:0:0:0:
256,192,293085,1,8,0:0:0:0:
256,192,293167,1,0,0:0:0:0:
256,192,293330,1,8,0:0:0:0:
256,192,293493,1,0,0:0:0:0:
256,192,293574,1,8,0:0:0:0:
256,192,293656,1,8,0:0:0:0:
256,192,293737,1,8,0:0:0:0:
256,192,293819,1,0,0:0:0:0:
256,192,293982,1,8,0:0:0:0:
256,192,294145,1,0,0:0:0:0:
256,192,294254,1,8,0:0:0:0:
256,192,294362,1,8,0:0:0:0:
256,192,294471,1,0,0:0:0:0:
256,192,294797,1,0,0:0:0:0:
256,192,294960,1,8,0:0:0:0:
256,192,295042,1,8,0:0:0:0:
256,192,295123,1,0,0:0:0:0:
256,192,295286,1,8,0:0:0:0:
256,192,295449,1,0,0:0:0:0:
256,192,295531,1,0,0:0:0:0:
256,192,295612,1,8,0:0:0:0:
256,192,295694,1,8,0:0:0:0:
256,192,295775,1,0,0:0:0:0:
256,192,295938,1,8,0:0:0:0:
256,192,296101,1,0,0:0:0:0:
256,192,296319,1,8,0:0:0:0:
256,192,296428,1,0,0:0:0:0:
256,192,296645,1,0,0:0:0:0:
256,192,296754,1,8,0:0:0:0:
256,192,296971,1,8,0:0:0:0:
256,192,297080,1,0,0:0:0:0:
256,192,297406,1,4,0:0:0:0:
256,192,297569,1,8,0:0:0:0:
256,192,297650,1,0,0:0:0:0:
256,192,297732,1,8,0:0:0:0:
256,192,297895,1,8,0:0:0:0:
256,192,298058,1,0,0:0:0:0:
256,192,298139,1,0,0:0:0:0:
256,192,298221,1,8,0:0:0:0:
256,192,298303,1,8,0:0:0:0:
256,192,298384,1,0,0:0:0:0:
256,192,298547,1,8,0:0:0:0:
256,192,298710,1,0,0:0:0:0:
256,192,298792,1,8,0:0:0:0:
256,192,298873,1,8,0:0:0:0:
256,192,298955,1,8,0:0:0:0:
256,192,299036,1,0,0:0:0:0:
256,192,299199,1,8,0:0:0:0:
256,192,299362,1,0,0:0:0:0:
256,192,299444,1,8,0:0:0:0:
256,192,299525,1,0,0:0:0:0:
256,192,299688,1,8,0:0:0:0:
256,192,299851,1,8,0:0:0:0:
256,192,300014,1,0,0:0:0:0:
256,192,300178,1,8,0:0:0:0:
256,192,300259,1,8,0:0:0:0:
256,192,300341,1,0,0:0:0:0:
256,192,300422,1,8,0:0:0:0:
256,192,300504,1,0,0:0:0:0:
256,192,300585,1,0,0:0:0:0:
256,192,300667,1,8,0:0:0:0:
256,192,300830,1,0,0:0:0:0:
256,192,300911,1,8,0:0:0:0:
256,192,300993,1,0,0:0:0:0:
256,192,301156,1,8,0:0:0:0:
256,192,301319,1,0,0:0:0:0:
256,192,301645,1,8,0:0:0:0:
256,192,301862,1,0,0:0:0:0:
256,192,301971,1,8,0:0:0:0:
256,192,302623,1,4,0:0:0:0:
256,192,302949,1,8,0:0:0:0:
256,192,303275,1,0,0:0:0:0:
256,192,303384,1,0,0:0:0:0:
256,192,303493,1,0,0:0:0:0:
256,192,303601,1,8,0:0:0:0:
256,192,303928,1,0,0:0:0:0:
256,192,304036,1,8,0:0:0:0:
256,192,304145,1,8,0:0:0:0:
256,192,304254,1,0,0:0:0:0:
256,192,304362,1,8,0:0:0:0:
256,192,304580,1,0,0:0:0:0:
256,192,304797,1,0,0:0:0:0:
256,192,304906,1,8,0:0:0:0:
256,192,305014,1,0,0:0:0:0:
256,192,305232,1,0,0:0:0:0:
256,192,305558,1,8,0:0:0:0:
256,192,305667,1,8,0:0:0:0:
256,192,305775,1,0,0:0:0:0:
256,192,305884,1,8,0:0:0:0:
256,192,305993,1,0,0:0:0:0:
256,192,306101,1,0,0:0:0:0:
256,192,306210,1,8,0:0:0:0:
256,192,306428,1,0,0:0:0:0:
256,192,306862,1,8,0:0:0:0:
256,192,307188,1,0,0:0:0:0:
256,192,307514,1,8,0:0:0:0:
256,192,307841,1,4,0:0:0:0:
256,192,308167,1,8,0:0:0:0:
256,192,308493,1,0,0:0:0:0:
256,192,308601,1,0,0:0:0:0:
256,192,308710,1,0,0:0:0:0:
256,192,308819,1,8,0:0:0:0:
256,192,308928,1,0,0:0:0:0:
256,192,309145,1,0,0:0:0:0:
256,192,309254,1,8,0:0:0:0:
256,192,309362,1,8,0:0:0:0:
256,192,309471,1,0,0:0:0:0:
256,192,309580,1,8,0:0:0:0:
256,192,309797,1,0,0:0:0:0:
256,192,310014,1,0,0:0:0:0:
256,192,310123,1,8,0:0:0:0:
256,192,310449,1,0,0:0:0:0:
256,192,310775,1,8,0:0:0:0:
256,192,310884,1,8,0:0:0:0:
256,192,311101,1,8,0:0:0:0:
256,192,311210,1,0,0:0:0:0:
256,192,311319,1,0,0:0:0:0:
256,192,311428,1,8,0:0:0:0:
256,192,311645,1,0,0:0:0:0:
256,192,312080,1,8,0:0:0:0:
256,192,312406,1,0,0:0:0:0:
256,192,312569,1,8,0:0:0:0:
256,192,312732,1,8,0:0:0:0:
256,192,312813,1,8,0:0:0:0:
256,192,312895,1,8,0:0:0:0:
256,192,313058,1,4,0:0:0:0:
256,192,313384,1,8,0:0:0:0:
256,192,313547,1,8,0:0:0:0:
256,192,313710,1,0,0:0:0:0:
256,192,314036,1,8,0:0:0:0:
256,192,314362,1,0,0:0:0:0:
256,192,314688,1,8,0:0:0:0:
256,192,314851,1,8,0:0:0:0:
256,192,315014,1,0,0:0:0:0:
256,192,315341,1,8,0:0:0:0:
256,192,315667,1,0,0:0:0:0:
256,192,315993,1,8,0:0:0:0:
256,192,316156,1,8,0:0:0:0:
256,192,316319,1,0,0:0:0:0:
256,192,316645,1,8,0:0:0:0:
256,192,316971,1,0,0:0:0:0:
256,192,317297,1,8,0:0:0:0:
256,192,317460,1,8,0:0:0:0:
256,192,317623,1,0,0:0:0:0:
256,192,317949,1,8,0:0:0:0:
256,192,318275,1,0,0:0:0:0:
256,192,318601,1,8,0:0:0:0:
256,192,318764,1,8,0:0:0:0:
256,192,318928,1,0,0:0:0:0:
256,192,319091,1,0,0:0:0:0:
256,192,319254,1,8,0:0:0:0:
256,192,319580,1,0,0:0:0:0:
256,192,319906,1,8,0:0:0:0:
256,192,320069,1,8,0:0:0:0:
256,192,320232,1,0,0:0:0:0:
256,192,320558,1,8,0:0:0:0:
256,192,320884,1,0,0:0:0:0:
256,192,321210,1,8,0:0:0:0:
256,192,321373,1,8,0:0:0:0:
256,192,321536,1,0,0:0:0:0:
256,192,321699,1,0,0:0:0:0:
256,192,321862,1,8,0:0:0:0:
256,192,322188,1,0,0:0:0:0:
256,192,322514,1,8,0:0:0:0:
256,192,322678,1,8,0:0:0:0:
256,192,322841,1,0,0:0:0:0:
256,192,323167,1,8,0:0:0:0:
256,192,323248,1,0,0:0:0:0:
256,192,323330,1,0,0:0:0:0:
256,192,323411,1,0,0:0:0:0:
256,192,323493,1,8,0:0:0:0:
256,192,323819,1,0,0:0:0:0:
256,192,324145,1,8,0:0:0:0:
256,192,324389,1,8,0:0:0:0:
256,192,324634,1,0,0:0:0:0:
256,192,324797,1,8,0:0:0:0:
256,192,325123,1,0,0:0:0:0:
256,192,325449,1,8,0:0:0:0:
256,192,325694,1,0,0:0:0:0:
256,192,325938,1,0,0:0:0:0:
256,192,326101,1,8,0:0:0:0:
256,192,326428,1,0,0:0:0:0:
256,192,326754,1,8,0:0:0:0:
256,192,326998,1,8,0:0:0:0:
256,192,327243,1,0,0:0:0:0:
256,192,327406,1,8,0:0:0:0:
256,192,327732,1,0,0:0:0:0:
256,192,328058,1,8,0:0:0:0:
256,192,328303,1,0,0:0:0:0:
256,192,328547,1,0,0:0:0:0:
256,192,328710,1,8,0:0:0:0:
256,192,328955,1,0,0:0:0:0:
256,192,329036,1,8,0:0:0:0:
256,192,329199,1,0,0:0:0:0:
256,192,329362,1,8,0:0:0:0:
256,192,329607,1,8,0:0:0:0:
256,192,329851,1,0,0:0:0:0:
256,192,330014,1,8,0:0:0:0:
256,192,330259,1,0,0:0:0:0:
256,192,330341,1,8,0:0:0:0:
256,192,330504,1,0,0:0:0:0:
256,192,330667,1,8,0:0:0:0:
256,192,330911,1,0,0:0:0:0:
256,192,331156,1,0,0:0:0:0:
256,192,331319,1,8,0:0:0:0:
256,192,331563,1,0,0:0:0:0:
256,192,331645,1,8,0:0:0:0:
256,192,331808,1,0,0:0:0:0:
256,192,331971,1,8,0:0:0:0:
256,192,332216,1,8,0:0:0:0:
256,192,332460,1,0,0:0:0:0:
256,192,332623,1,8,0:0:0:0:
256,192,332868,1,0,0:0:0:0:
256,192,332949,1,8,0:0:0:0:
256,192,333112,1,0,0:0:0:0:
256,192,333275,1,8,0:0:0:0:
256,192,333520,1,0,0:0:0:0:
256,192,333764,1,0,0:0:0:0:
256,192,333928,1,8,0:0:0:0:
256,192,334091,1,0,0:0:0:0:
256,192,334172,1,0,0:0:0:0:
256,192,334254,1,8,0:0:0:0:
256,192,334417,1,0,0:0:0:0:
256,192,334580,1,8,0:0:0:0:
256,192,334743,1,0,0:0:0:0:
256,192,334824,1,8,0:0:0:0:
256,192,334987,1,0,0:0:0:0:
256,192,335069,1,0,0:0:0:0:
256,192,335232,1,8,0:0:0:0:
256,192,335395,1,0,0:0:0:0:
256,192,335476,1,0,0:0:0:0:
256,192,335558,1,8,0:0:0:0:
256,192,335639,1,8,0:0:0:0:
256,192,335721,1,0,0:0:0:0:
256,192,335884,1,8,0:0:0:0:
256,192,336047,1,0,0:0:0:0:
256,192,336129,1,0,0:0:0:0:
256,192,336292,1,0,0:0:0:0:
256,192,336373,1,0,0:0:0:0:
256,192,336536,1,8,0:0:0:0:
256,192,336699,1,0,0:0:0:0:
256,192,336781,1,0,0:0:0:0:
256,192,336862,1,8,0:0:0:0:
256,192,337025,1,0,0:0:0:0:
256,192,337188,1,8,0:0:0:0:
256,192,337351,1,0,0:0:0:0:
256,192,337433,1,8,0:0:0:0:
256,192,337596,1,0,0:0:0:0:
256,192,337678,1,0,0:0:0:0:
256,192,337841,1,8,0:0:0:0:
256,192,338982,1,8,0:0:0:0:
256,192,339145,1,0,0:0:0:0:
256,192,339308,1,8,0:0:0:0:
256,192,339389,1,8,0:0:0:0:
256,192,339471,1,0,0:0:0:0:
256,192,339634,1,8,0:0:0:0:
256,192,339797,1,0,0:0:0:0:
256,192,339906,1,8,0:0:0:0:
256,192,339960,1,8,0:0:0:0:
256,192,340123,1,0,0:0:0:0:
256,192,340232,1,8,0:0:0:0:
256,192,340286,1,8,0:0:0:0:
256,192,340449,1,0,0:0:0:0:
256,192,340612,1,8,0:0:0:0:
256,192,340694,1,8,0:0:0:0:
256,192,340775,1,0,0:0:0:0:
256,192,340938,1,8,0:0:0:0:
256,192,341101,1,0,0:0:0:0:
256,192,341183,1,0,0:0:0:0:
256,192,341264,1,8,0:0:0:0:
256,192,341428,1,0,0:0:0:0:
256,192,341536,1,8,0:0:0:0:
256,192,341591,1,8,0:0:0:0:
256,192,341754,1,0,0:0:0:0:
256,192,341917,1,8,0:0:0:0:
256,192,341998,1,8,0:0:0:0:
256,192,342080,1,0,0:0:0:0:
256,192,342243,1,8,0:0:0:0:
256,192,342406,1,0,0:0:0:0:
256,192,342514,1,8,0:0:0:0:
256,192,342569,1,8,0:0:0:0:
256,192,342732,1,0,0:0:0:0:
256,192,342841,1,8,0:0:0:0:
256,192,342895,1,8,0:0:0:0:
256,192,343058,1,0,0:0:0:0:
256,192,343221,1,8,0:0:0:0:
256,192,343303,1,8,0:0:0:0:
256,192,343384,1,0,0:0:0:0:
256,192,343547,1,8,0:0:0:0:
256,192,343710,1,0,0:0:0:0:
256,192,343792,1,0,0:0:0:0:
256,192,343873,1,8,0:0:0:0:
256,192,344036,1,0,0:0:0:0:
256,192,344145,1,8,0:0:0:0:
256,192,344199,1,8,0:0:0:0:
256,192,344362,1,0,0:0:0:0:
256,192,344525,1,8,0:0:0:0:
256,192,344607,1,8,0:0:0:0:
256,192,344688,1,0,0:0:0:0:
256,192,344770,1,0,0:0:0:0:
256,192,344851,1,8,0:0:0:0:
256,192,345014,1,0,0:0:0:0:
256,192,345123,1,8,0:0:0:0:
256,192,345178,1,8,0:0:0:0:
256,192,345341,1,0,0:0:0:0:
256,192,345449,1,8,0:0:0:0:
256,192,345504,1,8,0:0:0:0:
256,192,345667,1,0,0:0:0:0:
256,192,345830,1,8,0:0:0:0:
256,192,345911,1,8,0:0:0:0:
256,192,345993,1,0,0:0:0:0:
256,192,346074,1,0,0:0:0:0:
256,192,346156,1,8,0:0:0:0:
256,192,346319,1,0,0:0:0:0:
256,192,346400,1,0,0:0:0:0:
256,192,346482,1,8,0:0:0:0:
256,192,346645,1,0,0:0:0:0:
256,192,346754,1,8,0:0:0:0:
256,192,346808,1,8,0:0:0:0:
256,192,346971,1,0,0:0:0:0:
256,192,347134,1,8,0:0:0:0:
256,192,347216,1,8,0:0:0:0:
256,192,347297,1,0,0:0:0:0:
256,192,347379,1,0,0:0:0:0:
256,192,347460,1,8,0:0:0:0:
256,192,347623,1,0,0:0:0:0:
256,192,347732,1,8,0:0:0:0:
256,192,347786,1,8,0:0:0:0:
256,192,347949,1,0,0:0:0:0:
256,192,348058,1,8,0:0:0:0:
256,192,348112,1,8,0:0:0:0:
256,192,348275,1,0,0:0:0:0:
256,192,348438,1,8,0:0:0:0:
256,192,348520,1,8,0:0:0:0:
256,192,348601,1,0,0:0:0:0:
256,192,348683,1,0,0:0:0:0:
256,192,348764,1,8,0:0:0:0:
256,192,348928,1,0,0:0:0:0:
256,192,349580,1,4,0:0:0:0:
256,192,349743,1,8,0:0:0:0:
256,192,349824,1,8,0:0:0:0:
256,192,349906,1,0,0:0:0:0:
256,192,350069,1,8,0:0:0:0:
256,192,350232,1,0,0:0:0:0:
256,192,350286,1,8,0:0:0:0:
256,192,350341,1,8,0:0:0:0:
256,192,350395,1,8,0:0:0:0:
256,192,350558,1,0,0:0:0:0:
256,192,350612,1,8,0:0:0:0:
256,192,350667,1,8,0:0:0:0:
256,192,350721,1,8,0:0:0:0:
256,192,350884,1,0,0:0:0:0:
256,192,351047,1,8,0:0:0:0:
256,192,351129,1,8,0:0:0:0:
256,192,351210,1,0,0:0:0:0:
256,192,351373,1,8,0:0:0:0:
256,192,351536,1,0,0:0:0:0:
256,192,351618,1,0,0:0:0:0:
256,192,351699,1,8,0:0:0:0:
256,192,351862,1,0,0:0:0:0:
256,192,351917,1,8,0:0:0:0:
256,192,351971,1,8,0:0:0:0:
256,192,352025,1,8,0:0:0:0:
256,192,352188,1,0,0:0:0:0:
256,192,352351,1,8,0:0:0:0:
256,192,352433,1,8,0:0:0:0:
256,192,352514,1,0,0:0:0:0:
256,192,352678,1,8,0:0:0:0:
256,192,352841,1,0,0:0:0:0:
256,192,352895,1,8,0:0:0:0:
256,192,352949,1,8,0:0:0:0:
256,192,353004,1,8,0:0:0:0:
256,192,353167,1,0,0:0:0:0:
256,192,353221,1,8,0:0:0:0:
256,192,353275,1,8,0:0:0:0:
256,192,353330,1,0,0:0:0:0:
256,192,353493,1,0,0:0:0:0:
256,192,353574,1,8,0:0:0:0:
256,192,353656,1,8,0:0:0:0:
256,192,353819,1,0,0:0:0:0:
256,192,353982,1,8,0:0:0:0:
256,192,354063,1,8,0:0:0:0:
256,192,354145,1,0,0:0:0:0:
256,192,354226,1,8,0:0:0:0:
256,192,354389,1,8,0:0:0:0:
256,192,354471,1,0,0:0:0:0:
256,192,354634,1,8,0:0:0:0:
256,192,354797,1,0,0:0:0:0:
256,192,354879,1,0,0:0:0:0:
256,192,354960,1,8,0:0:0:0:
256,192,355042,1,8,0:0:0:0:
256,192,355123,1,0,0:0:0:0:
256,192,355286,1,8,0:0:0:0:
256,192,355449,1,0,0:0:0:0:
256,192,355504,1,8,0:0:0:0:
256,192,355558,1,8,0:0:0:0:
256,192,355612,1,8,0:0:0:0:
256,192,355775,1,0,0:0:0:0:
256,192,355830,1,8,0:0:0:0:
256,192,355884,1,8,0:0:0:0:
256,192,355938,1,8,0:0:0:0:
256,192,356101,1,0,0:0:0:0:
256,192,356183,1,0,0:0:0:0:
256,192,356264,1,8,0:0:0:0:
256,192,356346,1,8,0:0:0:0:
256,192,356428,1,0,0:0:0:0:
256,192,356591,1,8,0:0:0:0:
256,192,356754,1,0,0:0:0:0:
256,192,356835,1,0,0:0:0:0:
256,192,356917,1,8,0:0:0:0:
256,192,357080,1,0,0:0:0:0:
256,192,357134,1,8,0:0:0:0:
256,192,357188,1,8,0:0:0:0:
256,192,357243,1,8,0:0:0:0:
256,192,357406,1,0,0:0:0:0:
256,192,357487,1,0,0:0:0:0:
256,192,357569,1,8,0:0:0:0:
256,192,357650,1,8,0:0:0:0:
256,192,357732,1,0,0:0:0:0:
256,192,357895,1,8,0:0:0:0:
256,192,358058,1,0,0:0:0:0:
256,192,358112,1,8,0:0:0:0:
256,192,358167,1,8,0:0:0:0:
256,192,358221,1,8,0:0:0:0:
256,192,358384,1,0,0:0:0:0:
256,192,358438,1,8,0:0:0:0:
256,192,358493,1,8,0:0:0:0:
256,192,358547,1,8,0:0:0:0:
256,192,358710,1,0,0:0:0:0:
256,192,358792,1,8,0:0:0:0:
256,192,358873,1,8,0:0:0:0:
256,192,359036,1,0,0:0:0:0:
256,192,359118,1,8,0:0:0:0:
256,192,359281,1,8,0:0:0:0:
256,192,359362,1,0,0:0:0:0:
256,192,359525,1,8,0:0:0:0:
256,192,359607,1,8,0:0:0:0:
256,192,359688,1,0,0:0:0:0:
256,192,360014,1,0,0:0:0:0:
256,192,360178,1,8,0:0:0:0:
256,192,360259,1,8,0:0:0:0:
256,192,360341,1,0,0:0:0:0:
256,192,360422,1,0,0:0:0:0:
256,192,360504,1,8,0:0:0:0:
256,192,360667,1,0,0:0:0:0:
256,192,360721,1,8,0:0:0:0:
256,192,360775,1,8,0:0:0:0:
256,192,360830,1,8,0:0:0:0:
256,192,360993,1,0,0:0:0:0:
256,192,361047,1,8,0:0:0:0:
256,192,361101,1,8,0:0:0:0:
256,192,361156,1,8,0:0:0:0:
256,192,361319,1,0,0:0:0:0:
256,192,361482,1,8,0:0:0:0:
256,192,361563,1,8,0:0:0:0:
256,192,361645,1,0,0:0:0:0:
256,192,361726,1,0,0:0:0:0:
256,192,361808,1,8,0:0:0:0:
256,192,361971,1,0,0:0:0:0:
256,192,362053,1,0,0:0:0:0:
256,192,362134,1,8,0:0:0:0:
256,192,362297,1,0,0:0:0:0:
256,192,362351,1,8,0:0:0:0:
256,192,362406,1,8,0:0:0:0:
256,192,362460,1,8,0:0:0:0:
256,192,362623,1,0,0:0:0:0:
256,192,362786,1,8,0:0:0:0:
256,192,362868,1,8,0:0:0:0:
256,192,362949,1,0,0:0:0:0:
256,192,363031,1,0,0:0:0:0:
256,192,363112,1,8,0:0:0:0:
256,192,363275,1,0,0:0:0:0:
256,192,363330,1,8,0:0:0:0:
256,192,363384,1,8,0:0:0:0:
256,192,363438,1,8,0:0:0:0:
256,192,363601,1,0,0:0:0:0:
256,192,363656,1,8,0:0:0:0:
256,192,363710,1,8,0:0:0:0:
256,192,363764,1,8,0:0:0:0:
256,192,363928,1,0,0:0:0:0:
256,192,364009,1,8,0:0:0:0:
256,192,364091,1,8,0:0:0:0:
256,192,364254,1,0,0:0:0:0:
256,192,364417,1,8,0:0:0:0:
256,192,364580,1,0,0:0:0:0:
256,192,364661,1,0,0:0:0:0:
256,192,364743,1,8,0:0:0:0:
256,192,364906,1,0,0:0:0:0:
256,192,364987,1,8,0:0:0:0:
256,192,365232,1,0,0:0:0:0:
256,192,365313,1,0,0:0:0:0:
256,192,365395,1,8,0:0:0:0:
256,192,365476,1,8,0:0:0:0:
256,192,365558,1,0,0:0:0:0:
256,192,365639,1,0,0:0:0:0:
256,192,365721,1,8,0:0:0:0:
256,192,365884,1,0,0:0:0:0:
256,192,365938,1,8,0:0:0:0:
256,192,365993,1,8,0:0:0:0:
256,192,366047,1,8,0:0:0:0:
256,192,366210,1,0,0:0:0:0:
256,192,366264,1,8,0:0:0:0:
256,192,366319,1,8,0:0:0:0:
256,192,366373,1,8,0:0:0:0:
256,192,366536,1,0,0:0:0:0:
256,192,366618,1,0,0:0:0:0:
256,192,366699,1,8,0:0:0:0:
256,192,366781,1,8,0:0:0:0:
256,192,366862,1,0,0:0:0:0:
256,192,366944,1,0,0:0:0:0:
256,192,367025,1,8,0:0:0:0:
256,192,367188,1,0,0:0:0:0:
256,192,367270,1,0,0:0:0:0:
256,192,367351,1,8,0:0:0:0:
256,192,367514,1,0,0:0:0:0:
256,192,367569,1,8,0:0:0:0:
256,192,367623,1,8,0:0:0:0:
256,192,367678,1,8,0:0:0:0:
256,192,367841,1,0,0:0:0:0:
256,192,367949,1,0,0:0:0:0:
256,192,368058,1,8,0:0:0:0:
256,192,368167,1,0,0:0:0:0:
256,192,368275,1,8,0:0:0:0:
256,192,368384,1,8,0:0:0:0:
256,192,368493,1,0,0:0:0:0:
256,192,368547,1,8,0:0:0:0:
256,192,368601,1,8,0:0:0:0:
256,192,368656,1,8,0:0:0:0:
256,192,368819,1,0,0:0:0:0:
256,192,368873,1,0,0:0:0:0:
256,192,368928,1,8,0:0:0:0:
256,192,368982,1,8,0:0:0:0:
256,192,369091,1,8,0:0:0:0:
256,192,369145,1,0,0:0:0:0:
256,192,370449,1,12,0:0:0:0:
256,192,370612,1,0,0:0:0:0:
256,192,370694,1,0,0:0:0:0:
256,192,370775,1,8,0:0:0:0:
256,192,370938,1,0,0:0:0:0:
256,192,371101,1,0,0:0:0:0:
256,192,371183,1,8,0:0:0:0:
256,192,371264,1,0,0:0:0:0:
256,192,371428,1,0,0:0:0:0:
256,192,371509,1,8,0:0:0:0:
256,192,371591,1,0,0:0:0:0:
256,192,371754,1,8,0:0:0:0:
256,192,371917,1,0,0:0:0:0:
256,192,371998,1,0,0:0:0:0:
256,192,372080,1,8,0:0:0:0:
256,192,372243,1,0,0:0:0:0:
256,192,372324,1,8,0:0:0:0:
256,192,372406,1,0,0:0:0:0:
256,192,372487,1,8,0:0:0:0:
256,192,372569,1,8,0:0:0:0:
256,192,372650,1,8,0:0:0:0:
256,192,372732,1,0,0:0:0:0:
256,192,372976,1,0,0:0:0:0:
256,192,373058,1,8,0:0:0:0:
256,192,373221,1,0,0:0:0:0:
256,192,373303,1,0,0:0:0:0:
256,192,373384,1,0,0:0:0:0:
256,192,373710,1,8,0:0:0:0:
256,192,373873,1,0,0:0:0:0:
256,192,373955,1,0,0:0:0:0:
256,192,374036,1,0,0:0:0:0:
256,192,374362,1,8,0:0:0:0:
256,192,374444,1,8,0:0:0:0:
256,192,374525,1,0,0:0:0:0:
256,192,374607,1,0,0:0:0:0:
256,192,374688,1,8,0:0:0:0:
256,192,375014,1,0,0:0:0:0:
256,192,375259,1,8,0:0:0:0:
256,192,375341,1,8,0:0:0:0:
256,192,375422,1,8,0:0:0:0:
256,192,375504,1,0,0:0:0:0:
256,192,375667,1,12,0:0:0:0:
256,192,375830,1,0,0:0:0:0:
256,192,375911,1,0,0:0:0:0:
256,192,375993,1,8,0:0:0:0:
256,192,376156,1,0,0:0:0:0:
256,192,376319,1,0,0:0:0:0:
256,192,376400,1,8,0:0:0:0:
256,192,376482,1,8,0:0:0:0:
256,192,376645,1,0,0:0:0:0:
256,192,376726,1,8,0:0:0:0:
256,192,376808,1,8,0:0:0:0:
256,192,376889,1,0,0:0:0:0:
256,192,376971,1,8,0:0:0:0:
256,192,377134,1,0,0:0:0:0:
256,192,377216,1,0,0:0:0:0:
256,192,377297,1,8,0:0:0:0:
256,192,377460,1,0,0:0:0:0:
256,192,377542,1,8,0:0:0:0:
256,192,377623,1,0,0:0:0:0:
256,192,377705,1,8,0:0:0:0:
256,192,377786,1,8,0:0:0:0:
256,192,377868,1,8,0:0:0:0:
256,192,377949,1,0,0:0:0:0:
256,192,378194,1,0,0:0:0:0:
256,192,378275,1,8,0:0:0:0:
256,192,378438,1,0,0:0:0:0:
256,192,378520,1,0,0:0:0:0:
256,192,378601,1,0,0:0:0:0:
256,192,378928,1,8,0:0:0:0:
256,192,379091,1,0,0:0:0:0:
256,192,379172,1,0,0:0:0:0:
256,192,379254,1,0,0:0:0:0:
256,192,379580,1,8,0:0:0:0:
256,192,379906,1,0,0:0:0:0:
256,192,379987,1,8,0:0:0:0:
256,192,380232,1,0,0:0:0:0:
256,192,380313,1,8,0:0:0:0:
256,192,380558,1,0,0:0:0:0:
256,192,380639,1,8,0:0:0:0:
256,192,380721,1,0,0:0:0:0:
256,192,380884,1,12,0:0:0:0:
256,192,381047,1,0,0:0:0:0:
256,192,381129,1,0,0:0:0:0:
256,192,381210,1,8,0:0:0:0:
256,192,381292,1,8,0:0:0:0:
256,192,381373,1,0,0:0:0:0:
256,192,381536,1,0,0:0:0:0:
256,192,381618,1,8,0:0:0:0:
256,192,381699,1,0,0:0:0:0:
256,192,381862,1,0,0:0:0:0:
256,192,381944,1,8,0:0:0:0:
256,192,382025,1,0,0:0:0:0:
256,192,382188,1,0,0:0:0:0:
256,192,382351,1,8,0:0:0:0:
256,192,382460,1,8,0:0:0:0:
256,192,382514,1,0,0:0:0:0:
256,192,382678,1,0,0:0:0:0:
256,192,382759,1,8,0:0:0:0:
256,192,382841,1,0,0:0:0:0:
256,192,382949,1,8,0:0:0:0:
256,192,383112,1,8,0:0:0:0:
256,192,383167,1,0,0:0:0:0:
256,192,383330,1,0,0:0:0:0:
256,192,383411,1,0,0:0:0:0:
256,192,383493,1,8,0:0:0:0:
256,192,383656,1,0,0:0:0:0:
256,192,383737,1,0,0:0:0:0:
256,192,383819,1,0,0:0:0:0:
256,192,384145,1,8,0:0:0:0:
256,192,384308,1,0,0:0:0:0:
256,192,384389,1,0,0:0:0:0:
256,192,384471,1,0,0:0:0:0:
256,192,384797,1,8,0:0:0:0:
256,192,384879,1,8,0:0:0:0:
256,192,384960,1,0,0:0:0:0:
256,192,385042,1,0,0:0:0:0:
256,192,385123,1,8,0:0:0:0:
256,192,385449,1,0,0:0:0:0:
256,192,385694,1,8,0:0:0:0:
256,192,385775,1,8,0:0:0:0:
256,192,385857,1,8,0:0:0:0:
256,192,385938,1,0,0:0:0:0:
256,192,386101,1,12,0:0:0:0:
256,192,386264,1,0,0:0:0:0:
256,192,386346,1,0,0:0:0:0:
256,192,386428,1,8,0:0:0:0:
256,192,386509,1,8,0:0:0:0:
256,192,386591,1,0,0:0:0:0:
256,192,386754,1,0,0:0:0:0:
256,192,386835,1,8,0:0:0:0:
256,192,386917,1,0,0:0:0:0:
256,192,387080,1,0,0:0:0:0:
256,192,387161,1,8,0:0:0:0:
256,192,387243,1,0,0:0:0:0:
256,192,387324,1,0,0:0:0:0:
256,192,387406,1,8,0:0:0:0:
256,192,387569,1,0,0:0:0:0:
256,192,387650,1,0,0:0:0:0:
256,192,387732,1,8,0:0:0:0:
256,192,387895,1,0,0:0:0:0:
256,192,387976,1,8,0:0:0:0:
256,192,388058,1,0,0:0:0:0:
256,192,388139,1,8,0:0:0:0:
256,192,388221,1,8,0:0:0:0:
256,192,388303,1,8,0:0:0:0:
256,192,388384,1,0,0:0:0:0:
256,192,388629,1,0,0:0:0:0:
256,192,388710,1,8,0:0:0:0:
256,192,388873,1,0,0:0:0:0:
256,192,388955,1,0,0:0:0:0:
256,192,389036,1,0,0:0:0:0:
256,192,389362,1,8,0:0:0:0:
256,192,389525,1,0,0:0:0:0:
256,192,389607,1,0,0:0:0:0:
256,192,389688,1,0,0:0:0:0:
256,192,390014,1,8,0:0:0:0:
256,192,390341,1,0,0:0:0:0:
256,192,390667,1,0,0:0:0:0:
256,192,390993,1,0,0:0:0:0:
256,192,391319,1,8,0:0:0:0:
256,192,391645,1,0,0:0:0:0:
256,192,391971,1,8,0:0:0:0:
256,192,392216,1,8,0:0:0:0:
256,192,392460,1,0,0:0:0:0:
256,192,392623,1,8,0:0:0:0:
256,192,392949,1,0,0:0:0:0:
256,192,393275,1,8,0:0:0:0:
256,192,393520,1,0,0:0:0:0:
256,192,393764,1,0,0:0:0:0:
256,192,393928,1,8,0:0:0:0:
256,192,394254,1,0,0:0:0:0:
256,192,394580,1,8,0:0:0:0:
256,192,394824,1,8,0:0:0:0:
256,192,395069,1,0,0:0:0:0:
256,192,395232,1,8,0:0:0:0:
256,192,395558,1,0,0:0:0:0:
256,192,395884,1,8,0:0:0:0:
256,192,396129,1,0,0:0:0:0:
256,192,396373,1,0,0:0:0:0:
256,192,396536,1,8,0:0:0:0:
256,192,396781,1,0,0:0:0:0:
256,192,396862,1,8,0:0:0:0:
256,192,397025,1,0,0:0:0:0:
256,192,397188,1,8,0:0:0:0:
256,192,397433,1,8,0:0:0:0:
256,192,397678,1,0,0:0:0:0:
256,192,397841,1,8,0:0:0:0:
256,192,398085,1,0,0:0:0:0:
256,192,398167,1,8,0:0:0:0:
256,192,398330,1,0,0:0:0:0:
256,192,398493,1,8,0:0:0:0:
256,192,398737,1,0,0:0:0:0:
256,192,398982,1,0,0:0:0:0:
256,192,399145,1,8,0:0:0:0:
256,192,399389,1,0,0:0:0:0:
256,192,399471,1,8,0:0:0:0:
256,192,399634,1,0,0:0:0:0:
256,192,399797,1,8,0:0:0:0:
256,192,400042,1,8,0:0:0:0:
256,192,400286,1,0,0:0:0:0:
256,192,400449,1,8,0:0:0:0:
256,192,400612,1,0,0:0:0:0:
256,192,400694,1,0,0:0:0:0:
256,192,400775,1,8,0:0:0:0:
256,192,400938,1,0,0:0:0:0:
256,192,401101,1,8,0:0:0:0:
256,192,401264,1,0,0:0:0:0:
256,192,401346,1,8,0:0:0:0:
256,192,401591,1,8,0:0:0:0:
256,192,401754,1,0,0:0:0:0:
256,192,401917,1,8,0:0:0:0:
256,192,401998,1,8,0:0:0:0:
256,192,402080,1,0,0:0:0:0:
256,192,402243,1,8,0:0:0:0:
256,192,402406,1,0,0:0:0:0:
256,192,402514,1,8,0:0:0:0:
256,192,402732,1,0,0:0:0:0:
256,192,402841,1,8,0:0:0:0:
256,192,403058,1,0,0:0:0:0:
256,192,403221,1,8,0:0:0:0:
256,192,403303,1,8,0:0:0:0:
256,192,403384,1,0,0:0:0:0:
256,192,403547,1,8,0:0:0:0:
256,192,403710,1,0,0:0:0:0:
256,192,403873,1,8,0:0:0:0:
256,192,403955,1,8,0:0:0:0:
256,192,404036,1,0,0:0:0:0:
256,192,404145,1,8,0:0:0:0:
256,192,404362,1,0,0:0:0:0:
256,192,404525,1,8,0:0:0:0:
256,192,404607,1,8,0:0:0:0:
256,192,404688,1,0,0:0:0:0:
256,192,404851,1,8,0:0:0:0:
256,192,405014,1,0,0:0:0:0:
256,192,405123,1,8,0:0:0:0:
256,192,405341,1,0,0:0:0:0:
256,192,405449,1,8,0:0:0:0:
256,192,405667,1,0,0:0:0:0:
256,192,405830,1,8,0:0:0:0:
256,192,405911,1,8,0:0:0:0:
256,192,405993,1,0,0:0:0:0:
256,192,406156,1,8,0:0:0:0:
256,192,406319,1,0,0:0:0:0:
256,192,406482,1,8,0:0:0:0:
256,192,406563,1,8,0:0:0:0:
256,192,406645,1,0,0:0:0:0:
256,192,406754,1,8,0:0:0:0:
256,192,406971,1,0,0:0:0:0:
256,192,407134,1,8,0:0:0:0:
256,192,407216,1,8,0:0:0:0:
256,192,407297,1,0,0:0:0:0:
256,192,407460,1,8,0:0:0:0:
256,192,407623,1,0,0:0:0:0:
256,192,407786,1,8,0:0:0:0:
256,192,407949,1,0,0:0:0:0:
256,192,408112,1,8,0:0:0:0:
256,192,408275,1,0,0:0:0:0:
256,192,408601,1,0,0:0:0:0:
256,192,408928,1,0,0:0:0:0:
256,192,409254,1,0,0:0:0:0:
256,192,409580,1,8,0:0:0:0:
256,192,409906,1,8,0:0:0:0:
256,192,410232,1,0,0:0:0:0:
256,192,410558,1,0,0:0:0:0:
256,192,410884,1,8,0:0:0:0:
256,192,412188,1,4,0:0:0:0:
256,192,412351,1,8,0:0:0:0:
256,192,412433,1,8,0:0:0:0:
256,192,412514,1,0,0:0:0:0:
256,192,412678,1,8,0:0:0:0:
256,192,412841,1,0,0:0:0:0:
256,192,412922,1,0,0:0:0:0:
256,192,413004,1,8,0:0:0:0:
256,192,413085,1,8,0:0:0:0:
256,192,413167,1,0,0:0:0:0:
256,192,413330,1,8,0:0:0:0:
256,192,413493,1,0,0:0:0:0:
256,192,413656,1,8,0:0:0:0:
256,192,413737,1,0,0:0:0:0:
256,192,413819,1,8,0:0:0:0:
256,192,413900,1,8,0:0:0:0:
256,192,413982,1,0,0:0:0:0:
256,192,414145,1,8,0:0:0:0:
256,192,414308,1,0,0:0:0:0:
256,192,414389,1,8,0:0:0:0:
256,192,414553,1,0,0:0:0:0:
256,192,414634,1,8,0:0:0:0:
256,192,414797,1,0,0:0:0:0:
256,192,414960,1,8,0:0:0:0:
256,192,415042,1,8,0:0:0:0:
256,192,415123,1,0,0:0:0:0:
256,192,415286,1,8,0:0:0:0:
256,192,415449,1,0,0:0:0:0:
256,192,415531,1,8,0:0:0:0:
256,192,415612,1,8,0:0:0:0:
256,192,415694,1,8,0:0:0:0:
256,192,415775,1,0,0:0:0:0:
256,192,415938,1,8,0:0:0:0:
256,192,416101,1,0,0:0:0:0:
256,192,416264,1,8,0:0:0:0:
256,192,416346,1,0,0:0:0:0:
256,192,416428,1,0,0:0:0:0:
256,192,416509,1,8,0:0:0:0:
256,192,416591,1,0,0:0:0:0:
256,192,416754,1,8,0:0:0:0:
256,192,416835,1,8,0:0:0:0:
256,192,416917,1,0,0:0:0:0:
256,192,416998,1,8,0:0:0:0:
256,192,417161,1,0,0:0:0:0:
256,192,417243,1,8,0:0:0:0:
256,192,417406,1,0,0:0:0:0:
256,192,417569,1,8,0:0:0:0:
256,192,417650,1,8,0:0:0:0:
256,192,417732,1,0,0:0:0:0:
256,192,417813,1,0,0:0:0:0:
256,192,417895,1,8,0:0:0:0:
256,192,418058,1,0,0:0:0:0:
256,192,418139,1,0,0:0:0:0:
256,192,418221,1,8,0:0:0:0:
256,192,418303,1,8,0:0:0:0:
256,192,418384,1,0,0:0:0:0:
256,192,418547,1,8,0:0:0:0:
256,192,418710,1,0,0:0:0:0:
256,192,418873,1,8,0:0:0:0:
256,192,418955,1,0,0:0:0:0:
256,192,419036,1,8,0:0:0:0:
256,192,419118,1,8,0:0:0:0:
256,192,419199,1,0,0:0:0:0:
256,192,419362,1,8,0:0:0:0:
256,192,419444,1,0,0:0:0:0:
256,192,419525,1,0,0:0:0:0:
256,192,419607,1,8,0:0:0:0:
256,192,419688,1,0,0:0:0:0:
256,192,419770,1,0,0:0:0:0:
256,192,419851,1,8,0:0:0:0:
256,192,420014,1,0,0:0:0:0:
256,192,420178,1,8,0:0:0:0:
256,192,420259,1,8,0:0:0:0:
256,192,420341,1,0,0:0:0:0:
256,192,420422,1,0,0:0:0:0:
256,192,420504,1,8,0:0:0:0:
256,192,420667,1,0,0:0:0:0:
256,192,420748,1,8,0:0:0:0:
256,192,420830,1,8,0:0:0:0:
256,192,420911,1,8,0:0:0:0:
256,192,420993,1,0,0:0:0:0:
256,192,421156,1,8,0:0:0:0:
256,192,421319,1,0,0:0:0:0:
256,192,421482,1,8,0:0:0:0:
256,192,421563,1,0,0:0:0:0:
256,192,421645,1,0,0:0:0:0:
256,192,421726,1,8,0:0:0:0:
256,192,421808,1,0,0:0:0:0:
256,192,421971,1,8,0:0:0:0:
256,192,422053,1,8,0:0:0:0:
256,192,422134,1,0,0:0:0:0:
256,192,422216,1,8,0:0:0:0:
256,192,422297,1,0,0:0:0:0:
256,192,422379,1,0,0:0:0:0:
256,192,422460,1,8,0:0:0:0:
256,192,422623,1,0,0:0:0:0:
256,192,422786,1,8,0:0:0:0:
256,192,422868,1,8,0:0:0:0:
256,192,422949,1,0,0:0:0:0:
256,192,423112,1,8,0:0:0:0:
256,192,423275,1,0,0:0:0:0:
256,192,423357,1,0,0:0:0:0:
256,192,423438,1,8,0:0:0:0:
256,192,423520,1,8,0:0:0:0:
256,192,423601,1,0,0:0:0:0:
256,192,423764,1,8,0:0:0:0:
256,192,423928,1,0,0:0:0:0:
256,192,424091,1,8,0:0:0:0:
256,192,424172,1,0,0:0:0:0:
256,192,424254,1,8,0:0:0:0:
256,192,424335,1,8,0:0:0:0:
256,192,424417,1,0,0:0:0:0:
256,192,424580,1,8,0:0:0:0:
256,192,424743,1,0,0:0:0:0:
256,192,424824,1,8,0:0:0:0:
256,192,424987,1,0,0:0:0:0:
256,192,425069,1,8,0:0:0:0:
256,192,425232,1,0,0:0:0:0:
256,192,425395,1,8,0:0:0:0:
256,192,425476,1,8,0:0:0:0:
256,192,425558,1,0,0:0:0:0:
256,192,425721,1,8,0:0:0:0:
256,192,425884,1,0,0:0:0:0:
256,192,425966,1,8,0:0:0:0:
256,192,426047,1,8,0:0:0:0:
256,192,426129,1,8,0:0:0:0:
256,192,426210,1,0,0:0:0:0:
256,192,426373,1,8,0:0:0:0:
256,192,426536,1,0,0:0:0:0:
256,192,426699,1,8,0:0:0:0:
256,192,426781,1,0,0:0:0:0:
256,192,426862,1,0,0:0:0:0:
256,192,426944,1,8,0:0:0:0:
256,192,427025,1,0,0:0:0:0:
256,192,427188,1,8,0:0:0:0:
256,192,427270,1,8,0:0:0:0:
256,192,427351,1,0,0:0:0:0:
256,192,427433,1,8,0:0:0:0:
256,192,427596,1,0,0:0:0:0:
256,192,427678,1,8,0:0:0:0:
256,192,427841,1,0,0:0:0:0:
256,192,428004,1,8,0:0:0:0:
256,192,428085,1,8,0:0:0:0:
256,192,428167,1,0,0:0:0:0:
256,192,428248,1,0,0:0:0:0:
256,192,428330,1,8,0:0:0:0:
256,192,428493,1,0,0:0:0:0:
256,192,428574,1,0,0:0:0:0:
256,192,428656,1,8,0:0:0:0:
256,192,428737,1,8,0:0:0:0:
256,192,428819,1,0,0:0:0:0:
256,192,428982,1,8,0:0:0:0:
256,192,429145,1,0,0:0:0:0:
256,192,429308,1,8,0:0:0:0:
256,192,429389,1,0,0:0:0:0:
256,192,429471,1,8,0:0:0:0:
256,192,429553,1,8,0:0:0:0:
256,192,429634,1,0,0:0:0:0:
256,192,429797,1,8,0:0:0:0:
256,192,429879,1,0,0:0:0:0:
256,192,429960,1,0,0:0:0:0:
256,192,430042,1,8,0:0:0:0:
256,192,430123,1,0,0:0:0:0:
256,192,430205,1,0,0:0:0:0:
256,192,430286,1,8,0:0:0:0:
256,192,430449,1,0,0:0:0:0:
256,192,430612,1,8,0:0:0:0:
256,192,430694,1,8,0:0:0:0:
256,192,430775,1,0,0:0:0:0:
256,192,430857,1,0,0:0:0:0:
256,192,430938,1,8,0:0:0:0:
256,192,431101,1,0,0:0:0:0:
256,192,431183,1,8,0:0:0:0:
256,192,431264,1,8,0:0:0:0:
256,192,431346,1,8,0:0:0:0:
256,192,431428,1,0,0:0:0:0:
256,192,431591,1,8,0:0:0:0:
256,192,431754,1,0,0:0:0:0:
256,192,431917,1,8,0:0:0:0:
256,192,431998,1,0,0:0:0:0:
256,192,432080,1,0,0:0:0:0:
256,192,432161,1,8,0:0:0:0:
256,192,432243,1,0,0:0:0:0:
256,192,432406,1,8,0:0:0:0:
256,192,432650,1,8,0:0:0:0:
256,192,432895,1,8,0:0:0:0:
256,192,433466,1,8,0:0:0:0:
256,192,433955,1,8,0:0:0:0:
256,192,434362,1,0,0:0:0:0:
256,192,434444,1,8,0:0:0:0:
256,192,434851,1,0,0:0:0:0:
256,192,434933,1,8,0:0:0:0:
256,192,435341,1,0,0:0:0:0:
256,192,435422,1,8,0:0:0:0:
256,192,435830,1,0,0:0:0:0:
256,192,435911,1,8,0:0:0:0:
256,192,436319,1,0,0:0:0:0:
256,192,436400,1,8,0:0:0:0:
256,192,436482,1,0,0:0:0:0:
256,192,436808,1,0,0:0:0:0:
256,192,436889,1,8,0:0:0:0:
256,192,436971,1,0,0:0:0:0:
256,192,437297,1,0,0:0:0:0:
256,192,437379,1,8,0:0:0:0:
256,192,437460,1,8,0:0:0:0:
256,192,437514,1,8,0:0:0:0:
256,192,437569,1,8,0:0:0:0:
256,192,437623,1,0,0:0:0:0:
256,192,437786,1,0,0:0:0:0:
256,192,437841,1,0,0:0:0:0:
256,192,437895,1,0,0:0:0:0:
256,192,437949,1,8,0:0:0:0:
256,192,438275,1,8,0:0:0:0:
256,192,438357,1,0,0:0:0:0:
256,192,438601,1,8,0:0:0:0:
256,192,438764,1,8,0:0:0:0:
256,192,438846,1,0,0:0:0:0:
256,192,439091,1,8,0:0:0:0:
256,192,439254,1,0,0:0:0:0:
256,192,439335,1,0,0:0:0:0:
256,192,439417,1,8,0:0:0:0:
256,192,439580,8,0,440721,0:0:0:0:
256,192,440884,8,0,442841,0:0:0:0:
256,192,443167,5,12,0:0:0:0:
256,192,443493,1,4,0:0:0:0:
256,192,443656,1,8,0:0:0:0:
256,192,443737,1,8,0:0:0:0:
256,192,443819,1,0,0:0:0:0:
256,192,443982,1,8,0:0:0:0:
256,192,444145,1,0,0:0:0:0:
256,192,444226,1,0,0:0:0:0:
256,192,444308,1,8,0:0:0:0:
256,192,444389,1,8,0:0:0:0:
256,192,444471,1,0,0:0:0:0:
256,192,444634,1,8,0:0:0:0:
256,192,444797,1,0,0:0:0:0:
256,192,444960,1,8,0:0:0:0:
256,192,445042,1,8,0:0:0:0:
256,192,445123,1,0,0:0:0:0:
256,192,445205,1,0,0:0:0:0:
256,192,445286,1,8,0:0:0:0:
256,192,445449,1,0,0:0:0:0:
256,192,445531,1,0,0:0:0:0:
256,192,445612,1,8,0:0:0:0:
256,192,445775,1,0,0:0:0:0:
256,192,445938,1,8,0:0:0:0:
256,192,445993,1,8,0:0:0:0:
256,192,446047,1,8,0:0:0:0:
256,192,446101,1,0,0:0:0:0:
256,192,446264,1,8,0:0:0:0:
256,192,446346,1,8,0:0:0:0:
256,192,446428,1,0,0:0:0:0:
256,192,446591,1,8,0:0:0:0:
256,192,446754,1,0,0:0:0:0:
256,192,446835,1,8,0:0:0:0:
256,192,446917,1,8,0:0:0:0:
256,192,446998,1,8,0:0:0:0:
256,192,447080,1,0,0:0:0:0:
256,192,447243,1,8,0:0:0:0:
256,192,447406,1,4,0:0:0:0:
256,192,447732,1,12,0:0:0:0:
256,192,448058,1,4,0:0:0:0:
256,192,448384,1,8,0:0:0:0:
256,192,448547,1,8,0:0:0:0:
256,192,448710,1,4,0:0:0:0:
256,192,448873,1,8,0:0:0:0:
256,192,448955,1,8,0:0:0:0:
256,192,449036,1,0,0:0:0:0:
256,192,449199,1,8,0:0:0:0:
256,192,449362,1,0,0:0:0:0:
256,192,449444,1,0,0:0:0:0:
256,192,449525,1,8,0:0:0:0:
256,192,449607,1,8,0:0:0:0:
256,192,449688,1,0,0:0:0:0:
256,192,449851,1,8,0:0:0:0:
256,192,450014,1,0,0:0:0:0:
256,192,450178,1,8,0:0:0:0:
256,192,450259,1,8,0:0:0:0:
256,192,450341,1,0,0:0:0:0:
256,192,450422,1,0,0:0:0:0:
256,192,450504,1,8,0:0:0:0:
256,192,450667,1,0,0:0:0:0:
256,192,450748,1,0,0:0:0:0:
256,192,450830,1,8,0:0:0:0:
256,192,450993,1,0,0:0:0:0:
256,192,451156,1,8,0:0:0:0:
256,192,451210,1,8,0:0:0:0:
256,192,451264,1,8,0:0:0:0:
256,192,451319,1,0,0:0:0:0:
256,192,451482,1,8,0:0:0:0:
256,192,451563,1,8,0:0:0:0:
256,192,451645,1,0,0:0:0:0:
256,192,451808,1,8,0:0:0:0:
256,192,451971,1,0,0:0:0:0:
256,192,452053,1,8,0:0:0:0:
256,192,452134,1,8,0:0:0:0:
256,192,452216,1,8,0:0:0:0:
256,192,452297,1,0,0:0:0:0:
256,192,452460,1,8,0:0:0:0:
256,192,452623,1,4,0:0:0:0:
256,192,452949,1,12,0:0:0:0:
256,192,453275,1,4,0:0:0:0:
256,192,453601,1,8,0:0:0:0:
256,192,453764,1,8,0:0:0:0:
256,192,453928,1,4,0:0:0:0:
256,192,454091,1,8,0:0:0:0:
256,192,454172,1,8,0:0:0:0:
256,192,454254,1,0,0:0:0:0:
256,192,454417,1,8,0:0:0:0:
256,192,454580,1,0,0:0:0:0:
256,192,454661,1,0,0:0:0:0:
256,192,454743,1,8,0:0:0:0:
256,192,454824,1,8,0:0:0:0:
256,192,454906,1,0,0:0:0:0:
256,192,455069,1,8,0:0:0:0:
256,192,455232,1,0,0:0:0:0:
256,192,455395,1,8,0:0:0:0:
256,192,455476,1,8,0:0:0:0:
256,192,455558,1,0,0:0:0:0:
256,192,455639,1,0,0:0:0:0:
256,192,455721,1,8,0:0:0:0:
256,192,455884,1,0,0:0:0:0:
256,192,455966,1,0,0:0:0:0:
256,192,456047,1,8,0:0:0:0:
256,192,456210,1,0,0:0:0:0:
256,192,456373,1,8,0:0:0:0:
256,192,456428,1,8,0:0:0:0:
256,192,456482,1,8,0:0:0:0:
256,192,456536,1,0,0:0:0:0:
256,192,456699,1,8,0:0:0:0:
256,192,456781,1,8,0:0:0:0:
256,192,456862,1,0,0:0:0:0:
256,192,457025,1,8,0:0:0:0:
256,192,457188,1,0,0:0:0:0:
256,192,457270,1,8,0:0:0:0:
256,192,457351,1,8,0:0:0:0:
256,192,457433,1,8,0:0:0:0:
256,192,457514,1,0,0:0:0:0:
256,192,457678,1,8,0:0:0:0:
256,192,457841,1,4,0:0:0:0:
256,192,458167,1,12,0:0:0:0:
256,192,458493,1,4,0:0:0:0:
256,192,458819,1,8,0:0:0:0:
256,192,458982,1,8,0:0:0:0:
256,192,459145,1,4,0:0:0:0:
256,192,459308,1,8,0:0:0:0:
256,192,459389,1,8,0:0:0:0:
256,192,459471,1,0,0:0:0:0:
256,192,459634,1,8,0:0:0:0:
256,192,459797,1,0,0:0:0:0:
256,192,459879,1,0,0:0:0:0:
256,192,459960,1,8,0:0:0:0:
256,192,460042,1,8,0:0:0:0:
256,192,460123,1,0,0:0:0:0:
256,192,460286,1,8,0:0:0:0:
256,192,460449,1,0,0:0:0:0:
256,192,460612,1,8,0:0:0:0:
256,192,460694,1,8,0:0:0:0:
256,192,460775,1,0,0:0:0:0:
256,192,460857,1,0,0:0:0:0:
256,192,460938,1,8,0:0:0:0:
256,192,461101,1,0,0:0:0:0:
256,192,461183,1,0,0:0:0:0:
256,192,461264,1,8,0:0:0:0:
256,192,461428,1,0,0:0:0:0:
256,192,461591,1,8,0:0:0:0:
256,192,461645,1,8,0:0:0:0:
256,192,461699,1,8,0:0:0:0:
256,192,461754,1,0,0:0:0:0:
256,192,461917,1,8,0:0:0:0:
256,192,461998,1,8,0:0:0:0:
256,192,462080,1,0,0:0:0:0:
256,192,462243,1,8,0:0:0:0:
256,192,462406,1,0,0:0:0:0:
256,192,462487,1,8,0:0:0:0:
256,192,462569,1,8,0:0:0:0:
256,192,462650,1,8,0:0:0:0:
256,192,462732,1,0,0:0:0:0:
256,192,462895,1,8,0:0:0:0:
256,192,463058,1,4,0:0:0:0:
256,192,463384,1,12,0:0:0:0:
256,192,463710,1,4,0:0:0:0:
256,192,464036,1,12,0:0:0:0:
256,192,464362,1,0,0:0:0:0:
256,192,464688,1,0,0:0:0:0:
256,192,465014,1,0,0:0:0:0:
256,192,465178,1,8,0:0:0:0:
256,192,465341,1,0,0:0:0:0:
256,192,465667,1,0,0:0:0:0:
256,192,465830,1,8,0:0:0:0:
256,192,465993,1,0,0:0:0:0:
256,192,466319,1,0,0:0:0:0:
256,192,466645,1,0,0:0:0:0:
256,192,466726,1,8,0:0:0:0:
256,192,466808,1,8,0:0:0:0:
256,192,466889,1,8,0:0:0:0:
256,192,466971,1,0,0:0:0:0:
256,192,467297,1,0,0:0:0:0:
256,192,467623,1,0,0:0:0:0:
256,192,467786,1,8,0:0:0:0:
256,192,467949,1,0,0:0:0:0:
256,192,468275,1,0,0:0:0:0:
256,192,468438,1,8,0:0:0:0:
256,192,468601,1,0,0:0:0:0:
256,192,468764,1,8,0:0:0:0:
256,192,468928,1,0,0:0:0:0:
256,192,469254,1,0,0:0:0:0:
256,192,469335,1,8,0:0:0:0:
256,192,469417,1,8,0:0:0:0:
256,192,469498,1,8,0:0:0:0:
256,192,469580,1,0,0:0:0:0:
256,192,469906,1,0,0:0:0:0:
256,192,470232,1,0,0:0:0:0:
256,192,470395,1,8,0:0:0:0:
256,192,470558,1,0,0:0:0:0:
256,192,470884,1,0,0:0:0:0:
256,192,471047,1,8,0:0:0:0:
256,192,471210,1,0,0:0:0:0:
256,192,471536,1,0,0:0:0:0:
256,192,471862,1,0,0:0:0:0:
256,192,471944,1,8,0:0:0:0:
256,192,472025,1,8,0:0:0:0:
256,192,472107,1,8,0:0:0:0:
256,192,472188,1,0,0:0:0:0:
256,192,472514,1,0,0:0:0:0:
256,192,472841,1,0,0:0:0:0:
256,192,473004,1,8,0:0:0:0:
256,192,473167,1,0,0:0:0:0:
256,192,473493,1,0,0:0:0:0:
256,192,473656,1,8,0:0:0:0:
256,192,473819,1,0,0:0:0:0:
256,192,473982,1,8,0:0:0:0:
256,192,474145,1,0,0:0:0:0:
256,192,474471,1,8,0:0:0:0:
256,192,474634,1,8,0:0:0:0:
256,192,474797,1,0,0:0:0:0:
256,192,474960,1,8,0:0:0:0:
256,192,475042,1,8,0:0:0:0:
256,192,475123,1,0,0:0:0:0:
256,192,475286,1,8,0:0:0:0:
256,192,475449,1,0,0:0:0:0:
256,192,475531,1,0,0:0:0:0:
256,192,475612,1,8,0:0:0:0:
256,192,475694,1,8,0:0:0:0:
256,192,475775,1,0,0:0:0:0:
256,192,475938,1,8,0:0:0:0:
256,192,476101,1,0,0:0:0:0:
256,192,476264,1,8,0:0:0:0:
256,192,476346,1,8,0:0:0:0:
256,192,476428,1,0,0:0:0:0:
256,192,476591,1,8,0:0:0:0:
256,192,476754,1,0,0:0:0:0:
256,192,476835,1,0,0:0:0:0:
256,192,476917,1,8,0:0:0:0:
256,192,476998,1,8,0:0:0:0:
256,192,477080,1,0,0:0:0:0:
256,192,477161,1,0,0:0:0:0:
256,192,477243,1,8,0:0:0:0:
256,192,477406,1,0,0:0:0:0:
256,192,477569,1,8,0:0:0:0:
256,192,477650,1,8,0:0:0:0:
256,192,477732,1,0,0:0:0:0:
256,192,477895,1,8,0:0:0:0:
256,192,478058,1,0,0:0:0:0:
256,192,478139,1,0,0:0:0:0:
256,192,478221,1,8,0:0:0:0:
256,192,478303,1,8,0:0:0:0:
256,192,478384,1,0,0:0:0:0:
256,192,478547,1,8,0:0:0:0:
256,192,478710,1,0,0:0:0:0:
256,192,478873,1,8,0:0:0:0:
256,192,478955,1,8,0:0:0:0:
256,192,479036,1,0,0:0:0:0:
256,192,479199,1,8,0:0:0:0:
256,192,479362,1,0,0:0:0:0:
256,192,479444,1,8,0:0:0:0:
256,192,479525,1,0,0:0:0:0:
256,192,479688,1,8,0:0:0:0:
256,192,480014,1,0,0:0:0:0:
256,192,480096,1,0,0:0:0:0:
256,192,480178,1,8,0:0:0:0:
256,192,480259,1,8,0:0:0:0:
256,192,480341,1,0,0:0:0:0:
256,192,480422,1,8,0:0:0:0:
256,192,480504,1,8,0:0:0:0:
256,192,480585,1,8,0:0:0:0:
256,192,480667,1,0,0:0:0:0:
256,192,480748,1,0,0:0:0:0:
256,192,480830,1,8,0:0:0:0:
256,192,480911,1,8,0:0:0:0:
256,192,480993,1,0,0:0:0:0:
256,192,481074,1,8,0:0:0:0:
256,192,481156,1,8,0:0:0:0:
256,192,481237,1,8,0:0:0:0:
256,192,481319,1,0,0:0:0:0:
256,192,481400,1,8,0:0:0:0:
256,192,481482,1,0,0:0:0:0:
256,192,481563,1,0,0:0:0:0:
256,192,481645,1,8,0:0:0:0:
256,192,481726,1,0,0:0:0:0:
256,192,481808,1,8,0:0:0:0:
256,192,481889,1,8,0:0:0:0:
256,192,481971,1,0,0:0:0:0:
256,192,482053,1,8,0:0:0:0:
256,192,482134,1,0,0:0:0:0:
256,192,482216,1,0,0:0:0:0:
256,192,482297,1,8,0:0:0:0:
256,192,482379,1,0,0:0:0:0:
256,192,482460,1,8,0:0:0:0:
256,192,482542,1,8,0:0:0:0:
256,192,482623,1,0,0:0:0:0:
256,192,482705,1,8,0:0:0:0:
256,192,482786,1,8,0:0:0:0:
256,192,482868,1,8,0:0:0:0:
256,192,482949,1,0,0:0:0:0:
256,192,483031,1,8,0:0:0:0:
256,192,483112,1,8,0:0:0:0:
256,192,483194,1,8,0:0:0:0:
256,192,483275,1,0,0:0:0:0:
256,192,483357,1,8,0:0:0:0:
256,192,483438,1,0,0:0:0:0:
256,192,483520,1,0,0:0:0:0:
256,192,483601,1,8,0:0:0:0:
256,192,483683,1,0,0:0:0:0:
256,192,483764,1,8,0:0:0:0:
256,192,483846,1,8,0:0:0:0:
256,192,483928,1,0,0:0:0:0:
256,192,484009,1,8,0:0:0:0:
256,192,484172,1,8,0:0:0:0:
256,192,484335,1,8,0:0:0:0:
256,192,484498,1,8,0:0:0:0:
256,192,484661,1,8,0:0:0:0:
256,192,484716,1,0,0:0:0:0:
256,192,484906,1,8,0:0:0:0:
256,192,484960,1,8,0:0:0:0:
256,192,485014,1,8,0:0:0:0:
256,192,485069,1,8,0:0:0:0:
256,192,485232,1,0,0:0:0:0:
256,192,485395,1,0,0:0:0:0:
256,192,485558,1,12,0:0:0:0:
256,192,485721,1,8,0:0:0:0:
256,192,485884,1,0,0:0:0:0:
256,192,486047,1,0,0:0:0:0:
256,192,486210,1,12,0:0:0:0:
256,192,486373,1,8,0:0:0:0:
256,192,486536,1,0,0:0:0:0:
256,192,486699,1,0,0:0:0:0:
256,192,486862,1,12,0:0:0:0:
256,192,487025,1,8,0:0:0:0:
256,192,487188,1,0,0:0:0:0:
256,192,487351,1,0,0:0:0:0:
256,192,487514,1,12,0:0:0:0:
256,192,487678,1,8,0:0:0:0:
256,192,487841,1,0,0:0:0:0:
256,192,488004,1,0,0:0:0:0:
256,192,488167,1,12,0:0:0:0:
256,192,488330,1,8,0:0:0:0:
256,192,488493,1,0,0:0:0:0:
256,192,488656,1,0,0:0:0:0:
256,192,488819,1,12,0:0:0:0:
256,192,488982,1,8,0:0:0:0:
256,192,489145,1,0,0:0:0:0:
256,192,489308,1,0,0:0:0:0:
256,192,489471,1,12,0:0:0:0:
256,192,489634,1,8,0:0:0:0:
256,192,489797,1,0,0:0:0:0:
256,192,489960,1,0,0:0:0:0:
256,192,490123,1,8,0:0:0:0:
256,192,490178,1,8,0:0:0:0:
256,192,490232,1,8,0:0:0:0:
256,192,490286,1,8,0:0:0:0:
256,192,490449,1,0,0:0:0:0:
256,192,490612,1,0,0:0:0:0:
256,192,490775,1,12,0:0:0:0:
256,192,490938,1,8,0:0:0:0:
256,192,491101,1,0,0:0:0:0:
256,192,491264,1,0,0:0:0:0:
256,192,491428,1,12,0:0:0:0:
256,192,491591,1,8,0:0:0:0:
256,192,491754,1,0,0:0:0:0:
256,192,491917,1,0,0:0:0:0:
256,192,492080,1,12,0:0:0:0:
256,192,492243,1,8,0:0:0:0:
256,192,492406,1,0,0:0:0:0:
256,192,492569,1,0,0:0:0:0:
256,192,492732,1,12,0:0:0:0:
256,192,492895,1,8,0:0:0:0:
256,192,493058,1,0,0:0:0:0:
256,192,493221,1,0,0:0:0:0:
256,192,493384,1,12,0:0:0:0:
256,192,493547,1,8,0:0:0:0:
256,192,493710,1,0,0:0:0:0:
256,192,493873,1,0,0:0:0:0:
256,192,494036,1,12,0:0:0:0:
256,192,494199,1,8,0:0:0:0:
256,192,494362,1,8,0:0:0:0:
256,192,494444,1,8,0:0:0:0:
256,192,494525,1,0,0:0:0:0:
256,192,494688,1,8,0:0:0:0:
256,192,494851,1,0,0:0:0:0:
256,192,494933,1,0,0:0:0:0:
256,192,495014,1,8,0:0:0:0:
256,192,495178,1,0,0:0:0:0:
256,192,495341,1,8,0:0:0:0:
256,192,495395,1,8,0:0:0:0:
256,192,495449,1,8,0:0:0:0:
256,192,495504,1,8,0:0:0:0:
256,192,495667,1,0,0:0:0:0:
256,192,495830,1,8,0:0:0:0:
256,192,495993,1,12,0:0:0:0:
256,192,496156,1,8,0:0:0:0:
256,192,496319,1,0,0:0:0:0:
256,192,496482,1,8,0:0:0:0:
256,192,496645,1,12,0:0:0:0:
256,192,496808,1,8,0:0:0:0:
256,192,496971,1,0,0:0:0:0:
256,192,497134,1,8,0:0:0:0:
256,192,497297,1,12,0:0:0:0:
256,192,497460,1,8,0:0:0:0:
256,192,497623,1,0,0:0:0:0:
256,192,497786,1,8,0:0:0:0:
256,192,497949,1,12,0:0:0:0:
256,192,498112,1,8,0:0:0:0:
256,192,498275,1,0,0:0:0:0:
256,192,498438,1,8,0:0:0:0:
256,192,498601,1,12,0:0:0:0:
256,192,498764,1,8,0:0:0:0:
256,192,498928,1,0,0:0:0:0:
256,192,499091,1,8,0:0:0:0:
256,192,499254,1,12,0:0:0:0:
256,192,499417,1,8,0:0:0:0:
256,192,499580,1,0,0:0:0:0:
256,192,499743,1,8,0:0:0:0:
256,192,499906,1,12,0:0:0:0:
256,192,500069,1,8,0:0:0:0:
256,192,500232,1,0,0:0:0:0:
256,192,500395,1,8,0:0:0:0:
256,192,500558,1,8,0:0:0:0:
256,192,500612,1,8,0:0:0:0:
256,192,500667,1,8,0:0:0:0:
256,192,500721,1,8,0:0:0:0:
256,192,500884,1,0,0:0:0:0:
256,192,501047,1,8,0:0:0:0:
256,192,501210,1,12,0:0:0:0:
256,192,501373,1,8,0:0:0:0:
256,192,501536,1,0,0:0:0:0:
256,192,501699,1,8,0:0:0:0:
256,192,501862,1,12,0:0:0:0:
256,192,502025,1,8,0:0:0:0:
256,192,502188,1,0,0:0:0:0:
256,192,502351,1,8,0:0:0:0:
256,192,502514,1,12,0:0:0:0:
256,192,502678,1,8,0:0:0:0:
256,192,502841,1,0,0:0:0:0:
256,192,503004,1,8,0:0:0:0:
256,192,503167,1,12,0:0:0:0:
256,192,503330,1,8,0:0:0:0:
256,192,503493,1,0,0:0:0:0:
256,192,503656,1,8,0:0:0:0:
256,192,503819,1,12,0:0:0:0:
256,192,503982,1,8,0:0:0:0:
256,192,504145,1,0,0:0:0:0:
256,192,504308,1,8,0:0:0:0:
256,192,504471,1,12,0:0:0:0:
256,192,504634,1,8,0:0:0:0:
256,192,504797,1,8,0:0:0:0:
256,192,504879,1,8,0:0:0:0:
256,192,504960,1,0,0:0:0:0:
256,192,505123,1,8,0:0:0:0:
256,192,505286,1,0,0:0:0:0:
256,192,505341,1,0,0:0:0:0:
256,192,505395,1,0,0:0:0:0:
256,192,505449,1,8,0:0:0:0:
256,192,505612,1,0,0:0:0:0:
256,192,505775,1,8,0:0:0:0:
256,192,505830,1,8,0:0:0:0:
256,192,505884,1,8,0:0:0:0:
256,192,505938,1,8,0:0:0:0:
256,192,506101,1,0,0:0:0:0:
256,192,506428,1,0,0:0:0:0:
256,192,506591,1,8,0:0:0:0:
256,192,506754,1,0,0:0:0:0:
256,192,507080,1,0,0:0:0:0:
256,192,507406,1,0,0:0:0:0:
256,192,507732,1,0,0:0:0:0:
256,192,507895,1,8,0:0:0:0:
256,192,508058,1,0,0:0:0:0:
256,192,508221,1,0,0:0:0:0:
256,192,508384,1,0,0:0:0:0:
256,192,508710,1,0,0:0:0:0:
256,192,509036,1,0,0:0:0:0:
256,192,509199,1,8,0:0:0:0:
256,192,509362,1,0,0:0:0:0:
256,192,509688,1,0,0:0:0:0:
256,192,510014,1,0,0:0:0:0:
256,192,510341,1,0,0:0:0:0:
256,192,510504,1,8,0:0:0:0:
256,192,510667,1,0,0:0:0:0:
256,192,510830,1,0,0:0:0:0:
256,192,510993,1,0,0:0:0:0:
256,192,511319,1,8,0:0:0:0:
256,192,511400,1,8,0:0:0:0:
256,192,511482,1,0,0:0:0:0:
256,192,511563,1,0,0:0:0:0:
256,192,511645,1,8,0:0:0:0:
256,192,511726,1,8,0:0:0:0:
256,192,511808,1,0,0:0:0:0:
256,192,511889,1,0,0:0:0:0:
256,192,511971,1,8,0:0:0:0:
256,192,512053,1,0,0:0:0:0:
256,192,512134,1,8,0:0:0:0:
256,192,512216,1,0,0:0:0:0:
256,192,512297,1,8,0:0:0:0:
256,192,512379,1,8,0:0:0:0:
256,192,512460,1,8,0:0:0:0:
256,192,512542,1,0,0:0:0:0:
256,192,512623,1,8,0:0:0:0:
256,192,512705,1,8,0:0:0:0:
256,192,512786,1,0,0:0:0:0:
256,192,512868,1,0,0:0:0:0:
256,192,512949,1,8,0:0:0:0:
256,192,513031,1,8,0:0:0:0:
256,192,513112,1,0,0:0:0:0:
256,192,513194,1,0,0:0:0:0:
256,192,513275,1,8,0:0:0:0:
256,192,513357,1,0,0:0:0:0:
256,192,513438,1,8,0:0:0:0:
256,192,513520,1,0,0:0:0:0:
256,192,513601,1,8,0:0:0:0:
256,192,513683,1,8,0:0:0:0:
256,192,513764,1,8,0:0:0:0:
256,192,513846,1,0,0:0:0:0:
256,192,513928,1,8,0:0:0:0:
256,192,513982,1,0,0:0:0:0:
256,192,514036,1,0,0:0:0:0:
256,192,514091,1,8,0:0:0:0:
256,192,514172,1,0,0:0:0:0:
256,192,514254,1,8,0:0:0:0:
256,192,514308,1,8,0:0:0:0:
256,192,514362,1,8,0:0:0:0:
256,192,514417,1,0,0:0:0:0:
256,192,514498,1,0,0:0:0:0:
256,192,514580,1,8,0:0:0:0:
256,192,514634,1,0,0:0:0:0:
256,192,514688,1,0,0:0:0:0:
256,192,514743,1,8,0:0:0:0:
256,192,514824,1,0,0:0:0:0:
256,192,514906,1,8,0:0:0:0:
256,192,514960,1,8,0:0:0:0:
256,192,515014,1,8,0:0:0:0:
256,192,515069,1,8,0:0:0:0:
256,192,515123,1,8,0:0:0:0:
256,192,515178,1,8,0:0:0:0:
256,192,515884,1,0,0:0:0:0:
256,192,515986,1,8,0:0:0:0:
256,192,516047,1,8,0:0:0:0:
256,192,516149,1,8,0:0:0:0:
256,192,516210,1,0,0:0:0:0:
256,192,516536,1,0,0:0:0:0:
256,192,516659,1,8,0:0:0:0:
256,192,516699,1,8,0:0:0:0:
256,192,516862,1,0,0:0:0:0:
256,192,517025,1,8,0:0:0:0:
256,192,517188,1,0,0:0:0:0:
256,192,517351,1,8,0:0:0:0:
256,192,517514,1,0,0:0:0:0:
256,192,517678,1,8,0:0:0:0:
256,192,517841,1,0,0:0:0:0:
256,192,518004,1,8,0:0:0:0:
256,192,518044,1,8,0:0:0:0:
256,192,518167,1,0,0:0:0:0:
256,192,518330,1,8,0:0:0:0:
256,192,518370,1,8,0:0:0:0:
256,192,518493,1,0,0:0:0:0:
256,192,518656,1,0,0:0:0:0:
256,192,518697,1,8,0:0:0:0:
256,192,518819,1,0,0:0:0:0:
256,192,518982,1,0,0:0:0:0:
256,192,519023,1,8,0:0:0:0:
256,192,519145,1,0,0:0:0:0:
256,192,519308,1,8,0:0:0:0:
256,192,519389,1,8,0:0:0:0:
256,192,519471,1,0,0:0:0:0:
256,192,519634,1,8,0:0:0:0:
256,192,519797,1,0,0:0:0:0:
256,192,519960,1,0,0:0:0:0:
256,192,520001,1,8,0:0:0:0:
256,192,520123,1,0,0:0:0:0:
256,192,520286,1,0,0:0:0:0:
256,192,520327,1,8,0:0:0:0:
256,192,520449,1,0,0:0:0:0:
256,192,520612,1,8,0:0:0:0:
256,192,520653,1,8,0:0:0:0:
256,192,520775,1,0,0:0:0:0:
256,192,520938,1,8,0:0:0:0:
256,192,520979,1,8,0:0:0:0:
256,192,521101,1,0,0:0:0:0:
256,192,521264,1,8,0:0:0:0:
256,192,521305,1,0,0:0:0:0:
256,192,521428,1,8,0:0:0:0:
256,192,521482,1,8,0:0:0:0:
256,192,521536,1,8,0:0:0:0:
256,192,521591,1,8,0:0:0:0:
256,192,521754,1,0,0:0:0:0:
256,192,521876,1,8,0:0:0:0:
256,192,521917,1,8,0:0:0:0:
256,192,522080,1,0,0:0:0:0:
256,192,522243,1,8,0:0:0:0:
256,192,522406,1,0,0:0:0:0:
256,192,522569,1,8,0:0:0:0:
256,192,522732,1,0,0:0:0:0:
256,192,522895,1,8,0:0:0:0:
256,192,523058,1,0,0:0:0:0:
256,192,523221,1,8,0:0:0:0:
256,192,523262,1,8,0:0:0:0:
256,192,523384,1,0,0:0:0:0:
256,192,523547,1,8,0:0:0:0:
256,192,523588,1,8,0:0:0:0:
256,192,523710,1,0,0:0:0:0:
256,192,523873,1,0,0:0:0:0:
256,192,523914,1,8,0:0:0:0:
256,192,524036,1,0,0:0:0:0:
256,192,524199,1,0,0:0:0:0:
256,192,524240,1,8,0:0:0:0:
256,192,524362,1,0,0:0:0:0:
256,192,524525,1,8,0:0:0:0:
256,192,524607,1,8,0:0:0:0:
256,192,524688,1,0,0:0:0:0:
256,192,524851,1,8,0:0:0:0:
256,192,525014,1,0,0:0:0:0:
256,192,525178,1,0,0:0:0:0:
256,192,525218,1,8,0:0:0:0:
256,192,525341,1,0,0:0:0:0:
256,192,525504,1,0,0:0:0:0:
256,192,525544,1,8,0:0:0:0:
256,192,525667,1,8,0:0:0:0:
256,192,525748,1,8,0:0:0:0:
256,192,525830,1,0,0:0:0:0:
256,192,525993,1,8,0:0:0:0:
256,192,526156,1,0,0:0:0:0:
256,192,526237,1,0,0:0:0:0:
256,192,526319,1,8,0:0:0:0:
256,192,526482,1,0,0:0:0:0:
256,192,526645,1,8,0:0:0:0:
256,192,526699,1,8,0:0:0:0:
256,192,526754,1,8,0:0:0:0:
256,192,526808,1,8,0:0:0:0:
256,192,526971,1,0,0:0:0:0:
256,192,527093,1,8,0:0:0:0:
256,192,527134,1,8,0:0:0:0:
256,192,527297,1,0,0:0:0:0:
256,192,527460,1,8,0:0:0:0:
256,192,527623,1,0,0:0:0:0:
256,192,527786,1,8,0:0:0:0:
256,192,527949,1,0,0:0:0:0:
256,192,528112,1,8,0:0:0:0:
256,192,528275,1,0,0:0:0:0:
256,192,528438,1,8,0:0:0:0:
256,192,528479,1,8,0:0:0:0:
256,192,528601,1,0,0:0:0:0:
256,192,528764,1,8,0:0:0:0:
256,192,528805,1,8,0:0:0:0:
256,192,528928,1,0,0:0:0:0:
256,192,529091,1,0,0:0:0:0:
256,192,529131,1,8,0:0:0:0:
256,192,529254,1,0,0:0:0:0:
256,192,529417,1,0,0:0:0:0:
256,192,529457,1,8,0:0:0:0:
256,192,529580,1,0,0:0:0:0:
256,192,529743,1,8,0:0:0:0:
256,192,529824,1,8,0:0:0:0:
256,192,529906,1,0,0:0:0:0:
256,192,530069,1,8,0:0:0:0:
256,192,530232,1,0,0:0:0:0:
256,192,530395,1,0,0:0:0:0:
256,192,530436,1,8,0:0:0:0:
256,192,530558,1,0,0:0:0:0:
256,192,530721,1,0,0:0:0:0:
256,192,530762,1,8,0:0:0:0:
256,192,530884,1,0,0:0:0:0:
256,192,531047,1,8,0:0:0:0:
256,192,531088,1,8,0:0:0:0:
256,192,531210,1,0,0:0:0:0:
256,192,531373,1,8,0:0:0:0:
256,192,531414,1,8,0:0:0:0:
256,192,531536,1,0,0:0:0:0:
256,192,531699,1,8,0:0:0:0:
256,192,531740,1,0,0:0:0:0:
256,192,531862,1,8,0:0:0:0:
256,192,531917,1,8,0:0:0:0:
256,192,531971,1,8,0:0:0:0:
256,192,532025,1,8,0:0:0:0:
256,192,532188,1,0,0:0:0:0:
256,192,532311,1,8,0:0:0:0:
256,192,532351,1,8,0:0:0:0:
256,192,532514,1,0,0:0:0:0:
256,192,532678,1,8,0:0:0:0:
256,192,532841,1,0,0:0:0:0:
256,192,533004,1,8,0:0:0:0:
256,192,533167,1,0,0:0:0:0:
256,192,533330,1,8,0:0:0:0:
256,192,533493,1,0,0:0:0:0:
256,192,533656,1,8,0:0:0:0:
256,192,533697,1,8,0:0:0:0:
256,192,533819,1,0,0:0:0:0:
256,192,533982,1,8,0:0:0:0:
256,192,534023,1,8,0:0:0:0:
256,192,534145,1,0,0:0:0:0:
256,192,534308,1,0,0:0:0:0:
256,192,534349,1,8,0:0:0:0:
256,192,534471,1,0,0:0:0:0:
256,192,534634,1,0,0:0:0:0:
256,192,534675,1,8,0:0:0:0:
256,192,534797,1,0,0:0:0:0:
256,192,534960,1,8,0:0:0:0:
256,192,535042,1,8,0:0:0:0:
256,192,535123,1,0,0:0:0:0:
256,192,535286,1,8,0:0:0:0:
256,192,535449,1,0,0:0:0:0:
256,192,535612,1,0,0:0:0:0:
256,192,535653,1,8,0:0:0:0:
256,192,535775,1,0,0:0:0:0:
256,192,535938,1,0,0:0:0:0:
256,192,535979,1,8,0:0:0:0:
256,192,536101,1,8,0:0:0:0:
256,192,536183,1,8,0:0:0:0:
256,192,536264,1,0,0:0:0:0:
256,192,536428,1,8,0:0:0:0:
256,192,536591,1,0,0:0:0:0:
256,192,536672,1,0,0:0:0:0:
256,192,536754,1,8,0:0:0:0:
256,192,536917,1,0,0:0:0:0:
256,192,537080,1,8,0:0:0:0:
256,192,537243,1,8,0:0:0:0:
256,192,537406,1,4,0:0:0:0:
256,192,537732,1,8,0:0:0:0:
256,192,538058,1,0,0:0:0:0:
256,192,538221,1,0,0:0:0:0:
256,192,538384,1,8,0:0:0:0:
256,192,538547,1,8,0:0:0:0:
256,192,538710,1,0,0:0:0:0:
256,192,539036,1,8,0:0:0:0:
256,192,539362,1,0,0:0:0:0:
256,192,539525,1,0,0:0:0:0:
256,192,539688,1,8,0:0:0:0:
256,192,540014,1,0,0:0:0:0:
256,192,540341,1,8,0:0:0:0:
256,192,540667,1,0,0:0:0:0:
256,192,540830,1,0,0:0:0:0:
256,192,540993,1,8,0:0:0:0:
256,192,541156,1,8,0:0:0:0:
256,192,541319,1,0,0:0:0:0:
256,192,541645,1,8,0:0:0:0:
256,192,541971,1,8,0:0:0:0:
256,192,542134,1,0,0:0:0:0:
256,192,542297,1,8,0:0:0:0:
256,192,542460,1,8,0:0:0:0:
256,192,542623,1,0,0:0:0:0:
256,192,542949,1,8,0:0:0:0:
256,192,543275,1,0,0:0:0:0:
256,192,543438,1,0,0:0:0:0:
256,192,543601,1,8,0:0:0:0:
256,192,543764,1,8,0:0:0:0:
256,192,543928,1,0,0:0:0:0:
256,192,544254,1,8,0:0:0:0:
256,192,544580,1,0,0:0:0:0:
256,192,544743,1,0,0:0:0:0:
256,192,544906,1,8,0:0:0:0:
256,192,545232,1,0,0:0:0:0:
256,192,545558,1,8,0:0:0:0:
256,192,545884,1,0,0:0:0:0:
256,192,546047,1,0,0:0:0:0:
256,192,546210,1,8,0:0:0:0:
256,192,546373,1,8,0:0:0:0:
256,192,546536,1,0,0:0:0:0:
256,192,546699,1,0,0:0:0:0:
256,192,546862,1,8,0:0:0:0:
256,192,547025,1,0,0:0:0:0:
256,192,547188,1,8,0:0:0:0:
256,192,547351,1,0,0:0:0:0:
256,192,547406,1,0,0:0:0:0:
256,192,547460,1,0,0:0:0:0:
256,192,547514,1,8,0:0:0:0:
256,192,547678,1,0,0:0:0:0:
256,192,547841,1,12,0:0:0:0:
256,192,548167,1,8,0:0:0:0:
256,192,548330,1,8,0:0:0:0:
256,192,548493,1,0,0:0:0:0:
256,192,548819,1,8,0:0:0:0:
256,192,549145,1,0,0:0:0:0:
256,192,549471,1,0,0:0:0:0:
256,192,549634,1,0,0:0:0:0:
256,192,549797,1,8,0:0:0:0:
256,192,549960,1,0,0:0:0:0:
256,192,550123,1,8,0:0:0:0:
256,192,550286,1,8,0:0:0:0:
256,192,550449,1,0,0:0:0:0:
256,192,550775,1,8,0:0:0:0:
256,192,550938,1,0,0:0:0:0:
256,192,551101,1,8,0:0:0:0:
256,192,551428,1,8,0:0:0:0:
256,192,551591,1,8,0:0:0:0:
256,192,551754,1,0,0:0:0:0:
256,192,552080,1,8,0:0:0:0:
256,192,552406,1,0,0:0:0:0:
256,192,552569,1,0,0:0:0:0:
256,192,552732,1,8,0:0:0:0:
256,192,553058,1,8,0:0:0:0:
256,192,553221,1,0,0:0:0:0:
256,192,553384,1,8,0:0:0:0:
256,192,553547,1,8,0:0:0:0:
256,192,553710,1,0,0:0:0:0:
256,192,554036,1,8,0:0:0:0:
256,192,554362,1,0,0:0:0:0:
256,192,554688,1,8,0:0:0:0:
256,192,554851,1,8,0:0:0:0:
256,192,555014,1,0,0:0:0:0:
256,192,555178,1,8,0:0:0:0:
256,192,555341,1,0,0:0:0:0:
256,192,555504,1,0,0:0:0:0:
256,192,555667,1,8,0:0:0:0:
256,192,555993,1,0,0:0:0:0:
256,192,556156,1,8,0:0:0:0:
256,192,556319,1,0,0:0:0:0:
256,192,556645,1,8,0:0:0:0:
256,192,556971,1,0,0:0:0:0:
256,192,557297,1,0,0:0:0:0:
256,192,557623,1,0,0:0:0:0:
256,192,557705,1,8,0:0:0:0:
256,192,557786,1,0,0:0:0:0:
256,192,557868,1,0,0:0:0:0:
256,192,557949,1,8,0:0:0:0:
256,192,558275,1,12,0:0:0:0:
256,192,558601,1,0,0:0:0:0:
256,192,558764,1,8,0:0:0:0:
256,192,558928,1,0,0:0:0:0:
256,192,559091,1,0,0:0:0:0:
256,192,559254,1,8,0:0:0:0:
256,192,559580,1,8,0:0:0:0:
256,192,559906,1,0,0:0:0:0:
256,192,560069,1,8,0:0:0:0:
256,192,560232,1,0,0:0:0:0:
256,192,560558,1,8,0:0:0:0:
256,192,560884,1,8,0:0:0:0:
256,192,561210,1,0,0:0:0:0:
256,192,561373,1,8,0:0:0:0:
256,192,561536,1,8,0:0:0:0:
256,192,561699,1,0,0:0:0:0:
256,192,561862,1,8,0:0:0:0:
256,192,562188,1,8,0:0:0:0:
256,192,562514,1,0,0:0:0:0:
256,192,562841,1,8,0:0:0:0:
256,192,563004,1,0,0:0:0:0:
256,192,563167,1,8,0:0:0:0:
256,192,563248,1,8,0:0:0:0:
256,192,563330,1,0,0:0:0:0:
256,192,563493,1,12,0:0:0:0:
256,192,563819,1,0,0:0:0:0:
256,192,563982,1,8,0:0:0:0:
256,192,564145,1,0,0:0:0:0:
256,192,564308,1,0,0:0:0:0:
256,192,564471,1,8,0:0:0:0:
256,192,564797,1,8,0:0:0:0:
256,192,565123,1,0,0:0:0:0:
256,192,565286,1,8,0:0:0:0:
256,192,565449,1,0,0:0:0:0:
256,192,565775,1,8,0:0:0:0:
256,192,566101,1,8,0:0:0:0:
256,192,566264,1,0,0:0:0:0:
256,192,566428,1,8,0:0:0:0:
256,192,566591,1,0,0:0:0:0:
256,192,566754,1,8,0:0:0:0:
256,192,566917,1,0,0:0:0:0:
256,192,567080,1,8,0:0:0:0:
256,192,567243,1,0,0:0:0:0:
256,192,567406,1,8,0:0:0:0:
256,192,567569,1,8,0:0:0:0:
256,192,567732,1,8,0:0:0:0:
256,192,567895,1,8,0:0:0:0:
256,192,568221,1,0,0:0:0:0:
256,192,568384,1,8,0:0:0:0:
256,192,568547,1,0,0:0:0:0:
256,192,568710,1,4,0:0:0:0:
256,192,568873,1,8,0:0:0:0:
256,192,568955,1,0,0:0:0:0:
256,192,569036,1,0,0:0:0:0:
256,192,569199,1,8,0:0:0:0:
256,192,569362,1,0,0:0:0:0:
256,192,569444,1,0,0:0:0:0:
256,192,569525,1,8,0:0:0:0:
256,192,569607,1,0,0:0:0:0:
256,192,569688,1,0,0:0:0:0:
256,192,569851,1,8,0:0:0:0:
256,192,570014,1,8,0:0:0:0:
256,192,570178,1,0,0:0:0:0:
256,192,570259,1,0,0:0:0:0:
256,192,570341,1,0,0:0:0:0:
256,192,570504,1,8,0:0:0:0:
256,192,570667,1,0,0:0:0:0:
256,192,570748,1,0,0:0:0:0:
256,192,570830,1,8,0:0:0:0:
256,192,570911,1,8,0:0:0:0:
256,192,570993,1,0,0:0:0:0:
256,192,571156,1,8,0:0:0:0:
256,192,571319,1,8,0:0:0:0:
256,192,571482,1,8,0:0:0:0:
256,192,571563,1,8,0:0:0:0:
256,192,571645,1,0,0:0:0:0:
256,192,571808,1,8,0:0:0:0:
256,192,571971,1,0,0:0:0:0:
256,192,572053,1,0,0:0:0:0:
256,192,572134,1,8,0:0:0:0:
256,192,572216,1,0,0:0:0:0:
256,192,572297,1,8,0:0:0:0:
256,192,572379,1,8,0:0:0:0:
256,192,572460,1,0,0:0:0:0:
256,192,572623,1,8,0:0:0:0:
256,192,572786,1,0,0:0:0:0:
256,192,572868,1,8,0:0:0:0:
256,192,572949,1,0,0:0:0:0:
256,192,573112,1,8,0:0:0:0:
256,192,573275,1,0,0:0:0:0:
256,192,573357,1,0,0:0:0:0:
256,192,573438,1,0,0:0:0:0:
256,192,573520,1,0,0:0:0:0:
256,192,573601,1,8,0:0:0:0:
256,192,573928,1,0,0:0:0:0:
256,192,574091,1,8,0:0:0:0:
256,192,574172,1,0,0:0:0:0:
256,192,574254,1,0,0:0:0:0:
256,192,574417,1,8,0:0:0:0:
256,192,574580,1,0,0:0:0:0:
256,192,574661,1,0,0:0:0:0:
256,192,574743,1,8,0:0:0:0:
256,192,574824,1,0,0:0:0:0:
256,192,574906,1,0,0:0:0:0:
256,192,575069,1,8,0:0:0:0:
256,192,575232,1,8,0:0:0:0:
256,192,575395,1,8,0:0:0:0:
256,192,575476,1,0,0:0:0:0:
256,192,575558,1,0,0:0:0:0:
256,192,575721,1,8,0:0:0:0:
256,192,575884,1,0,0:0:0:0:
256,192,575966,1,0,0:0:0:0:
256,192,576047,1,8,0:0:0:0:
256,192,576129,1,8,0:0:0:0:
256,192,576210,1,0,0:0:0:0:
256,192,576373,1,8,0:0:0:0:
256,192,576536,1,8,0:0:0:0:
256,192,576699,1,8,0:0:0:0:
256,192,576781,1,8,0:0:0:0:
256,192,576862,1,0,0:0:0:0:
256,192,577025,1,8,0:0:0:0:
256,192,577188,1,0,0:0:0:0:
256,192,577270,1,0,0:0:0:0:
256,192,577351,1,8,0:0:0:0:
256,192,577433,1,0,0:0:0:0:
256,192,577514,1,8,0:0:0:0:
256,192,577596,1,8,0:0:0:0:
256,192,577678,1,0,0:0:0:0:
256,192,577841,1,8,0:0:0:0:
256,192,578004,1,0,0:0:0:0:
256,192,578085,1,0,0:0:0:0:
256,192,578167,1,8,0:0:0:0:
256,192,578330,1,8,0:0:0:0:
256,192,578493,1,0,0:0:0:0:
256,192,578574,1,8,0:0:0:0:
256,192,578656,1,0,0:0:0:0:
256,192,578819,1,8,0:0:0:0:
256,192,579145,1,0,0:0:0:0:
256,192,579226,1,8,0:0:0:0:
256,192,579308,1,0,0:0:0:0:
256,192,579389,1,0,0:0:0:0:
256,192,579471,1,8,0:0:0:0:
256,192,579553,1,0,0:0:0:0:
256,192,579634,1,8,0:0:0:0:
256,192,579716,1,8,0:0:0:0:
256,192,579797,1,0,0:0:0:0:
256,192,579879,1,8,0:0:0:0:
256,192,579960,1,0,0:0:0:0:
256,192,580042,1,0,0:0:0:0:
256,192,580123,1,8,0:0:0:0:
256,192,580205,1,8,0:0:0:0:
256,192,580286,1,0,0:0:0:0:
256,192,580449,1,8,0:0:0:0:
256,192,580531,1,0,0:0:0:0:
256,192,580612,1,8,0:0:0:0:
256,192,580694,1,8,0:0:0:0:
256,192,580775,1,0,0:0:0:0:
256,192,580857,1,8,0:0:0:0:
256,192,580938,1,0,0:0:0:0:
256,192,581020,1,0,0:0:0:0:
256,192,581101,1,8,0:0:0:0:
256,192,581183,1,0,0:0:0:0:
256,192,581264,1,8,0:0:0:0:
256,192,581346,1,8,0:0:0:0:
256,192,581428,1,0,0:0:0:0:
256,192,581509,1,0,0:0:0:0:
256,192,581591,1,8,0:0:0:0:
256,192,581754,1,0,0:0:0:0:
256,192,581835,1,0,0:0:0:0:
256,192,581917,1,8,0:0:0:0:
256,192,581998,1,0,0:0:0:0:
256,192,582080,1,8,0:0:0:0:
256,192,582161,1,8,0:0:0:0:
256,192,582243,1,0,0:0:0:0:
256,192,582406,1,8,0:0:0:0:
256,192,582487,1,8,0:0:0:0:
256,192,582569,1,0,0:0:0:0:
256,192,582650,1,8,0:0:0:0:
256,192,582732,1,0,0:0:0:0:
256,192,582813,1,0,0:0:0:0:
256,192,582895,1,8,0:0:0:0:
256,192,583058,1,0,0:0:0:0:
256,192,583139,1,0,0:0:0:0:
256,192,583221,1,8,0:0:0:0:
256,192,583303,1,8,0:0:0:0:
256,192,583384,1,0,0:0:0:0:
256,192,583547,1,8,0:0:0:0:
256,192,583629,1,8,0:0:0:0:
256,192,583710,1,0,0:0:0:0:
256,192,583792,1,0,0:0:0:0:
256,192,583873,1,8,0:0:0:0:
256,192,584036,1,0,0:0:0:0:
256,192,584118,1,0,0:0:0:0:
256,192,584199,1,8,0:0:0:0:
256,192,584362,1,0,0:0:0:0:
256,192,584525,1,8,0:0:0:0:
256,192,584607,1,8,0:0:0:0:
256,192,584688,1,0,0:0:0:0:
256,192,584851,1,8,0:0:0:0:
256,192,585014,1,0,0:0:0:0:
256,192,585178,1,8,0:0:0:0:
256,192,585259,1,8,0:0:0:0:
256,192,585341,1,0,0:0:0:0:
256,192,585422,1,8,0:0:0:0:
256,192,585504,1,0,0:0:0:0:
256,192,585667,1,8,0:0:0:0:
256,192,585830,1,0,0:0:0:0:
256,192,585911,1,0,0:0:0:0:
256,192,585993,1,8,0:0:0:0:
256,192,586156,1,0,0:0:0:0:
256,192,586319,1,8,0:0:0:0:
256,192,586482,1,0,0:0:0:0:
256,192,586563,1,0,0:0:0:0:
256,192,586645,1,8,0:0:0:0:
256,192,586726,1,0,0:0:0:0:
256,192,586808,1,8,0:0:0:0:
256,192,586971,1,0,0:0:0:0:
256,192,587134,1,8,0:0:0:0:
256,192,587216,1,8,0:0:0:0:
256,192,587297,1,8,0:0:0:0:
256,192,587460,1,0,0:0:0:0:
256,192,587623,1,8,0:0:0:0:
256,192,587786,1,0,0:0:0:0:
256,192,587868,1,0,0:0:0:0:
256,192,587949,1,0,0:0:0:0:
256,192,588112,1,8,0:0:0:0:
256,192,588275,1,4,0:0:0:0:
256,192,589580,1,8,0:0:0:0:
256,192,589634,1,8,0:0:0:0:
256,192,589688,1,8,0:0:0:0:
256,192,589743,1,0,0:0:0:0:
256,192,589906,1,8,0:0:0:0:
256,192,589960,1,0,0:0:0:0:
256,192,590014,1,0,0:0:0:0:
256,192,590069,1,8,0:0:0:0:
256,192,590232,1,8,0:0:0:0:
256,192,590286,1,8,0:0:0:0:
256,192,590341,1,8,0:0:0:0:
256,192,590395,1,0,0:0:0:0:
256,192,590558,1,8,0:0:0:0:
256,192,590612,1,0,0:0:0:0:
256,192,590667,1,0,0:0:0:0:
256,192,590721,1,8,0:0:0:0:
256,192,590884,1,8,0:0:0:0:
256,192,590938,1,8,0:0:0:0:
256,192,590993,1,8,0:0:0:0:
256,192,591047,1,0,0:0:0:0:
256,192,591210,1,8,0:0:0:0:
256,192,591251,1,8,0:0:0:0:
256,192,591373,1,0,0:0:0:0:
256,192,591414,1,0,0:0:0:0:
256,192,591536,1,0,0:0:0:0:
256,192,591577,1,0,0:0:0:0:
256,192,591699,1,8,0:0:0:0:
256,192,591740,1,8,0:0:0:0:
256,192,591862,1,8,0:0:0:0:
256,192,591903,1,8,0:0:0:0:
256,192,592025,1,0,0:0:0:0:
256,192,592066,1,0,0:0:0:0:
256,192,592188,1,8,0:0:0:0:
256,192,592243,1,8,0:0:0:0:
256,192,592297,1,8,0:0:0:0:
256,192,592351,1,0,0:0:0:0:
256,192,592514,1,0,0:0:0:0:
256,192,592596,1,8,0:0:0:0:
256,192,592678,1,0,0:0:0:0:
256,192,592841,1,8,0:0:0:0:
256,192,592895,1,8,0:0:0:0:
256,192,592949,1,8,0:0:0:0:
256,192,593004,1,0,0:0:0:0:
256,192,593167,1,0,0:0:0:0:
256,192,593248,1,8,0:0:0:0:
256,192,593330,1,0,0:0:0:0:
256,192,593493,1,8,0:0:0:0:
256,192,593547,1,0,0:0:0:0:
256,192,593601,1,0,0:0:0:0:
256,192,593656,1,8,0:0:0:0:
256,192,593819,1,0,0:0:0:0:
256,192,593900,1,8,0:0:0:0:
256,192,593982,1,8,0:0:0:0:
256,192,594063,1,8,0:0:0:0:
256,192,594145,1,0,0:0:0:0:
256,192,594308,1,8,0:0:0:0:
256,192,594471,1,0,0:0:0:0:
256,192,594553,1,0,0:0:0:0:
256,192,594634,1,8,0:0:0:0:
256,192,594797,1,0,0:0:0:0:
256,192,594851,1,0,0:0:0:0:
256,192,594906,1,0,0:0:0:0:
256,192,594960,1,8,0:0:0:0:
256,192,595123,1,0,0:0:0:0:
256,192,595178,1,8,0:0:0:0:
256,192,595232,1,8,0:0:0:0:
256,192,595286,1,0,0:0:0:0:
256,192,595449,1,0,0:0:0:0:
256,192,595504,1,0,0:0:0:0:
256,192,595558,1,0,0:0:0:0:
256,192,595612,1,8,0:0:0:0:
256,192,595775,1,0,0:0:0:0:
256,192,595830,1,8,0:0:0:0:
256,192,595884,1,8,0:0:0:0:
256,192,595938,1,0,0:0:0:0:
256,192,596101,1,0,0:0:0:0:
256,192,596156,1,0,0:0:0:0:
256,192,596210,1,0,0:0:0:0:
256,192,596264,1,8,0:0:0:0:
256,192,596428,1,0,0:0:0:0:
256,192,596468,1,0,0:0:0:0:
256,192,596591,1,8,0:0:0:0:
256,192,596631,1,8,0:0:0:0:
256,192,596754,1,8,0:0:0:0:
256,192,596794,1,8,0:0:0:0:
256,192,596917,1,0,0:0:0:0:
256,192,596957,1,0,0:0:0:0:
256,192,597080,1,0,0:0:0:0:
256,192,597120,1,0,0:0:0:0:
256,192,597243,1,8,0:0:0:0:
256,192,597284,1,8,0:0:0:0:
256,192,597406,1,0,0:0:0:0:
256,192,597460,1,0,0:0:0:0:
256,192,597514,1,0,0:0:0:0:
256,192,597569,1,8,0:0:0:0:
256,192,597732,1,8,0:0:0:0:
256,192,597813,1,0,0:0:0:0:
256,192,597895,1,8,0:0:0:0:
256,192,598058,1,0,0:0:0:0:
256,192,598112,1,0,0:0:0:0:
256,192,598167,1,0,0:0:0:0:
256,192,598221,1,8,0:0:0:0:
256,192,598384,1,8,0:0:0:0:
256,192,598466,1,0,0:0:0:0:
256,192,598547,1,8,0:0:0:0:
256,192,598710,1,0,0:0:0:0:
256,192,598764,1,8,0:0:0:0:
256,192,598819,1,8,0:0:0:0:
256,192,598873,1,0,0:0:0:0:
256,192,599199,1,0,0:0:0:0:
256,192,599362,1,8,0:0:0:0:
256,192,599525,1,0,0:0:0:0:
256,192,599607,1,0,0:0:0:0:
256,192,599688,1,8,0:0:0:0:
256,192,599851,1,0,0:0:0:0:
256,192,600014,1,8,0:0:0:0:
256,192,600069,1,0,0:0:0:0:
256,192,600123,1,0,0:0:0:0:
256,192,600178,1,8,0:0:0:0:
256,192,600341,1,8,0:0:0:0:
256,192,600395,1,8,0:0:0:0:
256,192,600449,1,8,0:0:0:0:
256,192,600504,1,0,0:0:0:0:
256,192,600667,1,8,0:0:0:0:
256,192,600721,1,0,0:0:0:0:
256,192,600775,1,0,0:0:0:0:
256,192,600830,1,8,0:0:0:0:
256,192,600993,1,8,0:0:0:0:
256,192,601047,1,8,0:0:0:0:
256,192,601101,1,8,0:0:0:0:
256,192,601156,1,0,0:0:0:0:
256,192,601319,1,8,0:0:0:0:
256,192,601373,1,0,0:0:0:0:
256,192,601428,1,0,0:0:0:0:
256,192,601482,1,8,0:0:0:0:
256,192,601645,1,0,0:0:0:0:
256,192,601726,1,8,0:0:0:0:
256,192,601808,1,0,0:0:0:0:
256,192,601971,1,0,0:0:0:0:
256,192,602053,1,8,0:0:0:0:
256,192,602134,1,0,0:0:0:0:
256,192,602297,1,0,0:0:0:0:
256,192,602379,1,0,0:0:0:0:
256,192,602460,1,8,0:0:0:0:
256,192,602623,1,8,0:0:0:0:
256,192,602678,1,0,0:0:0:0:
256,192,602732,1,0,0:0:0:0:
256,192,602786,1,8,0:0:0:0:
256,192,602949,1,0,0:0:0:0:
256,192,603031,1,0,0:0:0:0:
256,192,603112,1,8,0:0:0:0:
256,192,603275,1,8,0:0:0:0:
256,192,603330,1,0,0:0:0:0:
256,192,603384,1,0,0:0:0:0:
256,192,603438,1,8,0:0:0:0:
256,192,603601,1,0,0:0:0:0:
256,192,603683,1,0,0:0:0:0:
256,192,603764,1,8,0:0:0:0:
256,192,603928,1,8,0:0:0:0:
256,192,603982,1,8,0:0:0:0:
256,192,604036,1,8,0:0:0:0:
256,192,604091,1,0,0:0:0:0:
256,192,604254,1,0,0:0:0:0:
256,192,604335,1,0,0:0:0:0:
256,192,604417,1,8,0:0:0:0:
256,192,604498,1,8,0:0:0:0:
256,192,604580,1,0,0:0:0:0:
256,192,604743,1,8,0:0:0:0:
256,192,604824,1,8,0:0:0:0:
256,192,604906,1,0,0:0:0:0:
256,192,604987,1,0,0:0:0:0:
256,192,605069,1,8,0:0:0:0:
256,192,605232,1,0,0:0:0:0:
256,192,605286,1,8,0:0:0:0:
256,192,605341,1,8,0:0:0:0:
256,192,605395,1,0,0:0:0:0:
256,192,605558,1,0,0:0:0:0:
256,192,605612,1,0,0:0:0:0:
256,192,605667,1,0,0:0:0:0:
256,192,605721,1,8,0:0:0:0:
256,192,605884,1,0,0:0:0:0:
256,192,605938,1,8,0:0:0:0:
256,192,605993,1,8,0:0:0:0:
256,192,606047,1,0,0:0:0:0:
256,192,606210,1,0,0:0:0:0:
256,192,606264,1,0,0:0:0:0:
256,192,606319,1,0,0:0:0:0:
256,192,606373,1,8,0:0:0:0:
256,192,606536,1,0,0:0:0:0:
256,192,606591,1,8,0:0:0:0:
256,192,606645,1,8,0:0:0:0:
256,192,606699,1,0,0:0:0:0:
256,192,606862,1,8,0:0:0:0:
256,192,606944,1,0,0:0:0:0:
256,192,607025,1,8,0:0:0:0:
256,192,607188,1,8,0:0:0:0:
256,192,607270,1,0,0:0:0:0:
256,192,607351,1,8,0:0:0:0:
256,192,607514,1,8,0:0:0:0:
256,192,607596,1,8,0:0:0:0:
256,192,607678,1,0,0:0:0:0:
256,192,607841,1,0,0:0:0:0:
256,192,607895,1,8,0:0:0:0:
256,192,607949,1,8,0:0:0:0:
256,192,608004,1,0,0:0:0:0:
256,192,608167,1,8,0:0:0:0:
256,192,608248,1,8,0:0:0:0:
256,192,608330,1,0,0:0:0:0:
256,192,608493,1,0,0:0:0:0:
256,192,608547,1,8,0:0:0:0:
256,192,608601,1,8,0:0:0:0:
256,192,608656,1,0,0:0:0:0:
256,192,608819,1,8,0:0:0:0:
256,192,608900,1,8,0:0:0:0:
256,192,608982,1,0,0:0:0:0:
256,192,609145,1,0,0:0:0:0:
256,192,609226,1,8,0:0:0:0:
256,192,609308,1,0,0:0:0:0:
256,192,609471,1,8,0:0:0:0:
256,192,609553,1,8,0:0:0:0:
256,192,609634,1,0,0:0:0:0:
256,192,609716,1,0,0:0:0:0:
256,192,609797,1,8,0:0:0:0:
256,192,610449,1,8,0:0:0:0:
256,192,610504,1,8,0:0:0:0:
256,192,610558,1,8,0:0:0:0:
256,192,610612,1,0,0:0:0:0:
256,192,610775,1,8,0:0:0:0:
256,192,610884,1,8,0:0:0:0:
256,192,610938,1,0,0:0:0:0:
256,192,611101,1,8,0:0:0:0:
256,192,611210,1,8,0:0:0:0:
256,192,611264,1,0,0:0:0:0:
256,192,611428,1,8,0:0:0:0:
256,192,611536,1,8,0:0:0:0:
256,192,611591,1,0,0:0:0:0:
256,192,611754,1,8,0:0:0:0:
256,192,611808,1,8,0:0:0:0:
256,192,611862,1,8,0:0:0:0:
256,192,611917,1,0,0:0:0:0:
256,192,612080,1,8,0:0:0:0:
256,192,612120,1,8,0:0:0:0:
256,192,612243,1,0,0:0:0:0:
256,192,612284,1,0,0:0:0:0:
256,192,612406,1,8,0:0:0:0:
256,192,612447,1,8,0:0:0:0:
256,192,612569,1,0,0:0:0:0:
256,192,612610,1,0,0:0:0:0:
256,192,612732,1,8,0:0:0:0:
256,192,612813,1,8,0:0:0:0:
256,192,612895,1,0,0:0:0:0:
256,192,613058,1,8,0:0:0:0:
256,192,613112,1,0,0:0:0:0:
256,192,613167,1,0,0:0:0:0:
256,192,613221,1,8,0:0:0:0:
256,192,613384,1,0,0:0:0:0:
256,192,613547,1,8,0:0:0:0:
256,192,613710,1,0,0:0:0:0:
256,192,613792,1,0,0:0:0:0:
256,192,613873,1,8,0:0:0:0:
256,192,613955,1,0,0:0:0:0:
256,192,614036,1,8,0:0:0:0:
256,192,614118,1,8,0:0:0:0:
256,192,614199,1,0,0:0:0:0:
256,192,614362,1,8,0:0:0:0:
256,192,614417,1,0,0:0:0:0:
256,192,614471,1,0,0:0:0:0:
256,192,614525,1,8,0:0:0:0:
256,192,614688,1,0,0:0:0:0:
256,192,614851,1,8,0:0:0:0:
256,192,615014,1,0,0:0:0:0:
256,192,615096,1,0,0:0:0:0:
256,192,615178,1,8,0:0:0:0:
256,192,615341,1,8,0:0:0:0:
256,192,615422,1,0,0:0:0:0:
256,192,615504,1,8,0:0:0:0:
256,192,615667,1,0,0:0:0:0:
256,192,615721,1,0,0:0:0:0:
256,192,615775,1,0,0:0:0:0:
256,192,615830,1,8,0:0:0:0:
256,192,615993,1,0,0:0:0:0:
256,192,616101,1,0,0:0:0:0:
256,192,616156,1,8,0:0:0:0:
256,192,616319,1,0,0:0:0:0:
256,192,616428,1,0,0:0:0:0:
256,192,616482,1,8,0:0:0:0:
256,192,616645,1,0,0:0:0:0:
256,192,616754,1,0,0:0:0:0:
256,192,616808,1,8,0:0:0:0:
256,192,616971,1,0,0:0:0:0:
256,192,617025,1,0,0:0:0:0:
256,192,617080,1,0,0:0:0:0:
256,192,617134,1,8,0:0:0:0:
256,192,617297,1,0,0:0:0:0:
256,192,617338,1,0,0:0:0:0:
256,192,617460,1,8,0:0:0:0:
256,192,617501,1,8,0:0:0:0:
256,192,617623,1,0,0:0:0:0:
256,192,617664,1,0,0:0:0:0:
256,192,617786,1,8,0:0:0:0:
256,192,617827,1,8,0:0:0:0:
256,192,617949,1,0,0:0:0:0:
256,192,617990,1,0,0:0:0:0:
256,192,618112,1,8,0:0:0:0:
256,192,618153,1,8,0:0:0:0:
256,192,618275,1,0,0:0:0:0:
256,192,618330,1,8,0:0:0:0:
256,192,618384,1,8,0:0:0:0:
256,192,618438,1,0,0:0:0:0:
256,192,618601,1,8,0:0:0:0:
256,192,618764,1,0,0:0:0:0:
256,192,618928,1,8,0:0:0:0:
256,192,619009,1,8,0:0:0:0:
256,192,619091,1,0,0:0:0:0:
256,192,619172,1,8,0:0:0:0:
256,192,619254,1,0,0:0:0:0:
256,192,619335,1,0,0:0:0:0:
256,192,619417,1,8,0:0:0:0:
256,192,619580,1,0,0:0:0:0:
256,192,619634,1,8,0:0:0:0:
256,192,619688,1,8,0:0:0:0:
256,192,619743,1,0,0:0:0:0:
256,192,620232,1,0,0:0:0:0:
256,192,620395,1,8,0:0:0:0:
256,192,620476,1,0,0:0:0:0:
256,192,620558,1,8,0:0:0:0:
256,192,620721,1,0,0:0:0:0:
256,192,620884,1,8,0:0:0:0:
256,192,620938,1,8,0:0:0:0:
256,192,620993,1,8,0:0:0:0:
256,192,621047,1,0,0:0:0:0:
256,192,621210,1,0,0:0:0:0:
256,192,621292,1,8,0:0:0:0:
256,192,621373,1,0,0:0:0:0:
256,192,621536,1,8,0:0:0:0:
256,192,621591,1,8,0:0:0:0:
256,192,621645,1,8,0:0:0:0:
256,192,621699,1,0,0:0:0:0:
256,192,621862,1,0,0:0:0:0:
256,192,621944,1,8,0:0:0:0:
256,192,622025,1,0,0:0:0:0:
256,192,622188,1,8,0:0:0:0:
256,192,622243,1,8,0:0:0:0:
256,192,622297,1,8,0:0:0:0:
256,192,622351,1,0,0:0:0:0:
256,192,622514,1,0,0:0:0:0:
256,192,622596,1,8,0:0:0:0:
256,192,622678,1,0,0:0:0:0:
256,192,622841,1,8,0:0:0:0:
256,192,622895,1,0,0:0:0:0:
256,192,622949,1,0,0:0:0:0:
256,192,623004,1,8,0:0:0:0:
256,192,623167,1,0,0:0:0:0:
256,192,623248,1,8,0:0:0:0:
256,192,623330,1,0,0:0:0:0:
256,192,623493,1,8,0:0:0:0:
256,192,623547,1,8,0:0:0:0:
256,192,623601,1,8,0:0:0:0:
256,192,623656,1,0,0:0:0:0:
256,192,623819,1,8,0:0:0:0:
256,192,623982,1,0,0:0:0:0:
256,192,624145,1,8,0:0:0:0:
256,192,624226,1,8,0:0:0:0:
256,192,624308,1,0,0:0:0:0:
256,192,624389,1,0,0:0:0:0:
256,192,624471,1,8,0:0:0:0:
256,192,624634,1,0,0:0:0:0:
256,192,624797,1,8,0:0:0:0:
256,192,624851,1,8,0:0:0:0:
256,192,624906,1,8,0:0:0:0:
256,192,624960,1,0,0:0:0:0:
256,192,625123,1,8,0:0:0:0:
256,192,625286,1,0,0:0:0:0:
256,192,625449,1,8,0:0:0:0:
256,192,625531,1,8,0:0:0:0:
256,192,625612,1,0,0:0:0:0:
256,192,625775,1,8,0:0:0:0:
256,192,625938,1,8,0:0:0:0:
256,192,626101,1,0,0:0:0:0:
256,192,626156,1,0,0:0:0:0:
256,192,626210,1,0,0:0:0:0:
256,192,626264,1,8,0:0:0:0:
256,192,626428,1,8,0:0:0:0:
256,192,626509,1,0,0:0:0:0:
256,192,626591,1,8,0:0:0:0:
256,192,626754,1,0,0:0:0:0:
256,192,626808,1,0,0:0:0:0:
256,192,626862,1,0,0:0:0:0:
256,192,626917,1,8,0:0:0:0:
256,192,627080,1,8,0:0:0:0:
256,192,627161,1,0,0:0:0:0:
256,192,627243,1,8,0:0:0:0:
256,192,627406,1,0,0:0:0:0:
256,192,627460,1,0,0:0:0:0:
256,192,627514,1,0,0:0:0:0:
256,192,627569,1,8,0:0:0:0:
256,192,627732,1,8,0:0:0:0:
256,192,627813,1,0,0:0:0:0:
256,192,627895,1,8,0:0:0:0:
256,192,628058,1,0,0:0:0:0:
256,192,628221,1,8,0:0:0:0:
256,192,628303,1,8,0:0:0:0:
256,192,628384,1,0,0:0:0:0:
256,192,628547,1,8,0:0:0:0:
256,192,628710,1,0,0:0:0:0:
256,192,628792,1,8,0:0:0:0:
256,192,628873,1,0,0:0:0:0:
256,192,628955,1,0,0:0:0:0:
256,192,629036,1,8,0:0:0:0:
256,192,629199,1,0,0:0:0:0:
256,192,629362,1,8,0:0:0:0:
256,192,629444,1,8,0:0:0:0:
256,192,629525,1,0,0:0:0:0:
256,192,629607,1,0,0:0:0:0:
256,192,629688,1,8,0:0:0:0:
256,192,629851,1,0,0:0:0:0:
256,192,630014,1,8,0:0:0:0:
256,192,630096,1,0,0:0:0:0:
256,192,630178,1,8,0:0:0:0:
256,192,630341,1,0,0:0:0:0:
256,192,630504,1,0,0:0:0:0:
256,192,630667,1,8,0:0:0:0:
256,192,631319,1,4,0:0:0:0:
256,192,631808,1,8,0:0:0:0:
256,192,632134,1,8,0:0:0:0:
256,192,632297,1,0,0:0:0:0:
256,192,632460,1,8,0:0:0:0:
256,192,632786,1,8,0:0:0:0:
256,192,632949,1,0,0:0:0:0:
256,192,633112,1,8,0:0:0:0:
256,192,633438,1,8,0:0:0:0:
256,192,633601,1,0,0:0:0:0:
256,192,633683,1,0,0:0:0:0:
256,192,633764,1,8,0:0:0:0:
256,192,633846,1,8,0:0:0:0:
256,192,633928,1,0,0:0:0:0:
256,192,634091,1,8,0:0:0:0:
256,192,634254,1,0,0:0:0:0:
256,192,634417,1,8,0:0:0:0:
256,192,634743,1,8,0:0:0:0:
256,192,634906,1,0,0:0:0:0:
256,192,635069,1,8,0:0:0:0:
256,192,635232,1,8,0:0:0:0:
256,192,635395,1,0,0:0:0:0:
256,192,635476,1,8,0:0:0:0:
256,192,635721,1,8,0:0:0:0:
256,192,635884,1,0,0:0:0:0:
256,192,635966,1,8,0:0:0:0:
256,192,636129,1,8,0:0:0:0:
256,192,636210,1,0,0:0:0:0:
256,192,636292,1,0,0:0:0:0:
256,192,636373,1,8,0:0:0:0:
256,192,636455,1,8,0:0:0:0:
256,192,636536,1,0,0:0:0:0:
256,192,636699,1,8,0:0:0:0:
256,192,636862,1,0,0:0:0:0:
256,192,637025,1,8,0:0:0:0:
256,192,637351,1,8,0:0:0:0:
256,192,637514,1,0,0:0:0:0:
256,192,637678,1,8,0:0:0:0:
256,192,637841,1,8,0:0:0:0:
256,192,638004,1,0,0:0:0:0:
256,192,638085,1,8,0:0:0:0:
256,192,638330,1,8,0:0:0:0:
256,192,638411,1,0,0:0:0:0:
256,192,638574,1,8,0:0:0:0:
256,192,638737,1,8,0:0:0:0:
256,192,638819,1,0,0:0:0:0:
256,192,638900,1,0,0:0:0:0:
256,192,638982,1,8,0:0:0:0:
256,192,639063,1,0,0:0:0:0:
256,192,639145,1,8,0:0:0:0:
256,192,639308,1,0,0:0:0:0:
256,192,639389,1,8,0:0:0:0:
256,192,639634,1,8,0:0:0:0:
256,192,639960,1,8,0:0:0:0:
256,192,640123,1,8,0:0:0:0:
256,192,640286,1,0,0:0:0:0:
256,192,640368,1,8,0:0:0:0:
256,192,640531,1,8,0:0:0:0:
256,192,640612,1,0,0:0:0:0:
256,192,640694,1,0,0:0:0:0:
256,192,640775,1,8,0:0:0:0:
256,192,640938,1,8,0:0:0:0:
256,192,641101,1,0,0:0:0:0:
256,192,641264,1,8,0:0:0:0:
256,192,641319,1,8,0:0:0:0:
256,192,641373,1,8,0:0:0:0:
256,192,641428,1,0,0:0:0:0:
256,192,641536,1,0,0:0:0:0:
256,192,641645,1,0,0:0:0:0:
256,192,641754,1,8,0:0:0:0:
256,192,641917,1,0,0:0:0:0:
256,192,641998,1,8,0:0:0:0:
256,192,642080,1,0,0:0:0:0:
256,192,642243,1,8,0:0:0:0:
256,192,642324,1,8,0:0:0:0:
256,192,642406,1,0,0:0:0:0:
256,192,642487,1,8,0:0:0:0:
256,192,642569,1,0,0:0:0:0:
256,192,642732,1,8,0:0:0:0:
256,192,642813,1,0,0:0:0:0:
256,192,642895,1,0,0:0:0:0:
256,192,642976,1,8,0:0:0:0:
256,192,643139,1,0,0:0:0:0:
256,192,643221,1,8,0:0:0:0:
256,192,643303,1,8,0:0:0:0:
256,192,643384,1,0,0:0:0:0:
256,192,643466,1,8,0:0:0:0:
256,192,643629,1,0,0:0:0:0:
256,192,643710,1,8,0:0:0:0:
256,192,643873,1,0,0:0:0:0:
256,192,643955,1,8,0:0:0:0:
256,192,644036,1,8,0:0:0:0:
256,192,644118,1,8,0:0:0:0:
256,192,644199,1,0,0:0:0:0:
256,192,644362,1,8,0:0:0:0:
256,192,644525,1,0,0:0:0:0:
256,192,644607,1,8,0:0:0:0:
256,192,644688,1,0,0:0:0:0:
256,192,644851,1,8,0:0:0:0:
256,192,644933,1,8,0:0:0:0:
256,192,645014,1,0,0:0:0:0:
256,192,645096,1,8,0:0:0:0:
256,192,645178,1,0,0:0:0:0:
256,192,645341,1,8,0:0:0:0:
256,192,645422,1,0,0:0:0:0:
256,192,645504,1,0,0:0:0:0:
256,192,645585,1,8,0:0:0:0:
256,192,645748,1,0,0:0:0:0:
256,192,645830,1,8,0:0:0:0:
256,192,645911,1,8,0:0:0:0:
256,192,645993,1,0,0:0:0:0:
256,192,646074,1,8,0:0:0:0:
256,192,646237,1,0,0:0:0:0:
256,192,646319,1,8,0:0:0:0:
256,192,646482,1,0,0:0:0:0:
256,192,646563,1,8,0:0:0:0:
256,192,646645,1,8,0:0:0:0:
256,192,646726,1,8,0:0:0:0:
256,192,646808,1,0,0:0:0:0:
256,192,646971,1,8,0:0:0:0:
256,192,647134,1,0,0:0:0:0:
256,192,647216,1,0,0:0:0:0:
256,192,647297,1,8,0:0:0:0:
256,192,647460,1,0,0:0:0:0:
256,192,647623,1,8,0:0:0:0:
256,192,647705,1,0,0:0:0:0:
256,192,647786,1,0,0:0:0:0:
256,192,647868,1,0,0:0:0:0:
256,192,647949,1,8,0:0:0:0:
256,192,648112,1,0,0:0:0:0:
256,192,648275,1,8,0:0:0:0:
256,192,648438,1,0,0:0:0:0:
256,192,648520,1,0,0:0:0:0:
256,192,648601,1,8,0:0:0:0:
256,192,648764,1,0,0:0:0:0:
256,192,648928,1,8,0:0:0:0:
256,192,649009,1,8,0:0:0:0:
256,192,649091,1,0,0:0:0:0:
256,192,649172,1,0,0:0:0:0:
256,192,649254,1,8,0:0:0:0:
256,192,649417,1,0,0:0:0:0:
256,192,649580,1,8,0:0:0:0:
256,192,649661,1,8,0:0:0:0:
256,192,649743,1,0,0:0:0:0:
256,192,649824,1,0,0:0:0:0:
256,192,649906,1,8,0:0:0:0:
256,192,649987,1,0,0:0:0:0:
256,192,650069,1,8,0:0:0:0:
256,192,650150,1,0,0:0:0:0:
256,192,650232,1,8,0:0:0:0:
256,192,650313,1,8,0:0:0:0:
256,192,650395,1,0,0:0:0:0:
256,192,650476,1,0,0:0:0:0:
256,192,650558,1,8,0:0:0:0:
256,192,650639,1,0,0:0:0:0:
256,192,650721,1,8,0:0:0:0:
256,192,650803,1,0,0:0:0:0:
256,192,650884,1,8,0:0:0:0:
256,192,650938,1,8,0:0:0:0:
256,192,650993,1,8,0:0:0:0:
256,192,651047,1,0,0:0:0:0:
256,192,651129,1,0,0:0:0:0:
256,192,651210,1,8,0:0:0:0:
256,192,651264,1,8,0:0:0:0:
256,192,651319,1,8,0:0:0:0:
256,192,651373,1,0,0:0:0:0:
256,192,651455,1,0,0:0:0:0:
256,192,651536,1,8,0:0:0:0:
256,192,651699,1,0,0:0:0:0:
256,192,651781,1,8,0:0:0:0:
256,192,651862,1,8,0:0:0:0:
256,192,651944,1,0,0:0:0:0:
256,192,652025,1,8,0:0:0:0:
256,192,652188,1,4,0:0:0:0:
256,192,652351,1,8,0:0:0:0:
256,192,652514,1,0,0:0:0:0:
256,192,652569,1,0,0:0:0:0:
256,192,652623,1,0,0:0:0:0:
256,192,652678,1,8,0:0:0:0:
256,192,652841,1,8,0:0:0:0:
256,192,652895,1,8,0:0:0:0:
256,192,652949,1,8,0:0:0:0:
256,192,653004,1,0,0:0:0:0:
256,192,653167,1,8,0:0:0:0:
256,192,653248,1,0,0:0:0:0:
256,192,653330,1,8,0:0:0:0:
256,192,653411,1,8,0:0:0:0:
256,192,653493,1,0,0:0:0:0:
256,192,653656,1,8,0:0:0:0:
256,192,653819,1,0,0:0:0:0:
256,192,653873,1,0,0:0:0:0:
256,192,653928,1,0,0:0:0:0:
256,192,653982,1,8,0:0:0:0:
256,192,654145,1,8,0:0:0:0:
256,192,654199,1,8,0:0:0:0:
256,192,654254,1,8,0:0:0:0:
256,192,654308,1,0,0:0:0:0:
256,192,654471,1,8,0:0:0:0:
256,192,654553,1,0,0:0:0:0:
256,192,654634,1,8,0:0:0:0:
256,192,654797,1,0,0:0:0:0:
256,192,654960,1,8,0:0:0:0:
256,192,655042,1,8,0:0:0:0:
256,192,655123,1,0,0:0:0:0:
256,192,655205,1,0,0:0:0:0:
256,192,655286,1,8,0:0:0:0:
256,192,655327,1,8,0:0:0:0:
256,192,655449,1,0,0:0:0:0:
256,192,655531,1,8,0:0:0:0:
256,192,655572,1,8,0:0:0:0:
256,192,655694,1,0,0:0:0:0:
256,192,655775,1,8,0:0:0:0:
256,192,655857,1,0,0:0:0:0:
256,192,655938,1,8,0:0:0:0:
256,192,655993,1,8,0:0:0:0:
256,192,656047,1,8,0:0:0:0:
256,192,656101,1,0,0:0:0:0:
256,192,656264,1,8,0:0:0:0:
256,192,656346,1,8,0:0:0:0:
256,192,656428,1,0,0:0:0:0:
256,192,656509,1,0,0:0:0:0:
256,192,656591,1,8,0:0:0:0:
256,192,656631,1,8,0:0:0:0:
256,192,656754,1,0,0:0:0:0:
256,192,656835,1,8,0:0:0:0:
256,192,656876,1,8,0:0:0:0:
256,192,656998,1,0,0:0:0:0:
256,192,657080,1,8,0:0:0:0:
256,192,657243,1,8,0:0:0:0:
256,192,657324,1,8,0:0:0:0:
256,192,657406,1,0,0:0:0:0:
256,192,657569,1,8,0:0:0:0:
256,192,657732,1,0,0:0:0:0:
256,192,657786,1,0,0:0:0:0:
256,192,657841,1,0,0:0:0:0:
256,192,657895,1,8,0:0:0:0:
256,192,658058,1,8,0:0:0:0:
256,192,658112,1,8,0:0:0:0:
256,192,658167,1,8,0:0:0:0:
256,192,658221,1,0,0:0:0:0:
256,192,658384,1,8,0:0:0:0:
256,192,658466,1,0,0:0:0:0:
256,192,658547,1,8,0:0:0:0:
256,192,658629,1,8,0:0:0:0:
256,192,658710,1,0,0:0:0:0:
256,192,658873,1,8,0:0:0:0:
256,192,659036,1,0,0:0:0:0:
256,192,659091,1,0,0:0:0:0:
256,192,659145,1,0,0:0:0:0:
256,192,659199,1,8,0:0:0:0:
256,192,659362,1,8,0:0:0:0:
256,192,659417,1,8,0:0:0:0:
256,192,659471,1,8,0:0:0:0:
256,192,659525,1,0,0:0:0:0:
256,192,659688,1,8,0:0:0:0:
256,192,659770,1,0,0:0:0:0:
256,192,659851,1,8,0:0:0:0:
256,192,660014,1,0,0:0:0:0:
256,192,660178,1,8,0:0:0:0:
256,192,660259,1,8,0:0:0:0:
256,192,660341,1,0,0:0:0:0:
256,192,660422,1,0,0:0:0:0:
256,192,660504,1,8,0:0:0:0:
256,192,660544,1,8,0:0:0:0:
256,192,660667,1,0,0:0:0:0:
256,192,660748,1,8,0:0:0:0:
256,192,660789,1,8,0:0:0:0:
256,192,660911,1,0,0:0:0:0:
256,192,660993,1,8,0:0:0:0:
256,192,661074,1,0,0:0:0:0:
256,192,661156,1,8,0:0:0:0:
256,192,661210,1,8,0:0:0:0:
256,192,661264,1,8,0:0:0:0:
256,192,661319,1,0,0:0:0:0:
256,192,661482,1,8,0:0:0:0:
256,192,661563,1,8,0:0:0:0:
256,192,661645,1,0,0:0:0:0:
256,192,661726,1,0,0:0:0:0:
256,192,661808,1,8,0:0:0:0:
256,192,661849,1,8,0:0:0:0:
256,192,661971,1,0,0:0:0:0:
256,192,662053,1,8,0:0:0:0:
256,192,662093,1,8,0:0:0:0:
256,192,662216,1,0,0:0:0:0:
256,192,662297,1,8,0:0:0:0:
256,192,662460,1,8,0:0:0:0:
256,192,662542,1,0,0:0:0:0:
256,192,662623,1,8,0:0:0:0:
256,192,662786,1,0,0:0:0:0:
256,192,662949,1,8,0:0:0:0:
256,192,663004,1,8,0:0:0:0:
256,192,663058,1,8,0:0:0:0:
256,192,663112,1,0,0:0:0:0:
256,192,663275,1,0,0:0:0:0:
256,192,663330,1,0,0:0:0:0:
256,192,663384,1,0,0:0:0:0:
256,192,663438,1,8,0:0:0:0:
256,192,663601,1,0,0:0:0:0:
256,192,663683,1,8,0:0:0:0:
256,192,663764,1,0,0:0:0:0:
256,192,663846,1,0,0:0:0:0:
256,192,663928,1,8,0:0:0:0:
256,192,664091,1,0,0:0:0:0:
256,192,664254,1,8,0:0:0:0:
256,192,664308,1,8,0:0:0:0:
256,192,664362,1,8,0:0:0:0:
256,192,664417,1,0,0:0:0:0:
256,192,664498,1,8,0:0:0:0:
256,192,664580,1,0,0:0:0:0:
256,192,664634,1,0,0:0:0:0:
256,192,664688,1,0,0:0:0:0:
256,192,664743,1,8,0:0:0:0:
256,192,664906,1,0,0:0:0:0:
256,192,664987,1,8,0:0:0:0:
256,192,665069,1,0,0:0:0:0:
256,192,665232,1,8,0:0:0:0:
256,192,665395,1,0,0:0:0:0:
256,192,665476,1,0,0:0:0:0:
256,192,665558,1,8,0:0:0:0:
256,192,665639,1,8,0:0:0:0:
256,192,665721,1,0,0:0:0:0:
256,192,665762,1,0,0:0:0:0:
256,192,665884,1,8,0:0:0:0:
256,192,665966,1,0,0:0:0:0:
256,192,666047,1,8,0:0:0:0:
256,192,666129,1,0,0:0:0:0:
256,192,666169,1,0,0:0:0:0:
256,192,666292,1,8,0:0:0:0:
256,192,666373,1,0,0:0:0:0:
256,192,666428,1,0,0:0:0:0:
256,192,666482,1,0,0:0:0:0:
256,192,666536,1,8,0:0:0:0:
256,192,666699,1,0,0:0:0:0:
256,192,666781,1,0,0:0:0:0:
256,192,666862,1,8,0:0:0:0:
256,192,666944,1,8,0:0:0:0:
256,192,667025,1,0,0:0:0:0:
256,192,667066,1,0,0:0:0:0:
256,192,667188,1,8,0:0:0:0:
256,192,667270,1,0,0:0:0:0:
256,192,667351,1,8,0:0:0:0:
256,192,667433,1,0,0:0:0:0:
256,192,667474,1,0,0:0:0:0:
256,192,667596,1,8,0:0:0:0:
256,192,667678,1,0,0:0:0:0:
256,192,667759,1,0,0:0:0:0:
256,192,667841,1,8,0:0:0:0:
256,192,668004,1,0,0:0:0:0:
256,192,668167,1,8,0:0:0:0:
256,192,668221,1,8,0:0:0:0:
256,192,668275,1,8,0:0:0:0:
256,192,668330,1,0,0:0:0:0:
256,192,668493,1,0,0:0:0:0:
256,192,668547,1,0,0:0:0:0:
256,192,668601,1,0,0:0:0:0:
256,192,668656,1,8,0:0:0:0:
256,192,668819,1,0,0:0:0:0:
256,192,668900,1,8,0:0:0:0:
256,192,668982,1,0,0:0:0:0:
256,192,669063,1,0,0:0:0:0:
256,192,669145,1,8,0:0:0:0:
256,192,669308,1,0,0:0:0:0:
256,192,669471,1,8,0:0:0:0:
256,192,669525,1,8,0:0:0:0:
256,192,669580,1,8,0:0:0:0:
256,192,669634,1,0,0:0:0:0:
256,192,669716,1,8,0:0:0:0:
256,192,669797,1,0,0:0:0:0:
256,192,669851,1,0,0:0:0:0:
256,192,669906,1,0,0:0:0:0:
256,192,669960,1,8,0:0:0:0:
256,192,670123,1,0,0:0:0:0:
256,192,670205,1,0,0:0:0:0:
256,192,670286,1,0,0:0:0:0:
256,192,670449,1,8,0:0:0:0:
256,192,670612,1,0,0:0:0:0:
256,192,670694,1,8,0:0:0:0:
256,192,670775,1,0,0:0:0:0:
256,192,670938,1,8,0:0:0:0:
256,192,671020,1,8,0:0:0:0:
256,192,671101,1,0,0:0:0:0:
256,192,671183,1,8,0:0:0:0:
256,192,671264,1,0,0:0:0:0:
256,192,671428,1,8,0:0:0:0:
256,192,671509,1,8,0:0:0:0:
256,192,671591,1,0,0:0:0:0:
256,192,671672,1,8,0:0:0:0:
256,192,671754,1,0,0:0:0:0:
256,192,671835,1,0,0:0:0:0:
256,192,671917,1,8,0:0:0:0:
256,192,671998,1,8,0:0:0:0:
256,192,672080,1,0,0:0:0:0:
256,192,672161,1,8,0:0:0:0:
256,192,672243,1,0,0:0:0:0:
256,192,672324,1,0,0:0:0:0:
256,192,672406,1,8,0:0:0:0:
256,192,672460,1,8,0:0:0:0:
256,192,672514,1,8,0:0:0:0:
256,192,672569,1,8,0:0:0:0:
256,192,672623,1,8,0:0:0:0:
256,192,672678,1,8,0:0:0:0:
256,192,672732,1,0,0:0:0:0:
256,192,672895,1,8,0:0:0:0:
256,192,673058,1,4,0:0:0:0:
256,192,673303,1,0,0:0:0:0:
256,192,673384,1,8,0:0:0:0:
256,192,673547,1,0,0:0:0:0:
256,192,673710,1,8,0:0:0:0:
256,192,673792,1,8,0:0:0:0:
256,192,673873,1,0,0:0:0:0:
256,192,674036,1,8,0:0:0:0:
256,192,674199,1,0,0:0:0:0:
256,192,674281,1,8,0:0:0:0:
256,192,674362,1,0,0:0:0:0:
256,192,674525,1,8,0:0:0:0:
256,192,674607,1,0,0:0:0:0:
256,192,674688,1,8,0:0:0:0:
256,192,674770,1,8,0:0:0:0:
256,192,674851,1,0,0:0:0:0:
256,192,675014,1,8,0:0:0:0:
256,192,675096,1,8,0:0:0:0:
256,192,675178,1,0,0:0:0:0:
256,192,675259,1,8,0:0:0:0:
256,192,675341,1,8,0:0:0:0:
256,192,675504,1,0,0:0:0:0:
256,192,675585,1,8,0:0:0:0:
256,192,675667,1,0,0:0:0:0:
256,192,675830,1,8,0:0:0:0:
256,192,675911,1,0,0:0:0:0:
256,192,675993,1,8,0:0:0:0:
256,192,676156,1,0,0:0:0:0:
256,192,676319,1,8,0:0:0:0:
256,192,676400,1,8,0:0:0:0:
256,192,676482,1,0,0:0:0:0:
256,192,676645,1,8,0:0:0:0:
256,192,676808,1,0,0:0:0:0:
256,192,676889,1,8,0:0:0:0:
256,192,676971,1,0,0:0:0:0:
256,192,677134,1,8,0:0:0:0:
256,192,677216,1,0,0:0:0:0:
256,192,677297,1,8,0:0:0:0:
256,192,677379,1,8,0:0:0:0:
256,192,677460,1,0,0:0:0:0:
256,192,677623,1,8,0:0:0:0:
256,192,677705,1,8,0:0:0:0:
256,192,677786,1,0,0:0:0:0:
256,192,677868,1,8,0:0:0:0:
256,192,677949,1,8,0:0:0:0:
256,192,678112,1,0,0:0:0:0:
256,192,678194,1,0,0:0:0:0:
256,192,678275,1,8,0:0:0:0:
256,192,678438,1,0,0:0:0:0:
256,192,678520,1,8,0:0:0:0:
256,192,678601,1,0,0:0:0:0:
256,192,678764,1,8,0:0:0:0:
256,192,678928,1,0,0:0:0:0:
256,192,679009,1,0,0:0:0:0:
256,192,679091,1,8,0:0:0:0:
256,192,679254,1,0,0:0:0:0:
256,192,679417,1,8,0:0:0:0:
256,192,679498,1,0,0:0:0:0:
256,192,679580,1,8,0:0:0:0:
256,192,679743,1,0,0:0:0:0:
256,192,679824,1,8,0:0:0:0:
256,192,679906,1,0,0:0:0:0:
256,192,679987,1,0,0:0:0:0:
256,192,680069,1,8,0:0:0:0:
256,192,680232,1,0,0:0:0:0:
256,192,680313,1,0,0:0:0:0:
256,192,680395,1,8,0:0:0:0:
256,192,680476,1,0,0:0:0:0:
256,192,680558,1,0,0:0:0:0:
256,192,680721,1,8,0:0:0:0:
256,192,680803,1,0,0:0:0:0:
256,192,680884,1,8,0:0:0:0:
256,192,681047,1,0,0:0:0:0:
256,192,681129,1,8,0:0:0:0:
256,192,681210,1,0,0:0:0:0:
256,192,681373,1,8,0:0:0:0:
256,192,681536,1,0,0:0:0:0:
256,192,681618,1,0,0:0:0:0:
256,192,681699,1,8,0:0:0:0:
256,192,681862,1,0,0:0:0:0:
256,192,682025,1,8,0:0:0:0:
256,192,682107,1,0,0:0:0:0:
256,192,682188,1,8,0:0:0:0:
256,192,682351,1,0,0:0:0:0:
256,192,682433,1,8,0:0:0:0:
256,192,682514,1,0,0:0:0:0:
256,192,682596,1,0,0:0:0:0:
256,192,682678,1,8,0:0:0:0:
256,192,682841,1,0,0:0:0:0:
256,192,682922,1,0,0:0:0:0:
256,192,683004,1,8,0:0:0:0:
256,192,683085,1,0,0:0:0:0:
256,192,683167,1,0,0:0:0:0:
256,192,683330,1,8,0:0:0:0:
256,192,683493,1,0,0:0:0:0:
256,192,683656,1,8,0:0:0:0:
256,192,683737,1,0,0:0:0:0:
256,192,683819,1,8,0:0:0:0:
256,192,683900,1,8,0:0:0:0:
256,192,683982,1,0,0:0:0:0:
256,192,684063,1,8,0:0:0:0:
256,192,684145,1,8,0:0:0:0:
256,192,684308,1,0,0:0:0:0:
256,192,684389,1,8,0:0:0:0:
256,192,684471,1,8,0:0:0:0:
256,192,684553,1,8,0:0:0:0:
256,192,684634,1,0,0:0:0:0:
256,192,684716,1,8,0:0:0:0:
256,192,684797,1,0,0:0:0:0:
256,192,684960,1,8,0:0:0:0:
256,192,685042,1,0,0:0:0:0:
256,192,685123,1,8,0:0:0:0:
256,192,685205,1,8,0:0:0:0:
256,192,685286,1,0,0:0:0:0:
256,192,685368,1,8,0:0:0:0:
256,192,685449,1,8,0:0:0:0:
256,192,685531,1,8,0:0:0:0:
256,192,685612,1,0,0:0:0:0:
256,192,685694,1,8,0:0:0:0:
256,192,685775,1,8,0:0:0:0:
256,192,685938,1,0,0:0:0:0:
256,192,686020,1,8,0:0:0:0:
256,192,686101,1,0,0:0:0:0:
256,192,686264,1,8,0:0:0:0:
256,192,686346,1,0,0:0:0:0:
256,192,686428,1,8,0:0:0:0:
256,192,686509,1,8,0:0:0:0:
256,192,686591,1,0,0:0:0:0:
256,192,686672,1,8,0:0:0:0:
256,192,686754,1,8,0:0:0:0:
256,192,686917,1,0,0:0:0:0:
256,192,686998,1,8,0:0:0:0:
256,192,687080,1,8,0:0:0:0:
256,192,687161,1,8,0:0:0:0:
256,192,687243,1,0,0:0:0:0:
256,192,687324,1,8,0:0:0:0:
256,192,687406,1,0,0:0:0:0:
256,192,687569,1,8,0:0:0:0:
256,192,687650,1,0,0:0:0:0:
256,192,687732,1,8,0:0:0:0:
256,192,687813,1,8,0:0:0:0:
256,192,687895,1,0,0:0:0:0:
256,192,687976,1,8,0:0:0:0:
256,192,688058,1,8,0:0:0:0:
256,192,688139,1,8,0:0:0:0:
256,192,688221,1,0,0:0:0:0:
256,192,688303,1,8,0:0:0:0:
256,192,688384,1,8,0:0:0:0:
256,192,688466,1,8,0:0:0:0:
256,192,688547,1,0,0:0:0:0:
256,192,688629,1,0,0:0:0:0:
256,192,688710,1,8,0:0:0:0:
256,192,688873,1,0,0:0:0:0:
256,192,688955,1,8,0:0:0:0:
256,192,689036,1,0,0:0:0:0:
256,192,689118,1,0,0:0:0:0:
256,192,689199,1,8,0:0:0:0:
256,192,689281,1,0,0:0:0:0:
256,192,689362,1,0,0:0:0:0:
256,192,689525,1,8,0:0:0:0:
256,192,689607,1,0,0:0:0:0:
256,192,689688,1,0,0:0:0:0:
256,192,689770,1,0,0:0:0:0:
256,192,689851,1,8,0:0:0:0:
256,192,689933,1,0,0:0:0:0:
256,192,690014,1,8,0:0:0:0:
256,192,690178,1,0,0:0:0:0:
256,192,690259,1,8,0:0:0:0:
256,192,690341,1,0,0:0:0:0:
256,192,690422,1,0,0:0:0:0:
256,192,690504,1,8,0:0:0:0:
256,192,690585,1,0,0:0:0:0:
256,192,690667,1,0,0:0:0:0:
256,192,690748,1,0,0:0:0:0:
256,192,690830,1,8,0:0:0:0:
256,192,690911,1,0,0:0:0:0:
256,192,690993,1,0,0:0:0:0:
256,192,691156,1,8,0:0:0:0:
256,192,691237,1,0,0:0:0:0:
256,192,691319,1,8,0:0:0:0:
256,192,691482,1,0,0:0:0:0:
256,192,691563,1,8,0:0:0:0:
256,192,691645,1,0,0:0:0:0:
256,192,691726,1,0,0:0:0:0:
256,192,691808,1,8,0:0:0:0:
256,192,691971,1,0,0:0:0:0:
256,192,692053,1,8,0:0:0:0:
256,192,692134,1,0,0:0:0:0:
256,192,692297,1,8,0:0:0:0:
256,192,692460,1,0,0:0:0:0:
256,192,692542,1,8,0:0:0:0:
256,192,692786,1,8,0:0:0:0:
256,192,692949,1,0,0:0:0:0:
256,192,693031,1,8,0:0:0:0:
256,192,693275,1,8,0:0:0:0:
256,192,693601,1,0,0:0:0:0:
256,192,693764,1,8,0:0:0:0:
256,192,693928,1,4,0:0:0:0:
256,192,694172,1,8,0:0:0:0:
256,192,694254,1,0,0:0:0:0:
256,192,694417,1,8,0:0:0:0:
256,192,694580,1,0,0:0:0:0:
256,192,694661,1,0,0:0:0:0:
256,192,694743,1,8,0:0:0:0:
256,192,694906,1,0,0:0:0:0:
256,192,694987,1,8,0:0:0:0:
256,192,695150,1,8,0:0:0:0:
256,192,695232,1,0,0:0:0:0:
256,192,695395,1,8,0:0:0:0:
256,192,695476,1,8,0:0:0:0:
256,192,695558,1,0,0:0:0:0:
256,192,695721,1,8,0:0:0:0:
256,192,695884,1,0,0:0:0:0:
256,192,695966,1,8,0:0:0:0:
256,192,696129,1,0,0:0:0:0:
256,192,696210,1,8,0:0:0:0:
256,192,696292,1,0,0:0:0:0:
256,192,696373,1,8,0:0:0:0:
256,192,696455,1,8,0:0:0:0:
256,192,696536,1,0,0:0:0:0:
256,192,696781,1,8,0:0:0:0:
256,192,696862,1,0,0:0:0:0:
256,192,697025,1,8,0:0:0:0:
256,192,697188,1,0,0:0:0:0:
256,192,697270,1,0,0:0:0:0:
256,192,697351,1,8,0:0:0:0:
256,192,697514,1,0,0:0:0:0:
256,192,697678,1,8,0:0:0:0:
256,192,697759,1,8,0:0:0:0:
256,192,697841,1,0,0:0:0:0:
256,192,698085,1,8,0:0:0:0:
256,192,698167,1,0,0:0:0:0:
256,192,698330,1,8,0:0:0:0:
256,192,698493,1,0,0:0:0:0:
256,192,698574,1,8,0:0:0:0:
256,192,698737,1,0,0:0:0:0:
256,192,698819,1,8,0:0:0:0:
256,192,698900,1,8,0:0:0:0:
256,192,698982,1,8,0:0:0:0:
256,192,699063,1,8,0:0:0:0:
256,192,699145,1,0,0:0:0:0:
256,192,699389,1,8,0:0:0:0:
256,192,699471,1,0,0:0:0:0:
256,192,699634,1,8,0:0:0:0:
256,192,699797,1,0,0:0:0:0:
256,192,699879,1,0,0:0:0:0:
256,192,699960,1,8,0:0:0:0:
256,192,700123,1,0,0:0:0:0:
256,192,700205,1,8,0:0:0:0:
256,192,700368,1,8,0:0:0:0:
256,192,700449,1,0,0:0:0:0:
256,192,700612,1,8,0:0:0:0:
256,192,700694,1,8,0:0:0:0:
256,192,700775,1,0,0:0:0:0:
256,192,700938,1,8,0:0:0:0:
256,192,701101,1,0,0:0:0:0:
256,192,701183,1,8,0:0:0:0:
256,192,701346,1,0,0:0:0:0:
256,192,701428,1,8,0:0:0:0:
256,192,701509,1,0,0:0:0:0:
256,192,701591,1,8,0:0:0:0:
256,192,701672,1,8,0:0:0:0:
256,192,701754,1,0,0:0:0:0:
256,192,701998,1,8,0:0:0:0:
256,192,702080,1,0,0:0:0:0:
256,192,702243,1,8,0:0:0:0:
256,192,702406,1,0,0:0:0:0:
256,192,702487,1,0,0:0:0:0:
256,192,702569,1,8,0:0:0:0:
256,192,702732,1,0,0:0:0:0:
256,192,702895,1,8,0:0:0:0:
256,192,702976,1,8,0:0:0:0:
256,192,703058,1,0,0:0:0:0:
256,192,703303,1,8,0:0:0:0:
256,192,703384,1,0,0:0:0:0:
256,192,703547,1,8,0:0:0:0:
256,192,703710,1,0,0:0:0:0:
256,192,703873,1,8,0:0:0:0:
256,192,703955,1,0,0:0:0:0:
256,192,704036,1,8,0:0:0:0:
256,192,704118,1,8,0:0:0:0:
256,192,704199,1,0,0:0:0:0:
256,192,704362,1,12,0:0:0:0:
256,192,704688,1,8,0:0:0:0:
256,192,704797,1,0,0:0:0:0:
256,192,705014,1,8,0:0:0:0:
256,192,705341,1,8,0:0:0:0:
256,192,705667,1,8,0:0:0:0:
256,192,705993,1,8,0:0:0:0:
256,192,706101,1,0,0:0:0:0:
256,192,706319,1,8,0:0:0:0:
256,192,706645,1,8,0:0:0:0:
256,192,706971,1,8,0:0:0:0:
256,192,707297,1,8,0:0:0:0:
256,192,707406,1,0,0:0:0:0:
256,192,707623,1,8,0:0:0:0:
256,192,707949,1,8,0:0:0:0:
256,192,708275,1,8,0:0:0:0:
256,192,708601,1,8,0:0:0:0:
256,192,708710,1,0,0:0:0:0:
256,192,708928,1,8,0:0:0:0:
256,192,709254,1,8,0:0:0:0:
256,192,709580,1,8,0:0:0:0:
256,192,709688,1,0,0:0:0:0:
256,192,709797,1,0,0:0:0:0:
256,192,709906,1,8,0:0:0:0:
256,192,710014,1,0,0:0:0:0:
256,192,710123,1,0,0:0:0:0:
256,192,710232,1,8,0:0:0:0:
256,192,710341,1,0,0:0:0:0:
256,192,710449,1,0,0:0:0:0:
256,192,710558,1,8,0:0:0:0:
256,192,710667,1,0,0:0:0:0:
256,192,710775,1,0,0:0:0:0:
256,192,710884,1,8,0:0:0:0:
256,192,710993,1,8,0:0:0:0:
256,192,711101,1,0,0:0:0:0:
256,192,711210,1,8,0:0:0:0:
256,192,711319,1,8,0:0:0:0:
256,192,711428,1,0,0:0:0:0:
256,192,711536,1,8,0:0:0:0:
256,192,711645,1,8,0:0:0:0:
256,192,711754,1,0,0:0:0:0:
256,192,711862,1,8,0:0:0:0:
256,192,711971,1,8,0:0:0:0:
256,192,712080,1,0,0:0:0:0:
256,192,712188,1,8,0:0:0:0:
256,192,712243,1,0,0:0:0:0:
256,192,712297,1,0,0:0:0:0:
256,192,712351,1,8,0:0:0:0:
256,192,712433,1,0,0:0:0:0:
256,192,712514,1,8,0:0:0:0:
256,192,712569,1,0,0:0:0:0:
256,192,712623,1,0,0:0:0:0:
256,192,712678,1,8,0:0:0:0:
256,192,712759,1,0,0:0:0:0:
256,192,712841,1,8,0:0:0:0:
256,192,712895,1,8,0:0:0:0:
256,192,712949,1,8,0:0:0:0:
256,192,713004,1,0,0:0:0:0:
256,192,713085,1,0,0:0:0:0:
256,192,713167,1,8,0:0:0:0:
256,192,713221,1,8,0:0:0:0:
256,192,713275,1,8,0:0:0:0:
256,192,713330,1,0,0:0:0:0:
256,192,713411,1,0,0:0:0:0:
256,192,713493,2,4,L|256:96,6,70,4|4|4|4|4|4|4,0:0|0:0|0:0|0:0|0:0|0:0|0:0,0:0:0:0:
256,192,714145,1,12,0:0:0:0:
256,192,714471,1,12,0:0:0:0:
256,192,714797,1,4,0:0:0:0:
256,192,715409,1,8,0:0:0:0:
256,192,716101,1,0,0:0:0:0:
256,192,716713,1,8,0:0:0:0:
256,192,717406,1,0,0:0:0:0:
256,192,718017,1,8,0:0:0:0:
256,192,718710,1,0,0:0:0:0:
256,192,719322,1,8,0:0:0:0:
256,192,720014,1,0,0:0:0:0:
256,192,720626,1,8,0:0:0:0:
256,192,721319,1,0,0:0:0:0:
256,192,721930,1,8,0:0:0:0:
256,192,722623,1,0,0:0:0:0:
256,192,723235,1,8,0:0:0:0:
256,192,723928,1,0,0:0:0:0:
256,192,724539,1,8,0:0:0:0:
256,192,725232,1,12,0:0:0:0:
256,192,725558,1,0,0:0:0:0:
256,192,725639,1,0,0:0:0:0:
256,192,725721,1,8,0:0:0:0:
256,192,725803,1,0,0:0:0:0:
256,192,725884,1,8,0:0:0:0:
256,192,726047,1,0,0:0:0:0:
256,192,726129,1,8,0:0:0:0:
256,192,726210,1,0,0:0:0:0:
256,192,726373,1,8,0:0:0:0:
256,192,726536,1,0,0:0:0:0:
256,192,726618,1,0,0:0:0:0:
256,192,726699,1,0,0:0:0:0:
256,192,726781,1,0,0:0:0:0:
256,192,726862,1,8,0:0:0:0:
256,192,727025,1,0,0:0:0:0:
256,192,727188,1,8,0:0:0:0:
256,192,727351,1,0,0:0:0:0:
256,192,727433,1,8,0:0:0:0:
256,192,727596,1,0,0:0:0:0:
256,192,727678,1,8,0:0:0:0:
256,192,727841,1,0,0:0:0:0:
256,192,728004,1,8,0:0:0:0:
256,192,728085,1,0,0:0:0:0:
256,192,728167,1,0,0:0:0:0:
256,192,728248,1,8,0:0:0:0:
256,192,728330,1,8,0:0:0:0:
256,192,728493,1,8,0:0:0:0:
256,192,728656,1,0,0:0:0:0:
256,192,728737,1,8,0:0:0:0:
256,192,728819,1,0,0:0:0:0:
256,192,728982,1,8,0:0:0:0:
256,192,729145,1,0,0:0:0:0:
256,192,729471,1,0,0:0:0:0:
256,192,729553,1,0,0:0:0:0:
256,192,729634,1,8,0:0:0:0:
256,192,729716,1,8,0:0:0:0:
256,192,729797,1,0,0:0:0:0:
256,192,729879,1,0,0:0:0:0:
256,192,730042,1,8,0:0:0:0:
256,192,730286,1,0,0:0:0:0:
256,192,730449,1,12,0:0:0:0:
256,192,730775,1,0,0:0:0:0:
256,192,730857,1,0,0:0:0:0:
256,192,730938,1,8,0:0:0:0:
256,192,731020,1,0,0:0:0:0:
256,192,731101,1,8,0:0:0:0:
256,192,731264,1,0,0:0:0:0:
256,192,731346,1,8,0:0:0:0:
256,192,731428,1,0,0:0:0:0:
256,192,731591,1,8,0:0:0:0:
256,192,731754,1,0,0:0:0:0:
256,192,731835,1,0,0:0:0:0:
256,192,731917,1,0,0:0:0:0:
256,192,731998,1,0,0:0:0:0:
256,192,732080,1,8,0:0:0:0:
256,192,732243,1,0,0:0:0:0:
256,192,732406,1,8,0:0:0:0:
256,192,732569,1,0,0:0:0:0:
256,192,732650,1,8,0:0:0:0:
256,192,732813,1,0,0:0:0:0:
256,192,732895,1,8,0:0:0:0:
256,192,733058,1,0,0:0:0:0:
256,192,733221,1,8,0:0:0:0:
256,192,733303,1,0,0:0:0:0:
256,192,733384,1,0,0:0:0:0:
256,192,733466,1,8,0:0:0:0:
256,192,733547,1,8,0:0:0:0:
256,192,733710,1,8,0:0:0:0:
256,192,733873,1,0,0:0:0:0:
256,192,733955,1,8,0:0:0:0:
256,192,734036,1,0,0:0:0:0:
256,192,734199,1,8,0:0:0:0:
256,192,734362,1,0,0:0:0:0:
256,192,734688,1,0,0:0:0:0:
256,192,734770,1,0,0:0:0:0:
256,192,734851,1,8,0:0:0:0:
256,192,734933,1,8,0:0:0:0:
256,192,735014,1,0,0:0:0:0:
256,192,735096,1,0,0:0:0:0:
256,192,735259,1,8,0:0:0:0:
256,192,735504,1,8,0:0:0:0:
256,192,735667,1,4,0:0:0:0:
256,192,735830,1,8,0:0:0:0:
256,192,735911,1,8,0:0:0:0:
256,192,735993,1,0,0:0:0:0:
256,192,736156,1,8,0:0:0:0:
256,192,736319,1,8,0:0:0:0:
256,192,736400,1,0,0:0:0:0:
256,192,736482,1,0,0:0:0:0:
256,192,736563,1,8,0:0:0:0:
256,192,736645,1,0,0:0:0:0:
256,192,736726,1,0,0:0:0:0:
256,192,736808,1,8,0:0:0:0:
256,192,736971,1,0,0:0:0:0:
256,192,737134,1,8,0:0:0:0:
256,192,737216,1,0,0:0:0:0:
256,192,737297,1,0,0:0:0:0:
256,192,737460,1,8,0:0:0:0:
256,192,737623,1,8,0:0:0:0:
256,192,737705,1,0,0:0:0:0:
256,192,737786,1,0,0:0:0:0:
256,192,737868,1,8,0:0:0:0:
256,192,738031,1,0,0:0:0:0:
256,192,738112,1,8,0:0:0:0:
256,192,738275,1,0,0:0:0:0:
256,192,738438,1,8,0:0:0:0:
256,192,738520,1,8,0:0:0:0:
256,192,738601,1,0,0:0:0:0:
256,192,738764,1,8,0:0:0:0:
256,192,738928,1,8,0:0:0:0:
256,192,739009,1,8,0:0:0:0:
256,192,739091,1,0,0:0:0:0:
256,192,739172,1,8,0:0:0:0:
256,192,739254,1,0,0:0:0:0:
256,192,739335,1,0,0:0:0:0:
256,192,739417,1,8,0:0:0:0:
256,192,739580,1,0,0:0:0:0:
256,192,739743,1,8,0:0:0:0:
256,192,739824,1,0,0:0:0:0:
256,192,739987,1,0,0:0:0:0:
256,192,740069,1,8,0:0:0:0:
256,192,740150,1,8,0:0:0:0:
256,192,740232,1,0,0:0:0:0:
256,192,740313,1,0,0:0:0:0:
256,192,740476,1,8,0:0:0:0:
256,192,740721,1,0,0:0:0:0:
256,192,740884,1,12,0:0:0:0:
256,192,741129,1,8,0:0:0:0:
256,192,741210,1,0,0:0:0:0:
256,192,741373,1,8,0:0:0:0:
256,192,741536,1,8,0:0:0:0:
256,192,741618,1,0,0:0:0:0:
256,192,741699,1,0,0:0:0:0:
256,192,741781,1,8,0:0:0:0:
256,192,741862,1,0,0:0:0:0:
256,192,741944,1,0,0:0:0:0:
256,192,742025,1,8,0:0:0:0:
256,192,742188,1,0,0:0:0:0:
256,192,742351,1,8,0:0:0:0:
256,192,742433,1,0,0:0:0:0:
256,192,742514,1,0,0:0:0:0:
256,192,742678,1,8,0:0:0:0:
256,192,742841,1,8,0:0:0:0:
256,192,742922,1,0,0:0:0:0:
256,192,743004,1,0,0:0:0:0:
256,192,743085,1,8,0:0:0:0:
256,192,743248,1,0,0:0:0:0:
256,192,743330,1,8,0:0:0:0:
256,192,743493,1,0,0:0:0:0:
256,192,743656,1,8,0:0:0:0:
256,192,743737,1,8,0:0:0:0:
256,192,743819,1,0,0:0:0:0:
256,192,743982,1,8,0:0:0:0:
256,192,744145,1,8,0:0:0:0:
256,192,744226,1,8,0:0:0:0:
256,192,744308,1,0,0:0:0:0:
256,192,744389,1,8,0:0:0:0:
256,192,744471,1,0,0:0:0:0:
256,192,744553,1,0,0:0:0:0:
256,192,744634,1,8,0:0:0:0:
256,192,744797,1,0,0:0:0:0:
256,192,745123,1,8,0:0:0:0:
256,192,745205,1,0,0:0:0:0:
256,192,745286,1,8,0:0:0:0:
256,192,745368,1,8,0:0:0:0:
256,192,745449,1,0,0:0:0:0:
256,192,745531,1,0,0:0:0:0:
256,192,745694,1,8,0:0:0:0:
256,192,745938,1,0,0:0:0:0:
256,192,746101,1,4,0:0:0:0:
256,192,746346,1,8,0:0:0:0:
256,192,746591,1,8,0:0:0:0:
256,192,746754,1,0,0:0:0:0:
256,192,747080,1,8,0:0:0:0:
256,192,747406,1,0,0:0:0:0:
256,192,747650,1,8,0:0:0:0:
256,192,747895,1,8,0:0:0:0:
256,192,748058,1,0,0:0:0:0:
256,192,748384,1,8,0:0:0:0:
256,192,748710,1,0,0:0:0:0:
256,192,748955,1,8,0:0:0:0:
256,192,749199,1,8,0:0:0:0:
256,192,749362,1,0,0:0:0:0:
256,192,749688,1,8,0:0:0:0:
256,192,750014,1,0,0:0:0:0:
256,192,750259,1,8,0:0:0:0:
256,192,750504,1,8,0:0:0:0:
256,192,750667,1,0,0:0:0:0:
256,192,750993,1,8,0:0:0:0:
256,192,751319,1,0,0:0:0:0:
256,192,751563,1,8,0:0:0:0:
256,192,751808,1,8,0:0:0:0:
256,192,751971,1,0,0:0:0:0:
256,192,752297,1,8,0:0:0:0:
256,192,752623,1,0,0:0:0:0:
256,192,752868,1,8,0:0:0:0:
256,192,753112,1,8,0:0:0:0:
256,192,753275,1,0,0:0:0:0:
256,192,753601,1,8,0:0:0:0:
256,192,753928,1,0,0:0:0:0:
256,192,754172,1,8,0:0:0:0:
256,192,754417,1,8,0:0:0:0:
256,192,754580,1,0,0:0:0:0:
256,192,754906,1,8,0:0:0:0:
256,192,755232,1,0,0:0:0:0:
256,192,755476,1,8,0:0:0:0:
256,192,755721,1,8,0:0:0:0:
256,192,755884,1,0,0:0:0:0:
256,192,756210,1,8,0:0:0:0:
256,192,756536,1,0,0:0:0:0:
256,192,756862,1,8,0:0:0:0:
256,192,757025,1,0,0:0:0:0:
256,192,757188,1,8,0:0:0:0:
256,192,757514,1,8,0:0:0:0:
256,192,757841,1,0,0:0:0:0:
256,192,758004,1,0,0:0:0:0:
256,192,758330,1,8,0:0:0:0:
256,192,758493,1,8,0:0:0:0:
256,192,758656,1,0,0:0:0:0:
256,192,758819,1,0,0:0:0:0:
256,192,758982,1,0,0:0:0:0:
256,192,759145,1,8,0:0:0:0:
256,192,759308,1,8,0:0:0:0:
256,192,759634,1,0,0:0:0:0:
256,192,759797,1,8,0:0:0:0:
256,192,759960,1,8,0:0:0:0:
256,192,760123,1,0,0:0:0:0:
256,192,760286,1,8,0:0:0:0:
256,192,760449,1,0,0:0:0:0:
256,192,760938,1,8,0:0:0:0:
256,192,761101,1,8,0:0:0:0:
256,192,761264,1,0,0:0:0:0:
256,192,761428,1,8,0:0:0:0:
256,192,761754,1,0,0:0:0:0:
256,192,762080,1,8,0:0:0:0:
256,192,762243,1,0,0:0:0:0:
256,192,762406,1,8,0:0:0:0:
256,192,762732,1,8,0:0:0:0:
256,192,763058,1,0,0:0:0:0:
256,192,763221,1,0,0:0:0:0:
256,192,763547,1,8,0:0:0:0:
256,192,763710,1,8,0:0:0:0:
256,192,763873,1,0,0:0:0:0:
256,192,764036,1,0,0:0:0:0:
256,192,764199,1,0,0:0:0:0:
256,192,764362,1,8,0:0:0:0:
256,192,764525,1,8,0:0:0:0:
256,192,764851,1,0,0:0:0:0:
256,192,765014,1,8,0:0:0:0:
256,192,765178,1,8,0:0:0:0:
256,192,765341,1,8,0:0:0:0:
256,192,765667,1,0,0:0:0:0:
256,192,766156,1,8,0:0:0:0:
256,192,766319,1,8,0:0:0:0:
256,192,766482,1,0,0:0:0:0:
256,192,766645,1,8,0:0:0:0:
256,192,766971,1,4,0:0:0:0:
256,192,779992,5,0,0:0:0:0:
256,192,780236,1,8,0:0:0:0:
256,192,780399,1,0,0:0:0:0:
256,192,780481,1,8,0:0:0:0:
256,192,780562,1,8,0:0:0:0:
256,192,780644,1,0,0:0:0:0:
256,192,780807,1,8,0:0:0:0:
256,192,780970,1,0,0:0:0:0:
256,192,781051,1,8,0:0:0:0:
256,192,781296,1,0,0:0:0:0:
256,192,781540,1,8,0:0:0:0:
256,192,781703,1,0,0:0:0:0:
256,192,781785,1,8,0:0:0:0:
256,192,781867,1,8,0:0:0:0:
256,192,781948,1,0,0:0:0:0:
256,192,782030,1,0,0:0:0:0:
256,192,782111,1,8,0:0:0:0:
256,192,782274,1,0,0:0:0:0:
256,192,782356,1,8,0:0:0:0:
256,192,782600,1,0,0:0:0:0:
256,192,782845,1,8,0:0:0:0:
256,192,783008,1,0,0:0:0:0:
256,192,783089,1,8,0:0:0:0:
256,192,783171,1,8,0:0:0:0:
256,192,783252,1,0,0:0:0:0:
256,192,783415,1,8,0:0:0:0:
256,192,783578,1,0,0:0:0:0:
256,192,783660,1,8,0:0:0:0:
256,192,783905,1,0,0:0:0:0:
256,192,784149,1,8,0:0:0:0:
256,192,784312,1,0,0:0:0:0:
256,192,784394,1,8,0:0:0:0:
256,192,784475,1,8,0:0:0:0:
256,192,784557,1,0,0:0:0:0:
256,192,784638,1,0,0:0:0:0:
256,192,784720,1,8,0:0:0:0:
256,192,784883,1,0,0:0:0:0:
256,192,784964,1,8,0:0:0:0:
256,192,785209,1,0,0:0:0:0:
256,192,785453,1,8,0:0:0:0:
256,192,785617,1,0,0:0:0:0:
256,192,785698,1,8,0:0:0:0:
256,192,785780,1,8,0:0:0:0:
256,192,785861,1,0,0:0:0:0:
256,192,786024,1,8,0:0:0:0:
256,192,786187,1,0,0:0:0:0:
256,192,786269,1,8,0:0:0:0:
256,192,786513,1,0,0:0:0:0:
256,192,786758,1,8,0:0:0:0:
256,192,786921,1,0,0:0:0:0:
256,192,787002,1,8,0:0:0:0:
256,192,787084,1,8,0:0:0:0:
256,192,787165,1,0,0:0:0:0:
256,192,787247,1,0,0:0:0:0:
256,192,787328,1,8,0:0:0:0:
256,192,787492,1,0,0:0:0:0:
256,192,787573,1,8,0:0:0:0:
256,192,787818,1,0,0:0:0:0:
256,192,788062,1,8,0:0:0:0:
256,192,788225,1,0,0:0:0:0:
256,192,788307,1,8,0:0:0:0:
256,192,788388,1,8,0:0:0:0:
256,192,788470,1,0,0:0:0:0:
256,192,788633,1,8,0:0:0:0:
256,192,788796,1,0,0:0:0:0:
256,192,788877,1,8,0:0:0:0:
256,192,789122,1,0,0:0:0:0:
256,192,789367,1,8,0:0:0:0:
256,192,789530,1,0,0:0:0:0:
256,192,789611,1,8,0:0:0:0:
256,192,789693,1,8,0:0:0:0:
256,192,789774,1,0,0:0:0:0:
256,192,789856,1,0,0:0:0:0:
256,192,789937,1,8,0:0:0:0:
256,192,790100,1,0,0:0:0:0:
256,192,790209,1,0,0:0:0:0:
256,192,790426,1,8,0:0:0:0:
256,192,790535,1,8,0:0:0:0:
256,192,790752,1,0,0:0:0:0:
256,192,790861,1,8,0:0:0:0:
256,192,791078,1,8,0:0:0:0:
256,192,791242,1,0,0:0:0:0:
256,192,791486,1,8,0:0:0:0:
256,192,791649,1,8,0:0:0:0:
256,192,791731,1,0,0:0:0:0:
256,192,791975,1,8,0:0:0:0:
256,192,792138,1,0,0:0:0:0:
256,192,792220,1,8,0:0:0:0:
256,192,792301,1,8,0:0:0:0:
256,192,792383,1,0,0:0:0:0:
256,192,792546,1,8,0:0:0:0:
256,192,792709,1,0,0:0:0:0:
256,192,792818,1,8,0:0:0:0:
256,192,793035,1,8,0:0:0:0:
256,192,793144,1,0,0:0:0:0:
256,192,793361,1,8,0:0:0:0:
256,192,793470,1,8,0:0:0:0:
256,192,793687,1,8,0:0:0:0:
256,192,793850,1,0,0:0:0:0:
256,192,794095,1,8,0:0:0:0:
256,192,794258,1,8,0:0:0:0:
256,192,794339,1,0,0:0:0:0:
256,192,794584,1,8,0:0:0:0:
256,192,794747,1,0,0:0:0:0:
256,192,794828,1,8,0:0:0:0:
256,192,794910,1,8,0:0:0:0:
256,192,794992,1,0,0:0:0:0:
256,192,795073,1,0,0:0:0:0:
256,192,795155,1,8,0:0:0:0:
256,192,795318,1,0,0:0:0:0:
256,192,795399,1,8,0:0:0:0:
256,192,795644,1,4,0:0:0:0:
256,192,795970,1,8,0:0:0:0:
256,192,796622,1,8,0:0:0:0:
256,192,796948,1,0,0:0:0:0:
256,192,797274,1,8,0:0:0:0:
256,192,797926,1,8,0:0:0:0:
256,192,798252,1,0,0:0:0:0:
256,192,798578,1,8,0:0:0:0:
256,192,799231,1,8,0:0:0:0:
256,192,799557,1,0,0:0:0:0:
256,192,799883,1,8,0:0:0:0:
256,192,800535,1,8,0:0:0:0:
256,192,800861,1,0,0:0:0:0:
256,192,801187,1,8,0:0:0:0:
256,192,801839,1,8,0:0:0:0:
256,192,802165,1,0,0:0:0:0:
256,192,802492,1,8,0:0:0:0:
256,192,803144,1,8,0:0:0:0:
256,192,803470,1,0,0:0:0:0:
256,192,803796,1,8,0:0:0:0:
256,192,804448,1,8,0:0:0:0:
256,192,804774,1,0,0:0:0:0:
256,192,805100,1,8,0:0:0:0:
256,192,805752,1,8,0:0:0:0:
256,192,805915,1,0,0:0:0:0:
256,192,805997,1,0,0:0:0:0:
256,192,806078,1,8,0:0:0:0:
256,192,806242,1,0,0:0:0:0:
256,192,806323,1,8,0:0:0:0:
256,192,806405,1,8,0:0:0:0:
256,192,806568,1,0,0:0:0:0:
256,192,806649,1,8,0:0:0:0:
256,192,806731,1,0,0:0:0:0:
256,192,806894,1,0,0:0:0:0:
256,192,806975,1,8,0:0:0:0:
256,192,807057,1,0,0:0:0:0:
256,192,807138,1,0,0:0:0:0:
256,192,807220,1,8,0:0:0:0:
256,192,807301,1,8,0:0:0:0:
256,192,807383,1,0,0:0:0:0:
256,192,807627,1,8,0:0:0:0:
256,192,807790,1,0,0:0:0:0:
256,192,807872,1,8,0:0:0:0:
256,192,807953,1,0,0:0:0:0:
256,192,808198,1,8,0:0:0:0:
256,192,808524,1,0,0:0:0:0:
256,192,808606,1,0,0:0:0:0:
256,192,808687,1,8,0:0:0:0:
256,192,808850,1,0,0:0:0:0:
256,192,808932,1,8,0:0:0:0:
256,192,809013,1,8,0:0:0:0:
256,192,809176,1,0,0:0:0:0:
256,192,809258,1,8,0:0:0:0:
256,192,809339,1,0,0:0:0:0:
256,192,809502,1,0,0:0:0:0:
256,192,809584,1,8,0:0:0:0:
256,192,809665,1,0,0:0:0:0:
256,192,809747,1,8,0:0:0:0:
256,192,809828,1,8,0:0:0:0:
256,192,809910,1,8,0:0:0:0:
256,192,809992,1,0,0:0:0:0:
256,192,810236,1,8,0:0:0:0:
256,192,810399,1,0,0:0:0:0:
256,192,810481,1,8,0:0:0:0:
256,192,810562,1,8,0:0:0:0:
256,192,810644,1,0,0:0:0:0:
256,192,810807,1,8,0:0:0:0:
256,192,811133,1,0,0:0:0:0:
256,192,811214,1,0,0:0:0:0:
256,192,811296,1,8,0:0:0:0:
256,192,811459,1,0,0:0:0:0:
256,192,811540,1,8,0:0:0:0:
256,192,811622,1,8,0:0:0:0:
256,192,811785,1,0,0:0:0:0:
256,192,811867,1,8,0:0:0:0:
256,192,811948,1,0,0:0:0:0:
256,192,812111,1,0,0:0:0:0:
256,192,812193,1,8,0:0:0:0:
256,192,812274,1,0,0:0:0:0:
256,192,812356,1,0,0:0:0:0:
256,192,812437,1,8,0:0:0:0:
256,192,812519,1,8,0:0:0:0:
256,192,812600,1,0,0:0:0:0:
256,192,812845,1,8,0:0:0:0:
256,192,813008,1,0,0:0:0:0:
256,192,813089,1,8,0:0:0:0:
256,192,813171,1,0,0:0:0:0:
256,192,813415,1,8,0:0:0:0:
256,192,813742,1,0,0:0:0:0:
256,192,813823,1,0,0:0:0:0:
256,192,813905,1,8,0:0:0:0:
256,192,814068,1,0,0:0:0:0:
256,192,814149,1,8,0:0:0:0:
256,192,814231,1,8,0:0:0:0:
256,192,814394,1,0,0:0:0:0:
256,192,814475,1,8,0:0:0:0:
256,192,814557,1,0,0:0:0:0:
256,192,814720,1,0,0:0:0:0:
256,192,814801,1,8,0:0:0:0:
256,192,814883,1,0,0:0:0:0:
256,192,814964,1,8,0:0:0:0:
256,192,815046,1,8,0:0:0:0:
256,192,815127,1,8,0:0:0:0:
256,192,815209,1,0,0:0:0:0:
256,192,815453,1,8,0:0:0:0:
256,192,815617,1,0,0:0:0:0:
256,192,815698,1,8,0:0:0:0:
256,192,815780,1,8,0:0:0:0:
256,192,815861,1,0,0:0:0:0:
256,192,816024,1,8,0:0:0:0:
256,192,816187,1,0,0:0:0:0:
256,192,816269,1,8,0:0:0:0:
256,192,816513,1,4,0:0:0:0:
256,192,816839,1,8,0:0:0:0:
256,192,817165,1,8,0:0:0:0:
256,192,817328,1,8,0:0:0:0:
256,192,817492,1,8,0:0:0:0:
256,192,817818,1,8,0:0:0:0:
256,192,817981,1,8,0:0:0:0:
256,192,818144,1,8,0:0:0:0:
256,192,818470,1,8,0:0:0:0:
256,192,818633,1,8,0:0:0:0:
256,192,818796,1,8,0:0:0:0:
256,192,819122,1,8,0:0:0:0:
256,192,819285,1,8,0:0:0:0:
256,192,819448,1,8,0:0:0:0:
256,192,819774,1,8,0:0:0:0:
256,192,819937,1,8,0:0:0:0:
256,192,820100,1,8,0:0:0:0:
256,192,820426,1,8,0:0:0:0:
256,192,820589,1,8,0:0:0:0:
256,192,820752,1,8,0:0:0:0:
256,192,821078,1,8,0:0:0:0:
256,192,821242,1,8,0:0:0:0:
256,192,821405,1,8,0:0:0:0:
256,192,821731,1,8,0:0:0:0:
256,192,821894,1,8,0:0:0:0:
256,192,822057,1,8,0:0:0:0:
256,192,822383,1,8,0:0:0:0:
256,192,822546,1,8,0:0:0:0:
256,192,822709,1,8,0:0:0:0:
256,192,823035,1,8,0:0:0:0:
256,192,823198,1,8,0:0:0:0:
256,192,823361,1,8,0:0:0:0:
256,192,823687,1,8,0:0:0:0:
256,192,823850,1,8,0:0:0:0:
256,192,824013,1,8,0:0:0:0:
256,192,824339,1,8,0:0:0:0:
256,192,824502,1,8,0:0:0:0:
256,192,824665,1,8,0:0:0:0:
256,192,824992,1,8,0:0:0:0:
256,192,825155,1,8,0:0:0:0:
256,192,825318,1,8,0:0:0:0:
256,192,825644,8,0,826622,0:0:0:0:
256,192,826971,5,4,0:0:0:0:
256,192,827134,1,0,0:0:0:0:
256,192,827215,1,0,0:0:0:0:
256,192,827297,1,8,0:0:0:0:
256,192,827460,1,0,0:0:0:0:
256,192,827541,1,8,0:0:0:0:
256,192,827623,1,0,0:0:0:0:
256,192,827786,1,0,0:0:0:0:
256,192,827867,1,0,0:0:0:0:
256,192,827949,1,8,0:0:0:0:
256,192,828030,1,0,0:0:0:0:
256,192,828112,1,8,0:0:0:0:
256,192,828193,1,8,0:0:0:0:
256,192,828275,1,0,0:0:0:0:
256,192,828438,1,8,0:0:0:0:
256,192,828519,1,0,0:0:0:0:
256,192,828601,1,8,0:0:0:0:
256,192,828764,1,8,0:0:0:0:
256,192,828846,1,0,0:0:0:0:
256,192,828927,1,8,0:0:0:0:
256,192,829009,1,8,0:0:0:0:
256,192,829090,1,0,0:0:0:0:
256,192,829253,1,8,0:0:0:0:
256,192,829416,1,8,0:0:0:0:
256,192,829498,1,8,0:0:0:0:
256,192,829579,1,0,0:0:0:0:
256,192,829742,1,0,0:0:0:0:
256,192,829824,1,0,0:0:0:0:
256,192,829905,1,8,0:0:0:0:
256,192,830068,1,0,0:0:0:0:
256,192,830150,1,8,0:0:0:0:
256,192,830231,1,0,0:0:0:0:
256,192,830394,1,0,0:0:0:0:
256,192,830476,1,0,0:0:0:0:
256,192,830557,1,8,0:0:0:0:
256,192,830639,1,0,0:0:0:0:
256,192,830721,1,8,0:0:0:0:
256,192,830802,1,8,0:0:0:0:
256,192,830884,1,0,0:0:0:0:
256,192,831047,1,8,0:0:0:0:
256,192,831128,1,0,0:0:0:0:
256,192,831210,1,8,0:0:0:0:
256,192,831373,1,8,0:0:0:0:
256,192,831454,1,0,0:0:0:0:
256,192,831536,1,8,0:0:0:0:
256,192,831617,1,8,0:0:0:0:
256,192,831699,1,0,0:0:0:0:
256,192,831862,1,8,0:0:0:0:
256,192,832025,1,0,0:0:0:0:
256,192,832106,1,0,0:0:0:0:
256,192,832188,1,8,0:0:0:0:
256,192,832351,1,0,0:0:0:0:
256,192,832514,1,8,0:0:0:0:
256,192,832596,1,8,0:0:0:0:
256,192,832677,1,0,0:0:0:0:
256,192,832840,1,8,0:0:0:0:
256,192,833003,1,0,0:0:0:0:
256,192,833085,1,0,0:0:0:0:
256,192,833166,1,8,0:0:0:0:
256,192,833248,1,8,0:0:0:0:
256,192,833329,1,0,0:0:0:0:
256,192,833492,1,8,0:0:0:0:
256,192,833655,1,0,0:0:0:0:
256,192,833818,1,8,0:0:0:0:
256,192,833900,1,8,0:0:0:0:
256,192,833981,1,0,0:0:0:0:
256,192,834144,1,8,0:0:0:0:
256,192,834307,1,0,0:0:0:0:
256,192,834389,1,0,0:0:0:0:
256,192,834471,1,8,0:0:0:0:
256,192,834552,1,8,0:0:0:0:
256,192,834634,1,0,0:0:0:0:
256,192,834797,1,8,0:0:0:0:
256,192,834878,1,0,0:0:0:0:
256,192,834960,1,0,0:0:0:0:
256,192,835041,1,0,0:0:0:0:
256,192,835123,1,8,0:0:0:0:
256,192,835204,1,8,0:0:0:0:
256,192,835286,1,0,0:0:0:0:
256,192,835367,1,0,0:0:0:0:
256,192,835449,1,8,0:0:0:0:
256,192,835530,1,8,0:0:0:0:
256,192,835612,1,8,0:0:0:0:
256,192,835693,1,0,0:0:0:0:
256,192,835775,1,8,0:0:0:0:
256,192,835856,1,8,0:0:0:0:
256,192,835938,1,8,0:0:0:0:
256,192,836019,1,8,0:0:0:0:
256,192,836101,1,0,0:0:0:0:
256,192,837242,1,8,0:0:0:0:
256,192,837405,1,4,0:0:0:0:
256,192,837731,1,8,0:0:0:0:
256,192,837772,1,8,0:0:0:0:
256,192,838057,1,8,0:0:0:0:
256,192,838112,1,8,0:0:0:0:
256,192,838166,1,8,0:0:0:0:
256,192,838221,1,0,0:0:0:0:
256,192,838384,1,8,0:0:0:0:
256,192,838424,1,8,0:0:0:0:
256,192,838547,1,8,0:0:0:0:
256,192,838587,1,8,0:0:0:0:
256,192,838710,1,0,0:0:0:0:
256,192,838873,1,8,0:0:0:0:
256,192,838913,1,8,0:0:0:0:
256,192,839036,1,8,0:0:0:0:
256,192,839076,1,8,0:0:0:0:
256,192,839362,1,8,0:0:0:0:
256,192,839416,1,8,0:0:0:0:
256,192,839471,1,8,0:0:0:0:
256,192,839525,1,0,0:0:0:0:
256,192,839688,1,8,0:0:0:0:
256,192,839729,1,8,0:0:0:0:
256,192,839851,1,8,0:0:0:0:
256,192,839892,1,8,0:0:0:0:
256,192,840014,1,0,0:0:0:0:
256,192,840340,1,8,0:0:0:0:
256,192,840381,1,8,0:0:0:0:
256,192,840666,1,8,0:0:0:0:
256,192,840721,1,8,0:0:0:0:
256,192,840775,1,8,0:0:0:0:
256,192,840829,1,0,0:0:0:0:
256,192,840992,1,8,0:0:0:0:
256,192,841033,1,8,0:0:0:0:
256,192,841155,1,8,0:0:0:0:
256,192,841196,1,8,0:0:0:0:
256,192,841318,1,0,0:0:0:0:
256,192,841481,1,8,0:0:0:0:
256,192,841522,1,8,0:0:0:0:
256,192,841644,1,8,0:0:0:0:
256,192,841685,1,8,0:0:0:0:
256,192,841807,1,0,0:0:0:0:
256,192,841848,1,0,0:0:0:0:
256,192,841971,1,8,0:0:0:0:
256,192,842025,1,8,0:0:0:0:
256,192,842079,1,8,0:0:0:0:
256,192,842134,1,0,0:0:0:0:
256,192,842297,1,8,0:0:0:0:
256,192,842460,1,8,0:0:0:0:
256,192,842623,1,0,0:0:0:0:
256,192,842949,1,8,0:0:0:0:
256,192,842990,1,8,0:0:0:0:
256,192,843275,1,8,0:0:0:0:
256,192,843329,1,8,0:0:0:0:
256,192,843384,1,8,0:0:0:0:
256,192,843438,1,0,0:0:0:0:
256,192,843601,1,8,0:0:0:0:
256,192,843642,1,8,0:0:0:0:
256,192,843764,1,8,0:0:0:0:
256,192,843805,1,8,0:0:0:0:
256,192,843927,1,0,0:0:0:0:
256,192,844090,1,8,0:0:0:0:
256,192,844131,1,8,0:0:0:0:
256,192,844253,1,8,0:0:0:0:
256,192,844294,1,8,0:0:0:0:
256,192,844579,1,8,0:0:0:0:
256,192,844634,1,8,0:0:0:0:
256,192,844688,1,8,0:0:0:0:
256,192,844742,1,0,0:0:0:0:
256,192,844905,1,8,0:0:0:0:
256,192,844946,1,8,0:0:0:0:
256,192,845068,1,8,0:0:0:0:
256,192,845109,1,8,0:0:0:0:
256,192,845231,1,0,0:0:0:0:
256,192,845557,1,8,0:0:0:0:
256,192,845598,1,8,0:0:0:0:
256,192,845884,1,8,0:0:0:0:
256,192,845938,1,8,0:0:0:0:
256,192,845992,1,8,0:0:0:0:
256,192,846047,1,0,0:0:0:0:
256,192,846210,1,8,0:0:0:0:
256,192,846250,1,8,0:0:0:0:
256,192,846373,1,8,0:0:0:0:
256,192,846413,1,8,0:0:0:0:
256,192,846536,1,0,0:0:0:0:
256,192,846699,1,8,0:0:0:0:
256,192,846740,1,8,0:0:0:0:
256,192,846862,1,8,0:0:0:0:
256,192,846903,1,8,0:0:0:0:
256,192,847025,1,0,0:0:0:0:
256,192,847066,1,0,0:0:0:0:
256,192,847188,1,8,0:0:0:0:
256,192,847242,1,8,0:0:0:0:
256,192,847297,1,8,0:0:0:0:
256,192,847351,1,0,0:0:0:0:
256,192,847514,1,0,0:0:0:0:
256,192,847677,1,8,0:0:0:0:
256,192,847840,1,4,0:0:0:0:
256,192,848166,1,8,0:0:0:0:
256,192,848207,1,8,0:0:0:0:
256,192,848492,1,8,0:0:0:0:
256,192,848547,1,8,0:0:0:0:
256,192,848601,1,8,0:0:0:0:
256,192,848655,1,0,0:0:0:0:
256,192,848818,1,8,0:0:0:0:
256,192,848859,1,8,0:0:0:0:
256,192,849144,1,0,0:0:0:0:
256,192,849471,1,8,0:0:0:0:
256,192,849511,1,8,0:0:0:0:
256,192,849797,1,8,0:0:0:0:
256,192,849851,1,8,0:0:0:0:
256,192,849905,1,8,0:0:0:0:
256,192,849960,1,0,0:0:0:0:
256,192,850123,1,8,0:0:0:0:
256,192,850163,1,8,0:0:0:0:
256,192,850449,1,0,0:0:0:0:
256,192,850775,1,8,0:0:0:0:
256,192,850816,1,8,0:0:0:0:
256,192,851101,1,8,0:0:0:0:
256,192,851155,1,8,0:0:0:0:
256,192,851210,1,8,0:0:0:0:
256,192,851264,1,0,0:0:0:0:
256,192,851427,1,8,0:0:0:0:
256,192,851468,1,8,0:0:0:0:
256,192,851753,1,0,0:0:0:0:
256,192,852079,1,8,0:0:0:0:
256,192,852120,1,8,0:0:0:0:
256,192,852324,1,0,0:0:0:0:
256,192,852405,1,8,0:0:0:0:
256,192,852446,1,8,0:0:0:0:
256,192,852568,1,8,0:0:0:0:
256,192,852609,1,8,0:0:0:0:
256,192,852731,1,8,0:0:0:0:
256,192,852772,1,8,0:0:0:0:
256,192,853057,1,8,0:0:0:0:
256,192,853547,1,8,0:0:0:0:
256,192,853710,1,8,0:0:0:0:
256,192,854036,1,8,0:0:0:0:
256,192,854525,1,8,0:0:0:0:
256,192,854688,1,8,0:0:0:0:
256,192,855014,1,8,0:0:0:0:
256,192,855340,1,8,0:0:0:0:
256,192,855503,1,0,0:0:0:0:
256,192,855666,1,8,0:0:0:0:
256,192,855829,1,8,0:0:0:0:
256,192,855992,1,8,0:0:0:0:
256,192,856155,1,8,0:0:0:0:
256,192,856318,1,8,0:0:0:0:
256,192,856481,1,8,0:0:0:0:
256,192,856644,1,8,0:0:0:0:
256,192,856726,1,8,0:0:0:0:
256,192,856807,1,0,0:0:0:0:
256,192,856971,1,8,0:0:0:0:
256,192,857134,1,0,0:0:0:0:
256,192,857297,1,0,0:0:0:0:
256,192,857460,1,0,0:0:0:0:
256,192,857623,1,8,0:0:0:0:
256,192,857704,1,8,0:0:0:0:
256,192,857786,1,0,0:0:0:0:
256,192,857867,1,0,0:0:0:0:
256,192,857949,1,8,0:0:0:0:
256,192,858112,1,0,0:0:0:0:
256,192,858275,1,12,0:0:0:0:
256,192,858601,1,0,0:0:0:0:
256,192,858927,1,0,0:0:0:0:
256,192,859253,1,0,0:0:0:0:
256,192,859579,1,0,0:0:0:0:
256,192,859905,1,0,0:0:0:0:
256,192,860231,1,0,0:0:0:0:
256,192,860557,1,0,0:0:0:0:
256,192,860884,1,12,0:0:0:0:
256,192,861210,1,0,0:0:0:0:
256,192,861536,1,0,0:0:0:0:
256,192,861862,1,0,0:0:0:0:
256,192,862188,1,0,0:0:0:0:
256,192,862514,1,0,0:0:0:0:
256,192,862840,1,0,0:0:0:0:
256,192,863166,1,0,0:0:0:0:
256,192,863492,1,4,0:0:0:0:
256,192,863655,1,0,0:0:0:0:
256,192,863818,1,8,0:0:0:0:
256,192,863981,1,0,0:0:0:0:
256,192,864144,1,0,0:0:0:0:
256,192,864307,1,0,0:0:0:0:
256,192,864471,1,8,0:0:0:0:
256,192,864634,1,0,0:0:0:0:
256,192,864797,1,0,0:0:0:0:
256,192,864960,1,0,0:0:0:0:
256,192,865123,1,8,0:0:0:0:
256,192,865286,1,0,0:0:0:0:
256,192,865449,1,0,0:0:0:0:
256,192,865612,1,0,0:0:0:0:
256,192,865775,1,8,0:0:0:0:
256,192,865938,1,0,0:0:0:0:
256,192,866101,1,8,0:0:0:0:
256,192,866182,1,8,0:0:0:0:
256,192,866264,1,0,0:0:0:0:
256,192,866346,1,0,0:0:0:0:
256,192,866427,1,8,0:0:0:0:
256,192,866509,1,8,0:0:0:0:
256,192,866590,1,0,0:0:0:0:
256,192,866672,1,0,0:0:0:0:
256,192,866753,1,8,0:0:0:0:
256,192,866835,1,8,0:0:0:0:
256,192,866916,1,0,0:0:0:0:
256,192,866998,1,0,0:0:0:0:
256,192,867079,1,8,0:0:0:0:
256,192,867161,1,8,0:0:0:0:
256,192,867242,1,0,0:0:0:0:
256,192,867324,1,8,0:0:0:0:
256,192,867405,1,0,0:0:0:0:
256,192,868384,1,8,0:0:0:0:
256,192,868438,1,8,0:0:0:0:
256,192,868492,1,8,0:0:0:0:
256,192,868547,1,8,0:0:0:0:
256,192,868710,1,4,0:0:0:0:
256,192,869036,1,0,0:0:0:0:
256,192,869076,1,0,0:0:0:0:
256,192,869362,1,8,0:0:0:0:
256,192,869403,1,8,0:0:0:0:
256,192,869688,1,0,0:0:0:0:
256,192,869729,1,0,0:0:0:0:
256,192,870014,1,8,0:0:0:0:
256,192,870055,1,8,0:0:0:0:
256,192,870340,1,0,0:0:0:0:
256,192,870381,1,0,0:0:0:0:
256,192,870666,1,8,0:0:0:0:
256,192,870707,1,8,0:0:0:0:
256,192,870992,1,8,0:0:0:0:
256,192,871047,1,8,0:0:0:0:
256,192,871101,1,8,0:0:0:0:
256,192,871155,1,8,0:0:0:0:
256,192,871318,1,4,0:0:0:0:
256,192,871807,1,0,0:0:0:0:
256,192,871848,1,0,0:0:0:0:
256,192,871971,1,8,0:0:0:0:
256,192,872011,1,8,0:0:0:0:
256,192,872297,1,0,0:0:0:0:
256,192,872337,1,0,0:0:0:0:
256,192,872623,1,8,0:0:0:0:
256,192,872663,1,8,0:0:0:0:
256,192,872949,1,0,0:0:0:0:
256,192,873112,1,8,0:0:0:0:
256,192,873275,1,8,0:0:0:0:
256,192,873438,1,0,0:0:0:0:
256,192,873519,1,0,0:0:0:0:
256,192,873601,1,8,0:0:0:0:
256,192,873764,1,8,0:0:0:0:
256,192,873927,1,4,0:0:0:0:
256,192,874253,1,0,0:0:0:0:
256,192,874294,1,0,0:0:0:0:
256,192,874579,1,8,0:0:0:0:
256,192,874620,1,8,0:0:0:0:
256,192,874905,1,0,0:0:0:0:
256,192,874946,1,0,0:0:0:0:
256,192,875231,1,8,0:0:0:0:
256,192,875272,1,8,0:0:0:0:
256,192,875557,1,0,0:0:0:0:
256,192,875598,1,0,0:0:0:0:
256,192,875884,1,8,0:0:0:0:
256,192,875924,1,8,0:0:0:0:
256,192,876210,1,8,0:0:0:0:
256,192,876264,1,0,0:0:0:0:
256,192,876318,1,0,0:0:0:0:
256,192,876373,1,8,0:0:0:0:
256,192,876536,1,0,0:0:0:0:
256,192,876576,1,0,0:0:0:0:
256,192,876699,1,8,0:0:0:0:
256,192,876740,1,8,0:0:0:0:
256,192,876862,1,0,0:0:0:0:
256,192,876903,1,0,0:0:0:0:
256,192,877025,1,0,0:0:0:0:
256,192,877066,1,0,0:0:0:0:
256,192,877188,1,8,0:0:0:0:
256,192,877229,1,8,0:0:0:0:
256,192,877351,1,0,0:0:0:0:
256,192,877392,1,0,0:0:0:0:
256,192,877514,1,8,0:0:0:0:
256,192,877555,1,8,0:0:0:0:
256,192,877677,1,8,0:0:0:0:
256,192,877718,1,8,0:0:0:0:
256,192,877840,1,0,0:0:0:0:
256,192,877881,1,0,0:0:0:0:
256,192,878003,1,8,0:0:0:0:
256,192,878044,1,8,0:0:0:0:
256,192,878166,1,0,0:0:0:0:
256,192,878207,1,0,0:0:0:0:
256,192,878329,1,0,0:0:0:0:
256,192,878370,1,0,0:0:0:0:
256,192,878492,1,8,0:0:0:0:
256,192,878818,1,0,0:0:0:0:
256,192,878900,1,0,0:0:0:0:
256,192,878981,1,8,0:0:0:0:
256,192,879144,1,4,0:0:0:0:
256,192,879471,1,0,0:0:0:0:
256,192,879511,1,0,0:0:0:0:
256,192,879797,1,8,0:0:0:0:
256,192,879837,1,8,0:0:0:0:
256,192,880123,1,0,0:0:0:0:
256,192,880163,1,0,0:0:0:0:
256,192,880449,1,8,0:0:0:0:
256,192,880490,1,8,0:0:0:0:
256,192,880775,1,0,0:0:0:0:
256,192,880816,1,0,0:0:0:0:
256,192,881101,1,8,0:0:0:0:
256,192,881142,1,8,0:0:0:0:
256,192,881427,1,8,0:0:0:0:
256,192,881481,1,8,0:0:0:0:
256,192,881536,1,8,0:0:0:0:
256,192,881590,1,8,0:0:0:0:
256,192,881753,1,4,0:0:0:0:
256,192,882242,1,0,0:0:0:0:
256,192,882283,1,0,0:0:0:0:
256,192,882405,1,8,0:0:0:0:
256,192,882446,1,8,0:0:0:0:
256,192,882731,1,0,0:0:0:0:
256,192,882772,1,0,0:0:0:0:
256,192,883057,1,8,0:0:0:0:
256,192,883098,1,8,0:0:0:0:
256,192,883384,1,0,0:0:0:0:
256,192,883547,1,8,0:0:0:0:
256,192,883710,1,8,0:0:0:0:
256,192,883873,1,0,0:0:0:0:
256,192,883954,1,0,0:0:0:0:
256,192,884036,1,8,0:0:0:0:
256,192,884199,1,8,0:0:0:0:
256,192,884362,1,4,0:0:0:0:
256,192,884688,1,0,0:0:0:0:
256,192,884729,1,0,0:0:0:0:
256,192,885014,1,8,0:0:0:0:
256,192,885055,1,8,0:0:0:0:
256,192,885340,1,0,0:0:0:0:
256,192,885381,1,0,0:0:0:0:
256,192,885666,1,8,0:0:0:0:
256,192,885707,1,8,0:0:0:0:
256,192,885992,1,0,0:0:0:0:
256,192,886033,1,0,0:0:0:0:
256,192,886318,1,8,0:0:0:0:
256,192,886359,1,8,0:0:0:0:
256,192,886644,1,8,0:0:0:0:
256,192,886699,1,0,0:0:0:0:
256,192,886753,1,0,0:0:0:0:
256,192,886807,1,8,0:0:0:0:
256,192,886971,1,0,0:0:0:0:
256,192,887011,1,0,0:0:0:0:
256,192,887134,1,8,0:0:0:0:
256,192,887174,1,8,0:0:0:0:
256,192,887297,1,8,0:0:0:0:
256,192,887337,1,8,0:0:0:0:
256,192,887460,1,0,0:0:0:0:
256,192,887500,1,0,0:0:0:0:
256,192,887623,1,8,0:0:0:0:
256,192,887663,1,8,0:0:0:0:
256,192,887786,1,0,0:0:0:0:
256,192,887826,1,0,0:0:0:0:
256,192,887949,1,8,0:0:0:0:
256,192,887990,1,8,0:0:0:0:
256,192,888112,1,8,0:0:0:0:
256,192,888153,1,8,0:0:0:0:
256,192,888275,1,0,0:0:0:0:
256,192,888316,1,0,0:0:0:0:
256,192,888438,1,8,0:0:0:0:
256,192,888479,1,8,0:0:0:0:
256,192,888601,1,0,0:0:0:0:
256,192,888642,1,0,0:0:0:0:
256,192,888764,1,0,0:0:0:0:
256,192,888805,1,0,0:0:0:0:
256,192,888927,1,8,0:0:0:0:
256,192,889090,1,0,0:0:0:0:
256,192,889172,1,0,0:0:0:0:
256,192,889253,1,8,0:0:0:0:
256,192,889335,1,0,0:0:0:0:
256,192,889416,1,8,0:0:0:0:
256,192,889579,1,4,0:0:0:0:
256,192,889905,1,0,0:0:0:0:
256,192,889946,1,0,0:0:0:0:
256,192,890231,1,8,0:0:0:0:
256,192,890272,1,8,0:0:0:0:
256,192,890557,1,0,0:0:0:0:
256,192,890598,1,0,0:0:0:0:
256,192,890884,1,8,0:0:0:0:
256,192,890924,1,8,0:0:0:0:
256,192,891210,1,0,0:0:0:0:
256,192,891250,1,0,0:0:0:0:
256,192,891536,1,8,0:0:0:0:
256,192,891576,1,8,0:0:0:0:
256,192,891862,1,8,0:0:0:0:
256,192,891916,1,8,0:0:0:0:
256,192,891971,1,8,0:0:0:0:
256,192,892025,1,8,0:0:0:0:
256,192,892188,1,4,0:0:0:0:
256,192,892677,1,0,0:0:0:0:
256,192,892718,1,0,0:0:0:0:
256,192,892840,1,8,0:0:0:0:
256,192,892881,1,8,0:0:0:0:
256,192,893166,1,0,0:0:0:0:
256,192,893207,1,0,0:0:0:0:
256,192,893492,1,8,0:0:0:0:
256,192,893533,1,8,0:0:0:0:
256,192,893818,1,0,0:0:0:0:
256,192,893981,1,8,0:0:0:0:
256,192,894144,1,8,0:0:0:0:
256,192,894307,1,0,0:0:0:0:
256,192,894389,1,0,0:0:0:0:
256,192,894471,1,8,0:0:0:0:
256,192,894634,1,8,0:0:0:0:
256,192,894797,1,4,0:0:0:0:
256,192,895123,1,0,0:0:0:0:
256,192,895163,1,0,0:0:0:0:
256,192,895449,1,8,0:0:0:0:
256,192,895490,1,8,0:0:0:0:
256,192,895775,1,0,0:0:0:0:
256,192,895816,1,0,0:0:0:0:
256,192,896101,1,8,0:0:0:0:
256,192,896142,1,8,0:0:0:0:
256,192,896427,1,0,0:0:0:0:
256,192,896468,1,0,0:0:0:0:
256,192,896753,1,8,0:0:0:0:
256,192,896794,1,8,0:0:0:0:
256,192,897079,1,8,0:0:0:0:
256,192,897134,1,0,0:0:0:0:
256,192,897188,1,0,0:0:0:0:
256,192,897242,1,8,0:0:0:0:
256,192,897405,1,0,0:0:0:0:
256,192,897446,1,0,0:0:0:0:
256,192,897568,1,8,0:0:0:0:
256,192,897609,1,8,0:0:0:0:
256,192,897731,1,0,0:0:0:0:
256,192,897772,1,0,0:0:0:0:
256,192,897894,1,0,0:0:0:0:
256,192,897935,1,0,0:0:0:0:
256,192,898057,1,8,0:0:0:0:
256,192,898098,1,8,0:0:0:0:
256,192,898221,1,0,0:0:0:0:
256,192,898261,1,0,0:0:0:0:
256,192,898384,1,8,0:0:0:0:
256,192,898424,1,8,0:0:0:0:
256,192,898547,1,8,0:0:0:0:
256,192,898587,1,8,0:0:0:0:
256,192,898710,1,0,0:0:0:0:
256,192,898750,1,0,0:0:0:0:
256,192,898873,1,8,0:0:0:0:
256,192,898913,1,8,0:0:0:0:
256,192,899036,1,0,0:0:0:0:
256,192,899076,1,0,0:0:0:0:
256,192,899199,1,0,0:0:0:0:
256,192,899240,1,0,0:0:0:0:
256,192,899362,1,8,0:0:0:0:
256,192,899688,1,0,0:0:0:0:
256,192,899769,1,0,0:0:0:0:
256,192,899851,1,8,0:0:0:0:
256,192,900014,1,4,0:0:0:0:
256,192,900340,1,0,0:0:0:0:
256,192,900381,1,0,0:0:0:0:
256,192,900666,1,8,0:0:0:0:
256,192,900707,1,8,0:0:0:0:
256,192,900992,1,0,0:0:0:0:
256,192,901033,1,0,0:0:0:0:
256,192,901318,1,8,0:0:0:0:
256,192,901359,1,8,0:0:0:0:
256,192,901644,1,0,0:0:0:0:
256,192,901685,1,0,0:0:0:0:
256,192,901971,1,8,0:0:0:0:
256,192,902011,1,8,0:0:0:0:
256,192,902297,1,8,0:0:0:0:
256,192,902351,1,8,0:0:0:0:
256,192,902405,1,8,0:0:0:0:
256,192,902460,1,8,0:0:0:0:
256,192,902623,1,4,0:0:0:0:
256,192,903112,1,0,0:0:0:0:
256,192,903153,1,0,0:0:0:0:
256,192,903275,1,8,0:0:0:0:
256,192,903316,1,8,0:0:0:0:
256,192,903601,1,0,0:0:0:0:
256,192,903642,1,0,0:0:0:0:
256,192,903927,1,8,0:0:0:0:
256,192,903968,1,8,0:0:0:0:
256,192,904253,1,0,0:0:0:0:
256,192,904416,1,8,0:0:0:0:
256,192,904579,1,8,0:0:0:0:
256,192,904742,1,0,0:0:0:0:
256,192,904824,1,0,0:0:0:0:
256,192,904905,1,8,0:0:0:0:
256,192,905068,1,8,0:0:0:0:
256,192,905231,1,4,0:0:0:0:
256,192,905557,1,0,0:0:0:0:
256,192,905598,1,0,0:0:0:0:
256,192,905884,1,8,0:0:0:0:
256,192,905924,1,8,0:0:0:0:
256,192,906210,1,0,0:0:0:0:
256,192,906250,1,0,0:0:0:0:
256,192,906536,1,8,0:0:0:0:
256,192,906576,1,8,0:0:0:0:
256,192,906862,1,0,0:0:0:0:
256,192,906903,1,0,0:0:0:0:
256,192,907188,1,8,0:0:0:0:
256,192,907229,1,8,0:0:0:0:
256,192,907514,1,8,0:0:0:0:
256,192,907568,1,0,0:0:0:0:
256,192,907623,1,0,0:0:0:0:
256,192,907677,1,8,0:0:0:0:
256,192,907840,1,0,0:0:0:0:
256,192,907881,1,0,0:0:0:0:
256,192,908003,1,8,0:0:0:0:
256,192,908044,1,8,0:0:0:0:
256,192,908166,1,8,0:0:0:0:
256,192,908207,1,8,0:0:0:0:
256,192,908329,1,0,0:0:0:0:
256,192,908370,1,0,0:0:0:0:
256,192,908492,1,8,0:0:0:0:
256,192,908533,1,8,0:0:0:0:
256,192,908655,1,0,0:0:0:0:
256,192,908696,1,0,0:0:0:0:
256,192,908818,1,8,0:0:0:0:
256,192,908859,1,8,0:0:0:0:
256,192,908981,1,8,0:0:0:0:
256,192,909022,1,8,0:0:0:0:
256,192,909144,1,0,0:0:0:0:
256,192,909185,1,0,0:0:0:0:
256,192,909307,1,8,0:0:0:0:
256,192,909348,1,8,0:0:0:0:
256,192,909471,1,0,0:0:0:0:
256,192,909511,1,0,0:0:0:0:
256,192,909634,1,0,0:0:0:0:
256,192,909674,1,0,0:0:0:0:
256,192,909797,1,8,0:0:0:0:
256,192,910286,1,8,0:0:0:0:
256,192,910449,1,4,0:0:0:0:
256,192,910612,1,8,0:0:0:0:
256,192,910693,1,8,0:0:0:0:
256,192,910775,1,0,0:0:0:0:
256,192,910938,1,8,0:0:0:0:
256,192,911101,1,0,0:0:0:0:
256,192,911182,1,0,0:0:0:0:
256,192,911264,1,8,0:0:0:0:
256,192,911346,1,8,0:0:0:0:
256,192,911427,1,0,0:0:0:0:
256,192,911590,1,8,0:0:0:0:
256,192,911753,1,0,0:0:0:0:
256,192,911916,1,8,0:0:0:0:
256,192,911998,1,8,0:0:0:0:
256,192,912079,1,8,0:0:0:0:
256,192,912242,1,0,0:0:0:0:
256,192,912405,1,8,0:0:0:0:
256,192,912487,1,8,0:0:0:0:
256,192,912568,1,8,0:0:0:0:
256,192,912731,1,0,0:0:0:0:
256,192,912894,1,8,0:0:0:0:
256,192,913057,1,0,0:0:0:0:
256,192,913221,1,8,0:0:0:0:
256,192,913302,1,8,0:0:0:0:
256,192,913384,1,0,0:0:0:0:
256,192,913547,1,8,0:0:0:0:
256,192,913710,1,0,0:0:0:0:
256,192,913791,1,0,0:0:0:0:
256,192,913873,1,8,0:0:0:0:
256,192,914036,1,0,0:0:0:0:
256,192,914199,1,8,0:0:0:0:
256,192,914362,1,0,0:0:0:0:
256,192,914525,1,8,0:0:0:0:
256,192,914688,1,8,0:0:0:0:
256,192,914851,1,0,0:0:0:0:
256,192,915014,1,8,0:0:0:0:
256,192,915177,1,8,0:0:0:0:
256,192,915340,1,0,0:0:0:0:
256,192,915503,1,8,0:0:0:0:
256,192,915666,1,0,0:0:0:0:
256,192,915992,1,0,0:0:0:0:
256,192,916155,1,8,0:0:0:0:
256,192,916318,1,0,0:0:0:0:
256,192,916481,1,8,0:0:0:0:
256,192,916644,1,0,0:0:0:0:
256,192,916971,1,0,0:0:0:0:
256,192,917134,1,8,0:0:0:0:
256,192,917460,1,0,0:0:0:0:
256,192,917786,1,8,0:0:0:0:
256,192,917949,1,0,0:0:0:0:
256,192,918275,1,0,0:0:0:0:
256,192,918601,1,0,0:0:0:0:
256,192,918927,1,8,0:0:0:0:
256,192,919416,1,8,0:0:0:0:
256,192,919905,1,0,0:0:0:0:
256,192,920394,1,8,0:0:0:0:
256,192,920884,1,4,0:0:0:0:
256,192,921047,1,8,0:0:0:0:
256,192,921128,1,0,0:0:0:0:
256,192,921210,1,8,0:0:0:0:
256,192,921291,1,8,0:0:0:0:
256,192,921373,1,0,0:0:0:0:
256,192,921536,1,8,0:0:0:0:
256,192,921699,1,0,0:0:0:0:
256,192,921780,1,8,0:0:0:0:
256,192,921862,1,0,0:0:0:0:
256,192,922025,1,8,0:0:0:0:
256,192,922188,1,0,0:0:0:0:
256,192,922269,1,0,0:0:0:0:
256,192,922351,1,8,0:0:0:0:
256,192,922514,1,0,0:0:0:0:
256,192,922677,1,8,0:0:0:0:
256,192,922759,1,0,0:0:0:0:
256,192,922840,1,8,0:0:0:0:
256,192,923003,1,8,0:0:0:0:
256,192,923166,1,0,0:0:0:0:
256,192,923329,1,8,0:0:0:0:
256,192,923492,1,0,0:0:0:0:
256,192,923655,1,8,0:0:0:0:
256,192,923737,1,0,0:0:0:0:
256,192,923818,1,8,0:0:0:0:
256,192,923981,1,0,0:0:0:0:
256,192,924063,1,0,0:0:0:0:
256,192,924144,1,8,0:0:0:0:
256,192,924307,1,0,0:0:0:0:
256,192,924389,1,8,0:0:0:0:
256,192,924471,1,0,0:0:0:0:
256,192,924634,1,8,0:0:0:0:
256,192,924797,1,0,0:0:0:0:
256,192,924878,1,0,0:0:0:0:
256,192,924960,1,8,0:0:0:0:
256,192,925041,1,8,0:0:0:0:
256,192,925123,1,0,0:0:0:0:
256,192,925286,1,8,0:0:0:0:
256,192,925367,1,0,0:0:0:0:
256,192,925449,1,8,0:0:0:0:
256,192,925612,1,8,0:0:0:0:
256,192,925775,1,0,0:0:0:0:
256,192,925938,1,8,0:0:0:0:
256,192,926101,1,0,0:0:0:0:
256,192,926264,1,8,0:0:0:0:
256,192,926346,1,0,0:0:0:0:
256,192,926427,1,8,0:0:0:0:
256,192,926509,1,8,0:0:0:0:
256,192,926590,1,0,0:0:0:0:
256,192,926672,1,0,0:0:0:0:
256,192,926753,1,8,0:0:0:0:
256,192,926916,1,8,0:0:0:0:
256,192,927079,1,0,0:0:0:0:
256,192,927242,1,8,0:0:0:0:
256,192,927324,1,8,0:0:0:0:
256,192,927405,1,0,0:0:0:0:
256,192,927568,1,8,0:0:0:0:
256,192,927731,1,0,0:0:0:0:
256,192,927813,1,8,0:0:0:0:
256,192,927894,1,0,0:0:0:0:
256,192,927976,1,0,0:0:0:0:
256,192,928057,1,8,0:0:0:0:
256,192,928221,1,8,0:0:0:0:
256,192,928384,1,0,0:0:0:0:
256,192,928547,1,8,0:0:0:0:
256,192,928710,1,0,0:0:0:0:
256,192,928873,1,8,0:0:0:0:
256,192,928954,1,8,0:0:0:0:
256,192,929036,1,0,0:0:0:0:
256,192,929117,1,8,0:0:0:0:
256,192,929199,1,0,0:0:0:0:
256,192,929280,1,0,0:0:0:0:
256,192,929362,1,8,0:0:0:0:
256,192,929525,1,8,0:0:0:0:
256,192,929606,1,8,0:0:0:0:
256,192,929688,1,0,0:0:0:0:
256,192,929851,1,8,0:0:0:0:
256,192,930014,1,0,0:0:0:0:
256,192,930096,1,0,0:0:0:0:
256,192,930177,1,8,0:0:0:0:
256,192,930259,1,8,0:0:0:0:
256,192,930340,1,0,0:0:0:0:
256,192,930503,1,0,0:0:0:0:
256,192,930585,1,0,0:0:0:0:
256,192,930666,1,8,0:0:0:0:
256,192,930829,1,0,0:0:0:0:
256,192,930992,1,8,0:0:0:0:
256,192,931155,1,0,0:0:0:0:
256,192,931318,1,4,0:0:0:0:
256,192,931481,1,8,0:0:0:0:
256,192,931644,1,8,0:0:0:0:
256,192,931807,1,8,0:0:0:0:
256,192,931971,1,8,0:0:0:0:
256,192,932134,1,8,0:0:0:0:
256,192,932297,1,8,0:0:0:0:
256,192,932460,1,8,0:0:0:0:
256,192,932623,1,8,0:0:0:0:
256,192,932786,1,8,0:0:0:0:
256,192,932949,1,8,0:0:0:0:
256,192,933112,1,8,0:0:0:0:
256,192,933275,1,8,0:0:0:0:
256,192,933438,1,8,0:0:0:0:
256,192,933601,1,8,0:0:0:0:
256,192,933764,1,8,0:0:0:0:
256,192,933927,1,8,0:0:0:0:
256,192,934090,1,8,0:0:0:0:
256,192,934253,1,8,0:0:0:0:
256,192,934416,1,8,0:0:0:0:
256,192,934579,1,8,0:0:0:0:
256,192,934742,1,8,0:0:0:0:
256,192,934905,1,8,0:0:0:0:
256,192,935068,1,8,0:0:0:0:
256,192,935231,1,8,0:0:0:0:
256,192,935394,1,8,0:0:0:0:
256,192,935557,1,8,0:0:0:0:
256,192,935721,1,8,0:0:0:0:
256,192,935884,1,8,0:0:0:0:
256,192,936047,1,8,0:0:0:0:
256,192,936210,1,8,0:0:0:0:
256,192,936373,1,8,0:0:0:0:
256,192,936536,1,8,0:0:0:0:
256,192,936617,1,0,0:0:0:0:
256,192,936699,1,8,0:0:0:0:
256,192,936780,1,8,0:0:0:0:
256,192,936862,1,0,0:0:0:0:
256,192,936943,1,8,0:0:0:0:
256,192,937025,1,0,0:0:0:0:
256,192,937106,1,0,0:0:0:0:
256,192,937188,1,8,0:0:0:0:
256,192,937269,1,0,0:0:0:0:
256,192,937351,1,8,0:0:0:0:
256,192,937432,1,8,0:0:0:0:
256,192,937514,1,0,0:0:0:0:
256,192,937596,1,8,0:0:0:0:
256,192,937677,1,0,0:0:0:0:
256,192,937759,1,0,0:0:0:0:
256,192,937840,1,8,0:0:0:0:
256,192,937922,1,8,0:0:0:0:
256,192,938003,1,0,0:0:0:0:
256,192,938085,1,8,0:0:0:0:
256,192,938166,1,0,0:0:0:0:
256,192,938248,1,0,0:0:0:0:
256,192,938329,1,8,0:0:0:0:
256,192,938411,1,0,0:0:0:0:
256,192,938492,1,8,0:0:0:0:
256,192,938574,1,8,0:0:0:0:
256,192,938655,1,0,0:0:0:0:
256,192,938737,1,8,0:0:0:0:
256,192,938818,1,0,0:0:0:0:
256,192,938900,1,0,0:0:0:0:
256,192,938981,1,8,0:0:0:0:
256,192,939063,1,0,0:0:0:0:
256,192,939144,1,8,0:0:0:0:
256,192,939199,1,0,0:0:0:0:
256,192,939253,1,0,0:0:0:0:
256,192,939307,1,8,0:0:0:0:
256,192,939389,1,0,0:0:0:0:
256,192,939471,1,8,0:0:0:0:
256,192,939525,1,8,0:0:0:0:
256,192,939579,1,8,0:0:0:0:
256,192,939634,1,0,0:0:0:0:
256,192,939715,1,0,0:0:0:0:
256,192,939797,1,8,0:0:0:0:
256,192,939851,1,8,0:0:0:0:
256,192,939905,1,0,0:0:0:0:
256,192,939960,1,8,0:0:0:0:
256,192,940041,1,0,0:0:0:0:
256,192,940123,1,8,0:0:0:0:
256,192,940177,1,8,0:0:0:0:
256,192,940231,1,8,0:0:0:0:
256,192,940286,1,0,0:0:0:0:
256,192,940367,1,0,0:0:0:0:
256,192,940449,1,8,0:0:0:0:
256,192,941753,1,0,0:0:0:0:
256,192,941794,1,0,0:0:0:0:
256,192,942079,1,0,0:0:0:0:
256,192,942120,1,0,0:0:0:0:
256,192,942405,1,8,0:0:0:0:
256,192,942446,1,8,0:0:0:0:
256,192,942731,1,0,0:0:0:0:
256,192,942772,1,0,0:0:0:0:
256,192,942894,1,8,0:0:0:0:
256,192,942935,1,8,0:0:0:0:
256,192,943057,1,0,0:0:0:0:
256,192,943098,1,0,0:0:0:0:
256,192,943384,1,0,0:0:0:0:
256,192,943424,1,0,0:0:0:0:
256,192,943710,1,8,0:0:0:0:
256,192,943750,1,8,0:0:0:0:
256,192,944036,1,8,0:0:0:0:
256,192,944076,1,8,0:0:0:0:
256,192,944199,1,8,0:0:0:0:
256,192,944240,1,8,0:0:0:0:
256,192,944362,1,0,0:0:0:0:
256,192,944403,1,0,0:0:0:0:
256,192,944688,1,8,0:0:0:0:
256,192,944769,1,0,0:0:0:0:
256,192,944851,1,0,0:0:0:0:
256,192,944932,1,0,0:0:0:0:
256,192,945014,1,8,0:0:0:0:
256,192,945231,1,0,0:0:0:0:
256,192,945340,1,8,0:0:0:0:
256,192,945557,1,8,0:0:0:0:
256,192,945666,1,0,0:0:0:0:
256,192,945992,1,8,0:0:0:0:
256,192,946318,1,0,0:0:0:0:
256,192,946536,1,0,0:0:0:0:
256,192,946644,1,8,0:0:0:0:
256,192,946971,1,0,0:0:0:0:
256,192,947011,1,0,0:0:0:0:
256,192,947623,1,8,0:0:0:0:
256,192,947663,1,8,0:0:0:0:
256,192,947949,1,0,0:0:0:0:
256,192,947990,1,0,0:0:0:0:
256,192,948112,1,8,0:0:0:0:
256,192,948153,1,8,0:0:0:0:
256,192,948275,1,0,0:0:0:0:
256,192,948316,1,0,0:0:0:0:
256,192,948601,1,0,0:0:0:0:
256,192,948642,1,0,0:0:0:0:
256,192,948927,1,8,0:0:0:0:
256,192,948968,1,8,0:0:0:0:
256,192,949253,1,8,0:0:0:0:
256,192,949294,1,8,0:0:0:0:
256,192,949416,1,8,0:0:0:0:
256,192,949457,1,8,0:0:0:0:
256,192,949579,1,0,0:0:0:0:
256,192,949620,1,0,0:0:0:0:
256,192,949905,1,8,0:0:0:0:
256,192,949987,1,8,0:0:0:0:
256,192,950068,1,0,0:0:0:0:
256,192,950150,1,0,0:0:0:0:
256,192,950231,1,8,0:0:0:0:
256,192,950449,1,0,0:0:0:0:
256,192,950557,1,8,0:0:0:0:
256,192,950775,1,8,0:0:0:0:
256,192,950884,1,0,0:0:0:0:
256,192,951210,1,8,0:0:0:0:
256,192,951536,1,0,0:0:0:0:
256,192,951753,1,0,0:0:0:0:
256,192,951862,1,8,0:0:0:0:
256,192,952188,1,4,0:0:0:0:
256,192,952840,1,8,0:0:0:0:
256,192,952881,1,8,0:0:0:0:
256,192,953166,1,0,0:0:0:0:
256,192,953207,1,0,0:0:0:0:
256,192,953329,1,8,0:0:0:0:
256,192,953370,1,8,0:0:0:0:
256,192,953492,1,0,0:0:0:0:
256,192,953533,1,0,0:0:0:0:
256,192,953818,1,0,0:0:0:0:
256,192,953859,1,0,0:0:0:0:
256,192,954144,1,8,0:0:0:0:
256,192,954185,1,8,0:0:0:0:
256,192,954471,1,8,0:0:0:0:
256,192,954511,1,8,0:0:0:0:
256,192,954634,1,8,0:0:0:0:
256,192,954674,1,8,0:0:0:0:
256,192,954797,1,0,0:0:0:0:
256,192,954837,1,0,0:0:0:0:
256,192,955123,1,8,0:0:0:0:
256,192,955204,1,0,0:0:0:0:
256,192,955286,1,0,0:0:0:0:
256,192,955367,1,0,0:0:0:0:
256,192,955449,1,8,0:0:0:0:
256,192,955666,1,0,0:0:0:0:
256,192,955775,1,8,0:0:0:0:
256,192,955992,1,8,0:0:0:0:
256,192,956101,1,0,0:0:0:0:
256,192,956427,1,8,0:0:0:0:
256,192,956753,1,0,0:0:0:0:
256,192,956971,1,0,0:0:0:0:
256,192,957079,1,8,0:0:0:0:
256,192,957405,1,4,0:0:0:0:
256,192,958057,1,8,0:0:0:0:
256,192,958098,1,8,0:0:0:0:
256,192,958384,1,0,0:0:0:0:
256,192,958424,1,0,0:0:0:0:
256,192,958547,1,8,0:0:0:0:
256,192,958587,1,8,0:0:0:0:
256,192,958710,1,0,0:0:0:0:
256,192,958750,1,0,0:0:0:0:
256,192,959036,1,0,0:0:0:0:
256,192,959076,1,0,0:0:0:0:
256,192,959362,1,8,0:0:0:0:
256,192,959403,1,8,0:0:0:0:
256,192,959688,1,8,0:0:0:0:
256,192,959729,1,8,0:0:0:0:
256,192,959851,1,8,0:0:0:0:
256,192,959892,1,8,0:0:0:0:
256,192,960014,1,0,0:0:0:0:
256,192,960055,1,0,0:0:0:0:
256,192,960666,1,8,0:0:0:0:
256,192,961155,1,8,0:0:0:0:
256,192,961644,1,0,0:0:0:0:
256,192,962134,1,8,0:0:0:0:
256,192,962623,1,4,0:0:0:0:
256,192,962786,1,8,0:0:0:0:
256,192,962826,1,8,0:0:0:0:
256,192,962949,1,8,0:0:0:0:
256,192,962990,1,8,0:0:0:0:
256,192,963112,1,0,0:0:0:0:
256,192,963153,1,0,0:0:0:0:
256,192,963275,1,8,0:0:0:0:
256,192,963316,1,8,0:0:0:0:
256,192,963438,1,8,0:0:0:0:
256,192,963479,1,8,0:0:0:0:
256,192,963601,1,0,0:0:0:0:
256,192,963764,1,8,0:0:0:0:
256,192,963805,1,8,0:0:0:0:
256,192,963927,1,8,0:0:0:0:
256,192,963968,1,8,0:0:0:0:
256,192,964090,1,8,0:0:0:0:
256,192,964131,1,8,0:0:0:0:
256,192,964253,1,0,0:0:0:0:
256,192,964294,1,0,0:0:0:0:
256,192,964416,1,0,0:0:0:0:
256,192,964457,1,0,0:0:0:0:
256,192,964579,1,8,0:0:0:0:
256,192,964620,1,8,0:0:0:0:
256,192,964742,1,8,0:0:0:0:
256,192,964783,1,8,0:0:0:0:
256,192,964905,1,0,0:0:0:0:
256,192,965068,1,8,0:0:0:0:
256,192,965109,1,8,0:0:0:0:
256,192,965231,1,0,0:0:0:0:
256,192,965394,1,8,0:0:0:0:
256,192,965435,1,8,0:0:0:0:
256,192,965557,1,8,0:0:0:0:
256,192,965598,1,8,0:0:0:0:
256,192,965721,1,0,0:0:0:0:
256,192,965761,1,0,0:0:0:0:
256,192,965884,1,8,0:0:0:0:
256,192,965924,1,8,0:0:0:0:
256,192,966047,1,8,0:0:0:0:
256,192,966087,1,8,0:0:0:0:
256,192,966210,1,0,0:0:0:0:
256,192,966373,1,8,0:0:0:0:
256,192,966413,1,8,0:0:0:0:
256,192,966536,1,8,0:0:0:0:
256,192,966576,1,8,0:0:0:0:
256,192,966699,1,8,0:0:0:0:
256,192,966740,1,8,0:0:0:0:
256,192,966862,1,0,0:0:0:0:
256,192,966903,1,0,0:0:0:0:
256,192,967025,1,0,0:0:0:0:
256,192,967066,1,0,0:0:0:0:
256,192,967188,1,8,0:0:0:0:
256,192,967229,1,8,0:0:0:0:
256,192,967351,1,8,0:0:0:0:
256,192,967392,1,8,0:0:0:0:
256,192,967514,1,0,0:0:0:0:
256,192,967677,1,8,0:0:0:0:
256,192,967718,1,8,0:0:0:0:
256,192,967840,1,0,0:0:0:0:
256,192,968003,1,8,0:0:0:0:
256,192,968044,1,8,0:0:0:0:
256,192,968166,1,8,0:0:0:0:
256,192,968207,1,8,0:0:0:0:
256,192,968329,1,0,0:0:0:0:
256,192,968370,1,0,0:0:0:0:
256,192,968492,1,8,0:0:0:0:
256,192,968533,1,8,0:0:0:0:
256,192,968655,1,8,0:0:0:0:
256,192,968696,1,8,0:0:0:0:
256,192,968818,1,0,0:0:0:0:
256,192,968981,1,8,0:0:0:0:
256,192,969022,1,8,0:0:0:0:
256,192,969144,1,8,0:0:0:0:
256,192,969185,1,8,0:0:0:0:
256,192,969307,1,8,0:0:0:0:
256,192,969348,1,8,0:0:0:0:
256,192,969471,1,0,0:0:0:0:
256,192,969511,1,0,0:0:0:0:
256,192,969634,1,8,0:0:0:0:
256,192,969674,1,8,0:0:0:0:
256,192,969797,1,8,0:0:0:0:
256,192,969837,1,8,0:0:0:0:
256,192,969960,1,8,0:0:0:0:
256,192,970000,1,8,0:0:0:0:
256,192,970123,1,0,0:0:0:0:
256,192,970286,1,8,0:0:0:0:
256,192,970326,1,8,0:0:0:0:
256,192,970449,1,0,0:0:0:0:
256,192,970612,1,8,0:0:0:0:
256,192,970653,1,8,0:0:0:0:
256,192,970775,1,8,0:0:0:0:
256,192,970816,1,8,0:0:0:0:
256,192,970938,1,0,0:0:0:0:
256,192,970979,1,0,0:0:0:0:
256,192,971101,1,8,0:0:0:0:
256,192,971142,1,8,0:0:0:0:
256,192,971264,1,8,0:0:0:0:
256,192,971305,1,8,0:0:0:0:
256,192,971427,1,0,0:0:0:0:
256,192,971590,1,8,0:0:0:0:
256,192,971631,1,8,0:0:0:0:
256,192,971753,1,8,0:0:0:0:
256,192,971794,1,8,0:0:0:0:
256,192,971916,1,8,0:0:0:0:
256,192,971957,1,8,0:0:0:0:
256,192,972079,1,0,0:0:0:0:
256,192,972120,1,0,0:0:0:0:
256,192,972242,1,8,0:0:0:0:
256,192,972283,1,8,0:0:0:0:
256,192,972405,1,8,0:0:0:0:
256,192,972446,1,8,0:0:0:0:
256,192,972568,1,8,0:0:0:0:
256,192,972609,1,8,0:0:0:0:
256,192,972731,1,0,0:0:0:0:
256,192,972894,1,8,0:0:0:0:
256,192,972935,1,8,0:0:0:0:
256,192,973057,1,4,0:0:0:0:
256,192,973221,1,8,0:0:0:0:
256,192,973384,1,8,0:0:0:0:
256,192,973547,1,8,0:0:0:0:
256,192,973710,1,8,0:0:0:0:
256,192,973873,1,8,0:0:0:0:
256,192,974036,1,8,0:0:0:0:
256,192,974199,1,8,0:0:0:0:
256,192,974362,1,8,0:0:0:0:
256,192,974525,1,8,0:0:0:0:
256,192,974688,1,8,0:0:0:0:
256,192,974851,1,8,0:0:0:0:
256,192,975014,1,8,0:0:0:0:
256,192,975177,1,8,0:0:0:0:
256,192,975340,1,8,0:0:0:0:
256,192,975503,1,8,0:0:0:0:
256,192,975666,1,8,0:0:0:0:
256,192,975829,1,8,0:0:0:0:
256,192,975992,1,8,0:0:0:0:
256,192,976155,1,8,0:0:0:0:
256,192,976318,1,8,0:0:0:0:
256,192,976481,1,8,0:0:0:0:
256,192,976644,1,8,0:0:0:0:
256,192,976807,1,8,0:0:0:0:
256,192,976971,1,8,0:0:0:0:
256,192,977134,1,8,0:0:0:0:
256,192,977297,1,8,0:0:0:0:
256,192,977460,1,8,0:0:0:0:
256,192,977623,1,8,0:0:0:0:
256,192,977786,1,8,0:0:0:0:
256,192,977949,1,8,0:0:0:0:
256,192,978112,1,8,0:0:0:0:
256,192,978275,1,8,0:0:0:0:
256,192,978356,1,8,0:0:0:0:
256,192,978438,1,0,0:0:0:0:
256,192,978519,1,8,0:0:0:0:
256,192,978601,1,0,0:0:0:0:
256,192,978682,1,0,0:0:0:0:
256,192,978764,1,8,0:0:0:0:
256,192,978846,1,0,0:0:0:0:
256,192,978927,1,8,0:0:0:0:
256,192,979009,1,8,0:0:0:0:
256,192,979090,1,0,0:0:0:0:
256,192,979172,1,8,0:0:0:0:
256,192,979253,1,0,0:0:0:0:
256,192,979335,1,0,0:0:0:0:
256,192,979416,1,8,0:0:0:0:
256,192,979498,1,0,0:0:0:0:
256,192,979579,1,8,0:0:0:0:
256,192,979661,1,0,0:0:0:0:
256,192,979742,1,8,0:0:0:0:
256,192,979824,1,8,0:0:0:0:
256,192,979905,1,0,0:0:0:0:
256,192,979987,1,8,0:0:0:0:
256,192,980068,1,0,0:0:0:0:
256,192,980150,1,0,0:0:0:0:
256,192,980231,1,8,0:0:0:0:
256,192,980313,1,0,0:0:0:0:
256,192,980394,1,8,0:0:0:0:
256,192,980476,1,8,0:0:0:0:
256,192,980557,1,0,0:0:0:0:
256,192,980639,1,8,0:0:0:0:
256,192,980721,1,0,0:0:0:0:
256,192,980802,1,0,0:0:0:0:
256,192,980884,1,8,0:0:0:0:
256,192,980938,1,8,0:0:0:0:
256,192,980992,1,8,0:0:0:0:
256,192,981047,1,0,0:0:0:0:
256,192,981128,1,0,0:0:0:0:
256,192,981210,1,8,0:0:0:0:
256,192,981264,1,0,0:0:0:0:
256,192,981318,1,0,0:0:0:0:
256,192,981373,1,8,0:0:0:0:
256,192,981454,1,0,0:0:0:0:
256,192,981536,1,8,0:0:0:0:
256,192,981590,1,8,0:0:0:0:
256,192,981644,1,8,0:0:0:0:
256,192,981699,1,0,0:0:0:0:
256,192,981780,1,0,0:0:0:0:
256,192,981862,1,8,0:0:0:0:
256,192,981916,1,0,0:0:0:0:
256,192,981971,1,0,0:0:0:0:
256,192,982025,1,8,0:0:0:0:
256,192,982106,1,0,0:0:0:0:
256,192,982188,1,8,0:0:0:0:
256,192,982242,1,8,0:0:0:0:
256,192,982297,1,8,0:0:0:0:
256,192,982351,1,0,0:0:0:0:
256,192,982432,1,0,0:0:0:0:
256,192,982514,1,8,0:0:0:0:
256,192,982568,1,8,0:0:0:0:
256,192,982623,1,8,0:0:0:0:
256,192,982677,1,0,0:0:0:0:
256,192,982759,1,0,0:0:0:0:
256,192,982840,1,8,0:0:0:0:
256,192,982894,1,8,0:0:0:0:
256,192,982949,1,8,0:0:0:0:
256,192,983003,1,0,0:0:0:0:
256,192,983085,1,0,0:0:0:0:
256,192,983166,1,8,0:0:0:0:
256,192,983492,1,4,0:0:0:0:
256,192,983818,1,8,0:0:0:0:
256,192,983859,1,8,0:0:0:0:
256,192,983981,1,0,0:0:0:0:
256,192,984022,1,0,0:0:0:0:
256,192,984144,1,8,0:0:0:0:
256,192,984185,1,8,0:0:0:0:
256,192,984307,1,8,0:0:0:0:
256,192,984348,1,8,0:0:0:0:
256,192,984471,1,8,0:0:0:0:
256,192,984511,1,8,0:0:0:0:
256,192,984634,1,0,0:0:0:0:
256,192,984674,1,0,0:0:0:0:
256,192,984797,1,8,0:0:0:0:
256,192,984837,1,8,0:0:0:0:
256,192,984960,1,8,0:0:0:0:
256,192,985000,1,8,0:0:0:0:
256,192,985123,1,0,0:0:0:0:
256,192,985286,1,8,0:0:0:0:
256,192,985326,1,8,0:0:0:0:
256,192,985449,1,8,0:0:0:0:
256,192,985490,1,8,0:0:0:0:
256,192,985612,1,8,0:0:0:0:
256,192,985653,1,8,0:0:0:0:
256,192,985775,1,0,0:0:0:0:
256,192,985938,1,8,0:0:0:0:
256,192,985979,1,8,0:0:0:0:
256,192,986101,1,0,0:0:0:0:
256,192,986427,1,8,0:0:0:0:
256,192,986468,1,8,0:0:0:0:
256,192,986590,1,0,0:0:0:0:
256,192,986631,1,0,0:0:0:0:
256,192,986753,1,8,0:0:0:0:
256,192,986794,1,8,0:0:0:0:
256,192,986916,1,8,0:0:0:0:
256,192,986957,1,8,0:0:0:0:
256,192,987079,1,8,0:0:0:0:
256,192,987120,1,8,0:0:0:0:
256,192,987242,1,0,0:0:0:0:
256,192,987283,1,0,0:0:0:0:
256,192,987405,1,8,0:0:0:0:
256,192,987446,1,8,0:0:0:0:
256,192,987568,1,8,0:0:0:0:
256,192,987609,1,8,0:0:0:0:
256,192,987731,1,0,0:0:0:0:
256,192,987894,1,8,0:0:0:0:
256,192,987935,1,8,0:0:0:0:
256,192,988057,1,8,0:0:0:0:
256,192,988098,1,8,0:0:0:0:
256,192,988384,1,0,0:0:0:0:
256,192,988547,1,8,0:0:0:0:
256,192,988587,1,8,0:0:0:0:
256,192,988710,1,0,0:0:0:0:
256,192,988873,1,8,0:0:0:0:
256,192,989036,1,0,0:0:0:0:
256,192,989076,1,0,0:0:0:0:
256,192,989199,1,0,0:0:0:0:
256,192,989240,1,0,0:0:0:0:
256,192,989362,1,8,0:0:0:0:
256,192,989403,1,8,0:0:0:0:
256,192,989525,1,8,0:0:0:0:
256,192,989566,1,8,0:0:0:0:
256,192,989688,1,8,0:0:0:0:
256,192,989729,1,8,0:0:0:0:
256,192,989851,1,0,0:0:0:0:
256,192,989892,1,0,0:0:0:0:
256,192,990014,1,8,0:0:0:0:
256,192,990055,1,8,0:0:0:0:
256,192,990177,1,8,0:0:0:0:
256,192,990218,1,8,0:0:0:0:
256,192,990340,1,0,0:0:0:0:
256,192,990381,1,0,0:0:0:0:
256,192,990503,1,8,0:0:0:0:
256,192,990544,1,8,0:0:0:0:
256,192,990666,1,0,0:0:0:0:
256,192,990707,1,0,0:0:0:0:
256,192,990829,1,8,0:0:0:0:
256,192,990870,1,8,0:0:0:0:
256,192,990992,1,0,0:0:0:0:
256,192,991155,1,8,0:0:0:0:
256,192,991318,1,0,0:0:0:0:
256,192,991644,1,0,0:0:0:0:
256,192,991685,1,0,0:0:0:0:
256,192,991807,1,0,0:0:0:0:
256,192,991848,1,0,0:0:0:0:
256,192,991971,1,8,0:0:0:0:
256,192,992011,1,8,0:0:0:0:
256,192,992134,1,8,0:0:0:0:
256,192,992174,1,8,0:0:0:0:
256,192,992297,1,8,0:0:0:0:
256,192,992337,1,8,0:0:0:0:
256,192,992460,1,0,0:0:0:0:
256,192,992500,1,0,0:0:0:0:
256,192,992623,1,8,0:0:0:0:
256,192,992663,1,8,0:0:0:0:
256,192,992786,1,8,0:0:0:0:
256,192,992826,1,8,0:0:0:0:
256,192,992949,1,0,0:0:0:0:
256,192,992990,1,0,0:0:0:0:
256,192,993112,1,8,0:0:0:0:
256,192,993153,1,8,0:0:0:0:
256,192,993275,1,0,0:0:0:0:
256,192,993316,1,0,0:0:0:0:
256,192,993438,1,8,0:0:0:0:
256,192,993479,1,8,0:0:0:0:
256,192,993601,1,0,0:0:0:0:
256,192,993682,1,8,0:0:0:0:
256,192,993764,1,8,0:0:0:0:
256,192,993846,1,8,0:0:0:0:
256,192,993927,1,0,0:0:0:0:
256,192,994090,1,8,0:0:0:0:
256,192,994131,1,8,0:0:0:0:
256,192,994253,1,8,0:0:0:0:
256,192,994294,1,8,0:0:0:0:
256,192,994416,1,0,0:0:0:0:
256,192,994457,1,0,0:0:0:0:
256,192,994579,1,8,0:0:0:0:
256,192,994620,1,8,0:0:0:0:
256,192,994742,1,8,0:0:0:0:
256,192,994783,1,8,0:0:0:0:
256,192,994905,1,8,0:0:0:0:
256,192,994946,1,8,0:0:0:0:
256,192,995068,1,0,0:0:0:0:
256,192,995109,1,0,0:0:0:0:
256,192,995231,1,8,0:0:0:0:
256,192,995272,1,8,0:0:0:0:
256,192,995394,1,8,0:0:0:0:
256,192,995435,1,8,0:0:0:0:
256,192,995557,1,0,0:0:0:0:
256,192,995721,1,8,0:0:0:0:
256,192,995761,1,8,0:0:0:0:
256,192,995884,1,8,0:0:0:0:
256,192,995924,1,8,0:0:0:0:
256,192,996047,1,8,0:0:0:0:
256,192,996087,1,8,0:0:0:0:
256,192,996210,1,0,0:0:0:0:
256,192,996373,1,8,0:0:0:0:
256,192,996413,1,8,0:0:0:0:
256,192,996536,1,0,0:0:0:0:
256,192,996699,1,8,0:0:0:0:
256,192,996740,1,8,0:0:0:0:
256,192,996862,1,8,0:0:0:0:
256,192,996903,1,8,0:0:0:0:
256,192,997025,1,0,0:0:0:0:
256,192,997066,1,0,0:0:0:0:
256,192,997188,1,8,0:0:0:0:
256,192,997229,1,8,0:0:0:0:
256,192,997351,1,8,0:0:0:0:
256,192,997392,1,8,0:0:0:0:
256,192,997514,1,8,0:0:0:0:
256,192,997555,1,8,0:0:0:0:
256,192,997677,1,0,0:0:0:0:
256,192,997718,1,0,0:0:0:0:
256,192,997840,1,8,0:0:0:0:
256,192,997881,1,8,0:0:0:0:
256,192,998003,1,8,0:0:0:0:
256,192,998044,1,8,0:0:0:0:
256,192,998166,1,0,0:0:0:0:
256,192,998329,1,8,0:0:0:0:
256,192,998370,1,8,0:0:0:0:
256,192,998492,1,8,0:0:0:0:
256,192,998533,1,8,0:0:0:0:
256,192,998818,1,0,0:0:0:0:
256,192,998981,1,8,0:0:0:0:
256,192,999022,1,8,0:0:0:0:
256,192,999144,1,0,0:0:0:0:
256,192,999307,1,8,0:0:0:0:
256,192,999471,1,0,0:0:0:0:
256,192,999511,1,0,0:0:0:0:
256,192,999634,1,0,0:0:0:0:
256,192,999674,1,0,0:0:0:0:
256,192,999797,1,8,0:0:0:0:
256,192,999837,1,8,0:0:0:0:
256,192,999960,1,8,0:0:0:0:
256,192,1000000,1,8,0:0:0:0:
256,192,1000123,1,8,0:0:0:0:
256,192,1000163,1,8,0:0:0:0:
256,192,1000286,1,0,0:0:0:0:
256,192,1000326,1,0,0:0:0:0:
256,192,1000449,1,0,0:0:0:0:
256,192,1000490,1,0,0:0:0:0:
256,192,1000612,1,8,0:0:0:0:
256,192,1000653,1,8,0:0:0:0:
256,192,1000775,1,0,0:0:0:0:
256,192,1000816,1,0,0:0:0:0:
256,192,1000938,1,0,0:0:0:0:
256,192,1000979,1,0,0:0:0:0:
256,192,1001101,1,8,0:0:0:0:
256,192,1001142,1,8,0:0:0:0:
256,192,1001264,1,0,0:0:0:0:
256,192,1001305,1,0,0:0:0:0:
256,192,1001427,1,0,0:0:0:0:
256,192,1001590,1,8,0:0:0:0:
256,192,1001631,1,8,0:0:0:0:
256,192,1001753,1,0,0:0:0:0:
256,192,1001916,1,8,0:0:0:0:
256,192,1002079,1,0,0:0:0:0:
256,192,1002120,1,0,0:0:0:0:
256,192,1002242,1,0,0:0:0:0:
256,192,1002283,1,0,0:0:0:0:
256,192,1002405,1,8,0:0:0:0:
256,192,1002446,1,8,0:0:0:0:
256,192,1002568,1,8,0:0:0:0:
256,192,1002609,1,8,0:0:0:0:
256,192,1002731,1,8,0:0:0:0:
256,192,1002772,1,8,0:0:0:0:
256,192,1002894,1,0,0:0:0:0:
256,192,1002935,1,0,0:0:0:0:
256,192,1003057,1,8,0:0:0:0:
256,192,1003098,1,8,0:0:0:0:
256,192,1003221,1,8,0:0:0:0:
256,192,1003261,1,8,0:0:0:0:
256,192,1003384,1,0,0:0:0:0:
256,192,1003424,1,0,0:0:0:0:
256,192,1003547,1,8,0:0:0:0:
256,192,1003587,1,8,0:0:0:0:
256,192,1003710,1,8,0:0:0:0:
256,192,1003750,1,8,0:0:0:0:
256,192,1003873,1,0,0:0:0:0:
256,192,1003913,1,0,0:0:0:0:
256,192,1014768,5,0,0:0:0:0:
256,192,1019823,5,0,0:0:0:0:
256,192,1019986,1,0,0:0:0:0:
256,192,1025203,5,0,0:0:0:0:
256,192,1027649,1,0,0:0:0:0:
256,192,1027812,1,0,0:0:0:0:
256,192,1029931,1,0,0:0:0:0:
256,192,1030176,1,0,0:0:0:0:
256,192,1030420,1,0,0:0:0:0:
256,192,1032866,1,0,0:0:0:0:
256,192,1033029,1,0,0:0:0:0:
256,192,1035149,1,0,0:0:0:0:
256,192,1035393,1,0,0:0:0:0:
256,192,1035638,1,0,0:0:0:0:
256,192,1035964,1,8,0:0:0:0:
256,192,1036290,1,8,0:0:0:0:
256,192,1036616,1,8,0:0:0:0:
256,192,1036942,1,0,0:0:0:0:
256,192,1037268,1,8,0:0:0:0:
256,192,1037594,1,8,0:0:0:0:
256,192,1037920,1,8,0:0:0:0:
256,192,1038084,1,0,0:0:0:0:
256,192,1038247,1,0,0:0:0:0:
256,192,1038573,1,8,0:0:0:0:
256,192,1038899,1,8,0:0:0:0:
256,192,1039225,1,8,0:0:0:0:
256,192,1039551,1,0,0:0:0:0:
256,192,1039877,1,8,0:0:0:0:
256,192,1040203,1,8,0:0:0:0:
256,192,1040366,1,0,0:0:0:0:
256,192,1040529,1,8,0:0:0:0:
256,192,1040611,1,0,0:0:0:0:
256,192,1040855,1,0,0:0:0:0:
256,192,1041018,1,8,0:0:0:0:
256,192,1041181,1,0,0:0:0:0:
256,192,1041344,1,8,0:0:0:0:
256,192,1041507,1,0,0:0:0:0:
256,192,1041670,1,8,0:0:0:0:
256,192,1041834,1,0,0:0:0:0:
256,192,1041997,1,8,0:0:0:0:
256,192,1042160,1,0,0:0:0:0:
256,192,1042323,1,8,0:0:0:0:
256,192,1042486,1,0,0:0:0:0:
256,192,1042649,1,8,0:0:0:0:
256,192,1042812,1,0,0:0:0:0:
256,192,1042975,1,8,0:0:0:0:
256,192,1043138,1,0,0:0:0:0:
256,192,1043301,1,8,0:0:0:0:
256,192,1043464,1,0,0:0:0:0:
256,192,1043627,1,0,0:0:0:0:
256,192,1043790,1,0,0:0:0:0:
256,192,1043953,1,0,0:0:0:0:
256,192,1044116,1,8,0:0:0:0:
256,192,1044198,1,8,0:0:0:0:
256,192,1044279,1,0,0:0:0:0:
256,192,1044361,1,0,0:0:0:0:
256,192,1044442,1,8,0:0:0:0:
256,192,1044524,1,8,0:0:0:0:
256,192,1044605,1,8,0:0:0:0:
256,192,1044687,1,8,0:0:0:0:
256,192,1045740,1,12,0:0:0:0:
256,192,1046103,1,4,0:0:0:0:
256,192,1046592,1,0,0:0:0:0:
256,192,1046632,1,0,0:0:0:0:
256,192,1046755,1,8,0:0:0:0:
256,192,1046809,1,8,0:0:0:0:
256,192,1046863,1,8,0:0:0:0:
256,192,1046918,1,0,0:0:0:0:
256,192,1047081,1,8,0:0:0:0:
256,192,1047122,1,8,0:0:0:0:
256,192,1047244,1,8,0:0:0:0:
256,192,1047285,1,8,0:0:0:0:
256,192,1047407,1,0,0:0:0:0:
256,192,1047448,1,0,0:0:0:0:
256,192,1047570,1,8,0:0:0:0:
256,192,1047611,1,8,0:0:0:0:
256,192,1047733,1,8,0:0:0:0:
256,192,1047774,1,8,0:0:0:0:
256,192,1047896,1,0,0:0:0:0:
256,192,1047937,1,0,0:0:0:0:
256,192,1048059,1,8,0:0:0:0:
256,192,1048113,1,8,0:0:0:0:
256,192,1048168,1,8,0:0:0:0:
256,192,1048222,1,0,0:0:0:0:
256,192,1048385,1,8,0:0:0:0:
256,192,1048426,1,8,0:0:0:0:
256,192,1048548,1,8,0:0:0:0:
256,192,1048589,1,8,0:0:0:0:
256,192,1048711,1,0,0:0:0:0:
256,192,1049363,1,8,0:0:0:0:
256,192,1049445,1,0,0:0:0:0:
256,192,1049526,1,8,0:0:0:0:
256,192,1049608,1,8,0:0:0:0:
256,192,1049689,1,0,0:0:0:0:
256,192,1049771,1,8,0:0:0:0:
256,192,1049853,1,8,0:0:0:0:
256,192,1049934,1,8,0:0:0:0:
256,192,1050016,1,0,0:0:0:0:
256,192,1050097,1,8,0:0:0:0:
256,192,1050179,1,0,0:0:0:0:
256,192,1050260,1,0,0:0:0:0:
256,192,1050342,1,8,0:0:0:0:
256,192,1050423,1,0,0:0:0:0:
256,192,1050505,1,0,0:0:0:0:
256,192,1050586,1,0,0:0:0:0:
256,192,1050668,1,8,0:0:0:0:
256,192,1050831,1,0,0:0:0:0:
256,192,1050994,1,8,0:0:0:0:
256,192,1051320,1,4,0:0:0:0:
256,192,1051809,1,0,0:0:0:0:
256,192,1051850,1,0,0:0:0:0:
256,192,1051972,1,8,0:0:0:0:
256,192,1052026,1,8,0:0:0:0:
256,192,1052081,1,8,0:0:0:0:
256,192,1052135,1,0,0:0:0:0:
256,192,1052298,1,8,0:0:0:0:
256,192,1052339,1,8,0:0:0:0:
256,192,1052461,1,8,0:0:0:0:
256,192,1052502,1,8,0:0:0:0:
256,192,1052624,1,0,0:0:0:0:
256,192,1052733,1,0,0:0:0:0:
256,192,1052842,1,0,0:0:0:0:
256,192,1052950,1,8,0:0:0:0:
256,192,1053113,1,0,0:0:0:0:
256,192,1053154,1,0,0:0:0:0:
256,192,1053276,1,8,0:0:0:0:
256,192,1053331,1,8,0:0:0:0:
256,192,1053385,1,8,0:0:0:0:
256,192,1053439,1,0,0:0:0:0:
256,192,1053603,1,8,0:0:0:0:
256,192,1053643,1,8,0:0:0:0:
256,192,1053766,1,8,0:0:0:0:
256,192,1053806,1,8,0:0:0:0:
256,192,1053929,1,0,0:0:0:0:
256,192,1054581,1,8,0:0:0:0:
256,192,1055233,1,0,0:0:0:0:
256,192,1055559,1,8,0:0:0:0:
256,192,1055668,1,8,0:0:0:0:
256,192,1055776,1,0,0:0:0:0:
256,192,1055885,1,8,0:0:0:0:
256,192,1055994,1,0,0:0:0:0:
256,192,1056103,1,0,0:0:0:0:
256,192,1056211,1,8,0:0:0:0:
256,192,1056374,1,8,0:0:0:0:
256,192,1056537,1,4,0:0:0:0:
256,192,1057026,1,0,0:0:0:0:
256,192,1057067,1,0,0:0:0:0:
256,192,1057189,1,8,0:0:0:0:
256,192,1057244,1,8,0:0:0:0:
256,192,1057298,1,8,0:0:0:0:
256,192,1057353,1,0,0:0:0:0:
256,192,1057516,1,8,0:0:0:0:
256,192,1057556,1,8,0:0:0:0:
256,192,1057679,1,8,0:0:0:0:
256,192,1057719,1,8,0:0:0:0:
256,192,1057842,1,0,0:0:0:0:
256,192,1057882,1,0,0:0:0:0:
256,192,1058005,1,8,0:0:0:0:
256,192,1058045,1,8,0:0:0:0:
256,192,1058168,1,8,0:0:0:0:
256,192,1058208,1,8,0:0:0:0:
256,192,1058331,1,0,0:0:0:0:
256,192,1058372,1,0,0:0:0:0:
256,192,1058494,1,8,0:0:0:0:
256,192,1058548,1,8,0:0:0:0:
256,192,1058603,1,8,0:0:0:0:
256,192,1058657,1,0,0:0:0:0:
256,192,1058820,1,8,0:0:0:0:
256,192,1058861,1,8,0:0:0:0:
256,192,1058983,1,8,0:0:0:0:
256,192,1059024,1,8,0:0:0:0:
256,192,1059146,1,0,0:0:0:0:
256,192,1059798,1,8,0:0:0:0:
256,192,1059961,1,0,0:0:0:0:
256,192,1060124,1,8,0:0:0:0:
256,192,1060287,1,8,0:0:0:0:
256,192,1060450,1,0,0:0:0:0:
256,192,1060776,1,8,0:0:0:0:
256,192,1060939,1,0,0:0:0:0:
256,192,1061021,1,0,0:0:0:0:
256,192,1061103,1,8,0:0:0:0:
256,192,1061266,1,0,0:0:0:0:
256,192,1061429,1,8,0:0:0:0:
256,192,1061755,1,4,0:0:0:0:
256,192,1062244,1,0,0:0:0:0:
256,192,1062285,1,0,0:0:0:0:
256,192,1062407,1,8,0:0:0:0:
256,192,1062461,1,8,0:0:0:0:
256,192,1062516,1,8,0:0:0:0:
256,192,1062570,1,0,0:0:0:0:
256,192,1062733,1,8,0:0:0:0:
256,192,1062774,1,8,0:0:0:0:
256,192,1063059,1,0,0:0:0:0:
256,192,1063168,1,0,0:0:0:0:
256,192,1063276,1,0,0:0:0:0:
256,192,1063385,1,8,0:0:0:0:
256,192,1063548,1,0,0:0:0:0:
256,192,1063589,1,0,0:0:0:0:
256,192,1063711,1,8,0:0:0:0:
256,192,1063766,1,8,0:0:0:0:
256,192,1063820,1,8,0:0:0:0:
256,192,1063874,1,0,0:0:0:0:
256,192,1064037,1,8,0:0:0:0:
256,192,1064078,1,8,0:0:0:0:
256,192,1064200,1,8,0:0:0:0:
256,192,1064241,1,8,0:0:0:0:
256,192,1064363,1,0,0:0:0:0:
256,192,1065016,1,8,0:0:0:0:
256,192,1065179,1,0,0:0:0:0:
256,192,1065233,1,0,0:0:0:0:
256,192,1065287,1,0,0:0:0:0:
256,192,1065342,1,8,0:0:0:0:
256,192,1065505,1,8,0:0:0:0:
256,192,1065668,1,0,0:0:0:0:
256,192,1065994,1,8,0:0:0:0:
256,192,1066320,1,8,0:0:0:0:
256,192,1066972,1,4,0:0:0:0:
256,192,1067461,1,0,0:0:0:0:
256,192,1067502,1,0,0:0:0:0:
256,192,1067624,1,8,0:0:0:0:
256,192,1067665,1,8,0:0:0:0:
256,192,1067787,1,8,0:0:0:0:
256,192,1067828,1,8,0:0:0:0:
256,192,1067950,1,0,0:0:0:0:
256,192,1067991,1,0,0:0:0:0:
256,192,1068113,1,8,0:0:0:0:
256,192,1068154,1,8,0:0:0:0:
256,192,1068276,1,0,0:0:0:0:
256,192,1068331,1,8,0:0:0:0:
256,192,1068385,1,8,0:0:0:0:
256,192,1068439,1,0,0:0:0:0:
256,192,1068603,1,8,0:0:0:0:
256,192,1068643,1,8,0:0:0:0:
256,192,1068766,1,0,0:0:0:0:
256,192,1068806,1,0,0:0:0:0:
256,192,1068929,1,8,0:0:0:0:
256,192,1068983,1,8,0:0:0:0:
256,192,1069037,1,8,0:0:0:0:
256,192,1069092,1,0,0:0:0:0:
256,192,1069418,1,8,0:0:0:0:
256,192,1069458,1,8,0:0:0:0:
256,192,1069581,1,0,0:0:0:0:
256,192,1069907,1,8,0:0:0:0:
256,192,1070233,1,8,0:0:0:0:
256,192,1070396,1,0,0:0:0:0:
256,192,1070450,1,0,0:0:0:0:
256,192,1070505,1,0,0:0:0:0:
256,192,1070559,1,8,0:0:0:0:
256,192,1070722,1,8,0:0:0:0:
256,192,1070885,1,8,0:0:0:0:
256,192,1071048,1,0,0:0:0:0:
256,192,1071211,1,8,0:0:0:0:
256,192,1071537,1,8,0:0:0:0:
256,192,1071700,1,0,0:0:0:0:
256,192,1071863,1,8,0:0:0:0:
256,192,1072026,1,8,0:0:0:0:
256,192,1072189,1,4,0:0:0:0:
256,192,1072679,1,0,0:0:0:0:
256,192,1072719,1,0,0:0:0:0:
256,192,1072842,1,8,0:0:0:0:
256,192,1072882,1,8,0:0:0:0:
256,192,1073005,1,8,0:0:0:0:
256,192,1073045,1,8,0:0:0:0:
256,192,1073168,1,0,0:0:0:0:
256,192,1073208,1,0,0:0:0:0:
256,192,1073331,1,8,0:0:0:0:
256,192,1073372,1,8,0:0:0:0:
256,192,1073494,1,0,0:0:0:0:
256,192,1073535,1,0,0:0:0:0:
256,192,1073711,1,8,0:0:0:0:
256,192,1073820,1,8,0:0:0:0:
256,192,1073861,1,8,0:0:0:0:
256,192,1073983,1,0,0:0:0:0:
256,192,1074024,1,0,0:0:0:0:
256,192,1074146,1,8,0:0:0:0:
256,192,1074200,1,8,0:0:0:0:
256,192,1074255,1,8,0:0:0:0:
256,192,1074309,1,0,0:0:0:0:
256,192,1074635,1,8,0:0:0:0:
256,192,1074676,1,8,0:0:0:0:
256,192,1074798,1,0,0:0:0:0:
256,192,1075450,1,8,0:0:0:0:
256,192,1075532,1,0,0:0:0:0:
256,192,1075613,1,8,0:0:0:0:
256,192,1075695,1,8,0:0:0:0:
256,192,1075776,1,0,0:0:0:0:
256,192,1075858,1,8,0:0:0:0:
256,192,1075939,1,8,0:0:0:0:
256,192,1076021,1,8,0:0:0:0:
256,192,1076103,1,0,0:0:0:0:
256,192,1076266,1,0,0:0:0:0:
256,192,1076320,1,0,0:0:0:0:
256,192,1076374,1,0,0:0:0:0:
256,192,1076429,1,8,0:0:0:0:
256,192,1076755,1,8,0:0:0:0:
256,192,1076836,1,0,0:0:0:0:
256,192,1076918,1,0,0:0:0:0:
256,192,1076999,1,0,0:0:0:0:
256,192,1077081,1,8,0:0:0:0:
256,192,1077407,1,4,0:0:0:0:
256,192,1077896,1,0,0:0:0:0:
256,192,1077937,1,0,0:0:0:0:
256,192,1078059,1,8,0:0:0:0:
256,192,1078100,1,8,0:0:0:0:
256,192,1078222,1,8,0:0:0:0:
256,192,1078263,1,8,0:0:0:0:
256,192,1078385,1,0,0:0:0:0:
256,192,1078426,1,0,0:0:0:0:
256,192,1078548,1,8,0:0:0:0:
256,192,1078589,1,8,0:0:0:0:
256,192,1078711,1,0,0:0:0:0:
256,192,1078766,1,8,0:0:0:0:
256,192,1078820,1,8,0:0:0:0:
256,192,1078874,1,0,0:0:0:0:
256,192,1079037,1,8,0:0:0:0:
256,192,1079078,1,8,0:0:0:0:
256,192,1079200,1,0,0:0:0:0:
256,192,1079241,1,0,0:0:0:0:
256,192,1079363,1,8,0:0:0:0:
256,192,1079418,1,8,0:0:0:0:
256,192,1079472,1,8,0:0:0:0:
256,192,1079526,1,0,0:0:0:0:
256,192,1079853,1,8,0:0:0:0:
256,192,1079893,1,8,0:0:0:0:
256,192,1080016,1,0,0:0:0:0:
256,192,1080342,1,8,0:0:0:0:
256,192,1080668,1,8,0:0:0:0:
256,192,1080831,1,0,0:0:0:0:
256,192,1080885,1,0,0:0:0:0:
256,192,1080939,1,0,0:0:0:0:
256,192,1080994,1,8,0:0:0:0:
256,192,1081157,1,8,0:0:0:0:
256,192,1081320,1,8,0:0:0:0:
256,192,1081483,1,0,0:0:0:0:
256,192,1081646,1,8,0:0:0:0:
256,192,1081972,1,8,0:0:0:0:
256,192,1082135,1,0,0:0:0:0:
256,192,1082298,1,8,0:0:0:0:
256,192,1082461,1,8,0:0:0:0:
256,192,1082624,1,4,0:0:0:0:
256,192,1083113,1,0,0:0:0:0:
256,192,1083154,1,0,0:0:0:0:
256,192,1083276,1,8,0:0:0:0:
256,192,1083317,1,8,0:0:0:0:
256,192,1083439,1,8,0:0:0:0:
256,192,1083480,1,8,0:0:0:0:
256,192,1083603,1,0,0:0:0:0:
256,192,1083643,1,0,0:0:0:0:
256,192,1083766,1,8,0:0:0:0:
256,192,1083806,1,8,0:0:0:0:
256,192,1083929,1,0,0:0:0:0:
256,192,1083969,1,0,0:0:0:0:
256,192,1084092,1,8,0:0:0:0:
256,192,1084132,1,8,0:0:0:0:
256,192,1084255,1,0,0:0:0:0:
256,192,1084295,1,0,0:0:0:0:
256,192,1084418,1,0,0:0:0:0:
256,192,1084458,1,0,0:0:0:0:
256,192,1084581,1,8,0:0:0:0:
256,192,1084635,1,8,0:0:0:0:
256,192,1084689,1,8,0:0:0:0:
256,192,1084744,1,0,0:0:0:0:
256,192,1085070,1,8,0:0:0:0:
256,192,1085111,1,8,0:0:0:0:
256,192,1085233,1,0,0:0:0:0:
256,192,1085885,1,8,0:0:0:0:
256,192,1086048,1,8,0:0:0:0:
256,192,1086211,1,8,0:0:0:0:
256,192,1086374,1,8,0:0:0:0:
256,192,1086537,1,0,0:0:0:0:
256,192,1087189,1,8,0:0:0:0:
256,192,1087271,1,0,0:0:0:0:
256,192,1087353,1,0,0:0:0:0:
256,192,1087434,1,0,0:0:0:0:
256,192,1087516,1,8,0:0:0:0:
256,192,1087597,1,0,0:0:0:0:
256,192,1087842,1,12,0:0:0:0:
256,192,1098276,5,0,0:0:0:0:
256,192,1098766,1,0,0:0:0:0:
256,192,1098929,1,8,0:0:0:0:
256,192,1099418,1,0,0:0:0:0:
256,192,1099744,1,0,0:0:0:0:
256,192,1099907,1,0,0:0:0:0:
256,192,1100233,1,8,0:0:0:0:
256,192,1100885,1,0,0:0:0:0:
256,192,1101374,1,0,0:0:0:0:
256,192,1101537,1,8,0:0:0:0:
256,192,1102026,1,0,0:0:0:0:
256,192,1102353,1,0,0:0:0:0:
256,192,1102516,1,0,0:0:0:0:
256,192,1102842,1,8,0:0:0:0:
256,192,1103494,1,0,0:0:0:0:
256,192,1103983,1,0,0:0:0:0:
256,192,1104146,1,8,0:0:0:0:
256,192,1104635,1,0,0:0:0:0:
256,192,1104961,1,0,0:0:0:0:
256,192,1105124,1,0,0:0:0:0:
256,192,1105450,1,8,0:0:0:0:
256,192,1106103,1,0,0:0:0:0:
256,192,1106592,1,0,0:0:0:0:
256,192,1106755,1,8,0:0:0:0:
256,192,1107244,1,0,0:0:0:0:
256,192,1107570,1,0,0:0:0:0:
256,192,1107733,1,0,0:0:0:0:
256,192,1108059,1,8,0:0:0:0:
256,192,1108711,1,0,0:0:0:0:
256,192,1109200,1,0,0:0:0:0:
256,192,1109363,1,8,0:0:0:0:
256,192,1109526,1,8,0:0:0:0:
256,192,1109853,1,0,0:0:0:0:
256,192,1110179,1,0,0:0:0:0:
256,192,1110342,1,0,0:0:0:0:
256,192,1110668,1,8,0:0:0:0:
256,192,1111320,1,0,0:0:0:0:
256,192,1111809,1,0,0:0:0:0:
256,192,1111972,1,8,0:0:0:0:
256,192,1112135,1,0,0:0:0:0:
256,192,1112298,1,8,0:0:0:0:
256,192,1112461,1,0,0:0:0:0:
256,192,1112787,1,0,0:0:0:0:
256,192,1112950,1,0,0:0:0:0:
256,192,1113276,1,8,0:0:0:0:
256,192,1113603,1,8,0:0:0:0:
256,192,1113929,1,0,0:0:0:0:
256,192,1114418,1,0,0:0:0:0:
256,192,1114581,1,8,0:0:0:0:
256,192,1114744,1,0,0:0:0:0:
256,192,1115070,1,0,0:0:0:0:
256,192,1115396,1,0,0:0:0:0:
256,192,1115559,1,0,0:0:0:0:
256,192,1115885,1,8,0:0:0:0:
256,192,1116537,1,0,0:0:0:0:
256,192,1117026,1,0,0:0:0:0:
256,192,1117189,1,8,0:0:0:0:
256,192,1117353,1,0,0:0:0:0:
256,192,1117516,1,8,0:0:0:0:
256,192,1117679,1,0,0:0:0:0:
256,192,1118005,1,0,0:0:0:0:
256,192,1118168,1,0,0:0:0:0:
256,192,1118494,1,8,0:0:0:0:
256,192,1118820,1,8,0:0:0:0:
256,192,1118983,1,0,0:0:0:0:
256,192,1119146,1,0,0:0:0:0:
256,192,1140016,5,0,0:0:0:0:
256,192,1140505,1,8,0:0:0:0:
256,192,1140994,1,8,0:0:0:0:
256,192,1142461,1,0,0:0:0:0:
256,192,1142624,1,0,0:0:0:0:
256,192,1143113,1,8,0:0:0:0:
256,192,1143603,1,8,0:0:0:0:
256,192,1144744,1,0,0:0:0:0:
256,192,1144988,1,0,0:0:0:0:
256,192,1145233,1,0,0:0:0:0:
256,192,1145722,1,8,0:0:0:0:
256,192,1146211,1,8,0:0:0:0:
256,192,1147679,1,0,0:0:0:0:
256,192,1147842,1,0,0:0:0:0:
256,192,1148331,1,8,0:0:0:0:
256,192,1148820,1,8,0:0:0:0:
256,192,1149961,1,0,0:0:0:0:
256,192,1150206,1,0,0:0:0:0:
256,192,1150450,1,0,0:0:0:0:
256,192,1150776,1,8,0:0:0:0:
256,192,1151103,1,8,0:0:0:0:
256,192,1151429,1,8,0:0:0:0:
256,192,1151755,1,0,0:0:0:0:
256,192,1152081,1,8,0:0:0:0:
256,192,1152407,1,8,0:0:0:0:
256,192,1152733,1,8,0:0:0:0:
256,192,1152896,1,0,0:0:0:0:
256,192,1153059,1,0,0:0:0:0:
256,192,1153385,1,8,0:0:0:0:
256,192,1153711,1,8,0:0:0:0:
256,192,1154037,1,8,0:0:0:0:
256,192,1154363,1,0,0:0:0:0:
256,192,1154689,1,8,0:0:0:0:
256,192,1155016,1,8,0:0:0:0:
256,192,1155179,1,0,0:0:0:0:
256,192,1155342,1,8,0:0:0:0:
256,192,1155423,1,0,0:0:0:0:
256,192,1155668,1,0,0:0:0:0:
256,192,1155831,1,8,0:0:0:0:
256,192,1155994,1,0,0:0:0:0:
256,192,1156157,1,8,0:0:0:0:
256,192,1156320,1,0,0:0:0:0:
256,192,1156483,1,8,0:0:0:0:
256,192,1156646,1,0,0:0:0:0:
256,192,1156809,1,8,0:0:0:0:
256,192,1156972,1,0,0:0:0:0:
256,192,1157135,1,8,0:0:0:0:
256,192,1157298,1,0,0:0:0:0:
256,192,1157461,1,8,0:0:0:0:
256,192,1157624,1,0,0:0:0:0:
256,192,1157787,1,8,0:0:0:0:
256,192,1157950,1,0,0:0:0:0:
256,192,1158113,1,8,0:0:0:0:
256,192,1158276,1,12,0:0:0:0:
256,192,1160559,1,12,0:0:0:0:
256,192,1160885,1,4,0:0:0:0:
256,192,1161537,1,8,0:0:0:0:
256,192,1161700,1,0,0:0:0:0:
256,192,1161741,1,0,0:0:0:0:
256,192,1161863,1,8,0:0:0:0:
256,192,1161904,1,8,0:0:0:0:
256,192,1162026,1,0,0:0:0:0:
256,192,1162108,1,0,0:0:0:0:
256,192,1162189,1,8,0:0:0:0:
256,192,1162230,1,8,0:0:0:0:
256,192,1162353,1,0,0:0:0:0:
256,192,1162434,1,0,0:0:0:0:
256,192,1162516,1,8,0:0:0:0:
256,192,1162556,1,8,0:0:0:0:
256,192,1162679,1,0,0:0:0:0:
256,192,1162719,1,0,0:0:0:0:
256,192,1162842,1,8,0:0:0:0:
256,192,1162882,1,8,0:0:0:0:
256,192,1163005,1,8,0:0:0:0:
256,192,1163045,1,8,0:0:0:0:
256,192,1163168,1,8,0:0:0:0:
256,192,1163208,1,8,0:0:0:0:
256,192,1163331,1,8,0:0:0:0:
256,192,1163372,1,8,0:0:0:0:
256,192,1163494,1,0,0:0:0:0:
256,192,1164146,1,8,0:0:0:0:
256,192,1164309,1,0,0:0:0:0:
256,192,1164350,1,0,0:0:0:0:
256,192,1164472,1,8,0:0:0:0:
256,192,1164513,1,8,0:0:0:0:
256,192,1164635,1,0,0:0:0:0:
256,192,1164717,1,0,0:0:0:0:
256,192,1164798,1,8,0:0:0:0:
256,192,1164961,1,0,0:0:0:0:
256,192,1165124,1,8,0:0:0:0:
256,192,1165287,1,0,0:0:0:0:
256,192,1165450,1,8,0:0:0:0:
256,192,1165613,1,0,0:0:0:0:
256,192,1165776,1,8,0:0:0:0:
256,192,1165939,1,8,0:0:0:0:
256,192,1166103,1,0,0:0:0:0:
256,192,1166755,1,8,0:0:0:0:
256,192,1166918,1,0,0:0:0:0:
256,192,1166958,1,0,0:0:0:0:
256,192,1167081,1,8,0:0:0:0:
256,192,1167122,1,8,0:0:0:0:
256,192,1167244,1,0,0:0:0:0:
256,192,1167325,1,0,0:0:0:0:
256,192,1167407,1,8,0:0:0:0:
256,192,1167448,1,8,0:0:0:0:
256,192,1167570,1,0,0:0:0:0:
256,192,1167651,1,0,0:0:0:0:
256,192,1167733,1,8,0:0:0:0:
256,192,1167774,1,8,0:0:0:0:
256,192,1167896,1,0,0:0:0:0:
256,192,1167937,1,0,0:0:0:0:
256,192,1168059,1,8,0:0:0:0:
256,192,1168100,1,8,0:0:0:0:
256,192,1168222,1,8,0:0:0:0:
256,192,1168263,1,8,0:0:0:0:
256,192,1168385,1,8,0:0:0:0:
256,192,1168426,1,8,0:0:0:0:
256,192,1168548,1,8,0:0:0:0:
256,192,1168589,1,8,0:0:0:0:
256,192,1168711,1,0,0:0:0:0:
256,192,1169363,1,8,0:0:0:0:
256,192,1169689,1,8,0:0:0:0:
256,192,1169730,1,8,0:0:0:0:
256,192,1169853,1,8,0:0:0:0:
256,192,1169893,1,8,0:0:0:0:
256,192,1170016,1,0,0:0:0:0:
256,192,1170260,1,0,0:0:0:0:
256,192,1170505,1,0,0:0:0:0:
256,192,1170668,1,8,0:0:0:0:
256,192,1170831,1,0,0:0:0:0:
256,192,1170912,1,0,0:0:0:0:
256,192,1170994,1,8,0:0:0:0:
256,192,1171075,1,0,0:0:0:0:
256,192,1171157,1,8,0:0:0:0:
256,192,1171320,1,4,0:0:0:0:
256,192,1171972,1,8,0:0:0:0:
256,192,1172135,1,0,0:0:0:0:
256,192,1172176,1,0,0:0:0:0:
256,192,1172298,1,8,0:0:0:0:
256,192,1172339,1,8,0:0:0:0:
256,192,1172461,1,0,0:0:0:0:
256,192,1172543,1,0,0:0:0:0:
256,192,1172624,1,8,0:0:0:0:
256,192,1172665,1,8,0:0:0:0:
256,192,1172787,1,0,0:0:0:0:
256,192,1172869,1,0,0:0:0:0:
256,192,1172950,1,8,0:0:0:0:
256,192,1172991,1,8,0:0:0:0:
256,192,1173113,1,0,0:0:0:0:
256,192,1173154,1,0,0:0:0:0:
256,192,1173276,1,8,0:0:0:0:
256,192,1173317,1,8,0:0:0:0:
256,192,1173439,1,8,0:0:0:0:
256,192,1173480,1,8,0:0:0:0:
256,192,1173603,1,8,0:0:0:0:
256,192,1173643,1,8,0:0:0:0:
256,192,1173766,1,8,0:0:0:0:
256,192,1173806,1,8,0:0:0:0:
256,192,1173929,1,0,0:0:0:0:
256,192,1174581,1,8,0:0:0:0:
256,192,1174744,1,0,0:0:0:0:
256,192,1174785,1,0,0:0:0:0:
256,192,1174907,1,8,0:0:0:0:
256,192,1174948,1,8,0:0:0:0:
256,192,1175070,1,0,0:0:0:0:
256,192,1175151,1,0,0:0:0:0:
256,192,1175233,1,8,0:0:0:0:
256,192,1175396,1,0,0:0:0:0:
256,192,1175559,1,8,0:0:0:0:
256,192,1175722,1,0,0:0:0:0:
256,192,1175885,1,8,0:0:0:0:
256,192,1176048,1,0,0:0:0:0:
256,192,1176211,1,8,0:0:0:0:
256,192,1176374,1,8,0:0:0:0:
256,192,1176537,1,0,0:0:0:0:
256,192,1177189,1,8,0:0:0:0:
256,192,1177353,1,0,0:0:0:0:
256,192,1177393,1,0,0:0:0:0:
256,192,1177516,1,8,0:0:0:0:
256,192,1177556,1,8,0:0:0:0:
256,192,1177679,1,0,0:0:0:0:
256,192,1177760,1,0,0:0:0:0:
256,192,1177842,1,8,0:0:0:0:
256,192,1177882,1,8,0:0:0:0:
256,192,1178005,1,0,0:0:0:0:
256,192,1178086,1,0,0:0:0:0:
256,192,1178168,1,8,0:0:0:0:
256,192,1178208,1,8,0:0:0:0:
256,192,1178331,1,0,0:0:0:0:
256,192,1178372,1,0,0:0:0:0:
256,192,1178494,1,8,0:0:0:0:
256,192,1178575,1,8,0:0:0:0:
256,192,1178657,1,0,0:0:0:0:
256,192,1178738,1,0,0:0:0:0:
256,192,1178820,1,8,0:0:0:0:
256,192,1178901,1,0,0:0:0:0:
256,192,1178983,1,8,0:0:0:0:
256,192,1179146,1,0,0:0:0:0:
256,192,1179798,1,8,0:0:0:0:
256,192,1180124,1,0,0:0:0:0:
256,192,1180165,1,0,0:0:0:0:
256,192,1180287,1,0,0:0:0:0:
256,192,1180328,1,0,0:0:0:0:
256,192,1180450,1,8,0:0:0:0:
256,192,1180695,1,8,0:0:0:0:
256,192,1180939,1,8,0:0:0:0:
256,192,1181266,1,0,0:0:0:0:
256,192,1181347,1,0,0:0:0:0:
256,192,1181429,1,8,0:0:0:0:
256,192,1181510,1,0,0:0:0:0:
256,192,1181592,1,8,0:0:0:0:
256,192,1181755,2,4,L|256:128,6,40.2500007677078,4|4|4|4|4|4|4,0:0|0:0|0:0|0:0|0:0|0:0|0:0,0:0:0:0:
256,192,1182407,1,8,0:0:0:0:
256,192,1182733,1,8,0:0:0:0:
256,192,1182774,1,8,0:0:0:0:
256,192,1182896,1,8,0:0:0:0:
256,192,1182937,1,8,0:0:0:0:
256,192,1183059,1,0,0:0:0:0:
256,192,1183141,1,8,0:0:0:0:
256,192,1183222,1,8,0:0:0:0:
256,192,1183304,1,0,0:0:0:0:
256,192,1183385,1,8,0:0:0:0:
256,192,1183548,1,0,0:0:0:0:
256,192,1183589,1,0,0:0:0:0:
256,192,1183711,1,8,0:0:0:0:
256,192,1183752,1,8,0:0:0:0:
256,192,1183874,1,0,0:0:0:0:
256,192,1183915,1,0,0:0:0:0:
256,192,1184037,1,8,0:0:0:0:
256,192,1184078,1,8,0:0:0:0:
256,192,1184200,1,8,0:0:0:0:
256,192,1184241,1,8,0:0:0:0:
256,192,1184363,2,4,L|256:128,6,40.2500007677078,4|4|4|4|4|4|4,0:0|0:0|0:0|0:0|0:0|0:0|0:0,0:0:0:0:
256,192,1185016,1,8,0:0:0:0:
256,192,1185342,1,8,0:0:0:0:
256,192,1185382,1,8,0:0:0:0:
256,192,1185505,1,8,0:0:0:0:
256,192,1185545,1,8,0:0:0:0:
256,192,1185668,1,0,0:0:0:0:
256,192,1185749,1,8,0:0:0:0:
256,192,1185831,1,8,0:0:0:0:
256,192,1185912,1,0,0:0:0:0:
256,192,1185994,1,8,0:0:0:0:
256,192,1186157,1,0,0:0:0:0:
256,192,1186198,1,0,0:0:0:0:
256,192,1186320,1,8,0:0:0:0:
256,192,1186361,1,8,0:0:0:0:
256,192,1186483,1,0,0:0:0:0:
256,192,1186524,1,0,0:0:0:0:
256,192,1186646,1,8,0:0:0:0:
256,192,1186687,1,8,0:0:0:0:
256,192,1186809,1,8,0:0:0:0:
256,192,1186850,1,8,0:0:0:0:
256,192,1186972,2,4,L|256:128,6,40.2500007677078,4|4|4|4|4|4|4,0:0|0:0|0:0|0:0|0:0|0:0|0:0,0:0:0:0:
256,192,1187624,1,8,0:0:0:0:
256,192,1187950,1,8,0:0:0:0:
256,192,1187991,1,8,0:0:0:0:
256,192,1188113,1,8,0:0:0:0:
256,192,1188154,1,8,0:0:0:0:
256,192,1188276,1,0,0:0:0:0:
256,192,1188358,1,8,0:0:0:0:
256,192,1188439,1,8,0:0:0:0:
256,192,1188521,1,0,0:0:0:0:
256,192,1188603,1,8,0:0:0:0:
256,192,1188766,1,0,0:0:0:0:
256,192,1188806,1,0,0:0:0:0:
256,192,1188929,1,8,0:0:0:0:
256,192,1188969,1,8,0:0:0:0:
256,192,1189092,1,0,0:0:0:0:
256,192,1189132,1,0,0:0:0:0:
256,192,1189255,1,8,0:0:0:0:
256,192,1189295,1,8,0:0:0:0:
256,192,1189418,1,8,0:0:0:0:
256,192,1189458,1,8,0:0:0:0:
256,192,1189581,1,0,0:0:0:0:
256,192,1189744,1,8,0:0:0:0:
256,192,1189907,1,0,0:0:0:0:
256,192,1190070,1,0,0:0:0:0:
256,192,1190233,1,8,0:0:0:0:
256,192,1190396,1,8,0:0:0:0:
256,192,1190559,1,0,0:0:0:0:
256,192,1190641,1,8,0:0:0:0:
256,192,1190804,1,8,0:0:0:0:
256,192,1190885,1,0,0:0:0:0:
256,192,1191130,1,0,0:0:0:0:
256,192,1191374,1,0,0:0:0:0:
256,192,1191537,1,8,0:0:0:0:
256,192,1191700,1,0,0:0:0:0:
256,192,1191782,1,0,0:0:0:0:
256,192,1191863,1,8,0:0:0:0:
256,192,1191945,1,0,0:0:0:0:
256,192,1192026,1,8,0:0:0:0:
256,192,1192189,2,4,L|256:128,6,40.2500007677078,4|4|4|4|4|4|4,0:0|0:0|0:0|0:0|0:0|0:0|0:0,0:0:0:0:
256,192,1192842,1,8,0:0:0:0:
256,192,1193168,1,8,0:0:0:0:
256,192,1193208,1,8,0:0:0:0:
256,192,1193331,1,8,0:0:0:0:
256,192,1193372,1,8,0:0:0:0:
256,192,1193494,1,0,0:0:0:0:
256,192,1193575,1,0,0:0:0:0:
256,192,1193657,1,0,0:0:0:0:
256,192,1193738,1,0,0:0:0:0:
256,192,1193820,1,8,0:0:0:0:
256,192,1193983,1,0,0:0:0:0:
256,192,1194024,1,0,0:0:0:0:
256,192,1194146,1,8,0:0:0:0:
256,192,1194187,1,8,0:0:0:0:
256,192,1194309,1,0,0:0:0:0:
256,192,1194350,1,0,0:0:0:0:
256,192,1194472,1,8,0:0:0:0:
256,192,1194513,1,8,0:0:0:0:
256,192,1194635,1,8,0:0:0:0:
256,192,1194676,1,8,0:0:0:0:
256,192,1194798,2,4,L|256:128,6,40.2500007677078,4|4|4|4|4|4|4,0:0|0:0|0:0|0:0|0:0|0:0|0:0,0:0:0:0:
256,192,1195450,1,8,0:0:0:0:
256,192,1195776,1,8,0:0:0:0:
256,192,1195817,1,8,0:0:0:0:
256,192,1195939,1,8,0:0:0:0:
256,192,1195980,1,8,0:0:0:0:
256,192,1196103,1,0,0:0:0:0:
256,192,1196184,1,0,0:0:0:0:
256,192,1196266,1,0,0:0:0:0:
256,192,1196347,1,0,0:0:0:0:
256,192,1196429,1,8,0:0:0:0:
256,192,1196592,1,0,0:0:0:0:
256,192,1196632,1,0,0:0:0:0:
256,192,1196755,1,8,0:0:0:0:
256,192,1196795,1,8,0:0:0:0:
256,192,1196918,1,0,0:0:0:0:
256,192,1196958,1,0,0:0:0:0:
256,192,1197081,1,8,0:0:0:0:
256,192,1197122,1,8,0:0:0:0:
256,192,1197244,1,8,0:0:0:0:
256,192,1197285,1,8,0:0:0:0:
256,192,1197407,2,4,L|256:128,6,40.2500007677078,4|4|4|4|4|4|4,0:0|0:0|0:0|0:0|0:0|0:0|0:0,0:0:0:0:
256,192,1198059,1,8,0:0:0:0:
256,192,1198385,1,8,0:0:0:0:
256,192,1198426,1,8,0:0:0:0:
256,192,1198548,1,8,0:0:0:0:
256,192,1198589,1,8,0:0:0:0:
256,192,1198711,1,0,0:0:0:0:
256,192,1198793,1,0,0:0:0:0:
256,192,1198874,1,0,0:0:0:0:
256,192,1198956,1,0,0:0:0:0:
256,192,1199037,1,8,0:0:0:0:
256,192,1199200,1,0,0:0:0:0:
256,192,1199241,1,0,0:0:0:0:
256,192,1199363,1,8,0:0:0:0:
256,192,1199404,1,8,0:0:0:0:
256,192,1199608,1,0,0:0:0:0:
256,192,1199689,1,8,0:0:0:0:
256,192,1199771,1,8,0:0:0:0:
256,192,1199853,1,8,0:0:0:0:
256,192,1199934,1,0,0:0:0:0:
256,192,1200016,1,0,0:0:0:0:
256,192,1200179,1,8,0:0:0:0:
256,192,1200342,1,0,0:0:0:0:
256,192,1200505,1,0,0:0:0:0:
256,192,1200668,1,8,0:0:0:0:
256,192,1200831,1,8,0:0:0:0:
256,192,1200994,1,0,0:0:0:0:
256,192,1201157,1,0,0:0:0:0:
256,192,1201320,1,8,0:0:0:0:
256,192,1201564,1,8,0:0:0:0:
256,192,1201809,1,8,0:0:0:0:
256,192,1201972,1,0,0:0:0:0:
256,192,1202624,1,12,0:0:0:0:
256,192,1223494,5,0,0:0:0:0:
256,192,1225939,1,0,0:0:0:0:
256,192,1226103,1,0,0:0:0:0:
256,192,1228548,1,0,0:0:0:0:
256,192,1228711,1,0,0:0:0:0:
256,192,1231157,1,0,0:0:0:0:
256,192,1231320,1,0,0:0:0:0:
256,192,1233766,1,0,0:0:0:0:
256,192,1233929,1,0,0:0:0:0:
256,192,1236374,1,0,0:0:0:0:
256,192,1236537,1,0,0:0:0:0:
256,192,1238983,1,0,0:0:0:0:
256,192,1239146,1,0,0:0:0:0:
256,192,1241592,1,0,0:0:0:0:
256,192,1241755,1,0,0:0:0:0:
256,192,1244200,1,0,0:0:0:0:
256,192,1254798,5,0,0:0:0:0:
256,192,1255124,2,0,L|256:160,54,26.2500010013581,0|0|0|0|0|0|0|0|0|0|0|0|0|0|0|0|0|0|0|0|0|0|0|0|0|0|0|0|0|0|0|0|0|0|0|0|0|0|0|0|0|0|0|0|0|0|0|0|0|0|0|0|0|0|0,0:0|0:0|0:0|0:0|0:0|0:0|0:0|0:0|0:0|0:0|0:0|0:0|0:0|0:0|0:0|0:0|0:0|0:0|0:0|0:0|0:0|0:0|0:0|0:0|0:0|0:0|0:0|0:0|0:0|0:0|0:0|0:0|0:0|0:0|0:0|0:0|0:0|0:0|0:0|0:0|0:0|0:0|0:0|0:0|0:0|0:0|0:0|0:0|0:0|0:0|0:0|0:0|0:0|0:0|0:0,0:0:0:0:
256,192,1259689,1,0,0:0:0:0:
256,192,1260016,1,0,0:0:0:0:
256,192,1260342,1,0,0:0:0:0:
256,192,1260668,1,0,0:0:0:0:
256,192,1260994,1,0,0:0:0:0:
256,192,1261320,1,0,0:0:0:0:
256,192,1261646,1,0,0:0:0:0:
256,192,1261972,1,0,0:0:0:0:
256,192,1262298,1,0,0:0:0:0:
256,192,1262624,1,0,0:0:0:0:
256,192,1262787,1,0,0:0:0:0:
256,192,1262950,1,0,0:0:0:0:
256,192,1263113,1,0,0:0:0:0:
256,192,1263276,1,0,0:0:0:0:
256,192,1263439,1,0,0:0:0:0:
256,192,1263603,1,8,0:0:0:0:
256,192,1263684,1,8,0:0:0:0:
256,192,1263766,1,8,0:0:0:0:
256,192,1263847,1,8,0:0:0:0:
256,192,1263929,1,0,0:0:0:0:
256,192,1265233,1,0,0:0:0:0:
256,192,1265342,1,8,0:0:0:0:
256,192,1265450,1,8,0:0:0:0:
256,192,1265559,1,0,0:0:0:0:
256,192,1265668,1,0,0:0:0:0:
256,192,1265776,1,0,0:0:0:0:
256,192,1265885,1,8,0:0:0:0:
256,192,1266211,1,8,0:0:0:0:
256,192,1266320,1,8,0:0:0:0:
256,192,1266429,1,8,0:0:0:0:
256,192,1266537,1,0,0:0:0:0:
256,192,1266863,1,0,0:0:0:0:
256,192,1266972,1,0,0:0:0:0:
256,192,1267081,1,0,0:0:0:0:
256,192,1267189,1,8,0:0:0:0:
256,192,1267516,1,8,0:0:0:0:
256,192,1267624,1,8,0:0:0:0:
256,192,1267733,1,8,0:0:0:0:
256,192,1267842,1,0,0:0:0:0:
256,192,1267950,1,8,0:0:0:0:
256,192,1268059,1,8,0:0:0:0:
256,192,1268168,1,0,0:0:0:0:
256,192,1268276,1,0,0:0:0:0:
256,192,1268385,1,0,0:0:0:0:
256,192,1268494,1,8,0:0:0:0:
256,192,1268820,1,0,0:0:0:0:
256,192,1268929,1,8,0:0:0:0:
256,192,1269037,1,8,0:0:0:0:
256,192,1269146,1,0,0:0:0:0:
256,192,1269472,1,8,0:0:0:0:
256,192,1269581,1,0,0:0:0:0:
256,192,1269689,1,0,0:0:0:0:
256,192,1269798,1,8,0:0:0:0:
256,192,1270124,1,0,0:0:0:0:
256,192,1270342,1,8,0:0:0:0:
256,192,1270450,1,0,0:0:0:0:
256,192,1270559,1,8,0:0:0:0:
256,192,1270668,1,8,0:0:0:0:
256,192,1270776,1,0,0:0:0:0:
256,192,1270885,1,0,0:0:0:0:
256,192,1270994,1,0,0:0:0:0:
256,192,1271103,1,8,0:0:0:0:
256,192,1271429,1,8,0:0:0:0:
256,192,1271537,1,8,0:0:0:0:
256,192,1271646,1,8,0:0:0:0:
256,192,1271755,1,0,0:0:0:0:
256,192,1272081,1,0,0:0:0:0:
256,192,1272189,1,0,0:0:0:0:
256,192,1272298,1,0,0:0:0:0:
256,192,1272407,1,8,0:0:0:0:
256,192,1272733,1,8,0:0:0:0:
256,192,1272842,1,8,0:0:0:0:
256,192,1272950,1,8,0:0:0:0:
256,192,1273059,1,0,0:0:0:0:
256,192,1273168,1,8,0:0:0:0:
256,192,1273276,1,8,0:0:0:0:
256,192,1273385,1,0,0:0:0:0:
256,192,1273494,1,0,0:0:0:0:
256,192,1273603,1,0,0:0:0:0:
256,192,1273711,1,8,0:0:0:0:
256,192,1274037,1,0,0:0:0:0:
256,192,1274146,1,8,0:0:0:0:
256,192,1274255,1,8,0:0:0:0:
256,192,1274363,1,0,0:0:0:0:
256,192,1275668,1,4,0:0:0:0:
256,192,1275994,1,8,0:0:0:0:
256,192,1276103,1,8,0:0:0:0:
256,192,1276211,1,0,0:0:0:0:
256,192,1276320,1,8,0:0:0:0:
256,192,1276429,1,0,0:0:0:0:
256,192,1276537,1,0,0:0:0:0:
256,192,1276646,1,8,0:0:0:0:
256,192,1276755,1,8,0:0:0:0:
256,192,1276863,1,8,0:0:0:0:
256,192,1276972,1,0,0:0:0:0:
256,192,1277298,1,8,0:0:0:0:
256,192,1277407,1,8,0:0:0:0:
256,192,1277516,1,0,0:0:0:0:
256,192,1277624,1,8,0:0:0:0:
256,192,1277733,1,0,0:0:0:0:
256,192,1277950,1,8,0:0:0:0:
256,192,1278059,1,8,0:0:0:0:
256,192,1278168,1,8,0:0:0:0:
256,192,1278276,1,0,0:0:0:0:
256,192,1278603,1,8,0:0:0:0:
256,192,1278711,1,8,0:0:0:0:
256,192,1278820,1,0,0:0:0:0:
256,192,1278929,1,8,0:0:0:0:
256,192,1279037,1,0,0:0:0:0:
256,192,1279146,1,0,0:0:0:0:
256,192,1279255,1,8,0:0:0:0:
256,192,1279363,1,8,0:0:0:0:
256,192,1279472,1,8,0:0:0:0:
256,192,1279581,1,0,0:0:0:0:
256,192,1279907,1,8,0:0:0:0:
256,192,1280016,1,8,0:0:0:0:
256,192,1280124,1,0,0:0:0:0:
256,192,1280233,1,8,0:0:0:0:
256,192,1280342,1,0,0:0:0:0:
256,192,1280396,1,0,0:0:0:0:
256,192,1280450,1,0,0:0:0:0:
256,192,1280559,1,8,0:0:0:0:
256,192,1280885,1,4,0:0:0:0:
256,192,1281211,1,8,0:0:0:0:
256,192,1281320,1,0,0:0:0:0:
256,192,1281429,1,0,0:0:0:0:
256,192,1281537,1,8,0:0:0:0:
256,192,1282189,8,0,1282516,0:0:0:0:
256,192,1282842,5,12,0:0:0:0:
256,192,1283494,1,4,0:0:0:0:
256,192,1283820,1,8,0:0:0:0:
256,192,1283929,1,8,0:0:0:0:
256,192,1284037,1,0,0:0:0:0:
256,192,1284146,1,8,0:0:0:0:
256,192,1284255,1,0,0:0:0:0:
256,192,1284363,1,0,0:0:0:0:
256,192,1284472,1,8,0:0:0:0:
256,192,1284581,1,8,0:0:0:0:
256,192,1284689,1,8,0:0:0:0:
256,192,1284798,1,0,0:0:0:0:
256,192,1285450,8,0,1285776,0:0:0:0:
256,192,1286103,5,4,0:0:0:0:
256,192,1286429,1,8,0:0:0:0:
256,192,1286646,1,0,0:0:0:0:
256,192,1286755,1,8,0:0:0:0:
256,192,1286972,1,8,0:0:0:0:
256,192,1287081,1,8,0:0:0:0:
256,192,1287298,1,8,0:0:0:0:
256,192,1287407,1,0,0:0:0:0:
256,192,1287733,1,8,0:0:0:0:
256,192,1287950,1,0,0:0:0:0:
256,192,1288059,1,8,0:0:0:0:
256,192,1288385,1,8,0:0:0:0:
256,192,1288603,1,8,0:0:0:0:
256,192,1288711,1,0,0:0:0:0:
256,192,1289037,1,8,0:0:0:0:
256,192,1289146,1,8,0:0:0:0:
256,192,1289255,1,0,0:0:0:0:
256,192,1289363,1,8,0:0:0:0:
256,192,1289472,1,8,0:0:0:0:
256,192,1289581,1,0,0:0:0:0:
256,192,1289689,1,8,0:0:0:0:
256,192,1289798,1,8,0:0:0:0:
256,192,1289907,1,8,0:0:0:0:
256,192,1290016,1,0,0:0:0:0:
256,192,1290342,1,8,0:0:0:0:
256,192,1290559,1,0,0:0:0:0:
256,192,1290668,1,8,0:0:0:0:
256,192,1290994,1,8,0:0:0:0:
256,192,1291320,1,4,0:0:0:0:
256,192,1291646,1,8,0:0:0:0:
256,192,1291863,1,0,0:0:0:0:
256,192,1291972,1,8,0:0:0:0:
256,192,1292189,1,8,0:0:0:0:
256,192,1292298,1,8,0:0:0:0:
256,192,1292516,1,8,0:0:0:0:
256,192,1292624,1,0,0:0:0:0:
256,192,1292950,1,8,0:0:0:0:
256,192,1293168,1,0,0:0:0:0:
256,192,1293276,1,8,0:0:0:0:
256,192,1293603,1,8,0:0:0:0:
256,192,1293820,1,8,0:0:0:0:
256,192,1293929,1,0,0:0:0:0:
256,192,1294255,1,8,0:0:0:0:
256,192,1294363,1,8,0:0:0:0:
256,192,1294472,1,0,0:0:0:0:
256,192,1294581,1,8,0:0:0:0:
256,192,1294689,1,8,0:0:0:0:
256,192,1294798,1,0,0:0:0:0:
256,192,1294907,1,8,0:0:0:0:
256,192,1295016,1,8,0:0:0:0:
256,192,1295124,1,8,0:0:0:0:
256,192,1295233,1,0,0:0:0:0:
256,192,1295559,1,8,0:0:0:0:
256,192,1295776,1,0,0:0:0:0:
256,192,1295885,1,8,0:0:0:0:
256,192,1296211,1,8,0:0:0:0:
256,192,1296537,1,4,0:0:0:0:
256,192,1296863,1,8,0:0:0:0:
256,192,1297081,1,0,0:0:0:0:
256,192,1297189,1,8,0:0:0:0:
256,192,1297516,1,8,0:0:0:0:
256,192,1297733,1,8,0:0:0:0:
256,192,1297842,1,0,0:0:0:0:
256,192,1298168,1,8,0:0:0:0:
256,192,1298385,1,0,0:0:0:0:
256,192,1298494,1,8,0:0:0:0:
256,192,1298820,1,0,0:0:0:0:
256,192,1298929,1,8,0:0:0:0:
256,192,1299037,1,8,0:0:0:0:
256,192,1299146,1,0,0:0:0:0:
256,192,1299472,1,8,0:0:0:0:
256,192,1299689,1,0,0:0:0:0:
256,192,1299798,1,8,0:0:0:0:
256,192,1300124,1,8,0:0:0:0:
256,192,1300342,1,8,0:0:0:0:
256,192,1300450,1,0,0:0:0:0:
256,192,1300776,1,8,0:0:0:0:
256,192,1300994,1,0,0:0:0:0:
256,192,1301103,1,8,0:0:0:0:
256,192,1301429,1,8,0:0:0:0:
256,192,1301537,1,8,0:0:0:0:
256,192,1301646,1,8,0:0:0:0:
256,192,1301755,1,0,0:0:0:0:
256,192,1302081,1,8,0:0:0:0:
256,192,1302298,1,0,0:0:0:0:
256,192,1302407,1,8,0:0:0:0:
256,192,1302733,1,8,0:0:0:0:
256,192,1302950,1,8,0:0:0:0:
256,192,1303059,1,0,0:0:0:0:
256,192,1303385,1,8,0:0:0:0:
256,192,1303603,1,0,0:0:0:0:
256,192,1303711,1,8,0:0:0:0:
256,192,1304037,1,0,0:0:0:0:
256,192,1304146,1,8,0:0:0:0:
256,192,1304255,1,8,0:0:0:0:
256,192,1304363,1,0,0:0:0:0:
256,192,1304689,1,8,0:0:0:0:
256,192,1304907,1,0,0:0:0:0:
256,192,1305016,1,8,0:0:0:0:
256,192,1305342,1,8,0:0:0:0:
256,192,1305559,1,8,0:0:0:0:
256,192,1305668,1,0,0:0:0:0:
256,192,1306646,1,12,0:0:0:0:
256,192,1306972,1,4,0:0:0:0:
256,192,1317407,5,0,0:0:0:0:
256,192,1318059,1,8,0:0:0:0:
256,192,1318711,1,0,0:0:0:0:
256,192,1319363,1,8,0:0:0:0:
256,192,1319853,1,0,0:0:0:0:
256,192,1320016,1,0,0:0:0:0:
256,192,1320668,1,8,0:0:0:0:
256,192,1321646,1,0,0:0:0:0:
256,192,1321972,1,8,0:0:0:0:
256,192,1322461,1,0,0:0:0:0:
256,192,1322624,1,0,0:0:0:0:
256,192,1323276,1,8,0:0:0:0:
256,192,1323929,1,0,0:0:0:0:
256,192,1324581,1,8,0:0:0:0:
256,192,1325070,1,0,0:0:0:0:
256,192,1338276,5,0,0:0:0:0:
256,192,1338603,2,0,L|256:160,54,26.2500010013581,0|0|0|0|0|0|0|0|0|0|0|0|0|0|0|0|0|0|0|0|0|0|0|0|0|0|0|0|0|0|0|0|0|0|0|0|0|0|0|0|0|0|0|0|0|0|0|0|0|0|0|0|0|0|0,0:0|0:0|0:0|0:0|0:0|0:0|0:0|0:0|0:0|0:0|0:0|0:0|0:0|0:0|0:0|0:0|0:0|0:0|0:0|0:0|0:0|0:0|0:0|0:0|0:0|0:0|0:0|0:0|0:0|0:0|0:0|0:0|0:0|0:0|0:0|0:0|0:0|0:0|0:0|0:0|0:0|0:0|0:0|0:0|0:0|0:0|0:0|0:0|0:0|0:0|0:0|0:0|0:0|0:0|0:0,0:0:0:0:
256,192,1343168,1,0,0:0:0:0:
256,192,1343494,1,0,0:0:0:0:
256,192,1343820,1,0,0:0:0:0:
256,192,1344146,1,0,0:0:0:0:
256,192,1344472,1,0,0:0:0:0:
256,192,1344798,1,0,0:0:0:0:
256,192,1345124,1,0,0:0:0:0:
256,192,1345450,1,0,0:0:0:0:
256,192,1345776,1,0,0:0:0:0:
256,192,1346103,1,0,0:0:0:0:
256,192,1346266,1,0,0:0:0:0:
256,192,1346429,1,0,0:0:0:0:
256,192,1346592,1,0,0:0:0:0:
256,192,1346755,1,0,0:0:0:0:
256,192,1346918,1,0,0:0:0:0:
256,192,1347081,1,8,0:0:0:0:
256,192,1347162,1,8,0:0:0:0:
256,192,1347244,1,8,0:0:0:0:
256,192,1347325,1,8,0:0:0:0:
256,192,1347407,1,0,0:0:0:0:
256,192,1348711,1,4,0:0:0:0:
256,192,1349037,1,4,0:0:0:0:
256,192,1349363,1,12,0:0:0:0:
256,192,1349689,1,0,0:0:0:0:
256,192,1349771,1,0,0:0:0:0:
256,192,1349853,1,8,0:0:0:0:
256,192,1349934,1,8,0:0:0:0:
256,192,1350016,1,0,0:0:0:0:
256,192,1350342,1,0,0:0:0:0:
256,192,1350668,1,8,0:0:0:0:
256,192,1350912,1,0,0:0:0:0:
256,192,1351157,1,8,0:0:0:0:
256,192,1351320,1,0,0:0:0:0:
256,192,1351646,1,0,0:0:0:0:
256,192,1351972,1,8,0:0:0:0:
256,192,1352217,1,8,0:0:0:0:
256,192,1352461,1,8,0:0:0:0:
256,192,1352624,1,0,0:0:0:0:
256,192,1352950,1,0,0:0:0:0:
256,192,1353276,1,8,0:0:0:0:
256,192,1353603,1,0,0:0:0:0:
256,192,1353929,1,4,0:0:0:0:
256,192,1354255,1,4,0:0:0:0:
256,192,1354581,1,12,0:0:0:0:
256,192,1354907,1,0,0:0:0:0:
256,192,1354961,1,0,0:0:0:0:
256,192,1355016,1,0,0:0:0:0:
256,192,1355070,1,8,0:0:0:0:
256,192,1355233,1,0,0:0:0:0:
256,192,1355559,1,0,0:0:0:0:
256,192,1355885,1,8,0:0:0:0:
256,192,1356130,1,0,0:0:0:0:
256,192,1356374,1,8,0:0:0:0:
256,192,1356537,1,0,0:0:0:0:
256,192,1356863,1,0,0:0:0:0:
256,192,1357189,1,8,0:0:0:0:
256,192,1357434,1,8,0:0:0:0:
256,192,1357679,1,8,0:0:0:0:
256,192,1357842,1,0,0:0:0:0:
256,192,1358168,1,0,0:0:0:0:
256,192,1358494,1,8,0:0:0:0:
256,192,1358657,1,8,0:0:0:0:
256,192,1358820,1,0,0:0:0:0:
256,192,1359146,1,4,0:0:0:0:
256,192,1359472,1,4,0:0:0:0:
256,192,1359798,1,12,0:0:0:0:
256,192,1360124,1,0,0:0:0:0:
256,192,1360206,1,0,0:0:0:0:
256,192,1360287,1,8,0:0:0:0:
256,192,1360369,1,8,0:0:0:0:
256,192,1360450,1,0,0:0:0:0:
256,192,1360776,1,0,0:0:0:0:
256,192,1361103,1,8,0:0:0:0:
256,192,1361347,1,0,0:0:0:0:
256,192,1361592,1,8,0:0:0:0:
256,192,1361755,1,0,0:0:0:0:
256,192,1362081,1,0,0:0:0:0:
256,192,1362407,1,8,0:0:0:0:
256,192,1362651,1,8,0:0:0:0:
256,192,1362896,1,8,0:0:0:0:
256,192,1363059,1,0,0:0:0:0:
256,192,1363385,1,0,0:0:0:0:
256,192,1363711,1,8,0:0:0:0:
256,192,1364037,1,0,0:0:0:0:
256,192,1364363,1,4,0:0:0:0:
256,192,1364689,1,4,0:0:0:0:
256,192,1365016,1,12,0:0:0:0:
256,192,1365342,1,0,0:0:0:0:
256,192,1365396,1,0,0:0:0:0:
256,192,1365450,1,0,0:0:0:0:
256,192,1365505,1,8,0:0:0:0:
256,192,1365668,1,0,0:0:0:0:
256,192,1365994,1,0,0:0:0:0:
256,192,1366320,1,8,0:0:0:0:
256,192,1366564,1,0,0:0:0:0:
256,192,1366809,1,8,0:0:0:0:
256,192,1366972,1,0,0:0:0:0:
256,192,1367298,1,8,0:0:0:0:
256,192,1367353,1,8,0:0:0:0:
256,192,1367407,1,0,0:0:0:0:
256,192,1367461,1,0,0:0:0:0:
256,192,1367624,1,8,0:0:0:0:
256,192,1367950,1,0,0:0:0:0:
256,192,1368005,1,0,0:0:0:0:
256,192,1368059,1,8,0:0:0:0:
256,192,1368113,1,8,0:0:0:0:
256,192,1368276,1,0,0:0:0:0:
256,192,1368603,1,0,0:0:0:0:
256,192,1368929,1,8,0:0:0:0:
256,192,1369092,1,8,0:0:0:0:
256,192,1369255,1,0,0:0:0:0:
256,192,1369581,1,4,0:0:0:0:
256,192,1369689,1,12,0:0:0:0:
256,192,1369907,1,4,0:0:0:0:
256,192,1370016,1,12,0:0:0:0:
256,192,1370233,1,12,0:0:0:0:
256,192,1370559,1,0,0:0:0:0:
256,192,1370641,1,8,0:0:0:0:
256,192,1370722,1,8,0:0:0:0:
256,192,1370804,1,8,0:0:0:0:
256,192,1370885,1,0,0:0:0:0:
256,192,1371211,1,0,0:0:0:0:
256,192,1371537,1,8,0:0:0:0:
256,192,1371782,1,0,0:0:0:0:
256,192,1372026,1,8,0:0:0:0:
256,192,1372189,1,0,0:0:0:0:
256,192,1372516,1,0,0:0:0:0:
256,192,1372842,1,8,0:0:0:0:
256,192,1373086,1,8,0:0:0:0:
256,192,1373331,1,8,0:0:0:0:
256,192,1373494,1,0,0:0:0:0:
256,192,1373820,1,0,0:0:0:0:
256,192,1374146,1,8,0:0:0:0:
256,192,1374472,1,0,0:0:0:0:
256,192,1374798,1,4,0:0:0:0:
256,192,1374907,1,12,0:0:0:0:
256,192,1375124,1,12,0:0:0:0:
256,192,1375233,1,12,0:0:0:0:
256,192,1375450,1,12,0:0:0:0:
256,192,1375776,1,0,0:0:0:0:
256,192,1375831,1,0,0:0:0:0:
256,192,1375885,1,0,0:0:0:0:
256,192,1375939,1,8,0:0:0:0:
256,192,1376103,1,0,0:0:0:0:
256,192,1376429,1,0,0:0:0:0:
256,192,1376755,1,8,0:0:0:0:
256,192,1376999,1,0,0:0:0:0:
256,192,1377244,1,8,0:0:0:0:
256,192,1377407,1,0,0:0:0:0:
256,192,1377733,1,0,0:0:0:0:
256,192,1378059,1,8,0:0:0:0:
256,192,1378304,1,8,0:0:0:0:
256,192,1378548,1,8,0:0:0:0:
256,192,1378711,1,0,0:0:0:0:
256,192,1379037,1,0,0:0:0:0:
256,192,1379363,1,8,0:0:0:0:
256,192,1379526,1,8,0:0:0:0:
256,192,1379689,1,0,0:0:0:0:
256,192,1380016,1,4,0:0:0:0:
256,192,1380124,1,12,0:0:0:0:
256,192,1380342,1,4,0:0:0:0:
256,192,1380450,1,12,0:0:0:0:
256,192,1380668,1,12,0:0:0:0:
256,192,1380994,1,0,0:0:0:0:
256,192,1381075,1,8,0:0:0:0:
256,192,1381157,1,8,0:0:0:0:
256,192,1381238,1,8,0:0:0:0:
256,192,1381320,1,0,0:0:0:0:
256,192,1381646,1,0,0:0:0:0:
256,192,1381972,1,8,0:0:0:0:
256,192,1382217,1,0,0:0:0:0:
256,192,1382461,1,8,0:0:0:0:
256,192,1382624,1,0,0:0:0:0:
256,192,1382950,1,0,0:0:0:0:
256,192,1383276,1,8,0:0:0:0:
256,192,1383521,1,8,0:0:0:0:
256,192,1383766,1,8,0:0:0:0:
256,192,1383929,1,0,0:0:0:0:
256,192,1384255,1,0,0:0:0:0:
256,192,1384581,1,8,0:0:0:0:
256,192,1384907,1,0,0:0:0:0:
256,192,1385233,1,4,0:0:0:0:
256,192,1385342,1,12,0:0:0:0:
256,192,1385559,1,12,0:0:0:0:
256,192,1385668,1,12,0:0:0:0:
256,192,1385885,1,12,0:0:0:0:
256,192,1386211,1,0,0:0:0:0:
256,192,1386266,1,0,0:0:0:0:
256,192,1386320,1,0,0:0:0:0:
256,192,1386374,1,8,0:0:0:0:
256,192,1386537,1,0,0:0:0:0:
256,192,1386863,1,0,0:0:0:0:
256,192,1387189,1,8,0:0:0:0:
256,192,1387434,1,0,0:0:0:0:
256,192,1387679,1,8,0:0:0:0:
256,192,1387842,1,0,0:0:0:0:
256,192,1388168,1,0,0:0:0:0:
256,192,1388494,1,8,0:0:0:0:
256,192,1388738,1,8,0:0:0:0:
256,192,1388983,1,8,0:0:0:0:
256,192,1389146,1,0,0:0:0:0:
256,192,1389472,1,0,0:0:0:0:
256,192,1389798,1,8,0:0:0:0:
256,192,1389961,1,8,0:0:0:0:
256,192,1390124,1,0,0:0:0:0:
256,192,1390450,1,12,0:0:0:0:
256,192,1392407,1,8,0:0:0:0:
256,192,1393059,1,8,0:0:0:0:
256,192,1395668,1,8,0:0:0:0:
256,192,1397624,1,8,0:0:0:0:
256,192,1398276,1,8,0:0:0:0:
256,192,1400885,1,8,0:0:0:0:
256,192,1402842,1,8,0:0:0:0:
256,192,1403494,1,8,0:0:0:0:
256,192,1406103,1,8,0:0:0:0:
256,192,1410016,8,0,1411320,0:0:0:0:
