osu file format v14

[General]
AudioFilename: audio.mp3
AudioLeadIn: 0
PreviewTime: 45283
Countdown: 0
SampleSet: Normal
StackLeniency: 0.7
Mode: 1
LetterboxInBreaks: 0
WidescreenStoryboard: 1

[Editor]
DistanceSpacing: 1.3
BeatDivisor: 4
GridSize: 32
TimelineZoom: 1.6

[Metadata]
Title:sympathy 4 the grinch
TitleUnicode:sympathy 4 the grinch
Artist:100 gecs
ArtistUnicode:100 gecs
Creator:clockbite
Version:futsuu
Source:
Tags:gevbiivi5 electronic english pop hiphop hip hop hyperpop hyper hype alternative dylan brady laura les osno1 hip-hop christmas xmas for
BeatmapID:3289647
BeatmapSetID:1610611

[Difficulty]
HPDrainRate:6
CircleSize:5
OverallDifficulty:4
ApproachRate:5
SliderMultiplier:1.4
SliderTickRate:1

[Events]
//Background and Video events
0,0,"1.jpg",0,0
//Break Periods
//Storyboard Layer 0 (Background)
//Storyboard Layer 1 (Fail)
//Storyboard Layer 2 (Pass)
//Storyboard Layer 3 (Foreground)
//Storyboard Layer 4 (Overlay)
//Storyboard Sound Samples

[TimingPoints]
370,340.909090909091,4,1,0,50,1,8
710,340.909090909091,4,1,0,50,1,0
5738,-100,4,1,0,90,0,0
36164,340.909090909091,4,1,0,90,1,0
47073,-100,4,1,0,100,0,1
56618,-100,4,1,0,90,0,0
57982,-100,4,1,0,100,0,1
67527,-100,4,1,0,90,0,0
98891,340.909090909091,4,1,0,90,1,0
109800,-100,4,1,0,100,0,1
119345,-100,4,1,0,90,0,0
120709,-100,4,1,0,100,0,1
130254,-100,4,1,0,90,0,0

[HitObjects]
230,233,370,5,12,0:0:0:0:
286,222,710,1,0,0:0:0:0:
290,222,1050,1,0,0:0:0:0:
455,226,1391,1,8,0:0:0:0:
197,202,2073,1,0,0:0:0:0:
197,202,2414,1,0,0:0:0:0:
365,207,2755,1,8,0:0:0:0:
200,158,3437,1,0,0:0:0:0:
210,161,3778,1,0,0:0:0:0:
326,189,3948,1,8,0:0:0:0:
313,197,4119,1,0,0:0:0:0:
320,176,4460,1,8,0:0:0:0:
196,148,4800,1,0,0:0:0:0:
203,168,5141,1,0,0:0:0:0:
425,216,5482,1,8,0:0:0:0:
228,217,6164,1,0,0:0:0:0:
235,238,6505,1,8,0:0:0:0:
247,235,6846,1,8,0:0:0:0:
203,216,7187,1,0,0:0:0:0:
435,213,7528,1,8,0:0:0:0:
146,229,7869,1,0,0:0:0:0:
158,232,8039,1,0,0:0:0:0:
486,224,8210,1,8,0:0:0:0:
268,209,8550,1,0,0:0:0:0:
408,206,8891,1,8,0:0:0:0:
227,191,9232,1,0,0:0:0:0:
255,198,9403,1,8,0:0:0:0:
409,196,9573,1,0,0:0:0:0:
286,200,9914,1,8,0:0:0:0:
268,205,10255,1,8,0:0:0:0:
250,242,11619,1,0,0:0:0:0:
233,227,11960,1,0,0:0:0:0:
143,231,12300,1,8,0:0:0:0:
159,91,12641,1,0,0:0:0:0:
205,208,12982,1,8,0:0:0:0:
185,184,13323,1,0,0:0:0:0:
215,164,13494,1,0,0:0:0:0:
340,187,13664,1,8,0:0:0:0:
175,144,14005,1,0,0:0:0:0:
266,218,14346,1,0,0:0:0:0:
235,208,14687,1,8,0:0:0:0:
235,208,14857,1,0,0:0:0:0:
243,238,15028,1,8,0:0:0:0:
152,235,15369,1,0,0:0:0:0:
319,232,15710,1,8,0:0:0:0:
195,152,16732,1,8,0:0:0:0:
195,152,16903,1,8,0:0:0:0:
228,217,17073,1,0,0:0:0:0:
235,238,17414,1,8,0:0:0:0:
247,235,17755,1,8,0:0:0:0:
203,216,18096,1,0,0:0:0:0:
435,213,18437,1,8,0:0:0:0:
146,229,18778,1,0,0:0:0:0:
158,232,18948,1,0,0:0:0:0:
486,224,19119,1,8,0:0:0:0:
268,209,19460,1,0,0:0:0:0:
408,206,19800,1,8,0:0:0:0:
227,191,20141,1,0,0:0:0:0:
378,176,20312,1,8,0:0:0:0:
409,196,20482,1,0,0:0:0:0:
286,200,20823,1,8,0:0:0:0:
268,205,21164,1,8,0:0:0:0:
423,191,22016,1,8,0:0:0:0:
245,146,22187,1,0,0:0:0:0:
245,146,22357,1,8,0:0:0:0:
250,242,22528,1,0,0:0:0:0:
233,227,22869,1,0,0:0:0:0:
143,231,23210,1,8,0:0:0:0:
159,91,23550,1,0,0:0:0:0:
205,208,23891,1,8,0:0:0:0:
185,184,24232,1,0,0:0:0:0:
215,164,24403,1,0,0:0:0:0:
340,187,24573,1,8,0:0:0:0:
175,144,24914,1,0,0:0:0:0:
266,218,25255,1,0,0:0:0:0:
235,208,25596,1,8,0:0:0:0:
393,193,25766,1,0,0:0:0:0:
243,238,25937,1,8,0:0:0:0:
152,235,26278,1,0,0:0:0:0:
319,232,26619,1,8,0:0:0:0:
249,149,27300,1,8,0:0:0:0:
195,152,27641,1,8,0:0:0:0:
305,166,27812,1,8,0:0:0:0:
286,197,27982,1,0,0:0:0:0:
310,220,28664,1,8,0:0:0:0:
141,235,29005,1,8,0:0:0:0:
333,229,29346,1,0,0:0:0:0:
196,206,29687,1,0,0:0:0:0:
389,217,30028,1,8,0:0:0:0:
252,189,30369,1,0,0:0:0:0:
397,198,30710,1,8,0:0:0:0:
385,198,31391,1,8,0:0:0:0:
197,148,31732,1,0,0:0:0:0:
494,183,32073,1,0,0:0:0:0:
167,139,32414,1,0,0:0:0:0:
441,182,32755,1,8,0:0:0:0:
292,185,33096,1,8,0:0:0:0:
365,178,33437,1,0,0:0:0:0:
310,186,34119,1,8,0:0:0:0:
111,163,34289,1,0,0:0:0:0:
287,189,34460,1,8,0:0:0:0:
155,128,34800,1,0,0:0:0:0:
223,209,35141,1,8,0:0:0:0:
185,169,35482,1,8,0:0:0:0:
185,169,35653,1,0,0:0:0:0:
430,207,35823,1,8,0:0:0:0:
283,199,35994,1,0,0:0:0:0:
303,138,36845,1,8,0:0:0:0:
475,197,37186,1,0,0:0:0:0:
212,114,37527,1,8,0:0:0:0:
373,209,38209,1,8,0:0:0:0:
321,189,38550,1,8,0:0:0:0:
212,149,38720,1,8,0:0:0:0:
170,168,38891,1,0,0:0:0:0:
214,156,39573,1,8,0:0:0:0:
226,146,39914,1,0,0:0:0:0:
219,145,40254,1,8,0:0:0:0:
432,200,40936,1,8,0:0:0:0:
269,208,41277,1,8,0:0:0:0:
237,220,41448,1,0,0:0:0:0:
279,209,41618,1,8,0:0:0:0:
372,220,42300,1,8,0:0:0:0:
208,213,42641,1,0,0:0:0:0:
403,204,42982,1,8,0:0:0:0:
241,219,43323,1,8,0:0:0:0:
181,69,43493,1,0,0:0:0:0:
239,224,43664,1,8,0:0:0:0:
168,199,44004,1,0,0:0:0:0:
168,199,44175,1,0,0:0:0:0:
252,206,44345,1,8,0:0:0:0:
241,208,45027,1,8,0:0:0:0:
156,182,47073,1,4,0:0:0:0:
357,244,47414,1,8,0:0:0:0:
163,188,47584,1,8,0:0:0:0:
218,155,47754,1,0,0:0:0:0:
365,240,48095,1,8,0:0:0:0:
288,191,48266,1,0,0:0:0:0:
208,266,48436,1,8,0:0:0:0:
335,219,48777,1,8,0:0:0:0:
213,207,49118,1,0,0:0:0:0:
159,188,49459,1,8,0:0:0:0:
143,155,49800,1,0,0:0:0:0:
233,171,50141,1,8,0:0:0:0:
152,180,50311,1,8,0:0:0:0:
430,194,50482,1,0,0:0:0:0:
368,202,50823,1,0,0:0:0:0:
177,220,50993,1,0,0:0:0:0:
330,204,51164,1,8,0:0:0:0:
177,220,51504,1,0,0:0:0:0:
166,155,51845,1,8,0:0:0:0:
199,245,52016,1,0,0:0:0:0:
322,164,52186,1,8,0:0:0:0:
262,205,52357,1,8,0:0:0:0:
74,164,52527,1,0,0:0:0:0:
479,197,53209,1,8,0:0:0:0:
195,190,53550,1,8,0:0:0:0:
195,190,53720,1,0,0:0:0:0:
277,231,53891,1,8,0:0:0:0:
182,157,54232,1,0,0:0:0:0:
177,204,54402,1,0,0:0:0:0:
406,228,54573,1,8,0:0:0:0:
150,198,54914,1,8,0:0:0:0:
173,117,55084,1,0,0:0:0:0:
508,218,55254,1,8,0:0:0:0:
244,200,55766,1,8,0:0:0:0:
437,212,56277,1,0,0:0:0:0:
177,161,57982,5,4,0:0:0:0:
252,200,58323,1,0,0:0:0:0:
292,234,58664,1,8,0:0:0:0:
226,184,59345,1,0,0:0:0:0:
226,184,59686,1,8,0:0:0:0:
219,184,59857,1,0,0:0:0:0:
333,228,60027,1,8,0:0:0:0:
194,164,60709,1,0,0:0:0:0:
232,193,61050,1,8,0:0:0:0:
245,173,61220,1,8,0:0:0:0:
423,195,61391,1,0,0:0:0:0:
248,198,61732,1,8,0:0:0:0:
114,142,62073,1,0,0:0:0:0:
252,200,62414,1,0,0:0:0:0:
292,234,62754,1,8,0:0:0:0:
226,184,63436,1,0,0:0:0:0:
226,184,63777,1,8,0:0:0:0:
219,184,63948,1,0,0:0:0:0:
333,228,64118,1,8,0:0:0:0:
194,164,64800,1,0,0:0:0:0:
232,193,65141,1,8,0:0:0:0:
245,173,65311,1,8,0:0:0:0:
423,195,65482,1,0,0:0:0:0:
248,198,65823,1,8,0:0:0:0:
114,142,66164,1,0,0:0:0:0:
145,131,66334,1,0,0:0:0:0:
316,202,66504,1,8,0:0:0:0:
177,182,66845,1,8,0:0:0:0:
177,182,67016,1,8,0:0:0:0:
368,195,67186,1,0,0:0:0:0:
256,170,67357,1,0,0:0:0:0:
372,211,67527,1,8,0:0:0:0:
301,233,68550,5,8,0:0:0:0:
301,233,68720,1,8,0:0:0:0:
228,217,68891,1,0,0:0:0:0:
247,235,69573,1,8,0:0:0:0:
435,213,70254,1,8,0:0:0:0:
146,229,70595,1,0,0:0:0:0:
486,224,70936,1,8,0:0:0:0:
408,206,71618,1,8,0:0:0:0:
336,207,71959,1,8,0:0:0:0:
409,196,72300,1,0,0:0:0:0:
286,200,72641,1,0,0:0:0:0:
268,205,72982,1,8,0:0:0:0:
426,194,74004,1,12,0:0:0:0:
250,242,74345,1,0,0:0:0:0:
143,231,75027,1,8,0:0:0:0:
143,231,75368,1,0,0:0:0:0:
205,208,75709,1,8,0:0:0:0:
185,184,76050,1,0,0:0:0:0:
340,187,76391,1,8,0:0:0:0:
388,326,76732,1,8,0:0:0:0:
266,218,77073,1,0,0:0:0:0:
270,268,77414,1,8,0:0:0:0:
243,238,77754,1,0,0:0:0:0:
152,235,78095,1,0,0:0:0:0:
319,232,78436,1,8,0:0:0:0:
195,152,79459,1,8,0:0:0:0:
195,152,79629,1,8,0:0:0:0:
228,217,79800,1,0,0:0:0:0:
235,238,80141,1,0,0:0:0:0:
247,235,80482,1,8,0:0:0:0:
203,216,80823,1,0,0:0:0:0:
435,213,81164,1,8,0:0:0:0:
146,229,81504,1,8,0:0:0:0:
158,232,81675,1,0,0:0:0:0:
486,224,81845,1,8,0:0:0:0:
268,209,82186,1,0,0:0:0:0:
408,206,82527,1,8,0:0:0:0:
227,191,82868,1,0,0:0:0:0:
378,176,83039,1,8,0:0:0:0:
409,196,83209,1,0,0:0:0:0:
286,200,83550,1,0,0:0:0:0:
268,205,83891,1,8,0:0:0:0:
423,191,84743,1,8,0:0:0:0:
245,146,84914,1,0,0:0:0:0:
245,146,85084,1,8,0:0:0:0:
250,242,85254,1,0,0:0:0:0:
233,227,85595,1,0,0:0:0:0:
143,231,85936,1,8,0:0:0:0:
159,91,86277,1,0,0:0:0:0:
205,208,86618,1,8,0:0:0:0:
185,184,86959,1,0,0:0:0:0:
215,164,87129,1,0,0:0:0:0:
340,187,87300,1,8,0:0:0:0:
175,144,87641,1,0,0:0:0:0:
266,218,87982,1,0,0:0:0:0:
235,208,88323,1,8,0:0:0:0:
393,193,88493,1,0,0:0:0:0:
243,238,88664,1,8,0:0:0:0:
152,235,89004,1,0,0:0:0:0:
319,232,89345,1,8,0:0:0:0:
249,149,90027,1,8,0:0:0:0:
195,152,90368,1,8,0:0:0:0:
305,166,90539,1,8,0:0:0:0:
286,197,90709,1,0,0:0:0:0:
310,220,91391,1,8,0:0:0:0:
161,324,91732,1,8,0:0:0:0:
333,229,92073,1,0,0:0:0:0:
196,206,92414,1,0,0:0:0:0:
389,217,92754,1,8,0:0:0:0:
252,189,93095,1,0,0:0:0:0:
397,198,93436,1,8,0:0:0:0:
385,198,94118,1,8,0:0:0:0:
197,148,94459,1,0,0:0:0:0:
494,183,94800,1,0,0:0:0:0:
167,139,95141,1,0,0:0:0:0:
441,182,95482,1,8,0:0:0:0:
292,185,95823,1,8,0:0:0:0:
365,178,96164,1,0,0:0:0:0:
310,186,96845,1,8,0:0:0:0:
111,163,97016,1,0,0:0:0:0:
287,189,97186,1,8,0:0:0:0:
155,128,97527,1,0,0:0:0:0:
223,209,97868,1,8,0:0:0:0:
185,169,98209,1,8,0:0:0:0:
185,169,98379,1,0,0:0:0:0:
430,207,98550,1,8,0:0:0:0:
283,199,98720,1,0,0:0:0:0:
303,138,99572,1,8,0:0:0:0:
475,197,99913,1,0,0:0:0:0:
212,114,100254,1,8,0:0:0:0:
373,209,100936,1,8,0:0:0:0:
321,189,101277,1,8,0:0:0:0:
212,149,101447,1,8,0:0:0:0:
170,168,101618,1,0,0:0:0:0:
214,156,102300,1,8,0:0:0:0:
226,146,102641,1,0,0:0:0:0:
219,145,102981,1,8,0:0:0:0:
432,200,103663,1,8,0:0:0:0:
269,208,104004,1,8,0:0:0:0:
237,220,104175,1,0,0:0:0:0:
279,209,104345,1,0,0:0:0:0:
372,220,105027,1,8,0:0:0:0:
208,213,105368,1,0,0:0:0:0:
403,204,105709,1,8,0:0:0:0:
241,219,106050,1,0,0:0:0:0:
239,224,106391,1,8,0:0:0:0:
168,199,106731,1,8,0:0:0:0:
168,199,106902,1,8,0:0:0:0:
252,206,107072,1,0,0:0:0:0:
241,208,107754,1,8,0:0:0:0:
156,182,109800,1,4,0:0:0:0:
156,182,109970,1,0,0:0:0:0:
357,244,110141,1,8,0:0:0:0:
163,188,110311,1,8,0:0:0:0:
218,155,110481,1,0,0:0:0:0:
365,240,110822,1,8,0:0:0:0:
192,174,110993,1,0,0:0:0:0:
208,266,111163,1,8,0:0:0:0:
335,219,111504,1,8,0:0:0:0:
213,207,111845,1,0,0:0:0:0:
159,188,112186,1,8,0:0:0:0:
143,155,112527,1,0,0:0:0:0:
166,142,112697,1,0,0:0:0:0:
233,171,112868,1,8,0:0:0:0:
152,180,113038,1,8,0:0:0:0:
430,194,113209,1,0,0:0:0:0:
368,202,113550,1,0,0:0:0:0:
177,220,113720,1,0,0:0:0:0:
330,204,113891,1,8,0:0:0:0:
177,220,114231,1,0,0:0:0:0:
166,155,114572,1,8,0:0:0:0:
119,239,114743,1,0,0:0:0:0:
322,164,114913,1,8,0:0:0:0:
262,205,115084,1,8,0:0:0:0:
74,164,115254,1,0,0:0:0:0:
479,197,115936,1,8,0:0:0:0:
195,190,116277,1,8,0:0:0:0:
195,190,116447,1,0,0:0:0:0:
277,231,116618,1,8,0:0:0:0:
182,157,116959,1,0,0:0:0:0:
177,204,117129,1,0,0:0:0:0:
406,228,117300,1,8,0:0:0:0:
150,198,117641,1,8,0:0:0:0:
173,117,117811,1,0,0:0:0:0:
508,218,117981,1,8,0:0:0:0:
244,200,118493,1,8,0:0:0:0:
437,212,119004,1,0,0:0:0:0:
177,161,120709,1,4,0:0:0:0:
252,200,121050,1,0,0:0:0:0:
292,234,121391,1,8,0:0:0:0:
226,184,122072,1,0,0:0:0:0:
226,184,122413,1,8,0:0:0:0:
219,184,122584,1,0,0:0:0:0:
333,228,122754,1,8,0:0:0:0:
194,164,123436,1,0,0:0:0:0:
137,126,123606,1,0,0:0:0:0:
232,193,123777,1,8,0:0:0:0:
423,195,124118,1,0,0:0:0:0:
279,168,124288,1,8,0:0:0:0:
248,198,124459,1,8,0:0:0:0:
35,179,124629,1,0,0:0:0:0:
114,142,124800,1,8,0:0:0:0:
252,200,125141,1,0,0:0:0:0:
292,234,125481,1,8,0:0:0:0:
226,184,126163,1,0,0:0:0:0:
226,184,126504,1,8,0:0:0:0:
219,184,126675,1,0,0:0:0:0:
333,228,126845,1,8,0:0:0:0:
194,164,127527,1,0,0:0:0:0:
232,193,127868,1,8,0:0:0:0:
245,173,128038,1,8,0:0:0:0:
423,195,128209,1,0,0:0:0:0:
248,198,128550,1,8,0:0:0:0:
114,142,128891,1,0,0:0:0:0:
145,131,129061,1,0,0:0:0:0:
316,202,129231,1,8,0:0:0:0:
177,182,129572,1,8,0:0:0:0:
177,182,129743,1,8,0:0:0:0:
368,195,129913,1,0,0:0:0:0:
256,170,130084,1,0,0:0:0:0:
372,211,130254,1,8,0:0:0:0:
