osu file format v14

[General]
AudioFilename: audio.mp3
AudioLeadIn: 0
PreviewTime: 45283
Countdown: 0
SampleSet: Normal
StackLeniency: 0.7
Mode: 1
LetterboxInBreaks: 0
WidescreenStoryboard: 1

[Editor]
DistanceSpacing: 1.3
BeatDivisor: 4
GridSize: 32
TimelineZoom: 1.6

[Metadata]
Title:sympathy 4 the grinch
TitleUnicode:sympathy 4 the grinch
Artist:100 gecs
ArtistUnicode:100 gecs
Creator:clockbite
Version:muzukashii
Source:
Tags:gevbiivi5 electronic english pop hiphop hip hop hyperpop hyper hype alternative dylan brady laura les osno1 hip-hop christmas xmas for
BeatmapID:3288467
BeatmapSetID:1610611

[Difficulty]
HPDrainRate:5
CircleSize:5
OverallDifficulty:5
ApproachRate:5
SliderMultiplier:1.4
SliderTickRate:1

[Events]
//Background and Video events
0,0,"1.jpg",0,0
//Break Periods
//Storyboard Layer 0 (Background)
//Storyboard Layer 1 (Fail)
//Storyboard Layer 2 (Pass)
//Storyboard Layer 3 (Foreground)
//Storyboard Layer 4 (Overlay)
//Storyboard Sound Samples

[TimingPoints]
370,340.909090909091,4,1,0,50,1,8
710,340.909090909091,4,1,0,50,1,0
5738,-100,4,1,0,90,0,0
36164,340.909090909091,4,1,0,90,1,0
47073,-100,4,1,0,100,0,1
56618,-100,4,1,0,90,0,0
57982,-100,4,1,0,100,0,1
67527,-100,4,1,0,90,0,0
98891,340.909090909091,4,1,0,90,1,0
109800,-100,4,1,0,100,0,1
119345,-100,4,1,0,90,0,0
120709,-100,4,1,0,100,0,1
130254,-100,4,1,0,90,0,0

[HitObjects]
230,233,370,5,12,0:0:0:0:
286,222,710,1,0,0:0:0:0:
290,222,1050,1,0,0:0:0:0:
134,170,1221,1,0,0:0:0:0:
455,226,1391,1,8,0:0:0:0:
197,202,2073,1,0,0:0:0:0:
197,202,2414,1,0,0:0:0:0:
200,158,2585,1,0,0:0:0:0:
365,207,2755,1,8,0:0:0:0:
200,158,3437,1,0,0:0:0:0:
210,161,3778,1,0,0:0:0:0:
326,189,3948,1,8,0:0:0:0:
313,197,4119,1,0,0:0:0:0:
320,176,4460,1,8,0:0:0:0:
196,148,4800,1,0,0:0:0:0:
203,168,5141,1,0,0:0:0:0:
203,169,5312,1,0,0:0:0:0:
425,216,5482,1,8,0:0:0:0:
172,200,5823,1,8,0:0:0:0:
172,200,5908,1,8,0:0:0:0:
172,200,5994,1,8,0:0:0:0:
228,217,6164,1,0,0:0:0:0:
235,238,6505,1,8,0:0:0:0:
275,219,6675,1,0,0:0:0:0:
247,235,6846,1,8,0:0:0:0:
203,216,7187,1,0,0:0:0:0:
435,213,7528,1,8,0:0:0:0:
146,229,7869,1,0,0:0:0:0:
158,232,8039,1,0,0:0:0:0:
486,224,8210,1,8,0:0:0:0:
268,209,8550,1,0,0:0:0:0:
408,206,8891,1,8,0:0:0:0:
255,198,9062,1,0,0:0:0:0:
227,191,9232,1,0,0:0:0:0:
378,176,9403,1,8,0:0:0:0:
409,196,9573,1,0,0:0:0:0:
286,200,9914,1,8,0:0:0:0:
267,203,10085,1,0,0:0:0:0:
268,205,10255,1,8,0:0:0:0:
423,191,11107,1,8,0:0:0:0:
245,146,11278,1,0,0:0:0:0:
245,146,11363,1,0,0:0:0:0:
245,146,11448,1,0,0:0:0:0:
250,242,11619,1,0,0:0:0:0:
233,227,11960,1,8,0:0:0:0:
232,225,12130,1,0,0:0:0:0:
143,231,12300,1,8,0:0:0:0:
159,91,12641,1,0,0:0:0:0:
205,208,12982,1,8,0:0:0:0:
185,184,13323,1,0,0:0:0:0:
215,164,13494,1,0,0:0:0:0:
340,187,13664,1,8,0:0:0:0:
175,144,14005,1,0,0:0:0:0:
266,218,14346,1,0,0:0:0:0:
235,208,14516,1,0,0:0:0:0:
235,208,14687,1,8,0:0:0:0:
393,193,14857,1,0,0:0:0:0:
243,238,15028,1,8,0:0:0:0:
152,235,15369,1,0,0:0:0:0:
269,237,15539,1,8,0:0:0:0:
319,232,15710,1,8,0:0:0:0:
195,152,16732,1,8,0:0:0:0:
195,152,16817,1,8,0:0:0:0:
195,152,16903,1,8,0:0:0:0:
228,217,17073,1,0,0:0:0:0:
235,238,17414,1,8,0:0:0:0:
275,219,17585,1,0,0:0:0:0:
247,235,17755,1,8,0:0:0:0:
203,216,18096,1,0,0:0:0:0:
435,213,18437,1,8,0:0:0:0:
170,150,18607,1,8,0:0:0:0:
146,229,18778,1,0,0:0:0:0:
158,232,18948,1,0,0:0:0:0:
486,224,19119,1,8,0:0:0:0:
268,209,19460,1,0,0:0:0:0:
408,206,19800,1,8,0:0:0:0:
255,198,19971,1,0,0:0:0:0:
227,191,20141,1,0,0:0:0:0:
378,176,20312,1,8,0:0:0:0:
409,196,20482,1,0,0:0:0:0:
286,200,20823,1,0,0:0:0:0:
267,203,20994,1,0,0:0:0:0:
268,205,21164,1,8,0:0:0:0:
423,191,22016,1,8,0:0:0:0:
245,146,22187,1,0,0:0:0:0:
211,115,22272,1,0,0:0:0:0:
170,93,22357,1,0,0:0:0:0:
250,242,22528,1,0,0:0:0:0:
233,227,22869,1,8,0:0:0:0:
232,225,23039,1,0,0:0:0:0:
143,231,23210,1,8,0:0:0:0:
159,91,23550,1,0,0:0:0:0:
205,208,23891,1,8,0:0:0:0:
310,188,24062,1,8,0:0:0:0:
185,184,24232,1,0,0:0:0:0:
215,164,24403,1,0,0:0:0:0:
340,187,24573,1,8,0:0:0:0:
175,144,24914,1,0,0:0:0:0:
266,218,25255,1,0,0:0:0:0:
235,208,25425,1,0,0:0:0:0:
235,208,25596,1,8,0:0:0:0:
393,193,25766,1,0,0:0:0:0:
243,238,25937,1,8,0:0:0:0:
241,186,26107,1,8,0:0:0:0:
152,235,26278,1,0,0:0:0:0:
130,22,26448,1,0,0:0:0:0:
319,232,26619,1,8,0:0:0:0:
249,149,27300,1,8,0:0:0:0:
249,149,27386,1,8,0:0:0:0:
249,149,27471,1,8,0:0:0:0:
195,152,27641,1,8,0:0:0:0:
195,152,27812,1,8,0:0:0:0:
286,197,27982,1,0,0:0:0:0:
221,232,28323,1,0,0:0:0:0:
310,220,28664,1,8,0:0:0:0:
274,215,29005,1,8,0:0:0:0:
333,229,29346,1,0,0:0:0:0:
196,206,29687,1,0,0:0:0:0:
165,192,29857,1,0,0:0:0:0:
389,217,30028,1,8,0:0:0:0:
252,189,30369,1,8,0:0:0:0:
405,213,30539,1,0,0:0:0:0:
397,198,30710,1,8,0:0:0:0:
385,198,31391,1,8,0:0:0:0:
287,222,31562,1,8,0:0:0:0:
197,148,31732,1,0,0:0:0:0:
140,30,31903,1,0,0:0:0:0:
494,183,32073,1,8,0:0:0:0:
167,139,32414,1,0,0:0:0:0:
441,182,32755,1,8,0:0:0:0:
267,214,33096,1,8,0:0:0:0:
365,178,33437,1,0,0:0:0:0:
292,185,33778,1,8,0:0:0:0:
310,186,34119,1,8,0:0:0:0:
111,163,34289,1,0,0:0:0:0:
287,189,34460,1,8,0:0:0:0:
155,128,34630,1,0,0:0:0:0:
155,128,34800,1,0,0:0:0:0:
223,209,35141,1,8,0:0:0:0:
185,169,35482,1,8,0:0:0:0:
185,169,35567,1,8,0:0:0:0:
185,169,35653,1,8,0:0:0:0:
430,207,35823,1,0,0:0:0:0:
283,199,35994,1,0,0:0:0:0:
407,213,36079,1,8,0:0:0:0:
303,138,36845,1,8,0:0:0:0:
475,197,37186,1,8,0:0:0:0:
162,100,37357,1,0,0:0:0:0:
212,114,37527,1,8,0:0:0:0:
265,221,37868,1,0,0:0:0:0:
373,209,38209,1,8,0:0:0:0:
321,189,38550,1,8,0:0:0:0:
212,149,38720,1,8,0:0:0:0:
170,168,38891,1,0,0:0:0:0:
214,156,39573,1,8,0:0:0:0:
226,146,39914,1,8,0:0:0:0:
337,188,40084,1,0,0:0:0:0:
219,145,40254,1,8,0:0:0:0:
203,169,40595,1,0,0:0:0:0:
432,200,40936,1,8,0:0:0:0:
269,208,41277,1,8,0:0:0:0:
237,220,41448,1,0,0:0:0:0:
279,209,41618,1,8,0:0:0:0:
372,220,42300,1,8,0:0:0:0:
208,213,42641,1,0,0:0:0:0:
208,213,42811,1,0,0:0:0:0:
403,204,42982,1,8,0:0:0:0:
241,219,43323,1,0,0:0:0:0:
239,224,43664,1,8,0:0:0:0:
168,199,44004,1,0,0:0:0:0:
168,199,44175,1,0,0:0:0:0:
252,206,44345,1,8,0:0:0:0:
241,208,45027,1,8,0:0:0:0:
165,144,47073,1,4,0:0:0:0:
263,134,47243,1,4,0:0:0:0:
396,176,47414,1,8,0:0:0:0:
345,251,47584,1,8,0:0:0:0:
153,55,47754,1,0,0:0:0:0:
394,226,48095,1,8,0:0:0:0:
165,122,48266,1,8,0:0:0:0:
202,215,48351,1,8,0:0:0:0:
150,16,48436,1,8,0:0:0:0:
199,104,48607,1,0,0:0:0:0:
201,130,48777,1,8,0:0:0:0:
388,188,49118,1,0,0:0:0:0:
306,154,49459,1,8,0:0:0:0:
394,180,49629,1,8,0:0:0:0:
212,134,49800,1,0,0:0:0:0:
210,187,49970,1,0,0:0:0:0:
405,193,50141,1,8,0:0:0:0:
319,203,50311,1,8,0:0:0:0:
381,193,50482,1,0,0:0:0:0:
432,209,50823,1,8,0:0:0:0:
223,198,50993,1,0,0:0:0:0:
223,198,51078,1,0,0:0:0:0:
223,198,51164,1,0,0:0:0:0:
228,200,51334,1,0,0:0:0:0:
331,228,51504,1,8,0:0:0:0:
291,206,51675,1,8,0:0:0:0:
315,200,51845,1,0,0:0:0:0:
357,188,52186,1,8,0:0:0:0:
271,219,52357,1,8,0:0:0:0:
315,200,52527,1,0,0:0:0:0:
380,195,53209,1,8,0:0:0:0:
361,199,53379,1,8,0:0:0:0:
231,180,53550,1,0,0:0:0:0:
167,156,53635,1,0,0:0:0:0:
231,180,53720,1,0,0:0:0:0:
346,225,53891,1,8,0:0:0:0:
148,170,54232,1,8,0:0:0:0:
273,211,54402,1,0,0:0:0:0:
182,184,54573,1,8,0:0:0:0:
199,38,54914,1,0,0:0:0:0:
390,179,55084,1,0,0:0:0:0:
192,175,55254,1,8,0:0:0:0:
375,204,55340,1,8,0:0:0:0:
224,169,55425,1,8,0:0:0:0:
174,148,55595,1,0,0:0:0:0:
186,113,55681,1,0,0:0:0:0:
179,7,55766,1,0,0:0:0:0:
410,216,55936,1,8,0:0:0:0:
185,189,56277,1,0,0:0:0:0:
154,249,57982,1,4,0:0:0:0:
165,251,58323,1,0,0:0:0:0:
210,158,58493,1,0,0:0:0:0:
278,263,58664,1,8,0:0:0:0:
323,228,59004,1,8,0:0:0:0:
266,250,59345,1,0,0:0:0:0:
286,203,59686,1,8,0:0:0:0:
370,226,59857,1,0,0:0:0:0:
383,259,60027,1,8,0:0:0:0:
383,259,60368,1,8,0:0:0:0:
230,160,60709,1,0,0:0:0:0:
209,182,60794,1,0,0:0:0:0:
205,97,60879,1,0,0:0:0:0:
245,191,61050,1,8,0:0:0:0:
268,194,61220,1,8,0:0:0:0:
232,149,61391,1,0,0:0:0:0:
403,180,61561,1,8,0:0:0:0:
261,198,61646,1,8,0:0:0:0:
325,203,61732,1,8,0:0:0:0:
274,176,61902,1,0,0:0:0:0:
237,183,62073,1,8,0:0:0:0:
341,183,62414,1,0,0:0:0:0:
202,92,62584,1,0,0:0:0:0:
367,187,62754,1,8,0:0:0:0:
154,249,63436,1,0,0:0:0:0:
165,251,63777,1,0,0:0:0:0:
210,158,63948,1,0,0:0:0:0:
278,263,64118,1,8,0:0:0:0:
323,228,64459,1,8,0:0:0:0:
266,250,64800,1,0,0:0:0:0:
286,203,65141,1,8,0:0:0:0:
370,226,65311,1,0,0:0:0:0:
383,259,65482,1,8,0:0:0:0:
383,259,65823,1,8,0:0:0:0:
230,160,66164,1,0,0:0:0:0:
209,182,66249,1,0,0:0:0:0:
205,97,66334,1,0,0:0:0:0:
245,191,66504,1,8,0:0:0:0:
155,16,66675,1,8,0:0:0:0:
232,149,66845,1,0,0:0:0:0:
403,180,67016,1,8,0:0:0:0:
261,198,67101,1,8,0:0:0:0:
325,203,67186,1,8,0:0:0:0:
274,176,67357,1,0,0:0:0:0:
237,183,67527,1,8,0:0:0:0:
301,233,68550,1,8,0:0:0:0:
301,233,68635,1,8,0:0:0:0:
301,233,68720,1,8,0:0:0:0:
228,217,68891,1,0,0:0:0:0:
235,238,69232,1,8,0:0:0:0:
247,235,69573,1,8,0:0:0:0:
203,216,69914,1,0,0:0:0:0:
435,213,70254,1,8,0:0:0:0:
146,229,70595,1,0,0:0:0:0:
158,232,70766,1,0,0:0:0:0:
486,224,70936,1,8,0:0:0:0:
268,209,71277,1,0,0:0:0:0:
408,206,71618,1,8,0:0:0:0:
255,198,71789,1,0,0:0:0:0:
227,191,71959,1,0,0:0:0:0:
409,196,72300,1,8,0:0:0:0:
286,200,72641,1,8,0:0:0:0:
267,203,72811,1,0,0:0:0:0:
268,205,72982,1,8,0:0:0:0:
423,191,74004,1,12,0:0:0:0:
250,242,74345,1,0,0:0:0:0:
233,227,74686,1,0,0:0:0:0:
143,231,75027,1,8,0:0:0:0:
159,91,75368,1,0,0:0:0:0:
205,208,75709,1,8,0:0:0:0:
185,184,76050,1,0,0:0:0:0:
215,164,76220,1,0,0:0:0:0:
340,187,76391,1,8,0:0:0:0:
175,144,76732,1,0,0:0:0:0:
266,218,77073,1,0,0:0:0:0:
235,208,77243,1,0,0:0:0:0:
235,208,77414,1,8,0:0:0:0:
243,238,77754,1,0,0:0:0:0:
152,235,78095,1,0,0:0:0:0:
269,237,78266,1,8,0:0:0:0:
319,232,78436,1,8,0:0:0:0:
195,152,79459,1,8,0:0:0:0:
195,152,79544,1,8,0:0:0:0:
195,152,79629,1,8,0:0:0:0:
228,217,79800,1,0,0:0:0:0:
235,238,80141,1,8,0:0:0:0:
275,219,80311,1,0,0:0:0:0:
247,235,80482,1,8,0:0:0:0:
253,142,80652,1,8,0:0:0:0:
203,216,80823,1,0,0:0:0:0:
435,213,81164,1,8,0:0:0:0:
170,150,81334,1,8,0:0:0:0:
146,229,81504,1,0,0:0:0:0:
158,232,81675,1,0,0:0:0:0:
486,224,81845,1,8,0:0:0:0:
268,209,82186,1,0,0:0:0:0:
408,206,82527,1,8,0:0:0:0:
255,198,82698,1,0,0:0:0:0:
227,191,82868,1,0,0:0:0:0:
378,176,83039,1,8,0:0:0:0:
409,196,83209,1,0,0:0:0:0:
286,200,83550,1,0,0:0:0:0:
267,203,83720,1,0,0:0:0:0:
268,205,83891,1,8,0:0:0:0:
423,191,84743,1,8,0:0:0:0:
245,146,84914,1,0,0:0:0:0:
202,162,84999,1,0,0:0:0:0:
245,146,85084,1,0,0:0:0:0:
250,242,85254,1,0,0:0:0:0:
233,227,85595,1,8,0:0:0:0:
232,225,85766,1,0,0:0:0:0:
143,231,85936,1,8,0:0:0:0:
253,142,86107,1,8,0:0:0:0:
159,91,86277,1,0,0:0:0:0:
205,208,86618,1,8,0:0:0:0:
310,188,86789,1,8,0:0:0:0:
185,184,86959,1,0,0:0:0:0:
215,164,87129,1,0,0:0:0:0:
340,187,87300,1,8,0:0:0:0:
175,144,87641,1,0,0:0:0:0:
266,218,87982,1,0,0:0:0:0:
235,208,88152,1,0,0:0:0:0:
235,208,88323,1,8,0:0:0:0:
393,193,88493,1,0,0:0:0:0:
243,238,88664,1,8,0:0:0:0:
241,186,88834,1,8,0:0:0:0:
152,235,89004,1,0,0:0:0:0:
130,22,89175,1,0,0:0:0:0:
319,232,89345,1,8,0:0:0:0:
249,149,90027,1,8,0:0:0:0:
249,149,90112,1,8,0:0:0:0:
249,149,90198,1,8,0:0:0:0:
195,152,90368,1,8,0:0:0:0:
195,152,90539,1,8,0:0:0:0:
286,197,90709,1,0,0:0:0:0:
221,232,91050,1,0,0:0:0:0:
310,220,91391,1,8,0:0:0:0:
234,154,91476,1,8,0:0:0:0:
209,230,91561,1,8,0:0:0:0:
274,215,91732,1,0,0:0:0:0:
234,154,91902,1,0,0:0:0:0:
333,229,92073,1,8,0:0:0:0:
196,206,92414,1,0,0:0:0:0:
165,192,92584,1,0,0:0:0:0:
389,217,92754,1,8,0:0:0:0:
252,189,93095,1,8,0:0:0:0:
405,213,93266,1,0,0:0:0:0:
397,198,93436,1,8,0:0:0:0:
385,198,94118,1,8,0:0:0:0:
340,190,94203,1,8,0:0:0:0:
287,222,94289,1,8,0:0:0:0:
197,148,94459,1,0,0:0:0:0:
140,30,94629,1,0,0:0:0:0:
494,183,94800,1,8,0:0:0:0:
167,139,95141,1,0,0:0:0:0:
197,148,95311,1,0,0:0:0:0:
441,182,95482,1,8,0:0:0:0:
267,214,95823,1,8,0:0:0:0:
257,213,95993,1,8,0:0:0:0:
365,178,96164,1,0,0:0:0:0:
292,185,96504,1,8,0:0:0:0:
310,186,96845,1,8,0:0:0:0:
111,163,97016,1,0,0:0:0:0:
287,189,97186,1,8,0:0:0:0:
155,128,97357,1,0,0:0:0:0:
155,128,97527,1,0,0:0:0:0:
223,209,97868,1,8,0:0:0:0:
185,169,98209,1,8,0:0:0:0:
185,169,98294,1,8,0:0:0:0:
185,169,98379,1,8,0:0:0:0:
430,207,98550,1,0,0:0:0:0:
283,199,98720,1,0,0:0:0:0:
407,213,98806,1,8,0:0:0:0:
303,138,99572,1,8,0:0:0:0:
475,197,99913,1,8,0:0:0:0:
162,100,100084,1,0,0:0:0:0:
212,114,100254,1,8,0:0:0:0:
265,221,100595,1,0,0:0:0:0:
373,209,100936,1,8,0:0:0:0:
321,189,101277,1,8,0:0:0:0:
212,149,101447,1,8,0:0:0:0:
170,168,101618,1,0,0:0:0:0:
214,156,102300,1,8,0:0:0:0:
226,146,102641,1,8,0:0:0:0:
337,188,102811,1,0,0:0:0:0:
219,145,102981,1,8,0:0:0:0:
203,169,103322,1,0,0:0:0:0:
432,200,103663,1,8,0:0:0:0:
269,208,104004,1,8,0:0:0:0:
237,220,104175,1,0,0:0:0:0:
222,146,104345,1,0,0:0:0:0:
146,171,104686,1,0,0:0:0:0:
185,175,104856,1,0,0:0:0:0:
311,199,105027,1,8,0:0:0:0:
346,208,105368,1,8,0:0:0:0:
439,192,105538,1,0,0:0:0:0:
353,202,105709,1,8,0:0:0:0:
261,209,106050,1,0,0:0:0:0:
433,231,106391,1,8,0:0:0:0:
242,192,106731,1,8,0:0:0:0:
242,193,106902,1,8,0:0:0:0:
241,178,107072,1,0,0:0:0:0:
321,207,107754,1,8,0:0:0:0:
165,144,109800,1,4,0:0:0:0:
263,134,109970,1,4,0:0:0:0:
396,176,110141,1,8,0:0:0:0:
245,256,110226,1,8,0:0:0:0:
245,256,110311,1,8,0:0:0:0:
153,55,110481,1,0,0:0:0:0:
394,226,110822,1,8,0:0:0:0:
165,122,110993,1,8,0:0:0:0:
202,215,111078,1,8,0:0:0:0:
150,16,111163,1,8,0:0:0:0:
199,104,111334,1,0,0:0:0:0:
201,130,111504,1,8,0:0:0:0:
388,188,111845,1,0,0:0:0:0:
306,154,112186,1,8,0:0:0:0:
394,180,112356,1,8,0:0:0:0:
212,134,112527,1,0,0:0:0:0:
157,115,112697,1,0,0:0:0:0:
405,193,112868,1,8,0:0:0:0:
187,118,112953,1,8,0:0:0:0:
260,131,113038,1,8,0:0:0:0:
381,193,113209,1,0,0:0:0:0:
432,209,113550,1,8,0:0:0:0:
223,198,113720,1,0,0:0:0:0:
223,198,113805,1,0,0:0:0:0:
223,198,113891,1,0,0:0:0:0:
228,200,114061,1,0,0:0:0:0:
331,228,114231,1,8,0:0:0:0:
291,206,114402,1,8,0:0:0:0:
315,200,114572,1,0,0:0:0:0:
357,188,114913,1,8,0:0:0:0:
355,180,115084,1,8,0:0:0:0:
315,200,115254,1,0,0:0:0:0:
380,195,115936,1,8,0:0:0:0:
361,199,116106,1,8,0:0:0:0:
231,180,116277,1,0,0:0:0:0:
167,156,116362,1,0,0:0:0:0:
231,180,116447,1,0,0:0:0:0:
346,225,116618,1,8,0:0:0:0:
148,170,116959,1,8,0:0:0:0:
273,211,117129,1,0,0:0:0:0:
182,184,117300,1,8,0:0:0:0:
199,38,117641,1,0,0:0:0:0:
390,179,117811,1,0,0:0:0:0:
192,175,117981,1,8,0:0:0:0:
375,204,118067,1,8,0:0:0:0:
224,169,118152,1,8,0:0:0:0:
174,148,118322,1,0,0:0:0:0:
186,113,118408,1,0,0:0:0:0:
179,7,118493,1,0,0:0:0:0:
410,216,118663,1,8,0:0:0:0:
185,189,119004,1,0,0:0:0:0:
154,249,120709,1,4,0:0:0:0:
165,251,121050,1,0,0:0:0:0:
210,158,121220,1,0,0:0:0:0:
278,263,121391,1,8,0:0:0:0:
323,228,121731,1,8,0:0:0:0:
266,250,122072,1,0,0:0:0:0:
370,226,122413,1,8,0:0:0:0:
286,203,122584,1,0,0:0:0:0:
383,259,122754,1,8,0:0:0:0:
383,259,123095,1,8,0:0:0:0:
230,160,123436,1,0,0:0:0:0:
209,182,123521,1,0,0:0:0:0:
205,97,123606,1,0,0:0:0:0:
245,191,123777,1,8,0:0:0:0:
268,194,123947,1,8,0:0:0:0:
232,149,124118,1,0,0:0:0:0:
403,180,124288,1,8,0:0:0:0:
261,198,124373,1,8,0:0:0:0:
325,203,124459,1,8,0:0:0:0:
274,176,124629,1,0,0:0:0:0:
237,183,124800,1,8,0:0:0:0:
341,183,125141,1,0,0:0:0:0:
202,92,125311,1,0,0:0:0:0:
367,187,125481,1,8,0:0:0:0:
154,249,126163,1,0,0:0:0:0:
165,251,126504,1,0,0:0:0:0:
210,158,126675,1,0,0:0:0:0:
278,263,126845,1,8,0:0:0:0:
323,228,127186,1,8,0:0:0:0:
266,250,127527,1,0,0:0:0:0:
370,226,127868,1,8,0:0:0:0:
286,203,128038,1,0,0:0:0:0:
383,259,128209,1,8,0:0:0:0:
383,259,128550,1,8,0:0:0:0:
230,160,128891,1,0,0:0:0:0:
209,182,128976,1,0,0:0:0:0:
205,97,129061,1,0,0:0:0:0:
245,191,129231,1,8,0:0:0:0:
155,16,129402,1,0,0:0:0:0:
168,84,129487,1,0,0:0:0:0:
232,149,129572,1,0,0:0:0:0:
403,180,129743,1,8,0:0:0:0:
261,198,129828,1,8,0:0:0:0:
325,203,129913,1,8,0:0:0:0:
274,176,130084,1,0,0:0:0:0:
237,183,130254,1,8,0:0:0:0:
