osu file format v14

[General]
AudioFilename: audio.mp3
AudioLeadIn: 0
PreviewTime: 46990
Countdown: 0
SampleSet: Soft
StackLeniency: 0.3
Mode: 0
LetterboxInBreaks: 0
WidescreenStoryboard: 1

[Editor]
Bookmarks: 27984,56280,79802,98893,120712
DistanceSpacing: 1.2
BeatDivisor: 4
GridSize: 32
TimelineZoom: 1.9

[Metadata]
Title:sympathy 4 the grinch
TitleUnicode:sympathy 4 the grinch
Artist:100 gecs
ArtistUnicode:100 gecs
Creator:aeniko
Version:nytro & atlas' hard
Source:
Tags:electronic english experimental christmas xmas hiphop hip hop hyperpop hyper pop dylan brady laura les for 1000 atlas enri kieg lugu nytro nytrocide_ mynt ancel ancelysia mattay
BeatmapID:3327014
BeatmapSetID:1606138

[Difficulty]
HPDrainRate:5
CircleSize:3.6
OverallDifficulty:6
ApproachRate:8
SliderMultiplier:1.5
SliderTickRate:1

[Events]
//Background and Video events
0,0,"EJWh8qBXYAAc4F9.jpg",0,0
Video,0,"amongus hentai free ft. Shrek.avi"
//Break Periods
//Storyboard Layer 0 (Background)
//Storyboard Layer 1 (Fail)
//Storyboard Layer 2 (Pass)
//Storyboard Layer 3 (Foreground)
//Storyboard Layer 4 (Overlay)
//Storyboard Sound Samples

[TimingPoints]
371,340.909090909091,4,2,1,40,1,0
712,340.909090909091,4,2,1,40,1,0
712,-100,4,2,1,40,0,0
5825,-100,4,2,1,60,0,0
6506,-100,4,2,1,60,0,0
7870,-100,4,2,1,60,0,0
10597,-100,4,2,1,60,0,0
11961,-100,4,2,1,60,0,0
13324,-100,4,2,1,60,0,0
21507,-100,4,2,1,60,0,0
27984,-90.9090909090909,4,2,1,60,0,0
34972,-90.9090909090909,4,2,1,40,0,0
35143,-90.9090909090909,4,2,1,60,0,0
35313,-90.9090909090909,4,2,1,40,0,0
35484,-90.9090909090909,4,2,1,60,0,0
36166,-90.9090909090909,4,2,2,60,0,0
36507,-100,4,2,2,60,0,0
37103,-100,4,2,2,40,0,0
37189,-100,4,2,2,60,0,0
39063,-100,4,2,2,40,0,0
39234,-100,4,2,2,60,0,0
39745,-100,4,2,2,40,0,0
39916,-100,4,2,2,60,0,0
42132,-100,4,2,2,40,0,0
42302,-100,4,2,2,60,0,0
42557,-100,4,2,2,40,0,0
42643,-100,4,2,2,60,0,0
43836,-100,4,2,2,40,0,0
44007,-100,4,2,2,60,0,0
46648,-100,4,2,2,40,0,0
46734,-100,4,2,2,60,0,0
47075,-90.9090909090909,4,2,1,90,0,1
48012,-90.9090909090909,4,2,1,40,0,1
48098,-90.9090909090909,4,2,1,90,0,1
48950,-90.9090909090909,4,2,1,40,0,1
49121,-90.9090909090909,4,2,1,90,0,1
49291,-90.9090909090909,4,2,1,40,0,1
49462,-90.9090909090909,4,2,1,90,0,1
50654,-90.9090909090909,4,2,1,40,0,1
50825,-90.9090909090909,4,2,1,90,0,1
51507,-90.9090909090909,4,2,1,90,0,1
52530,-100,4,2,1,90,0,1
52700,-100,4,2,1,40,0,1
52871,-100,4,2,1,90,0,1
53041,-100,4,2,1,40,0,1
53212,-100,4,2,1,90,0,1
53893,-100,4,2,1,90,0,1
54745,-100,4,2,1,40,0,1
54916,-100,4,2,1,90,0,1
55597,-100,4,2,1,90,0,1
55938,-100,4,2,1,90,0,1
56280,-100,4,2,1,90,0,1
56621,-100,4,2,1,90,0,0
58836,-100,4,2,1,40,0,0
59007,-100,4,2,1,90,0,0
59177,-100,4,2,1,40,0,0
59348,-100,4,2,1,90,0,0
60200,-100,4,2,1,40,0,0
60371,-100,4,2,1,90,0,0
60541,-100,4,2,1,40,0,0
60712,-100,4,2,1,90,0,0
62927,-100,4,2,1,40,0,0
63098,-100,4,2,1,90,0,0
63268,-100,4,2,1,40,0,0
63439,-100,4,2,1,90,0,0
64291,-100,4,2,1,40,0,0
64462,-100,4,2,1,90,0,0
64632,-100,4,2,1,40,0,0
64802,-100,4,2,1,90,0,0
65654,-100,4,2,1,40,0,0
65825,-100,4,2,1,90,0,0
65995,-100,4,2,1,40,0,0
66166,-100,4,2,1,90,0,0
68893,-100,4,2,1,60,0,0
73496,-100,4,2,1,40,0,0
73666,-100,4,2,1,60,0,0
73836,-100,4,2,1,40,0,0
74007,-100,4,2,1,60,0,0
74518,-100,4,2,1,40,0,0
74689,-100,4,2,1,60,0,0
75200,-100,4,2,1,40,0,0
75371,-100,4,2,1,60,0,0
75541,-100,4,2,1,40,0,0
75712,-100,4,2,1,60,0,0
75882,-100,4,2,1,40,0,0
76052,-100,4,2,1,60,0,0
76564,-100,4,2,1,40,0,0
76734,-100,4,2,1,60,0,0
76904,-100,4,2,1,40,0,0
77075,-100,4,2,1,60,0,0
79291,-100,4,2,1,40,0,0
79462,-100,4,2,1,60,0,0
79802,-90.9090909090909,4,2,1,60,0,0
97699,-90.9090909090909,4,2,1,40,0,0
97871,-90.9090909090909,4,2,1,60,0,0
98041,-90.9090909090909,4,2,1,40,0,0
98212,-90.9090909090909,4,2,1,60,0,0
98893,-100,4,2,1,60,0,0
99234,-100,4,2,2,60,0,0
104348,-100,4,2,1,60,0,0
104689,-100,4,2,2,60,0,0
104859,-100,4,2,2,40,0,0
105030,-100,4,2,2,60,0,0
105882,-100,4,2,2,40,0,0
106052,-100,4,2,1,60,0,0
106223,-100,4,2,2,60,0,0
106563,-100,4,2,2,40,0,0
106734,-100,4,2,2,60,0,0
107075,-100,4,2,1,60,0,0
107415,-100,4,2,2,60,0,0
108098,-100,4,2,1,60,0,0
109802,-100,4,2,1,90,0,1
110654,-100,4,2,1,40,0,1
110825,-100,4,2,1,90,0,1
111677,-100,4,2,1,40,0,1
111848,-100,4,2,1,90,0,1
113382,-100,4,2,1,40,0,1
113552,-100,4,2,1,90,0,1
114233,-100,4,2,1,90,0,1
115768,-100,4,2,1,40,0,1
115939,-100,4,2,1,90,0,1
119348,-100,4,2,1,90,0,0
120712,-100,4,2,1,90,0,0
120882,-100,4,2,1,40,0,0
121052,-100,4,2,1,90,0,0
121563,-100,4,2,1,40,0,0
121734,-100,4,2,1,90,0,0
121904,-100,4,2,1,40,0,0
122075,-100,4,2,1,90,0,0
122245,-100,4,2,1,40,0,0
122416,-100,4,2,1,90,0,0
122927,-100,4,2,1,40,0,0
123098,-100,4,2,1,90,0,0
123268,-100,4,2,1,40,0,0
123439,-100,4,2,1,90,0,0
124972,-100,4,2,1,40,0,0
125143,-100,4,2,1,90,0,0
125654,-100,4,2,1,40,0,0
125825,-100,4,2,1,90,0,0
125995,-100,4,2,1,40,0,0
126166,-100,4,2,1,90,0,0
126336,-100,4,2,1,40,0,0
126507,-100,4,2,1,90,0,0
127018,-100,4,2,1,40,0,0
127189,-100,4,2,1,90,0,0
127359,-100,4,2,1,40,0,0
127530,-100,4,2,1,90,0,0
127700,-100,4,2,1,40,0,0
127871,-100,4,2,1,90,0,0
128382,-100,4,2,1,40,0,0
128553,-100,4,2,1,90,0,0
128723,-100,4,2,1,40,0,0
128893,-100,4,2,1,90,0,0

[Colours]
Combo1 : 255,128,64
Combo2 : 0,64,128
Combo3 : 255,128,128
SliderBorder : 255,255,255

[HitObjects]
23,32,371,5,8,0:0:0:0:
23,32,712,6,0,P|81:19|142:84,1,150,2|2,0:0|0:0,0:0:0:0:
157,158,1223,1,2,0:0:0:0:
157,158,1393,2,0,P|203:212|274:203,1,150,2|2,0:0|0:0,0:0:0:0:
505,57,2075,6,0,L|343:70,1,150,2|2,0:0|0:0,0:0:0:0:
503,147,2587,1,2,0:0:0:0:
503,147,2757,2,0,L|341:160,1,150,2|2,0:0|0:0,0:0:0:0:
290,248,3439,5,2,0:0:0:0:
290,248,3609,1,2,0:0:0:0:
371,260,3780,2,0,P|381:312|357:344,1,75,2|2,0:0|0:0,0:0:0:0:
291,328,4121,2,0,P|261:371|221:377,1,75,2|2,0:0|0:0,0:0:0:0:
120,303,4462,2,0,L|212:313,1,75,2|2,0:0|0:0,0:0:0:0:
145,183,4802,6,0,B|108:159|65:178|82:206|52:238|-3:223,1,150,2|2,0:0|0:0,0:0:0:0:
24,106,5314,1,2,0:0:0:0:
24,106,5484,2,0,P|73:88|109:81,1,75,2|2,0:0|0:0,0:0:0:0:
186,28,5825,1,10,0:0:0:0:
179,25,5910,1,10,0:0:0:0:
169,22,5996,1,10,0:0:0:0:
264,99,6166,6,0,B|271:176|271:176|279:180|279:180|287:274,1,150,2|2,3:2|3:2,0:0:0:0:
295,323,6677,1,10,1:2:0:0:
371,257,6848,2,0,P|408:236|457:253,1,75,2|8,3:2|1:2,0:0:0:0:
512,157,7189,2,0,P|475:160|444:140,1,75,2|8,3:2|1:2,0:0:0:0:
288,35,7530,6,0,P|339:49|443:66,1,150,2|2,3:2|3:2,0:0:0:0:
512,39,8041,1,10,1:2:0:0:
452,135,8212,2,0,P|433:96|441:46,1,75,2|8,3:2|1:2,0:0:0:0:
360,149,8552,2,0,P|341:188|349:238,1,75,2|8,3:2|1:2,0:0:0:0:
340,305,8893,5,2,3:2:0:0:
340,305,9064,1,10,1:2:0:0:
285,228,9234,2,0,L|194:240,1,75,2|10,3:2|1:2,0:0:0:0:
185,313,9575,2,0,L|94:301,1,75,2|10,3:2|1:2,0:0:0:0:
46,207,9916,2,0,P|102:212|123:240,1,75,2|10,3:2|1:2,0:0:0:0:
211,146,10257,6,0,P|201:86|113:43,1,150,2|0,3:2|3:2,0:0:0:0:
51,33,10768,1,8,1:2:0:0:
51,33,10939,2,0,B|62:42|62:42|71:111,1,75,0|8,3:2|1:2,0:0:0:0:
121,165,11280,2,0,B|110:174|110:174|101:243,1,75,0|8,3:2|1:2,0:0:0:0:
84,330,11621,6,0,B|149:342|149:342|161:328|161:328|240:344,1,150,2|2,3:2|3:2,0:0:0:0:
308,353,12132,1,10,1:2:0:0:
308,353,12302,2,0,P|323:315|307:272,1,75,2|8,3:2|1:2,0:0:0:0:
242,230,12643,2,0,P|234:193|249:160,1,75,2|8,3:2|1:2,0:0:0:0:
381,56,12984,6,0,P|349:113|329:208,1,150,2|2,3:2|3:2,0:0:0:0:
397,250,13496,1,10,1:2:0:0:
397,250,13666,2,0,B|432:267|432:267|463:250,1,75,2|8,3:2|1:2,0:0:0:0:
357,324,14007,2,0,B|326:307|326:307|291:324,1,75,2|8,3:2|1:2,0:0:0:0:
191,355,14348,5,2,3:2:0:0:
191,355,14518,1,10,1:2:0:0:
143,263,14689,2,0,L|133:184,1,75,2|10,3:2|1:2,0:0:0:0:
210,167,15030,2,0,L|200:88,1,75,0|10,3:2|1:2,0:0:0:0:
277,75,15371,2,0,L|267:-4,1,75,2|10,3:2|1:2,0:0:0:0:
180,6,15712,5,2,3:2:0:0:
87,122,16052,5,2,2:2:0:0:
86,113,16223,1,2,2:2:0:0:
85,103,16393,1,2,2:2:0:0:
27,208,16734,6,0,P|29:210|44:253,2,37.5,0|0|8,1:2|1:2|1:2,0:0:0:0:
27,318,17075,6,0,L|121:302,1,75,2|8,3:2|1:2,0:0:0:0:
168,249,17416,1,2,3:2:0:0:
168,249,17587,1,10,1:2:0:0:
187,329,17757,2,0,L|281:345,1,75,2|8,3:2|1:2,0:0:0:0:
355,319,18098,2,0,P|366:276|336:225,1,75,2|8,3:2|1:2,0:0:0:0:
270,120,18439,6,0,L|281:204,1,75,2|8,3:2|1:2,0:0:0:0:
239,264,18780,1,2,3:2:0:0:
239,264,18950,1,10,1:2:0:0:
182,196,19121,2,0,B|191:163|191:163|163:127,1,75,2|8,3:2|1:2,0:0:0:0:
87,170,19462,2,0,B|61:137|61:137|70:104,1,75,2|8,3:2|1:2,0:0:0:0:
146,14,19802,5,2,3:2:0:0:
146,14,19973,1,10,1:2:0:0:
210,78,20143,2,0,P|267:57|293:57,1,75,2|10,3:2|1:2,0:0:0:0:
341,1,20484,2,0,P|398:22|424:22,1,75,2|10,3:2|1:2,0:0:0:0:
425,102,20825,2,0,P|458:85|495:80,1,75,2|10,3:2|1:2,0:0:0:0:
403,191,21166,6,0,B|354:203|354:203|351:201|351:201|272:222,1,112.5,2|0,3:2|0:0,0:0:0:0:
258,225,21507,1,0,3:2:0:0:
258,225,21677,1,8,1:2:0:0:
269,301,21848,2,0,P|316:318|346:306,1,75,0|8,3:2|1:2,0:0:0:0:
373,384,22189,2,0,P|418:362|430:333,1,75,0|8,3:2|1:2,0:0:0:0:
482,230,22530,6,0,L|403:233,1,75,2|8,3:2|1:2,0:0:0:0:
337,184,22871,1,2,3:2:0:0:
337,184,23041,1,10,1:2:0:0:
436,139,23212,2,0,P|444:90|450:63,1,75,2|8,3:2|1:2,0:0:0:0:
361,90,23552,2,0,P|368:53|374:16,1,75,2|8,3:2|1:2,0:0:0:0:
269,109,23893,6,0,P|236:134|230:180,1,75,2|8,3:2|1:2,0:0:0:0:
194,234,24234,1,2,3:2:0:0:
194,234,24405,1,10,1:2:0:0:
129,184,24575,2,0,B|124:180|119:168|119:168|92:175|79:214,1,75,2|8,3:2|1:2,0:0:0:0:
71,285,24916,2,0,B|66:289|61:301|61:301|34:294|21:255,1,75,2|8,3:2|1:2,0:0:0:0:
20,129,25257,5,2,3:2:0:0:
20,129,25427,1,10,1:2:0:0:
88,74,25598,2,0,P|76:39|39:12,1,75,2|10,3:2|1:2,0:0:0:0:
178,76,25939,2,0,L|264:85,1,75,0|10,3:2|1:2,0:0:0:0:
329,90,26280,2,0,B|338:105|338:105|329:175,1,75,2|10,3:2|1:2,0:0:0:0:
289,231,26621,5,2,3:2:0:0:
329,90,27302,6,0,P|346:143|340:154,2,37.5,10|10|8,1:2|1:2|1:2,0:0:0:0:
250,35,27643,2,0,L|149:51,1,75,2|8,3:2|1:2,0:0:0:0:
121,119,27984,5,0,3:2:0:0:
121,119,28155,1,8,1:2:0:0:
46,67,28325,2,0,L|36:15,2,41.2500012588501,0|0|8,3:2|3:2|1:2,0:0:0:0:
2,146,28666,2,0,P|-12:182|-11:237,1,82.5000025177003,2|8,3:2|1:2,0:0:0:0:
49,305,29007,1,2,3:2:0:0:
49,305,29092,1,0,3:2:0:0:
49,305,29177,1,8,1:2:0:0:
132,265,29348,5,2,3:2:0:0:
132,265,29518,1,8,1:2:0:0:
201,324,29689,2,0,L|208:372,2,41.2500012588501,2|0|8,3:2|3:2|1:2,0:0:0:0:
257,252,30030,2,0,L|271:150,1,82.5000025177003,2|8,3:2|1:2,0:0:0:0:
223,103,30371,1,2,3:2:0:0:
223,103,30456,1,0,3:2:0:0:
223,103,30541,1,8,1:2:0:0:
289,40,30712,6,0,L|382:26,1,82.5000025177003,2|8,3:2|1:2,0:0:0:0:
464,63,31052,1,0,3:2:0:0:
464,63,31138,1,0,3:2:0:0:
464,63,31223,1,8,1:2:0:0:
309,152,31393,6,0,L|390:139,1,82.5000025177003,2|8,3:2|1:2,0:0:0:0:
484,175,31733,1,2,3:2:0:0:
484,175,31819,1,0,3:2:0:0:
484,175,31904,1,8,1:2:0:0:
512,266,32075,5,2,3:2:0:0:
512,266,32246,1,8,1:2:0:0:
467,344,32416,2,0,L|478:387,2,41.2500012588501,2|0|8,3:2|3:2|1:2,0:0:0:0:
380,315,32757,2,0,P|336:315|291:328,1,82.5000025177003,2|8,3:2|1:2,0:0:0:0:
218,366,33098,2,0,P|194:381|154:381,2,41.2500012588501,2|0|8,3:2|3:2|1:2,0:0:0:0:
167,299,33439,5,2,3:2:0:0:
167,299,33780,1,8,1:2:0:0:
214,231,34121,5,0,3:2:0:0:
212,220,34291,1,0,3:2:0:0:
210,209,34462,1,8,1:2:0:0:
208,198,34632,1,0,3:2:0:0:
206,187,34802,6,0,L|186:80,1,82.5000025177003,2|0,3:2|0:0,0:0:0:0:
145,26,35143,2,0,P|96:15|38:42,1,82.5000025177003,8|0,1:2|0:0,0:0:0:0:
14,98,35484,2,0,L|-35:107,2,41.2500012588501,8|8|0,1:2|1:2|3:2,0:0:0:0:
90,147,35825,1,8,1:2:0:0:
63,239,35996,1,8,3:2:0:0:
63,239,36081,1,8,3:2:0:0:
63,239,36166,1,2,3:2:0:0:
188,370,36507,6,0,L|177:276,1,75,2|2,2:2|2:2,0:0:0:0:
223,225,36848,2,0,L|239:103,1,112.5,10|0,2:2|0:0,0:0:0:0:
244,72,37189,1,2,2:2:0:0:
314,29,37359,1,2,2:2:0:0:
389,62,37530,2,0,P|455:28|535:10,2,150,2|2|10,2:2|2:2|2:2,0:0:0:0:
328,220,38552,1,2,2:2:0:0:
328,220,38723,1,2,2:2:0:0:
328,220,38893,2,0,L|429:209,1,75,2|0,2:2|0:0,0:0:0:0:
468,270,39234,5,2,2:2:0:0:
468,270,39405,1,2,2:2:0:0:
429,342,39575,2,0,L|354:350,1,75,10|0,2:2|0:0,0:0:0:0:
278,316,39916,2,0,P|245:296|201:281,2,75,2|2|2,2:2|2:2|2:2,0:0:0:0:
121,371,40598,5,2,2:2:0:0:
121,371,40768,1,2,2:2:0:0:
61,313,40939,2,0,P|71:273|67:224,1,75,10|2,2:2|2:2,0:0:0:0:
106,164,41280,2,0,P|96:124|100:75,2,75,2|2|2,2:2|2:2|2:2,0:0:0:0:
263,111,41962,6,0,L|172:118,1,75,2|0,2:2|0:0,0:0:0:0:
333,223,42302,2,0,P|339:181|361:102,1,112.5,10|0,2:2|0:0,0:0:0:0:
374,74,42643,2,0,P|370:37|361:1,2,75,2|2|2,2:2|2:2|2:2,0:0:0:0:
511,176,43325,5,2,2:2:0:0:
511,176,43496,1,2,2:2:0:0:
457,238,43666,2,0,P|428:225|372:218,1,75,10|0,2:2|0:0,0:0:0:0:
303,208,44007,2,0,P|274:221|218:228,2,75,2|2|2,2:2|2:2|2:2,0:0:0:0:
59,357,45030,5,10,2:2:0:0:
5,190,45371,5,2,2:2:0:0:
5,190,45541,1,2,2:2:0:0:
73,130,45712,2,0,L|91:49,1,75,2|2,2:2|2:2,0:0:0:0:
171,20,46052,2,0,L|189:101,1,75,2|2,2:2|2:2,0:0:0:0:
259,146,46393,2,0,P|299:105|348:77,1,112.5,2|0,2:2|0:0,0:0:0:0:
372,74,46734,2,0,P|393:76|444:98,1,75,2|2,2:2|2:2,0:0:0:0:
499,184,47075,5,2,3:2:0:0:
499,184,47246,1,2,3:2:0:0:
439,263,47416,2,0,L|339:245,1,82.5000025177003,8|2,1:2|3:2,0:0:0:0:
270,200,47757,2,0,L|131:226,1,123.75000377655,2|0,3:2|0:0,0:0:0:0:
119,231,48098,1,10,1:2:0:0:
119,231,48268,1,2,3:2:0:0:
42,294,48439,6,0,P|79:320|97:369,1,82.5000025177003,2|2,2:2|3:2,0:0:0:0:
189,383,48780,2,0,P|206:342|243:316,1,82.5000025177003,8|0,1:2|0:0,0:0:0:0:
331,347,49121,2,0,L|430:338,1,82.5000025177003,2|0,3:2|0:0,0:0:0:0:
503,294,49462,1,10,1:2:0:0:
503,294,49632,1,2,2:2:0:0:
446,213,49802,6,0,L|455:115,1,82.5000025177003,2|2,3:2|3:2,0:0:0:0:
488,37,50143,1,8,1:2:0:0:
488,37,50314,1,2,3:2:0:0:
373,0,50484,6,0,L|364:98,1,82.5000025177003,2|0,3:2|0:0,0:0:0:0:
331,176,50825,1,10,1:2:0:0:
331,176,50996,1,2,3:2:0:0:
238,140,51166,2,0,P|176:122|111:145,1,123.75000377655,2|0,2:2|0:0,0:0:0:0:
95,157,51507,1,8,1:2:0:0:
95,157,51677,1,2,2:2:0:0:
22,89,51848,2,0,L|9:5,2,82.5000025177003,2|2|10,3:2|2:2|1:2,0:0:0:0:
0,186,52359,1,2,2:2:0:0:
58,254,52530,6,0,P|97:264|135:290,1,75,2|0,3:2|0:0,0:0:0:0:
208,245,52871,2,0,P|247:235|285:209,1,75,2|0,3:2|0:0,0:0:0:0:
365,229,53212,2,0,P|333:299|322:374,2,150,8|2|2,1:2|3:2|3:2,0:0:0:0:
442,68,54234,5,2,3:2:0:0:
442,68,54405,1,2,2:2:0:0:
357,37,54575,2,0,P|317:39|269:63,1,75,8|0,1:2|0:0,0:0:0:0:
229,124,54916,2,0,P|189:121|141:97,1,75,2|2,3:2|2:2,0:0:0:0:
82,159,55257,2,0,B|111:275|111:275|102:321,2,150,2|2|8,3:2|3:2|1:2,0:0:0:0:
0,0,56280,6,0,L|96:10,1,75,2|2,3:2|2:2,0:0:0:0:
141,51,56621,1,2,2:2:0:0:
101,86,57984,6,0,B|129:128|110:165|84:156|62:194|95:243,1,150,2|2,3:2|1:2,0:0:0:0:
124,298,58496,1,2,2:2:0:0:
124,298,58666,2,0,P|171:301|206:309,1,75,2|0,3:2|0:0,0:0:0:0:
203,220,59007,2,0,P|239:227|277:228,1,75,2|0,1:2|0:0,0:0:0:0:
461,306,59348,6,0,P|417:322|355:242,1,150,2|2,3:2|1:2,0:0:0:0:
411,184,59859,1,2,2:2:0:0:
411,184,60030,2,0,B|428:153|428:153|405:111,1,75,2|0,3:2|0:0,0:0:0:0:
326,38,60371,2,0,B|306:72|306:72|323:103,1,75,2|0,1:2|0:0,0:0:0:0:
320,192,60712,5,2,3:2:0:0:
320,192,60882,1,2,2:2:0:0:
261,133,61052,2,0,P|198:125|176:124,1,75,2|2,1:2|2:2,0:0:0:0:
147,40,61393,5,2,3:2:0:0:
147,40,61563,1,2,2:2:0:0:
87,96,61734,2,0,P|24:104|2:105,1,75,2|2,1:2|2:2,0:0:0:0:
18,183,62075,6,0,B|27:247|27:247|39:250|39:250|51:333,1,150,2|2,3:2|1:2,0:0:0:0:
119,364,62587,1,2,2:2:0:0:
119,364,62757,2,0,P|151:330|149:294,1,75,2|0,3:2|0:0,0:0:0:0:
236,293,63098,2,0,P|251:335|286:353,1,75,2|0,1:2|0:0,0:0:0:0:
392,361,63439,6,0,P|395:283|415:189,1,150,2|2,3:2|1:2,0:0:0:0:
423,124,63950,1,2,2:2:0:0:
423,124,64121,2,0,B|414:110|414:110|345:120,1,75,2|0,3:2|0:0,0:0:0:0:
333,22,64462,2,0,B|324:36|324:36|255:26,1,75,2|0,1:2|0:0,0:0:0:0:
110,46,64802,6,0,P|139:92|231:110,1,150,2|2,3:2|1:2,0:0:0:0:
316,96,65314,1,2,2:2:0:0:
316,96,65484,2,0,P|306:167|307:190,1,75,2|0,3:2|0:0,0:0:0:0:
239,303,65825,2,0,P|236:265|229:228,1,75,2|0,1:2|0:0,0:0:0:0:
191,79,66166,5,2,3:2:0:0:
112,84,66337,1,2,1:2:0:0:
57,150,66507,2,0,L|66:235,1,75,2|2,3:2|1:2,0:0:0:0:
131,267,66848,2,0,L|122:352,1,75,2|2,3:2|1:2,0:0:0:0:
206,367,67189,1,2,3:2:0:0:
206,367,67359,1,2,1:2:0:0:
279,340,67530,1,2,3:2:0:0:
336,12,68552,6,0,L|396:17,2,37.5,10|10|10,1:2|1:2|1:2,0:0:0:0:
233,22,68893,6,0,P|266:86|347:98,1,150,2|2,3:2|3:2,0:0:0:0:
433,163,69405,1,2,2:2:0:0:
433,163,69575,2,0,P|361:177|328:241,1,150,2|2,3:2|3:2,0:0:0:0:
275,369,70257,6,0,L|262:184,1,150,2|2,3:2|3:2,0:0:0:0:
190,171,70768,1,2,2:2:0:0:
190,171,70939,2,0,L|177:-14,1,150,2|2,3:2|3:2,0:0:0:0:
44,18,71621,5,2,3:2:0:0:
50,94,71791,1,2,2:2:0:0:
114,145,71962,2,0,P|122:216|109:230,1,75,2|2,3:2|2:2,0:0:0:0:
67,324,72302,2,0,P|98:294|151:298,1,75,2|2,3:2|2:2,0:0:0:0:
281,323,72643,2,0,L|200:313,1,75,2|2,3:2|2:2,0:0:0:0:
255,230,72984,6,0,L|415:249,1,150,2|0,3:2|3:2,0:0:0:0:
485,254,73496,1,0,0:0:0:0:
491,171,73666,2,0,P|470:122|439:110,1,75,0|0,3:2|0:0,0:0:0:0:
374,98,74007,1,4,1:2:0:0:
323,242,74348,6,0,L|333:328,1,75,2|0,3:2|0:0,0:0:0:0:
241,282,74689,2,0,L|251:368,1,75,2|2,3:2|2:2,0:0:0:0:
157,245,75030,1,2,3:2:0:0:
157,245,75200,1,0,0:0:0:0:
230,190,75371,2,0,P|187:164|148:174,1,75,2|0,3:2|0:0,0:0:0:0:
39,103,75712,6,0,P|96:94|134:93,1,75,2|0,3:2|0:0,0:0:0:0:
31,21,76052,2,0,P|68:17|105:11,1,75,2|2,3:2|2:2,0:0:0:0:
190,17,76393,1,2,3:2:0:0:
190,17,76564,1,0,0:0:0:0:
247,83,76734,2,0,B|257:59|257:59|326:66,1,75,2|0,3:2|0:0,0:0:0:0:
406,67,77075,5,2,3:2:0:0:
406,67,77246,1,2,2:2:0:0:
472,156,77416,2,0,P|485:98|503:69,1,75,2|2,3:2|2:2,0:0:0:0:
369,163,77757,2,0,P|383:197|389:234,1,75,2|2,3:2|2:2,0:0:0:0:
465,309,78098,1,2,3:2:0:0:
465,309,78268,1,2,2:2:0:0:
380,326,78439,6,0,B|302:382|197:283|252:234|159:155|56:228,1,375,2|0,3:2|0:0,0:0:0:0:
26,295,79462,1,0,1:2:0:0:
33,297,79547,1,0,1:2:0:0:
41,297,79632,1,8,1:2:0:0:
141,221,79802,6,0,L|132:128,1,82.5000025177003,2|8,3:2|1:2,0:0:0:0:
84,64,80143,1,2,3:2:0:0:
84,64,80229,1,0,3:2:0:0:
84,64,80314,1,10,1:2:0:0:
159,0,80484,2,0,P|196:25|246:32,1,82.5000025177003,2|8,3:2|1:2,0:0:0:0:
329,10,80825,2,0,L|389:6,2,41.2500012588501,2|0|8,3:2|3:2|1:2,0:0:0:0:
299,104,81166,6,0,L|291:199,1,82.5000025177003,2|8,3:2|1:2,0:0:0:0:
331,287,81507,1,2,3:2:0:0:
331,287,81592,1,0,3:2:0:0:
331,287,81677,1,10,1:2:0:0:
400,216,81848,2,0,P|454:221|491:253,1,82.5000025177003,2|8,3:2|1:2,0:0:0:0:
503,331,82189,2,0,P|511:320|535:305,2,41.2500012588501,2|0|8,3:2|3:2|1:2,0:0:0:0:
414,371,82530,5,2,3:2:0:0:
414,371,82700,1,10,1:2:0:0:
326,324,82871,2,0,L|238:336,1,82.5000025177003,2|10,3:2|1:2,0:0:0:0:
159,383,83212,1,2,3:2:0:0:
159,383,83382,1,10,1:2:0:0:
63,356,83552,2,0,L|13:365,2,41.2500012588501,2|0|10,3:2|3:2|1:2,0:0:0:0:
101,264,83893,6,0,P|90:207|81:175,1,82.5000025177003,2|8,3:2|1:2,0:0:0:0:
11,131,84234,1,0,3:2:0:0:
11,131,84319,1,0,3:2:0:0:
11,131,84405,1,8,1:2:0:0:
77,57,84575,2,0,L|194:68,1,82.5000025177003,0|8,3:2|1:2,0:0:0:0:
256,46,84916,2,0,L|251:4,2,41.2500012588501,0|0|8,3:2|3:2|1:2,0:0:0:0:
324,118,85257,5,2,3:2:0:0:
324,118,85427,1,8,1:2:0:0:
410,68,85598,2,0,L|437:23,2,41.2500012588501,2|0|10,3:2|3:2|1:2,0:0:0:0:
444,161,85939,2,0,P|425:213|421:256,1,82.5000025177003,2|8,3:2|1:2,0:0:0:0:
478,333,86280,1,2,3:2:0:0:
478,333,86365,1,0,3:2:0:0:
478,333,86450,1,8,1:2:0:0:
387,372,86621,6,0,L|276:359,1,82.5000025177003,2|8,3:2|1:2,0:0:0:0:
206,374,86962,2,0,L|155:383,2,41.2500012588501,2|0|10,3:2|3:2|1:2,0:0:0:0:
243,282,87302,1,2,3:2:0:0:
243,282,87473,1,8,1:2:0:0:
188,199,87643,2,0,L|195:127,2,41.2500012588501,2|0|8,3:2|3:2|1:2,0:0:0:0:
110,260,87984,5,2,3:2:0:0:
93,261,88155,1,10,1:2:0:0:
77,257,88325,1,2,3:2:0:0:
63,246,88496,1,10,1:2:0:0:
57,147,88666,5,0,3:2:0:0:
47,133,88837,1,10,1:2:0:0:
43,117,89007,1,2,3:2:0:0:
45,100,89178,1,10,1:2:0:0:
128,46,89348,6,0,P|161:15|271:52,1,165.000005035401,2|2,3:2|2:2,0:0:0:0:
293,248,90030,5,10,1:2:0:0:
293,248,90115,1,10,1:2:0:0:
293,248,90200,1,8,1:2:0:0:
367,182,90371,1,2,3:2:0:0:
367,182,90541,1,8,1:2:0:0:
460,215,90712,6,0,L|474:123,1,82.5000025177003,0|8,3:2|1:2,0:0:0:0:
434,42,91052,2,0,L|432:-2,2,41.2500012588501,0|0|8,3:2|3:2|1:2,0:0:0:0:
347,90,91393,1,2,3:2:0:0:
261,39,91564,1,8,1:2:0:0:
177,84,91734,1,2,3:2:0:0:
177,84,91819,1,0,3:2:0:0:
177,84,91905,1,8,1:2:0:0:
91,34,92075,6,0,P|71:70|56:129,1,82.5000025177003,2|8,3:2|1:2,0:0:0:0:
15,198,92416,2,0,P|-3:197|-31:186,2,41.2500012588501,2|0|8,3:2|3:2|1:2,0:0:0:0:
88,264,92757,2,0,L|189:244,1,82.5000025177003,2|8,3:2|1:2,0:0:0:0:
257,198,93098,1,2,3:2:0:0:
257,198,93183,1,0,3:2:0:0:
257,198,93268,1,8,1:2:0:0:
356,196,93439,6,0,L|371:278,1,82.5000025177003,2|8,3:2|1:2,0:0:0:0:
337,346,93780,1,0,3:2:0:0:
337,346,93865,1,0,3:2:0:0:
337,346,93950,1,8,1:2:0:0:
463,183,94121,6,0,L|478:265,1,82.5000025177003,2|8,3:2|1:2,0:0:0:0:
449,340,94462,1,2,3:2:0:0:
449,340,94547,1,0,3:2:0:0:
449,340,94632,1,8,1:2:0:0:
370,277,94802,5,2,3:2:0:0:
370,277,94973,1,8,1:2:0:0:
280,318,95143,2,0,L|283:361,2,41.2500012588501,2|0|8,3:2|3:2|1:2,0:0:0:0:
195,266,95484,2,0,P|141:257|108:272,1,82.5000025177003,2|8,3:2|1:2,0:0:0:0:
69,330,95825,1,2,3:2:0:0:
69,330,95910,1,0,3:2:0:0:
69,330,95996,1,8,1:2:0:0:
116,266,96166,5,2,3:2:0:0:
116,266,96507,1,8,1:2:0:0:
9,213,96848,5,0,3:2:0:0:
11,202,97018,1,0,3:2:0:0:
13,191,97189,1,8,1:2:0:0:
15,180,97359,1,0,3:2:0:0:
17,169,97529,6,0,L|37:62,1,82.5000025177003,2|0,3:2|0:0,0:0:0:0:
129,65,97871,2,0,L|231:28,1,82.5000025177003,8|0,1:2|0:0,0:0:0:0:
295,82,98212,2,0,L|361:89,2,41.2500012588501,8|8|0,1:2|1:2|3:2,0:0:0:0:
217,142,98552,1,8,1:2:0:0:
246,246,98723,1,8,3:2:0:0:
246,246,98808,1,8,3:2:0:0:
246,246,98893,1,2,3:2:0:0:
38,341,99234,6,0,L|122:328,1,75,2|2,2:2|2:2,0:0:0:0:
167,262,99575,2,0,L|325:272,1,150,10|2,2:2|2:2,0:0:0:0:
410,276,100087,1,2,2:2:0:0:
410,276,100257,2,0,P|434:230|388:148,2,150,2|2|10,2:2|2:2|2:2,0:0:0:0:
324,301,101280,1,2,2:2:0:0:
315,227,101450,1,2,2:2:0:0:
284,156,101621,2,0,L|190:171,1,75,2|0,2:2|0:0,0:0:0:0:
231,18,101962,6,0,P|261:52|296:57,1,75,2|2,2:2|2:2,0:0:0:0:
458,6,102302,2,0,P|398:35|384:118,1,150,10|2,2:2|2:2,0:0:0:0:
433,176,102814,1,2,2:2:0:0:
433,176,102984,2,0,P|493:205|507:288,1,150,2|2,2:2|2:2,0:0:0:0:
446,342,103496,1,2,2:2:0:0:
446,342,103666,2,0,P|388:328|346:328,1,75,10|2,2:2|2:2,0:0:0:0:
355,246,104007,2,0,P|297:260|255:260,1,75,2|2,2:2|2:2,0:0:0:0:
225,331,104348,5,2,2:2:0:0:
56,101,104689,6,0,P|76:147|76:185,1,75,2|0,2:2|0:0,0:0:0:0:
203,90,105030,2,0,P|166:181|165:244,1,150,10|2,2:2|2:2,0:0:0:0:
216,301,105541,1,2,2:2:0:0:
216,301,105712,2,0,P|252:269|254:229,1,75,2|0,2:2|0:0,0:0:0:0:
259,159,106052,5,2,2:2:0:0:
342,169,106223,1,2,2:2:0:0:
401,109,106393,2,0,L|406:25,1,75,10|0,2:2|0:0,0:0:0:0:
330,4,106734,1,2,2:2:0:0:
330,4,106905,1,2,2:2:0:0:
251,72,107075,6,0,B|180:61|180:61|176:54|176:54|86:45,2,150,2|2|10,2:2|2:2|2:2,0:0:0:0:
332,77,108098,5,2,2:2:0:0:
343,71,108268,1,2,2:2:0:0:
453,32,108439,6,0,P|436:88|456:118,1,75,2|2,2:2|2:2,0:0:0:0:
504,226,108780,2,0,P|468:187|435:185,1,75,2|2,2:2|2:2,0:0:0:0:
222,175,109121,2,0,L|378:155,1,150,2|2,2:2|2:2,0:0:0:0:
437,211,109632,1,2,2:2:0:0:
437,211,109802,6,0,P|433:273|395:291,1,75,2|2,3:2|3:2,0:0:0:0:
346,370,110143,2,0,P|342:308|304:290,1,75,8|2,1:2|3:2,0:0:0:0:
289,225,110484,2,0,L|185:240,1,75,2|0,3:2|0:0,0:0:0:0:
126,242,110825,1,10,1:2:0:0:
156,314,110996,1,2,3:2:0:0:
78,303,111166,6,0,L|69:215,1,75,2|2,2:2|3:2,0:0:0:0:
63,150,111507,2,0,L|54:62,1,75,8|0,1:2|0:0,0:0:0:0:
164,17,111848,2,0,P|144:103|138:169,1,150,2|10,3:2|1:2,0:0:0:0:
202,218,112359,1,2,2:2:0:0:
251,129,112530,6,0,L|338:120,1,75,2|2,3:2|3:2,0:0:0:0:
409,113,112871,1,8,1:2:0:0:
409,113,113041,1,2,3:2:0:0:
303,206,113212,2,0,L|390:197,1,75,2|0,3:2|0:0,0:0:0:0:
458,183,113552,1,10,1:2:0:0:
458,183,113723,1,2,3:2:0:0:
415,279,113893,6,0,P|359:275|302:199,1,150,2|8,2:2|1:2,0:0:0:0:
292,124,114405,1,2,2:2:0:0:
302,205,114575,2,0,L|315:294,1,75,2|2,3:2|2:2,0:0:0:0:
221,184,114916,2,0,L|234:273,1,75,10|2,1:2|2:2,0:0:0:0:
271,336,115257,1,2,3:2:0:0:
119,171,115598,6,0,P|129:116|130:84,1,75,2|0,3:2|0:0,0:0:0:0:
0,57,115939,2,0,P|30:141|32:212,1,150,8|2,1:2|3:2,0:0:0:0:
27,287,116450,1,2,2:2:0:0:
119,171,116621,6,0,B|166:144|195:179|195:179|219:209|265:196,1,150,2|2,3:2|3:2,0:0:0:0:
322,159,117132,1,2,2:2:0:0:
322,159,117302,2,0,B|355:170|368:211|368:211|379:173|420:156,1,150,8|2,1:2|3:2,0:0:0:0:
491,108,117814,1,2,2:2:0:0:
447,34,117984,6,0,L|366:29,1,75,2|2,3:2|2:2,0:0:0:0:
294,22,118325,2,0,L|213:17,1,75,2|2,3:2|2:2,0:0:0:0:
168,76,118666,1,8,1:2:0:0:
168,76,119007,6,0,L|179:153,1,75,2|2,3:2|2:2,0:0:0:0:
242,203,119348,1,2,2:2:0:0:
30,28,120712,6,0,L|121:35,1,75,2|0,3:2|0:0,0:0:0:0:
168,93,121052,1,2,1:2:0:0:
168,93,121223,1,2,2:2:0:0:
90,112,121393,2,0,L|97:203,1,75,2|0,3:2|0:0,0:0:0:0:
150,245,121734,2,0,L|157:336,1,75,2|0,1:2|0:0,0:0:0:0:
257,231,122075,6,0,P|289:192|278:138,1,75,2|0,3:2|0:0,0:0:0:0:
283,89,122416,1,2,1:2:0:0:
283,89,122587,1,2,2:2:0:0:
361,93,122757,2,0,P|368:129|394:154,1,75,2|0,3:2|0:0,0:0:0:0:
472,176,123098,2,0,P|464:212|438:237,1,75,2|0,1:2|0:0,0:0:0:0:
375,304,123439,5,2,3:2:0:0:
375,304,123609,1,2,2:2:0:0:
431,352,123780,2,0,L|522:334,1,75,2|2,1:2|2:2,0:0:0:0:
238,334,124121,5,2,3:2:0:0:
238,334,124291,1,2,2:2:0:0:
301,289,124462,2,0,L|392:307,1,75,2|2,1:2|2:2,0:0:0:0:
224,237,124802,6,0,L|136:243,1,75,2|0,3:2|0:0,0:0:0:0:
76,236,125143,1,2,1:2:0:0:
76,236,125314,1,2,2:2:0:0:
104,162,125484,2,0,P|125:117|99:81,1,75,2|0,3:2|0:0,0:0:0:0:
55,0,125825,2,0,P|34:45|60:81,1,75,2|0,1:2|0:0,0:0:0:0:
201,78,126166,6,0,L|298:70,1,75,2|0,3:2|0:0,0:0:0:0:
354,65,126507,1,2,1:2:0:0:
354,65,126677,1,2,2:2:0:0:
205,156,126848,2,0,L|302:148,1,75,2|0,3:2|0:0,0:0:0:0:
357,145,127189,2,0,L|454:137,1,75,2|0,1:2|0:0,0:0:0:0:
453,256,127530,6,0,L|356:248,1,75,2|0,3:2|0:0,0:0:0:0:
300,243,127871,1,2,1:2:0:0:
300,243,128041,1,2,2:2:0:0:
449,334,128212,2,0,L|352:326,1,75,2|0,3:2|0:0,0:0:0:0:
297,323,128553,2,0,L|200:315,1,75,2|0,1:2|0:0,0:0:0:0:
24,254,128893,5,2,3:2:0:0:
109,243,129064,1,2,1:2:0:0:
153,163,129234,2,0,P|137:102|119:92,1,75,2|2,3:2|1:2,0:0:0:0:
162,16,129575,5,2,3:2:0:0:
247,27,129746,1,2,1:2:0:0:
291,107,129916,2,0,P|275:168|257:178,1,75,2|2,3:2|1:2,0:0:0:0:
153,163,130257,5,2,3:2:0:0:
