osu file format v14

[General]
AudioFilename: audio.mp3
AudioLeadIn: 0
PreviewTime: 46990
Countdown: 0
SampleSet: Soft
StackLeniency: 0.5
Mode: 0
LetterboxInBreaks: 0
WidescreenStoryboard: 1

[Editor]
DistanceSpacing: 1
BeatDivisor: 4
GridSize: 16
TimelineZoom: 1.8

[Metadata]
Title:sympathy 4 the grinch
TitleUnicode:sympathy 4 the grinch
Artist:100 gecs
ArtistUnicode:100 gecs
Creator:aeniko
Version:mynt's normal
Source:
Tags:electronic english experimental christmas xmas hiphop hip hop hyperpop hyper pop dylan brady laura les for 1000 atlas enri kieg lugu nytro nytrocide_ mynt ancel ancelysia mattay
BeatmapID:3327013
BeatmapSetID:1606138

[Difficulty]
HPDrainRate:4
CircleSize:3.2
OverallDifficulty:4
ApproachRate:5.5
SliderMultiplier:1.1
SliderTickRate:1

[Events]
//Background and Video events
0,0,"EJWh8qBXYAAc4F9.jpg",0,0
Video,0,"amongus hentai free ft. Shrek.avi"
//Break Periods
//Storyboard Layer 0 (Background)
//Storyboard Layer 1 (Fail)
//Storyboard Layer 2 (Pass)
//Storyboard Layer 3 (Foreground)
//Storyboard Layer 4 (Overlay)
//Storyboard Sound Samples

[TimingPoints]
371,340.909090909091,4,2,1,40,1,0
371,-100,4,2,1,40,0,0
712,340.909090909091,4,2,1,40,1,0
712,-100,4,2,1,40,0,0
5825,-100,4,2,1,60,0,0
6166,-100,4,2,1,60,0,0
36166,-111.111111111111,4,2,2,60,0,0
36848,-111.111111111111,4,2,2,60,0,0
47075,-100,4,2,1,90,0,1
52530,-100,4,2,1,90,0,1
56621,-100,4,2,1,90,0,0
57984,-100,4,2,1,90,0,0
67530,-100,4,2,1,90,0,0
68893,-100,4,2,1,60,0,0
74348,-100,4,2,1,60,0,0
78439,-100,4,2,1,60,0,0
79802,-100,4,2,1,60,0,0
98893,-111.111111111111,4,2,1,60,0,0
99234,-111.111111111111,4,2,2,60,0,0
104348,-111.111111111111,4,2,1,60,0,0
104689,-100,4,2,2,60,0,0
106052,-100,4,2,1,60,0,0
106223,-100,4,2,2,60,0,0
107075,-111.111111111111,4,2,1,60,0,0
107416,-100,4,2,2,60,0,0
108098,-100,4,2,1,60,0,0
109802,-100,4,2,1,90,0,1
115598,-100,4,2,1,90,0,1
119348,-100,4,2,1,90,0,0
120712,-100,4,2,1,90,0,0

[Colours]
Combo1 : 255,128,64
Combo2 : 0,64,128
Combo3 : 255,128,128
SliderBorder : 255,255,255

[HitObjects]
114,82,371,5,8,0:0:0:0:
203,18,711,2,0,B|256:35|256:35|287:80|287:80|341:97,1,165,2|2,0:0|0:0,0:0:0:0:
391,114,1393,1,2,0:0:0:0:
500,100,1734,1,2,0:0:0:0:
494,209,2075,6,0,B|473:250|473:250|406:271|406:271|362:249,1,165,2|2,0:0|0:0,0:0:0:0:
317,218,2757,1,2,0:0:0:0:
266,315,3098,1,2,0:0:0:0:
173,374,3439,1,2,0:0:0:0:
109,284,3780,6,0,L|37:320,1,55,2|2,0:0|0:0,0:0:0:0:
6,294,4121,1,2,0:0:0:0:
46,191,4462,2,0,L|118:155,1,55,2|2,0:0|0:0,0:0:0:0:
114,115,4802,6,0,B|167:88|167:88|189:94|189:94|198:73|198:73|252:47,1,165,2|2,0:0|0:0,0:0:0:0:
301,21,5484,1,2,0:0:0:0:
411,21,5825,1,10,0:0:0:0:
450,123,6166,6,0,P|433:184|452:233,1,110,2|2,3:2|3:2,0:0:0:0:
440,284,6677,1,10,1:2:0:0:
440,284,6848,2,0,B|402:256|402:256|337:269,1,110,2|2,3:2|3:2,0:0:0:0:
231,288,7530,6,0,P|248:240|229:178,1,110,2|2,3:2|3:2,0:0:0:0:
187,164,8041,1,10,1:2:0:0:
187,164,8212,2,0,B|221:43,1,110,2|2,3:2|3:2,0:0:0:0:
119,6,8893,6,0,L|82:124,1,110,2|2,3:2|3:2,0:0:0:0:
46,149,9405,1,10,1:2:0:0:
46,149,9575,2,0,L|61:229,1,55,2|10,3:2|1:2,0:0:0:0:
106,225,9916,2,0,L|83:280,1,55,2|10,3:2|1:2,0:0:0:0:
102,328,10257,6,0,P|152:312|212:337,2,110,2|0|0,3:2|3:2|3:2,0:0:0:0:
3,378,11280,1,0,3:2:0:0:
1,267,11621,6,0,L|28:148,1,110,2|2,3:2|3:2,0:0:0:0:
9,112,12132,1,10,1:2:0:0:
9,112,12302,2,0,P|61:122|104:90,1,110,2|2,3:2|3:2,0:0:0:0:
198,32,12984,6,0,P|212:84|195:135,1,110,2|2,3:2|3:2,0:0:0:0:
232,183,13496,1,10,1:2:0:0:
232,183,13666,2,0,L|351:156,1,110,2|2,3:2|3:2,0:0:0:0:
448,139,14348,6,0,P|428:189|429:244,1,110,2|2,3:2|3:2,0:0:0:0:
388,280,14859,1,10,1:2:0:0:
388,280,15030,2,0,P|395:306|388:332,1,55,0|10,3:2|1:2,0:0:0:0:
346,367,15371,2,0,P|319:359|293:366,1,55,2|10,3:2|1:2,0:0:0:0:
239,379,15712,6,0,B|197:277|197:277|248:168,1,220,2|2,3:2|2:2,0:0:0:0:
294,79,16734,1,0,1:2:0:0:
186,54,17075,6,0,L|68:31,1,110,2|2,3:2|3:2,0:0:0:0:
33,63,17587,1,10,1:2:0:0:
33,63,17757,2,0,P|3:112|18:166,1,110,2|2,3:2|3:2,0:0:0:0:
111,213,18439,6,0,L|229:190,1,110,2|2,3:2|3:2,0:0:0:0:
251,242,18950,1,10,1:2:0:0:
251,242,19121,2,0,P|300:212|354:227,1,110,2|2,3:2|3:2,0:0:0:0:
433,152,19802,6,0,L|368:128,1,55,2|10,3:2|1:2,0:0:0:0:
363,86,20143,2,0,L|308:80,1,55,2|10,3:2|1:2,0:0:0:0:
267,53,20484,1,2,3:2:0:0:
267,53,20655,2,0,L|212:61,1,55,10|2,1:2|3:2,0:0:0:0:
177,103,20996,1,10,1:2:0:0:
177,103,21166,6,0,L|199:228,2,110,2|0|0,3:2|3:2|3:2,0:0:0:0:
100,24,22189,1,0,3:2:0:0:
39,116,22530,6,0,P|66:164|62:218,1,110,2|2,3:2|3:2,0:0:0:0:
38,268,23041,1,10,1:2:0:0:
38,268,23212,2,0,P|90:258|133:290,1,110,2|2,3:2|3:2,0:0:0:0:
189,384,23893,6,0,P|236:357|290:361,1,110,2|2,3:2|3:2,0:0:0:0:
338,331,24405,1,10,1:2:0:0:
338,331,24575,2,0,P|390:341|433:309,1,110,2|2,3:2|3:2,0:0:0:0:
373,215,25257,6,0,P|348:213|323:195,1,55,2|10,3:2|1:2,0:0:0:0:
270,209,25598,2,0,P|246:200|226:176,1,55,2|10,3:2|1:2,0:0:0:0:
175,182,25939,1,0,3:2:0:0:
175,182,26109,2,0,P|154:167|141:139,1,55,10|2,1:2|3:2,0:0:0:0:
146,90,26450,1,10,1:2:0:0:
146,90,26621,6,0,B|175:67|175:67|210:77|210:77|239:55|239:55|274:65|274:65|303:42|303:42|338:52,1,220,2|10,3:2|1:2,0:0:0:0:
414,131,27643,1,2,3:2:0:0:
512,81,27984,5,0,3:2:0:0:
421,281,28666,2,0,B|402:333|454:329|438:384,2,110,2|2|2,3:2|3:2|3:2,0:0:0:0:
444,173,29689,1,2,3:2:0:0:
336,196,30030,2,0,B|295:217|295:217|215:188,2,110,2|2|2,3:2|3:2|3:2,0:0:0:0:
379,94,31052,1,0,3:2:0:0:
280,44,31393,6,0,P|230:19|176:17,2,110,2|2|2,3:2|3:2|3:2,0:0:0:0:
297,152,32416,1,2,3:2:0:0:
403,122,32757,2,0,B|424:163|424:163|395:243,1,110,2|2,3:2|3:2,0:0:0:0:
442,325,33439,6,0,P|279:278|285:383,1,330,2|8,3:2|1:2,0:0:0:0:
170,362,34802,6,0,B|119:286|180:174|238:251|321:167|271:78,1,330,2|8,3:2|1:2,0:0:0:0:
203,25,36166,6,0,P|293:-3|365:58,2,197.99999395752,2|10|2,3:2|2:2|2:2,0:0:0:0:
127,208,38212,1,10,2:2:0:0:
277,79,38893,6,0,P|354:24|441:61,2,197.99999395752,2|10|2,2:2|2:2|2:2,0:0:0:0:
230,271,40939,1,10,2:2:0:0:
144,92,41621,6,0,P|51:77|0:155,2,197.99999395752,2|10|2,2:2|2:2|2:2,0:0:0:0:
185,285,43666,1,10,2:2:0:0:
297,122,44348,6,0,P|371:179|348:270,2,197.99999395752,2|10|2,2:2|2:2|2:2,0:0:0:0:
297,122,47075,6,0,L|285:200,1,55,2|2,3:2|3:2,0:0:0:0:
249,215,47416,2,0,B|197:193|197:193|145:209,1,110,8|2,1:2|3:2,0:0:0:0:
55,267,48098,1,10,1:2:0:0:
55,267,48268,1,2,3:2:0:0:
55,267,48439,6,0,L|38:376,2,110,2|8|2,2:2|1:2|3:2,0:0:0:0:
16,163,49462,1,10,1:2:0:0:
106,100,49802,6,0,P|132:90|160:90,1,55,2|2,3:2|3:2,0:0:0:0:
187,137,50143,2,0,P|231:106|285:109,1,110,8|2,1:2|3:2,0:0:0:0:
338,218,50825,1,10,1:2:0:0:
338,218,50996,1,2,3:2:0:0:
338,218,51166,6,0,P|312:269|339:319,1,110,2|8,2:2|1:2,0:0:0:0:
427,371,51848,1,2,3:2:0:0:
511,300,52189,1,10,1:2:0:0:
454,205,52530,6,0,L|433:135,1,55,2|0,3:2|0:0,0:0:0:0:
404,108,52871,2,0,L|436:-1,2,110,2|8|2,3:2|1:2|3:2,0:0:0:0:
356,132,53723,1,2,2:2:0:0:
356,132,53893,6,0,L|250:100,1,110,2|2,3:2|3:2,0:0:0:0:
169,174,54575,2,0,L|137:279,1,110,8|2,1:2|3:2,0:0:0:0:
63,362,55257,5,2,3:2:0:0:
63,362,55427,1,2,2:2:0:0:
10,271,55768,1,2,2:2:0:0:
10,271,55939,1,8,1:2:0:0:
98,205,56280,2,0,L|129:99,1,110,2|2,3:2|2:2,0:0:0:0:
128,99,57984,5,2,3:2:0:0:
192,188,58325,2,0,P|232:180|269:180,1,55,2|2,1:2|2:2,0:0:0:0:
272,131,58666,2,0,P|322:122|419:128,1,110,2|2,3:2|1:2,0:0:0:0:
472,185,59348,5,2,3:2:0:0:
500,78,59689,2,0,P|467:53|434:41,1,55,2|2,1:2|2:2,0:0:0:0:
428,0,60030,2,0,P|363:1|287:42,1,110,2|2,3:2|1:2,0:0:0:0:
276,117,60712,6,0,L|219:127,1,55,2|2,3:2|2:2,0:0:0:0:
168,140,61052,1,2,1:2:0:0:
117,237,61393,2,0,L|174:247,1,55,2|2,3:2|2:2,0:0:0:0:
225,260,61734,1,2,1:2:0:0:
318,201,62075,5,2,3:2:0:0:
385,289,62416,2,0,P|351:331|352:385,2,110,2|2|2,1:2|3:2|1:2,0:0:0:0:
493,266,63439,5,2,3:2:0:0:
433,173,63780,2,0,P|425:132|425:96,1,55,2|2,1:2|2:2,0:0:0:0:
397,70,64121,2,0,P|346:91|292:89,1,110,2|2,3:2|1:2,0:0:0:0:
214,11,64802,5,2,3:2:0:0:
115,60,65143,2,0,P|107:100|107:137,1,55,2|2,1:2|2:2,0:0:0:0:
64,149,65484,2,0,P|73:199|67:296,1,110,2|2,3:2|1:2,0:0:0:0:
179,287,66166,6,0,L|236:277,1,55,2|2,3:2|1:2,0:0:0:0:
287,264,66507,1,2,3:2:0:0:
334,164,66848,2,0,L|277:154,1,55,2|2,3:2|1:2,0:0:0:0:
226,141,67189,1,2,3:2:0:0:
146,66,67530,1,2,3:2:0:0:
146,66,68893,6,0,P|51:199|160:285,1,330,2|2,3:2|3:2,0:0:0:0:
205,186,70257,6,0,B|287:128|368:197|321:213|421:287|514:226,1,330,2|2,3:2|3:2,0:0:0:0:
441,142,71621,6,0,P|421:71|438:27,1,110,2|2,3:2|3:2,0:0:0:0:
324,67,72302,2,0,P|253:87|209:70,1,110,2|2,3:2|3:2,0:0:0:0:
156,166,72984,2,0,P|176:237|159:281,2,110,2|0|0,3:2|3:2|3:2,0:0:0:0:
64,103,74007,1,4,1:2:0:0:
148,32,74348,6,0,P|197:22|279:38,1,110,2|2,3:2|3:2,0:0:0:0:
340,99,75030,1,2,3:2:0:0:
425,29,75371,1,2,3:2:0:0:
474,127,75712,6,0,P|464:176|480:258,1,110,2|2,3:2|3:2,0:0:0:0:
507,339,76393,1,2,3:2:0:0:
408,384,76734,1,2,3:2:0:0:
333,303,77075,6,0,L|219:334,1,110,2|2,3:2|3:2,0:0:0:0:
195,293,77587,1,2,2:2:0:0:
195,293,77757,2,0,L|81:262,1,110,2|2,3:2|3:2,0:0:0:0:
72,216,78268,1,2,2:2:0:0:
72,216,78439,2,0,B|37:108|37:108|113:42|162:149|247:104,1,330,2|0,3:2|1:2,0:0:0:0:
342,62,79802,6,0,L|380:176,1,110,2|2,3:2|3:2,0:0:0:0:
351,217,80314,1,10,1:2:0:0:
351,217,80484,2,0,P|389:259|385:315,1,110,2|2,3:2|3:2,0:0:0:0:
278,321,81166,6,0,P|231:292|177:293,1,110,2|2,3:2|3:2,0:0:0:0:
126,297,81677,1,10,1:2:0:0:
126,297,81848,2,0,L|160:192,1,110,2|2,3:2|3:2,0:0:0:0:
171,82,82530,6,0,L|236:106,1,55,2|10,3:2|1:2,0:0:0:0:
271,75,82871,2,0,L|336:51,1,55,2|10,3:2|1:2,0:0:0:0:
366,98,83212,1,2,3:2:0:0:
366,98,83382,2,0,L|431:122,1,55,10|2,1:2|3:2,0:0:0:0:
475,110,83723,1,10,1:2:0:0:
475,110,83893,6,0,L|511:-11,2,110,2|0|0,3:2|3:2|3:2,0:0:0:0:
500,217,84916,1,0,3:2:0:0:
427,299,85257,6,0,P|379:272|325:276,1,110,2|2,3:2|3:2,0:0:0:0:
294,237,85768,1,10,1:2:0:0:
294,237,85939,2,0,P|304:185|272:142,1,110,2|2,3:2|3:2,0:0:0:0:
192,65,86621,6,0,P|239:38|293:42,1,110,2|2,3:2|3:2,0:0:0:0:
332,2,87132,1,10,1:2:0:0:
332,2,87302,2,0,P|384:-8|427:24,1,110,2|2,3:2|3:2,0:0:0:0:
477,122,87984,6,0,P|475:147|457:172,1,55,2|10,3:2|1:2,0:0:0:0:
490,215,88325,2,0,P|492:240|510:265,1,55,2|10,3:2|1:2,0:0:0:0:
478,310,88666,1,0,3:2:0:0:
478,310,88837,2,0,P|476:335|458:360,1,55,10|2,1:2|3:2,0:0:0:0:
409,364,89177,1,10,1:2:0:0:
409,364,89348,6,0,B|354:367|316:329|316:329|281:339|281:339|252:316|252:316|190:336,1,220,2|10,3:2|1:2,0:0:0:0:
105,364,90371,1,2,3:2:0:0:
62,262,90712,5,0,3:2:0:0:
147,193,91052,1,0,3:2:0:0:
96,95,91393,6,0,B|43:105|43:105|-10:60,2,110,2|2|2,3:2|3:2|3:2,0:0:0:0:
195,47,92416,1,2,3:2:0:0:
260,135,92757,2,0,P|302:179|286:241,2,110,2|2|2,3:2|3:2|3:2,0:0:0:0:
162,184,93780,1,0,3:2:0:0:
105,278,94121,6,0,P|52:262|-1:268,2,110,2|2|2,3:2|3:2|3:2,0:0:0:0:
180,358,95143,1,2,3:2:0:0:
268,292,95484,2,0,B|390:271,1,110,2|2,3:2|3:2,0:0:0:0:
450,355,96166,6,0,B|424:246|424:246|504:172|504:172|473:51,1,330,2|8,3:2|1:2,0:0:0:0:
377,19,97530,6,0,B|450:34|462:93|449:157|380:177|310:163|345:95|248:112,1,330,2|8,3:2|1:2,0:0:0:0:
174,175,98893,6,0,P|156:310|73:311,2,197.99999395752,2|10|2,3:2|2:2|2:2,0:0:0:0:
22,48,100939,1,10,2:2:0:0:
84,236,101621,6,0,P|217:260|244:181,2,197.99999395752,2|10|2,2:2|2:2|2:2,0:0:0:0:
182,64,103666,1,10,2:2:0:0:
186,262,104348,6,0,P|276:363|345:318,2,197.99999395752,2|10|2,2:2|2:2|2:2,0:0:0:0:
293,69,106393,1,10,2:2:0:0:
393,239,107075,6,0,P|383:342|279:363,2,197.99999395752,2|10|2,2:2|2:2|2:2,0:0:0:0:
393,239,109802,6,0,L|405:161,1,55,2|2,3:2|3:2,0:0:0:0:
379,134,110143,2,0,P|332:162|278:163,1,110,8|2,1:2|3:2,0:0:0:0:
184,213,110825,1,10,1:2:0:0:
184,213,110996,1,2,3:2:0:0:
184,213,111166,6,0,P|191:273|167:322,2,110,2|8|2,2:2|1:2|3:2,0:0:0:0:
93,150,112189,1,10,1:2:0:0:
155,59,112530,6,0,L|210:46,1,55,2|2,3:2|3:2,0:0:0:0:
237,2,112871,2,0,L|355:30,1,110,8|2,1:2|3:2,0:0:0:0:
393,137,113552,1,10,1:2:0:0:
393,137,113723,1,2,3:2:0:0:
393,137,113893,6,0,B|446:126|446:126|489:165,1,110,2|8,2:2|1:2,0:0:0:0:
510,271,114575,1,2,3:2:0:0:
420,335,114916,1,10,1:2:0:0:
349,251,115257,6,0,L|279:272,1,55,2|0,3:2|0:0,0:0:0:0:
254,230,115598,2,0,B|265:165|265:165|247:122,2,110,2|8|2,3:2|1:2|3:2,0:0:0:0:
217,271,116450,1,2,2:2:0:0:
217,271,116621,6,0,L|108:233,1,110,2|2,3:2|3:2,0:0:0:0:
24,299,117302,2,0,L|127:335,1,110,8|2,1:2|3:2,0:0:0:0:
238,366,117984,5,2,3:2:0:0:
238,366,118155,1,2,2:2:0:0:
343,327,118496,1,2,2:2:0:0:
343,327,118666,1,8,1:2:0:0:
339,219,119007,6,0,B|322:164|322:164|359:104,1,110,2|2,3:2|2:2,0:0:0:0:
349,119,120712,5,2,3:2:0:0:
253,172,121052,2,0,P|219:156|174:152,1,55,2|2,1:2|2:2,0:0:0:0:
181,101,121393,2,0,P|124:105|59:78,1,110,2|2,3:2|1:2,0:0:0:0:
1,164,122075,5,2,3:2:0:0:
68,250,122416,2,0,P|101:234|147:230,1,55,2|2,1:2|2:2,0:0:0:0:
161,266,122757,2,0,P|213:244|284:250,1,110,2|2,3:2|1:2,0:0:0:0:
371,276,123439,6,0,L|380:330,1,55,2|2,3:2|2:2,0:0:0:0:
389,384,123780,1,2,1:2:0:0:
492,346,124121,2,0,L|501:291,1,55,2|2,3:2|2:2,0:0:0:0:
511,239,124462,1,2,1:2:0:0:
449,148,124802,5,2,3:2:0:0:
341,122,125143,2,0,L|235:153,2,110,2|2|2,1:2|3:2|1:2,0:0:0:0:
429,56,126166,5,2,3:2:0:0:
325,18,126507,2,0,P|291:2|246:-2,1,55,2|2,1:2|2:2,0:0:0:0:
229,32,126848,2,0,P|177:14|122:10,1,110,2|2,3:2|1:2,0:0:0:0:
16,40,127530,5,2,3:2:0:0:
63,139,127871,2,0,P|67:184|59:222,1,55,2|2,1:2|2:2,0:0:0:0:
115,219,128212,2,0,P|104:278|124:341,1,110,2|2,3:2|1:2,0:0:0:0:
222,350,128893,6,0,L|279:340,1,55,2|2,3:2|1:2,0:0:0:0:
330,327,129234,1,2,3:2:0:0:
373,226,129575,2,0,L|316:216,1,55,2|2,3:2|1:2,0:0:0:0:
264,206,129916,1,2,3:2:0:0:
226,102,130257,5,2,3:2:0:0:
