osu file format v14

[General]
AudioFilename: audio.mp3
AudioLeadIn: 0
PreviewTime: 46990
Countdown: 0
SampleSet: Soft
StackLeniency: 0.2
Mode: 0
LetterboxInBreaks: 0
WidescreenStoryboard: 0

[Editor]
DistanceSpacing: 0.2
BeatDivisor: 8
GridSize: 32
TimelineZoom: 1.8

[Metadata]
Title:sympathy 4 the grinch
TitleUnicode:sympathy 4 the grinch
Artist:100 gecs
ArtistUnicode:100 gecs
Creator:aeniko
Version:lugu & atlas' extra
Source:
Tags:electronic english experimental christmas xmas hiphop hip hop hyperpop hyper pop dylan brady laura les for 1000 atlas enri kieg lugu nytro nytrocide_ mynt ancel ancelysia mattay
BeatmapID:3279667
BeatmapSetID:1606138

[Difficulty]
HPDrainRate:6
CircleSize:4.2
OverallDifficulty:8
ApproachRate:9.2
SliderMultiplier:1.82
SliderTickRate:1

[Events]
//Background and Video events
0,0,"EJWh8qBXYAAc4F9.jpg",0,0
Video,0,"amongus hentai free ft. Shrek.avi"
//Break Periods
//Storyboard Layer 0 (Background)
//Storyboard Layer 1 (Fail)
//Storyboard Layer 2 (Pass)
//Storyboard Layer 3 (Foreground)
//Storyboard Layer 4 (Overlay)
//Storyboard Sound Samples

[TimingPoints]
371,340.909090909091,4,2,1,40,1,0
712,340.909090909091,4,2,1,40,1,0
712,-166.666666666667,4,2,1,40,0,0
1734,-500,4,2,1,40,0,0
2075,-166.666666666667,4,2,1,40,0,0
3098,-500,4,2,1,40,0,0
3439,-166.666666666667,4,2,1,40,0,0
3524,-166.666666666667,4,2,1,5,0,0
3609,-166.666666666667,4,2,1,40,0,0
3694,-166.666666666667,4,2,1,5,0,0
3779,-166.666666666667,4,2,1,40,0,0
3865,-166.666666666667,4,2,1,5,0,0
3950,-166.666666666667,4,2,1,40,0,0
4035,-166.666666666667,4,2,1,5,0,0
4120,-166.666666666667,4,2,1,40,0,0
4206,-166.666666666667,4,2,1,5,0,0
4291,-166.666666666667,4,2,1,40,0,0
4376,-166.666666666667,4,2,1,5,0,0
4461,-166.666666666667,4,2,1,40,0,0
4547,-166.666666666667,4,2,1,5,0,0
4632,-166.666666666667,4,2,1,40,0,0
4717,-166.666666666667,4,2,1,5,0,0
4802,-166.666666666667,4,2,1,40,0,0
5739,-166.666666666667,4,2,1,40,0,0
5825,-166.666666666667,4,2,1,60,0,0
6081,-166.666666666667,4,2,1,40,0,0
6166,-90.9090909090909,4,2,1,60,0,0
16393,-277.777777777778,4,2,1,60,0,0
16734,-90.9090909090909,4,2,1,60,0,0
22075,-90.9090909090909,4,1,1,60,0,0
22189,-90.9090909090909,4,2,1,60,0,0
27302,-277.777777777778,4,2,1,60,0,0
27558,-90.9090909090909,4,2,1,60,0,0
36166,-90.9090909090909,4,2,2,60,0,0
36507,-250,4,2,2,60,0,0
45712,-125,4,2,2,60,0,0
47075,-38.4615384615385,4,2,1,90,0,1
52530,-76.9230769230769,4,2,1,90,0,1
55597,-76.9230769230769,4,2,1,90,0,1
56280,-153.846153846154,4,2,1,90,0,1
56621,-153.846153846154,4,2,1,90,0,0
57984,-108.695652173913,4,2,1,90,0,0
60712,-90.9999999999993,4,2,1,90,0,0
60797,-90.9999999999993,4,2,1,5,0,0
60882,-90.9999999999993,4,2,1,90,0,0
60967,-90.9999999999993,4,2,1,5,0,0
61052,-90.9999999999993,4,2,1,90,0,0
61138,-90.9999999999993,4,2,1,5,0,0
61223,-90.9999999999993,4,2,1,90,0,0
61308,-90.9999999999993,4,2,1,5,0,0
61393,-90.9999999999993,4,2,1,90,0,0
61479,-90.9999999999993,4,2,1,5,0,0
61564,-90.9999999999993,4,2,1,90,0,0
61649,-90.9999999999993,4,2,1,5,0,0
61734,-90.9999999999993,4,2,1,90,0,0
61819,-90.9999999999993,4,2,1,5,0,0
61905,-90.9999999999993,4,2,1,90,0,0
61990,-90.9999999999993,4,2,1,5,0,0
62075,-108.695652173913,4,2,1,90,0,0
66166,-90.9999999999993,4,2,1,90,0,0
66251,-90.9999999999993,4,2,1,5,0,0
66336,-90.9999999999993,4,2,1,90,0,0
66421,-90.9999999999993,4,2,1,5,0,0
66506,-90.9999999999993,4,2,1,90,0,0
66592,-90.9999999999993,4,2,1,5,0,0
66677,-90.9999999999993,4,2,1,90,0,0
66762,-90.9999999999993,4,2,1,5,0,0
66847,-90.9999999999993,4,2,1,90,0,0
66933,-90.9999999999993,4,2,1,5,0,0
67018,-90.9999999999993,4,2,1,90,0,0
67103,-90.9999999999993,4,2,1,5,0,0
67188,-90.9999999999993,4,2,1,90,0,0
67273,-90.9999999999993,4,2,1,5,0,0
67359,-90.9999999999993,4,2,1,90,0,0
67444,-90.9999999999993,4,2,1,5,0,0
67530,-357.142857142857,4,2,1,90,0,0
67870,-357.142857142857,4,2,1,60,0,0
68552,-357.142857142857,4,2,1,90,0,0
68893,-111.111111111111,4,2,1,60,0,0
71621,-111.111111111111,4,2,1,60,0,0
71706,-111.111111111111,4,2,1,5,0,0
71791,-111.111111111111,4,2,1,60,0,0
71876,-111.111111111111,4,2,1,5,0,0
71961,-111.111111111111,4,2,1,60,0,0
72047,-111.111111111111,4,2,1,5,0,0
72132,-111.111111111111,4,2,1,60,0,0
72217,-111.111111111111,4,2,1,5,0,0
72302,-111.111111111111,4,2,1,60,0,0
72388,-111.111111111111,4,2,1,5,0,0
72473,-111.111111111111,4,2,1,60,0,0
72558,-111.111111111111,4,2,1,5,0,0
72643,-111.111111111111,4,2,1,60,0,0
72728,-111.111111111111,4,2,1,5,0,0
72814,-111.111111111111,4,2,1,60,0,0
72899,-111.111111111111,4,2,1,5,0,0
72984,-111.111111111111,4,2,1,60,0,0
74348,-111.111111111111,4,2,1,60,0,0
77075,-90.9090909090909,4,2,1,60,0,0
77161,-90.9090909090909,4,2,1,5,0,0
77246,-90.9090909090909,4,2,1,60,0,0
77331,-90.9090909090909,4,2,1,5,0,0
77416,-90.9090909090909,4,2,1,60,0,0
77502,-90.9090909090909,4,2,1,5,0,0
77587,-90.9090909090909,4,2,1,60,0,0
77672,-90.9090909090909,4,2,1,5,0,0
77757,-90.9090909090909,4,2,1,60,0,0
77843,-90.9090909090909,4,2,1,5,0,0
77928,-90.9090909090909,4,2,1,60,0,0
78013,-90.9090909090909,4,2,1,5,0,0
78098,-90.9090909090909,4,2,1,60,0,0
78183,-90.9090909090909,4,2,1,5,0,0
78269,-90.9090909090909,4,2,1,60,0,0
78354,-90.9090909090909,4,2,1,5,0,0
78439,-90.9090909090909,4,2,1,60,0,0
78780,-71.4285714285714,4,2,1,60,0,0
79802,-89.2857142857143,4,2,1,60,0,0
82530,-90.9090909090909,4,2,1,60,0,0
82616,-90.9090909090909,4,2,1,5,0,0
82701,-90.9090909090909,4,2,1,60,0,0
82786,-90.9090909090909,4,2,1,5,0,0
82871,-90.9090909090909,4,2,1,60,0,0
82957,-90.9090909090909,4,2,1,60,0,0
83042,-90.9090909090909,4,2,1,60,0,0
83127,-90.9090909090909,4,2,1,5,0,0
83212,-90.9090909090909,4,2,1,60,0,0
83298,-90.9090909090909,4,2,1,5,0,0
83383,-90.9090909090909,4,2,1,60,0,0
83468,-90.9090909090909,4,2,1,5,0,0
83553,-90.9090909090909,4,2,1,60,0,0
83638,-90.9090909090909,4,2,1,60,0,0
83724,-90.9090909090909,4,2,1,60,0,0
83809,-90.9090909090909,4,2,1,5,0,0
83893,-89.2857142857143,4,2,1,60,0,0
87984,-90.9090909090909,4,2,1,60,0,0
88070,-90.9090909090909,4,2,1,5,0,0
88155,-90.9090909090909,4,2,1,60,0,0
88240,-90.9090909090909,4,2,1,5,0,0
88325,-90.9090909090909,4,2,1,60,0,0
88411,-90.9090909090909,4,2,1,60,0,0
88496,-90.9090909090909,4,2,1,60,0,0
88581,-90.9090909090909,4,2,1,5,0,0
88666,-90.9090909090909,4,2,1,60,0,0
88752,-90.9090909090909,4,2,1,5,0,0
88837,-90.9090909090909,4,2,1,60,0,0
88922,-90.9090909090909,4,2,1,5,0,0
89007,-90.9090909090909,4,2,1,60,0,0
89092,-90.9090909090909,4,2,1,60,0,0
89178,-90.9090909090909,4,2,1,60,0,0
89263,-90.9090909090909,4,2,1,5,0,0
89348,-89.2857142857143,4,2,1,60,0,0
89694,-89.2857142857143,4,2,1,60,0,0
90030,-89.2857142857143,4,2,1,60,0,0
99234,-200,4,2,2,60,0,0
104348,-80,4,2,1,60,0,0
105029,-80,4,2,2,60,0,0
105712,-200,4,2,2,60,0,0
106052,-76.9230769230769,4,2,1,60,0,0
106392,-76.9230769230769,4,2,2,60,0,0
106734,-76.9230769230769,4,2,2,60,0,0
107075,-76.9230769230769,4,2,1,60,0,0
107415,-76.9230769230769,4,2,2,60,0,0
108098,-76.9230769230769,4,2,1,60,0,0
109802,-57.1428571428571,4,2,1,90,0,1
110484,-33.3333333333333,4,2,1,90,0,1
111848,-44.4444444444445,4,2,1,90,0,1
112530,-37.037037037037,4,2,1,90,0,1
112871,-37.037037037037,4,2,1,90,0,1
114234,-37.037037037037,4,2,1,90,0,1
115257,-30.3030303030303,4,2,1,90,0,1
115598,-66.6666666666667,4,2,1,90,0,1
118496,-66.6666666666667,4,2,1,90,0,1
119348,-66.6666666666667,4,2,1,90,0,0
120030,-1000,4,2,1,90,0,0
120376,-1000,4,2,1,90,0,0
120712,-90.9090909090909,4,2,1,90,0,0

[Colours]
Combo1 : 255,128,64
Combo2 : 0,64,128
Combo3 : 255,128,128
SliderBorder : 255,255,255

[HitObjects]
291,132,712,6,0,P|247:130|183:96,1,109.199996667481,2|2,0:0|0:0,0:0:0:0:
308,52,1223,1,2,0:0:0:0:
211,11,1393,2,0,P|176:18|132:47,1,81.8999975006104,2|0,0:0|0:0,0:0:0:0:
127,49,1734,2,0,L|124:83,1,27.3,2|0,0:0|0:0,0:0:0:0:
89,144,2075,6,0,P|50:155|-11:118,1,109.199996667481,2|2,0:0|0:0,0:0:0:0:
154,180,2587,1,2,0:0:0:0:
291,212,2757,2,0,P|249:207|208:243,1,81.8999975006104,2|0,0:0|0:0,0:0:0:0:
208,235,3098,2,0,L|210:262,1,27.3,2|0,0:0|0:0,0:0:0:0:
210,262,3439,6,0,L|208:235,1,27.2999991668701,2|0,0:0|0:0,0:0:0:0:
276,318,3609,2,0,L|278:291,1,27.2999991668701,2|0,0:0|0:0,0:0:0:0:
211,370,3780,2,0,L|209:343,1,27.2999991668701,2|0,0:0|0:0,0:0:0:0:
138,313,3950,2,0,L|140:286,1,27.2999991668701,2|0,0:0|0:0,0:0:0:0:
140,285,4121,6,0,L|138:312,1,27.2999991668701,2|0,0:0|0:0,0:0:0:0:
209,343,4291,2,0,L|211:370,1,27.2999991668701,2|0,0:0|0:0,0:0:0:0:
278,291,4462,2,0,L|276:318,1,27.2999991668701,2|0,0:0|0:0,0:0:0:0:
208,235,4632,2,0,L|210:262,1,27.2999991668701,2|0,0:0|0:0,0:0:0:0:
344,177,4802,6,0,P|299:146|226:157,1,109.199996667481,2|2,0:0|0:0,0:0:0:0:
279,215,5314,1,2,0:0:0:0:
435,62,5484,2,0,P|404:82|352:75,1,81.8999975006104,2|2,0:0|0:0,0:0:0:0:
350,68,5825,1,10,0:0:0:0:
341,57,5910,1,10,0:0:0:0:
328,50,5996,1,10,0:0:0:0:
249,15,6166,6,0,B|230:41|225:57|225:57|198:22|234:-1,1,100.10000305481,2|8,3:2|1:2,0:0:0:0:
417,183,6507,1,2,3:2:0:0:
403,180,6592,1,0,3:2:0:0:
387,178,6677,1,10,1:2:0:0:
225,260,6848,2,0,P|277:250|291:186,1,100.10000305481,2|8,3:2|1:2,0:0:0:0:
109,113,7189,2,0,P|117:144|122:176,2,50.0500015274048,2|0|8,3:2|3:2|1:2,0:0:0:0:
141,64,7530,6,0,P|124:126|118:186,1,100.10000305481,2|8,3:2|1:2,0:0:0:0:
184,350,7871,1,2,3:2:0:0:
181,338,7956,1,0,3:2:0:0:
173,329,8041,1,10,1:2:0:0:
13,205,8212,2,0,P|40:249|98:253,1,100.10000305481,2|8,3:2|1:2,0:0:0:0:
235,190,8552,2,0,P|240:155|245:131,2,50.0500015274048,2|0|8,3:2|3:2|1:2,0:0:0:0:
212,265,8893,5,2,3:2:0:0:
398,180,9064,1,10,1:2:0:0:
328,137,9234,2,0,L|324:191,1,50.0500015274048,2|0,3:2|3:2,0:0:0:0:
386,358,9405,1,10,1:2:0:0:
486,219,9575,1,2,3:2:0:0:
305,322,9746,1,10,1:2:0:0:
386,358,9916,2,0,L|378:295,1,50.0500015274048,2|0,3:2|3:2,0:0:0:0:
328,137,10087,1,10,1:2:0:0:
170,246,10257,6,0,P|225:249|282:252,1,100.10000305481,2|8,3:2|1:2,0:0:0:0:
286,49,10598,1,0,3:2:0:0:
269,47,10683,1,0,3:2:0:0:
253,46,10768,1,8,1:2:0:0:
71,189,10939,2,0,P|122:177|128:124,1,100.10000305481,0|8,3:2|1:2,0:0:0:0:
24,22,11280,2,0,P|31:62|34:88,2,50.0500015274048,0|0|8,3:2|3:2|1:2,0:0:0:0:
26,249,11621,6,0,P|7:226|3:158,1,100.10000305481,2|8,3:2|1:2,0:0:0:0:
117,307,11962,1,2,3:2:0:0:
116,318,12047,1,0,3:2:0:0:
116,327,12132,1,10,1:2:0:0:
278,226,12302,2,0,P|241:197|179:214,1,100.10000305481,2|8,3:2|1:2,0:0:0:0:
312,343,12643,2,0,L|366:336,2,50.0500015274048,2|0|8,3:2|3:2|1:2,0:0:0:0:
231,306,12984,6,0,P|275:306|315:351,1,100.10000305481,2|8,3:2|1:2,0:0:0:0:
491,261,13325,1,2,3:2:0:0:
489,249,13410,1,0,3:2:0:0:
487,238,13496,1,10,1:2:0:0:
281,113,13666,2,0,P|286:156|341:185,1,100.10000305481,2|8,3:2|1:2,0:0:0:0:
472,94,14007,2,0,P|477:62|484:29,2,50.0500015274048,2|0|8,3:2|3:2|1:2,0:0:0:0:
444,169,14348,5,2,3:2:0:0:
254,29,14518,1,10,1:2:0:0:
388,0,14689,2,0,L|379:66,1,50.0500015274048,2|0,3:2|3:2,0:0:0:0:
327,255,14859,1,10,1:2:0:0:
157,164,15030,1,0,3:2:0:0:
381,49,15200,1,10,1:2:0:0:
281,113,15371,2,0,L|218:93,1,50.0500015274048,2|0,3:2|3:2,0:0:0:0:
76,53,15541,1,10,1:2:0:0:
145,14,15712,6,0,L|158:185,1,150.150004582214,2|0,3:2|0:0,0:0:0:0:
111,228,16052,2,0,P|86:229|51:209,1,50.0500015274048,2|0,2:2|0:0,0:0:0:0:
11,169,16223,2,0,P|0:141|0:112,1,50.0500015274048,2|0,2:2|0:0,0:0:0:0:
0,49,16393,2,0,P|6:24|24:2,1,49.1400011997071,2|0,2:2|0:0,0:0:0:0:
20,5,16734,1,0,1:2:0:0:
10,25,16819,1,0,1:2:0:0:
0,49,16905,1,8,1:2:0:0:
204,78,17075,6,0,P|188:30|122:19,1,100.10000305481,2|8,3:2|1:2,0:0:0:0:
262,187,17416,1,2,3:2:0:0:
274,183,17501,1,0,3:2:0:0:
284,180,17587,1,10,1:2:0:0:
440,73,17757,2,0,P|414:126|410:175,1,100.10000305481,2|8,3:2|1:2,0:0:0:0:
464,314,18098,2,0,P|493:308|520:303,2,50.0500015274048,2|0|8,3:2|3:2|1:2,0:0:0:0:
374,289,18439,6,0,P|416:317|473:309,1,100.10000305481,2|8,3:2|1:2,0:0:0:0:
250,176,18780,1,2,3:2:0:0:
237,178,18865,1,0,3:2:0:0:
225,182,18950,1,10,1:2:0:0:
291,370,19121,2,0,P|292:310|297:253,1,100.10000305481,2|8,3:2|1:2,0:0:0:0:
223,108,19462,2,0,P|197:113|173:134,2,50.0500015274048,2|0|8,3:2|3:2|1:2,0:0:0:0:
317,114,19802,5,2,3:2:0:0:
146,230,19973,1,10,1:2:0:0:
228,58,20143,2,0,L|221:122,1,50.0500015274048,2|0,3:2|3:2,0:0:0:0:
187,319,20314,1,10,1:2:0:0:
75,175,20484,1,2,3:2:0:0:
317,114,20655,1,10,1:2:0:0:
267,178,20825,2,0,L|205:187,1,50.0500015274048,2|0,3:2|3:2,0:0:0:0:
34,60,20996,1,10,1:2:0:0:
129,39,21166,6,0,L|259:63,1,100.10000305481,2|8,3:2|1:2,0:0:0:0:
385,30,21507,6,0,P|406:66|405:88,1,50.0500015274048,0|0,3:2|3:2,0:0:0:0:
481,91,21677,2,0,P|470:131|454:146,1,50.0500015274048,8|0,1:2|0:0,0:0:0:0:
324,213,21848,2,0,L|431:196,1,100.10000305481,0|8,3:2|1:2,0:0:0:0:
474,248,22189,1,0,3:2:0:0:
468,255,22274,1,0,3:2:0:0:
465,263,22359,1,8,1:2:0:0:
317,114,22530,6,0,P|323:178|325:225,1,100.10000305481,2|8,3:2|1:2,0:0:0:0:
225,314,22871,1,2,3:2:0:0:
237,310,22956,1,0,3:2:0:0:
252,310,23041,1,10,1:2:0:0:
391,256,23212,2,0,P|354:293|341:349,1,100.10000305481,2|8,3:2|1:2,0:0:0:0:
187,215,23552,2,0,P|182:190|182:157,2,50.0500015274048,2|0|8,3:2|3:2|1:2,0:0:0:0:
219,122,23893,6,0,P|202:191|178:223,1,100.10000305481,2|8,3:2|1:2,0:0:0:0:
37,72,24234,1,2,3:2:0:0:
34,58,24319,1,0,3:2:0:0:
29,43,24405,1,10,1:2:0:0:
273,36,24575,2,0,P|206:45|156:57,1,100.10000305481,2|8,3:2|1:2,0:0:0:0:
26,169,24916,2,0,P|16:203|14:230,2,50.0500015274048,2|0|8,3:2|3:2|1:2,0:0:0:0:
93,126,25257,5,2,3:2:0:0:
158,337,25427,1,10,1:2:0:0:
289,228,25598,2,0,L|207:220,1,50.0500015274048,2|0,3:2|3:2,0:0:0:0:
42,311,25768,1,10,1:2:0:0:
246,296,25939,1,0,3:2:0:0:
186,122,26109,1,10,1:2:0:0:
152,195,26280,2,0,L|160:257,1,50.0500015274048,2|0,3:2|3:2,0:0:0:0:
324,132,26450,1,10,1:2:0:0:
139,50,26621,6,0,P|188:16|286:34,1,150.150004582214,2|0,3:2|0:0,0:0:0:0:
337,55,26962,2,0,P|369:73|386:70,1,50.0500015274048,2|0,2:2|0:0,0:0:0:0:
405,143,27132,2,0,P|436:131|449:106,1,50.0500015274048,2|0,2:2|0:0,0:0:0:0:
494,63,27302,1,10,1:2:0:0:
492,52,27388,1,10,1:2:0:0:
490,40,27473,1,8,1:2:0:0:
284,155,27643,1,2,3:2:0:0:
473,304,27814,1,8,1:2:0:0:
511,227,27984,6,0,L|402:238,1,100.10000305481,0|8,3:2|1:2,0:0:0:0:
211,338,28325,1,0,3:2:0:0:
198,332,28410,1,0,3:2:0:0:
185,328,28496,1,8,1:2:0:0:
284,155,28666,2,0,P|303:206|289:249,1,100.10000305481,2|8,3:2|1:2,0:0:0:0:
92,344,29007,2,0,P|62:337|28:332,2,50.0500015274048,2|0|8,3:2|3:2|1:2,0:0:0:0:
96,250,29348,6,0,P|79:302|96:350,1,100.10000305481,2|8,3:2|1:2,0:0:0:0:
168,135,29689,1,2,3:2:0:0:
153,139,29774,1,0,3:2:0:0:
140,142,29859,1,8,1:2:0:0:
311,35,30030,2,0,P|296:91|289:134,1,100.10000305481,2|8,3:2|1:2,0:0:0:0:
124,31,30371,2,0,P|149:34|174:59,2,50.0500015274048,2|0|8,3:2|3:2|1:2,0:0:0:0:
42,65,30712,6,0,P|97:63|126:20,1,100.10000305481,2|8,3:2|1:2,0:0:0:0:
311,35,31052,1,0,3:2:0:0:
313,45,31138,1,0,3:2:0:0:
314,53,31224,1,8,1:2:0:0:
194,226,31393,2,0,P|187:177|181:122,1,100.10000305481,2|8,3:2|1:2,0:0:0:0:
365,113,31734,2,0,P|335:125|303:132,2,50.0500015274048,2|0|8,3:2|3:2|1:2,0:0:0:0:
441,93,32075,5,2,3:2:0:0:
363,322,32246,1,8,1:2:0:0:
504,199,32416,1,2,3:2:0:0:
504,199,32501,1,0,3:2:0:0:
504,199,32587,1,8,1:2:0:0:
292,246,32757,1,2,3:2:0:0:
487,304,32927,1,8,1:2:0:0:
276,352,33098,1,2,3:2:0:0:
276,352,33183,1,0,3:2:0:0:
276,352,33268,1,8,1:2:0:0:
335,87,33439,5,2,3:2:0:0:
176,44,33780,1,8,1:2:0:0:
133,204,34121,1,0,3:2:0:0:
233,147,34291,1,0,3:2:0:0:
176,44,34462,1,8,1:2:0:0:
133,204,34632,1,0,3:2:0:0:
176,44,34802,5,2,3:2:0:0:
335,1,35143,1,8,1:2:0:0:
378,161,35484,1,8,1:2:0:0:
367,164,35569,1,8,1:2:0:0:
356,168,35655,1,0,3:2:0:0:
335,1,35825,1,8,1:2:0:0:
378,161,35995,1,8,3:2:0:0:
367,164,36080,1,8,3:2:0:0:
356,168,36166,5,2,3:2:0:0:
470,135,36507,5,2,2:2:0:0:
454,235,36677,1,2,2:2:0:0:
356,264,36848,2,0,L|278:245,1,72.8,10|2,2:2|2:2,0:0:0:0:
221,193,37359,1,2,2:2:0:0:
156,247,37530,6,0,B|120:261|118:230|77:247,2,72.8,2|2|10,2:2|2:2|2:2,0:0:0:0:
221,193,38552,2,0,L|216:152,1,36.4,2|2,2:2|2:2,0:0:0:0:
172,102,38893,1,2,2:2:0:0:
327,30,39234,6,0,L|321:77,1,36.4,2|2,2:2|2:2,0:0:0:0:
365,123,39575,2,0,P|399:126|441:101,1,72.8,10|2,2:2|2:2,0:0:0:0:
481,56,40087,1,2,2:2:0:0:
412,31,40257,1,2,2:2:0:0:
321,234,40598,6,0,L|361:238,1,36.4,2|2,2:2|2:2,0:0:0:0:
424,288,40939,1,10,2:2:0:0:
433,217,41109,1,2,2:2:0:0:
349,309,41280,1,2,2:2:0:0:
498,258,41450,1,2,2:2:0:0:
371,163,41621,1,2,2:2:0:0:
138,228,41962,6,0,L|184:218,1,36.4,2|0,2:2|0:0,0:0:0:0:
187,146,42302,2,0,L|111:161,1,72.8,10|2,2:2|2:2,0:0:0:0:
51,123,42814,1,2,2:2:0:0:
64,46,42984,2,0,P|112:39|136:64,1,72.8,2|2,2:2|2:2,0:0:0:0:
195,79,43496,1,2,2:2:0:0:
261,41,43666,2,0,L|256:-3,1,36.4,10|0,2:2|0:0,0:0:0:0:
332,59,44007,2,0,L|327:103,1,36.4,2|2,2:2|2:2,0:0:0:0:
404,38,44348,6,0,P|430:22|483:21,1,72.8,2|2,2:2|2:2,0:0:0:0:
269,190,45030,2,0,P|233:188|202:170,1,72.8,10|2,2:2|2:2,0:0:0:0:
140,129,45541,1,2,2:2:0:0:
43,197,45712,5,2,2:2:0:0:
116,243,45882,1,2,2:2:0:0:
46,279,46052,5,2,2:2:0:0:
116,232,46223,1,2,2:2:0:0:
34,187,46393,5,2,2:2:0:0:
154,371,46734,1,2,2:2:0:0:
263,183,46905,1,2,2:2:0:0:
116,232,47075,6,0,B|98:253|70:252|70:252|107:270|143:243,1,118.299994584656,2|0,3:2|0:0,0:0:0:0:
304,275,47246,2,0,B|322:254|350:255|350:255|313:237|277:264,1,118.299994584656,2|0,3:2|0:0,0:0:0:0:
201,69,47416,2,0,B|211:23|255:25|255:25|264:116|264:116|259:128|259:128|263:195,1,236.599989169312,8|2,1:2|3:2,0:0:0:0:
80,326,47757,2,0,B|58:333|5:276|5:276|94:212|169:284|169:284|155:349|212:371|212:371|225:344|276:323|306:367,1,473.199978338624,2|10,3:2|1:2,0:0:0:0:
436,306,48268,2,0,B|453:288|482:296|482:296|463:240|421:253,1,118.299994584656,2|0,3:2|0:0,0:0:0:0:
191,105,48439,6,0,B|238:129|174:182|237:208|237:208|296:189|238:131|316:108,1,236.599989169312,2|2,2:2|3:2,0:0:0:0:
479,108,48780,2,0,B|448:53|459:-11|459:-11|441:50|366:82,1,236.599989169312,8|0,1:2|0:0,0:0:0:0:
45,59,49121,2,0,B|-25:93|-25:93|26:101|26:101|132:46|132:46|132:39|132:39|185:0|236:38,1,354.899983753968,2|0,3:2|0:0,0:0:0:0:
230,109,49462,6,0,B|209:119|190:158|190:158|200:117|184:89,1,118.299994584656,10|0,1:2|0:0,0:0:0:0:
289,61,49632,2,0,B|308:51|327:12|327:12|317:53|327:66,1,118.299994584656,2|0,2:2|0:0,0:0:0:0:
82,155,49802,2,0,B|42:215|110:292|114:219|212:286|154:382,1,236.599989169312,2|2,3:2|3:2,0:0:0:0:
0,266,50143,6,0,P|133:252|245:247,1,236.599989169312,8|2,1:2|3:2,0:0:0:0:
412,80,50484,2,0,B|431:62|462:56|462:56|391:15|306:70|302:153|302:153|330:160|370:189,1,354.899983753968,2|0,3:2|0:0,0:0:0:0:
494,243,50825,2,0,B|465:232|453:200|453:200|452:234|415:256,1,118.299994584656,10|0,1:2|0:0,0:0:0:0:
469,384,50996,1,2,3:2:0:0:
512,245,51166,2,0,B|468:236|446:150|446:150|447:246|377:273,1,236.599989169312,2|2,2:2|3:2,0:0:0:0:
264,324,51507,2,0,B|211:334|211:334|202:331|202:331|136:342,1,118.299994584656,8|0,1:2|0:0,0:0:0:0:
139,270,51677,2,0,B|192:260|192:260|201:263|201:263|267:252,1,118.299994584656,2|0,2:2|0:0,0:0:0:0:
354,85,51848,6,0,B|297:32|242:83|248:97|255:112|191:159|136:102,2,236.599989169312,2|2|10,3:2|2:2|1:2,0:0:0:0:
372,160,52359,2,0,B|346:167|337:206|337:206|336:166|306:143,1,118.299994584656,2|0,2:2|0:0,0:0:0:0:
354,85,52530,6,0,B|380:78|389:39|389:39|390:79|408:91,1,118.299994584656,2|0,3:2|0:0,0:0:0:0:
483,251,52871,2,0,P|497:206|438:163,1,118.299994584656,2|0,3:2|0:0,0:0:0:0:
372,160,53126,1,0,0:0:0:0:
363,163,53212,2,0,P|365:263|363:362,1,177.449991876984,8|0,1:2|0:0,0:0:0:0:
296,375,53552,1,2,3:2:0:0:
483,251,53723,1,2,2:2:0:0:
281,149,53893,6,0,B|239:194|175:205|175:205|237:202|287:251,1,236.599989169312,2|2,3:2|3:2,0:0:0:0:
279,243,54405,1,2,2:2:0:0:
117,156,54575,2,0,P|94:214|136:263,1,118.299994584656,8|0,1:2|0:0,0:0:0:0:
319,312,54916,2,0,P|333:264|277:244,1,118.299994584656,2|2,3:2|2:2,0:0:0:0:
9,339,55257,6,0,B|121:348|121:348|127:351|127:351|250:359,1,236.599989169312,2|2,3:2|3:2,0:0:0:0:
135,258,55768,1,2,2:2:0:0:
424,191,55939,2,0,P|352:178|274:260,1,177.449991876984,8|0,1:2|0:0,0:0:0:0:
278,242,56280,2,0,L|283:316,1,59.149997292328,2|2,3:2|2:2,0:0:0:0:
456,355,56621,5,2,2:2:0:0:
401,303,56791,1,2,2:2:0:0:
380,374,56962,1,2,2:2:0:0:
456,355,57132,1,2,2:2:0:0:
401,303,57302,2,0,L|410:179,1,118.299994584656,2|2,2:2|2:2,0:0:0:0:
485,229,57814,1,2,2:2:0:0:
466,66,57984,6,0,B|373:52|400:140|297:112,1,167.439994379151,2|2,3:2|1:2,0:0:0:0:
134,53,58496,1,2,2:2:0:0:
206,12,58666,2,0,L|214:107,1,83.7199971895753,2|0,3:2|0:0,0:0:0:0:
47,319,59007,2,0,P|18:294|17:244,1,83.7199971895753,2|0,1:2|0:0,0:0:0:0:
68,187,59348,6,0,P|128:211|229:190,1,167.439994379151,2|2,3:2|1:2,0:0:0:0:
404,53,59859,1,2,2:2:0:0:
334,8,60030,2,0,L|326:103,1,83.7199971895753,2|0,3:2|0:0,0:0:0:0:
466,245,60371,2,0,P|444:208|393:198,1,83.7199971895753,2|0,1:2|0:0,0:0:0:0:
269,372,60712,22,1,P|292:352|304:317,1,50,2|0,3:2|0:0,0:0:0:0:
377,327,60882,2,1,P|371:297|339:262,1,50,2|0,2:2|0:0,0:0:0:0:
183,164,61052,6,1,P|186:188|198:210,1,50,2|0,1:2|0:0,0:0:0:0:
162,287,61223,2,1,P|185:295|210:295,1,50,2|0,2:2|0:0,0:0:0:0:
406,196,61393,6,1,P|377:186|335:192,1,50,2|0,3:2|0:0,0:0:0:0:
317,108,61564,2,1,P|294:128|282:167,1,50,2|0,2:2|0:0,0:0:0:0:
269,372,61734,22,1,P|292:352|304:317,1,50,2|0,1:2|0:0,0:0:0:0:
377,327,61904,2,1,P|371:297|339:262,1,50,2|0,2:2|0:0,0:0:0:0:
183,164,62075,6,0,B|97:154|113:222|22:203,1,167.439994379151,2|2,3:2|1:2,0:0:0:0:
57,117,62587,1,2,2:2:0:0:
151,322,62757,2,0,P|157:269|163:225,1,83.7199971895753,2|0,3:2|0:0,0:0:0:0:
69,43,63098,2,0,P|46:89|75:131,1,83.7199971895753,2|0,1:2|0:0,0:0:0:0:
268,192,63439,6,0,P|285:142|196:73,1,167.439994379151,2|2,3:2|1:2,0:0:0:0:
140,86,63950,1,2,2:2:0:0:
271,8,64121,2,0,L|361:3,1,83.7199971895753,2|0,3:2|0:0,0:0:0:0:
421,136,64462,2,0,P|385:128|360:79,1,83.7199971895753,2|0,1:2|0:0,0:0:0:0:
512,36,64802,6,0,L|493:205,1,167.439994379151,2|2,3:2|1:2,0:0:0:0:
344,320,65314,1,2,2:2:0:0:
421,356,65484,2,0,L|416:265,1,83.7199971895753,2|0,3:2|0:0,0:0:0:0:
360,90,65825,2,0,L|355:181,1,83.7199971895753,2|0,1:2|0:0,0:0:0:0:
106,248,66166,6,1,P|94:269|90:294,1,50,2|0,3:2|0:0,0:0:0:0:
167,302,66336,2,1,P|179:323|198:339,1,50,2|0,1:2|0:0,0:0:0:0:
182,112,66506,6,1,P|169:90|150:74,1,50,2|0,3:2|0:0,0:0:0:0:
110,153,66677,2,1,P|85:154|61:163,1,50,2|0,1:2|0:0,0:0:0:0:
257,262,66847,6,1,P|281:262|305:254,1,50,2|0,3:2|0:0,0:0:0:0:
263,172,67018,2,1,P|275:150|278:125,1,50,2|0,1:2|0:0,0:0:0:0:
106,248,67188,6,1,P|94:269|90:294,1,50,2|0,3:2|0:0,0:0:0:0:
167,302,67358,2,1,P|179:323|198:339,1,50,2|0,1:2|0:0,0:0:0:0:
182,112,67530,6,0,P|169:90|143:74,3,50.9600006220703,2|0|0|10,3:2|0:0|0:0|1:2,0:0:0:0:
128,72,68638,1,10,1:2:0:0:
115,72,68723,1,10,1:2:0:0:
222,180,68893,6,0,P|282:224|382:191,1,163.799995001221,2|2,3:2|3:2,0:0:0:0:
435,174,69405,1,2,2:2:0:0:
435,174,69575,2,0,L|442:272,1,81.8999975006104,2|0,3:2|0:0,0:0:0:0:
512,251,69916,2,0,L|505:153,1,81.8999975006104,2|0,3:2|0:0,0:0:0:0:
467,74,70257,6,0,B|514:83|514:83|388:94,1,163.799995001221,2|2,3:2|3:2,0:0:0:0:
320,98,70768,1,2,2:2:0:0:
320,98,70939,2,0,P|332:57|304:18,1,81.8999975006104,2|0,3:2|0:0,0:0:0:0:
252,105,71280,2,0,P|233:69|245:31,1,81.8999975006104,2|0,3:2|0:0,0:0:0:0:
234,192,71621,6,0,L|229:251,1,40.9499987503052,2|0,3:2|0:0,0:0:0:0:
166,185,71791,2,0,L|161:244,1,40.9499987503052,2|0,2:2|0:0,0:0:0:0:
267,309,71962,6,0,L|263:349,1,40.9499987503052,2|0,3:2|0:0,0:0:0:0:
199,302,72132,2,0,L|195:342,1,40.9499987503052,2|0,2:2|0:0,0:0:0:0:
324,175,72302,6,0,L|383:180,1,40.9499987503052,2|0,3:2|0:0,0:0:0:0:
317,243,72472,2,0,L|376:248,1,40.9499987503052,2|0,2:2|0:0,0:0:0:0:
441,142,72643,6,0,L|481:145,1,40.9499987503052,2|0,3:2|0:0,0:0:0:0:
434,210,72813,2,0,L|474:213,1,40.9499987503052,2|0,2:2|0:0,0:0:0:0:
267,309,72984,6,0,B|228:327|177:285|211:266|164:232|121:251,1,163.799995001221,2|0,3:2|3:2,0:0:0:0:
63,271,73496,1,0,0:0:0:0:
63,271,73666,2,0,B|55:256|55:256|66:179,1,81.8999975006104,0|0,3:2|0:0,0:0:0:0:
76,122,74007,1,4,1:2:0:0:
397,368,74348,6,0,L|411:262,1,81.8999975006104,2|0,3:2|0:0,0:0:0:0:
285,377,74689,2,0,L|271:271,1,81.8999975006104,2|2,3:2|2:2,0:0:0:0:
364,133,75030,1,2,3:2:0:0:
345,242,75200,1,0,0:0:0:0:
301,86,75371,2,0,P|347:53|393:74,1,81.8999975006104,2|0,3:2|0:0,0:0:0:0:
497,9,75712,6,0,L|401:-8,1,81.8999975006104,2|0,3:2|0:0,0:0:0:0:
444,118,76052,2,0,L|348:135,1,81.8999975006104,2|2,3:2|2:2,0:0:0:0:
257,19,76393,1,2,3:2:0:0:
275,156,76564,1,0,0:0:0:0:
183,32,76734,2,0,P|245:13|279:49,1,81.8999975006104,2|0,3:2|0:0,0:0:0:0:
261,307,77075,6,1,P|282:319|307:323,1,50,2|0,3:2|0:0,0:0:0:0:
315,246,77245,2,1,P|336:234|352:215,1,50,2|0,2:2|0:0,0:0:0:0:
125,231,77415,6,1,P|103:244|87:263,1,50,2|0,3:2|0:0,0:0:0:0:
166,303,77586,2,1,P|167:328|176:352,1,50,2|0,2:2|0:0,0:0:0:0:
275,156,77756,6,1,P|275:132|267:108,1,50,2|0,3:2|0:0,0:0:0:0:
185,150,77927,2,1,P|163:138|138:135,1,50,2|0,2:2|0:0,0:0:0:0:
261,307,78097,6,1,P|282:319|307:323,1,50,2|0,3:2|0:0,0:0:0:0:
315,246,78268,2,1,P|336:234|352:215,1,50,2|0,2:2|0:0,0:0:0:0:
222,229,78439,5,2,3:2:0:0:
447,113,78780,6,0,B|464:84|464:84|463:83|463:83|496:15|496:15|427:33|427:33|424:30|424:30|346:51|346:51|345:53|345:53|279:73|279:73|304:90|304:90|305:88|305:88|374:126,1,445.899986392212,0|0,3:2|0:0,0:0:0:0:
413,183,79462,1,0,1:2:0:0:
407,191,79547,1,0,1:2:0:0:
398,193,79632,1,8,1:2:0:0:
176,11,79802,6,0,P|205:51|174:120,1,101.920001244141,2|8,3:2|1:2,0:0:0:0:
124,133,80143,2,0,L|130:61,2,50.9600006220703,2|0|10,3:2|3:2|1:2,0:0:0:0:
166,241,80484,1,2,3:2:0:0:
238,179,80655,1,8,1:2:0:0:
100,203,80825,1,2,3:2:0:0:
90,204,80910,1,0,3:2:0:0:
80,207,80996,1,8,1:2:0:0:
258,323,81166,6,0,L|377:340,1,101.920001244141,2|8,3:2|1:2,0:0:0:0:
428,323,81507,2,0,P|431:356|420:376,2,50.9600006220703,2|0|10,3:2|3:2|1:2,0:0:0:0:
314,164,81848,1,2,3:2:0:0:
358,275,82018,1,8,1:2:0:0:
431,178,82189,1,2,3:2:0:0:
430,171,82274,1,0,3:2:0:0:
429,164,82359,1,8,1:2:0:0:
344,23,82530,6,0,P|399:42|415:35,1,50.9600006220703,2|0,3:2|0:0,0:0:0:0:
389,112,82700,2,0,P|441:86|447:70,1,50.9600006220703,10|0,1:2|0:0,0:0:0:0:
223,235,82871,6,0,P|278:216|294:223,1,50.9600006220703,2|0,3:2|3:2,0:0:0:0:
268,146,83041,2,0,P|320:171|326:187,1,50.9600006220703,10|0,1:2|0:0,0:0:0:0:
136,0,83212,6,0,P|191:19|207:12,1,50.9600006220703,2|0,3:2|0:0,0:0:0:0:
181,89,83382,2,0,P|233:63|239:47,1,50.9600006220703,10|0,1:2|0:0,0:0:0:0:
15,212,83553,6,0,P|70:193|86:200,1,50.9600006220703,2|0,3:2|3:2,0:0:0:0:
60,123,83723,2,0,P|112:148|118:164,1,50.9600006220703,10|0,1:2|0:0,0:0:0:0:
136,249,83893,6,0,L|122:371,1,101.920001244141,2|8,3:2|1:2,0:0:0:0:
211,373,84234,1,0,3:2:0:0:
211,373,84319,1,0,3:2:0:0:
211,373,84405,1,8,1:2:0:0:
221,191,84575,2,0,L|208:310,1,101.920001244141,0|8,3:2|1:2,0:0:0:0:
274,333,84916,2,0,P|318:340|362:301,1,101.920001244141,0|8,3:2|1:2,0:0:0:0:
343,232,85257,6,0,L|330:118,1,101.920001244141,2|8,3:2|1:2,0:0:0:0:
324,60,85598,2,0,B|330:49|330:49|407:45,2,50.9600006220703,2|0|10,3:2|3:2|1:2,0:0:0:0:
256,127,85939,1,2,3:2:0:0:
240,23,86109,1,8,1:2:0:0:
174,93,86280,1,2,3:2:0:0:
176,103,86365,1,0,3:2:0:0:
178,114,86450,1,8,1:2:0:0:
254,226,86621,6,0,B|207:249|207:249|145:223,1,101.920001244141,2|8,3:2|1:2,0:0:0:0:
106,186,86962,2,0,P|99:137|104:127,2,50.9600006220703,2|0|10,3:2|3:2|1:2,0:0:0:0:
165,351,87302,1,2,3:2:0:0:
188,242,87473,1,8,1:2:0:0:
79,298,87643,1,2,3:2:0:0:
68,304,87729,1,0,3:2:0:0:
58,298,87814,1,8,1:2:0:0:
248,369,87984,6,0,B|252:363|252:363|315:353,1,50.9600006220703,2|0,3:2|0:0,0:0:0:0:
236,292,88155,2,0,B|241:296|241:296|322:282,1,50.9600006220703,10|0,1:2|0:0,0:0:0:0:
373,362,88325,6,0,B|378:358|378:358|421:365,1,50.9600006220703,2|0,3:2|3:2,0:0:0:0:
385,285,88496,2,0,B|389:291|389:291|432:297,1,50.9600006220703,10|0,1:2|0:0,0:0:0:0:
280,200,88666,6,0,B|286:196|286:196|296:133,1,50.9600006220703,0|0,3:2|0:0,0:0:0:0:
357,212,88837,2,0,B|353:207|353:207|367:126,1,50.9600006220703,10|0,1:2|0:0,0:0:0:0:
287,75,89007,6,0,B|291:70|291:70|283:26,1,50.9600006220703,2|0,3:2|3:2,0:0:0:0:
364,63,89178,2,0,B|358:59|358:59|351:15,1,50.9600006220703,10|0,1:2|0:0,0:0:0:0:
51,336,89348,6,0,B|33:357|1:360|1:360|72:401|157:346|161:263|161:263|122:262|93:227,1,356.720004354492,2|0,3:2|0:0,0:0:0:0:
66,158,90030,5,10,1:2:0:0:
74,150,90115,1,10,1:2:0:0:
89,151,90200,1,8,1:2:0:0:
162,187,90371,1,2,3:2:0:0:
148,99,90541,1,8,1:2:0:0:
246,232,90712,6,0,L|374:251,1,101.920001244141,0|8,3:2|1:2,0:0:0:0:
484,183,91052,2,0,L|420:189,2,50.9600006220703,0|0|8,3:2|3:2|1:2,0:0:0:0:
443,299,91393,1,2,3:2:0:0:
371,134,91564,1,8,1:2:0:0:
342,313,91734,1,2,3:2:0:0:
344,321,91819,1,0,3:2:0:0:
345,332,91905,1,8,1:2:0:0:
461,125,92075,6,0,P|479:55|462:27,1,101.920001244141,2|8,3:2|1:2,0:0:0:0:
351,15,92416,2,0,L|401:8,2,50.9600006220703,2|0|8,3:2|3:2|1:2,0:0:0:0:
307,91,92757,1,2,3:2:0:0:
400,79,92927,1,8,1:2:0:0:
332,183,93098,1,2,3:2:0:0:
316,187,93183,1,0,3:2:0:0:
299,179,93268,1,8,1:2:0:0:
204,108,93439,6,0,L|218:-3,1,101.920001244141,2|8,3:2|1:2,0:0:0:0:
133,129,93780,2,0,P|175:173|192:172,2,50.9600006220703,0|0|8,3:2|3:2|1:2,0:0:0:0:
110,30,94121,1,2,3:2:0:0:
10,89,94291,1,8,1:2:0:0:
133,130,94462,1,2,3:2:0:0:
129,141,94547,1,0,3:2:0:0:
120,143,94632,1,8,1:2:0:0:
15,209,94802,6,0,L|118:232,1,101.920001244141,2|8,3:2|1:2,0:0:0:0:
94,336,95143,2,0,L|197:313,1,101.920001244141,2|8,3:2|1:2,0:0:0:0:
291,183,95484,1,2,3:2:0:0:
262,361,95655,1,8,1:2:0:0:
358,230,95825,1,2,3:2:0:0:
384,331,95996,1,8,1:2:0:0:
442,268,96166,5,2,3:2:0:0:
442,268,96507,1,8,1:2:0:0:
486,133,96848,1,0,3:2:0:0:
409,115,97018,1,0,3:2:0:0:
486,133,97189,1,8,1:2:0:0:
409,115,97359,1,0,3:2:0:0:
378,196,97530,6,0,L|267:208,1,101.920001244141,2|0,3:2|0:0,0:0:0:0:
240,146,97871,2,0,L|129:158,1,101.920001244141,8|0,1:2|0:0,0:0:0:0:
43,88,98212,2,0,P|68:96|90:125,2,50.9600006220703,8|8|0,1:2|1:2|3:2,0:0:0:0:
76,195,98552,6,0,P|51:203|29:232,1,50.9600006220703,8|0,1:2|0:0,0:0:0:0:
92,263,98723,2,0,P|79:286|84:322,1,50.9600006220703,8|8,3:2|3:2,0:0:0:0:
153,298,98893,5,2,3:2:0:0:
153,298,99234,6,0,L|216:303,1,45.5,2|2,2:2|2:2,0:0:0:0:
259,260,99575,2,0,L|353:250,1,91,10|2,2:2|2:2,0:0:0:0:
409,292,100087,1,2,2:2:0:0:
473,209,100257,6,0,P|479:185|470:156,1,45.5,2|0,2:2|0:0,0:0:0:0:
403,170,100598,2,0,P|390:148|363:134,1,45.5,2|0,2:2|0:0,0:0:0:0:
310,69,100939,2,0,P|341:69|386:25,1,91,10|2,2:2|2:2,0:0:0:0:
456,13,101450,1,2,2:2:0:0:
456,13,101621,1,2,2:2:0:0:
273,144,101962,6,0,L|216:134,1,45.5,2|2,2:2|2:2,0:0:0:0:
184,77,102302,2,0,L|81:94,1,91,10|2,2:2|2:2,0:0:0:0:
23,103,102814,1,2,2:2:0:0:
23,103,102984,2,0,L|40:206,1,91,2|2,2:2|2:2,0:0:0:0:
48,261,103496,1,2,2:2:0:0:
48,261,103666,6,0,L|104:271,1,45.5,10|2,2:2|2:2,0:0:0:0:
138,324,104007,2,0,L|182:316,1,45.5,2|2,2:2|2:2,0:0:0:0:
272,121,104348,6,0,B|371:102|431:197|431:197|341:183|310:241|310:241|404:251|421:311,1,455,2|10,2:2|2:2,0:0:0:0:
210,186,105371,5,2,2:2:0:0:
189,119,105541,1,2,2:2:0:0:
210,186,105712,2,0,L|271:195,1,45.5,2|0,2:2|0:0,0:0:0:0:
450,149,106052,6,0,B|401:159|375:123|383:118|390:111|377:62|322:42|278:67|267:115,1,236.599989169312,2|10,2:2|2:2,0:0:0:0:
459,77,106734,1,2,2:2:0:0:
450,149,106905,1,2,2:2:0:0:
273,358,107075,6,0,P|261:257|232:110,2,236.599989169312,2|2|10,2:2|2:2|2:2,0:0:0:0:
491,152,108098,6,0,L|486:229,1,59.149997292328,2|0,2:2|0:0,0:0:0:0:
480,279,108269,1,2,2:2:0:0:
456,14,108439,5,2,2:2:0:0:
251,13,108609,1,2,2:2:0:0:
324,121,108780,1,2,2:2:0:0:
432,94,108950,1,2,2:2:0:0:
238,90,109121,6,0,B|95:68|95:68|75:94|43:107|4:92,1,236.599989169312,2|2,2:2|2:2,0:0:0:0:
34,20,109632,1,2,2:2:0:0:
78,257,109802,6,0,P|148:249|167:210,1,79.6250007593632,2|0,3:2|0:0,0:0:0:0:
189,320,109973,2,0,P|232:264|218:223,1,79.6250007593632,2|0,3:2|0:0,0:0:0:0:
330,106,110143,1,8,1:2:0:0:
317,292,110314,1,2,3:2:0:0:
440,0,110484,6,0,B|523:45|523:45|389:22|389:22|384:27|384:27|284:16|284:16|249:30|241:54|252:115,1,409.500015621186,2|0,3:2|0:0,0:0:0:0:
223,142,110825,1,10,1:2:0:0:
159,74,110996,1,2,3:2:0:0:
414,366,111166,6,0,B|373:314|415:222|482:266|531:188|468:116,1,273.000010414124,2|2,2:2|3:2,0:0:0:0:
247,71,111507,2,0,B|206:123|248:215|315:171|364:249|301:321,1,273.000010414124,8|0,1:2|0:0,0:0:0:0:
248,383,111848,2,0,B|186:367|186:367|182:359|182:359|35:317|35:317|67:313|99:312|127:278,1,307.125011715889,2|0,3:2|0:0,0:0:0:0:
155,227,112189,2,0,B|148:224|136:216|136:216|49:230|49:230|38:243,1,102.375003905296,10|0,1:2|0:0,0:0:0:0:
17,148,112359,2,0,B|24:151|36:159|36:159|123:144|123:144|134:132,1,102.375003905296,2|0,2:2|0:0,0:0:0:0:
478,4,112530,6,0,B|454:-14|406:-2|389:36|389:36|215:66|215:66|260:63|283:112,1,368.550001405907,2|0,3:2|0:0,0:0:0:0:
413,164,112871,2,0,B|424:192|461:201|461:201|426:212|416:261,1,122.850000468636,8|0,1:2|0:0,0:0:0:0:
353,251,113041,2,0,B|342:223|305:214|305:214|340:203|350:154,1,122.850000468636,2|0,3:2|0:0,0:0:0:0:
488,356,113212,2,0,B|435:429|307:370|364:301|238:236|153:339,1,368.550001405907,2|0,3:2|0:0,0:0:0:0:
19,352,113552,1,10,1:2:0:0:
100,369,113723,1,2,3:2:0:0:
127,22,113893,6,0,B|142:15|170:-18|170:-18|144:241|144:241|137:231|137:231|136:223|136:223|126:203|85:185,1,368.550001405907,2|0,2:2|0:0,0:0:0:0:
52,156,114234,2,0,B|37:112|37:112|55:264,1,122.850000468636,8|0,1:2|0:0,0:0:0:0:
53,256,114405,1,2,2:2:0:0:
388,0,114575,6,0,P|442:28|447:117,1,122.850000468636,2|0,3:2|0:0,0:0:0:0:
380,282,114746,2,0,P|322:264|295:211,1,122.850000468636,2|0,2:2|0:0,0:0:0:0:
236,91,114916,6,0,L|357:74,1,122.850000468636,10|0,1:2|0:0,0:0:0:0:
417,194,115087,2,0,L|295:210,1,122.850000468636,2|0,2:2|0:0,0:0:0:0:
2,83,115257,6,0,B|38:69|47:25|47:25|106:43|130:179|12:139|-30:214|24:298|24:298|41:244|89:244,1,450.450004295826,2|0,3:2|0:0,0:0:0:0:
246,314,115598,6,0,P|200:275|113:328,1,136.500005207062,2|0,3:2|0:0,0:0:0:0:
228,195,115939,2,0,B|250:154|290:165|290:165|465:204,1,204.750007810593,8|0,1:2|0:0,0:0:0:0:
473,244,116280,1,2,3:2:0:0:
492,174,116450,1,2,2:2:0:0:
382,261,116621,6,0,B|388:315|303:354|303:354|279:305|228:315,1,204.750007810593,2|0,3:2|0:0,0:0:0:0:
139,277,116962,1,2,3:2:0:0:
207,252,117132,1,2,2:2:0:0:
49,359,117302,6,0,B|60:271|60:271|66:266|66:266|91:85,1,273.000010414124,8|2,1:2|3:2,0:0:0:0:
103,22,117814,1,2,2:2:0:0:
163,99,117984,5,2,3:2:0:0:
175,28,118155,2,0,P|269:28|315:144,1,204.750007810593,2|0,2:2|0:0,0:0:0:0:
283,182,118496,1,2,2:2:0:0:
357,197,118666,1,8,1:2:0:0:
243,276,119007,6,0,P|206:291|170:281,1,68.250002603531,2|0,3:2|0:0,0:0:0:0:
109,201,119177,2,0,P|146:216|182:206,1,68.250002603531,2|0,2:2|0:0,0:0:0:0:
213,148,119348,5,2,2:2:0:0:
274,61,120712,6,0,B|380:80|340:-23|464:10,1,200.200006109619,2|2,3:2|1:2,0:0:0:0:
509,55,121223,1,2,2:2:0:0:
211,10,121393,2,0,P|138:32|122:77,1,100.10000305481,2|0,3:2|0:0,0:0:0:0:
191,91,121734,2,0,P|225:125|274:129,1,100.10000305481,2|0,1:2|0:0,0:0:0:0:
410,190,122075,6,0,L|185:216,1,200.200006109619,2|2,3:2|1:2,0:0:0:0:
140,222,122587,1,2,2:2:0:0:
322,367,122757,2,0,B|338:351|338:351|327:263,1,100.10000305481,2|0,3:2|0:0,0:0:0:0:
445,384,123098,2,0,B|429:368|429:368|438:291,1,100.10000305481,2|0,1:2|0:0,0:0:0:0:
487,78,123439,5,2,3:2:0:0:
371,218,123609,1,2,2:2:0:0:
378,54,123780,1,2,1:2:0:0:
484,202,123950,1,2,2:2:0:0:
495,71,124121,5,2,3:2:0:0:
365,228,124291,1,2,2:2:0:0:
370,47,124462,1,2,1:2:0:0:
490,209,124632,1,2,2:2:0:0:
290,0,124802,6,0,B|276:88|276:88|287:107|287:107|270:212,1,200.200006109619,2|2,3:2|1:2,0:0:0:0:
210,232,125314,1,2,2:2:0:0:
179,114,125484,2,0,L|193:10,1,100.10000305481,2|0,3:2|0:0,0:0:0:0:
103,155,125825,2,0,L|89:51,1,100.10000305481,2|0,1:2|0:0,0:0:0:0:
6,183,126166,6,0,B|2:290|97:244|81:379,1,200.200006109619,2|2,3:2|1:2,0:0:0:0:
9,343,126677,1,2,2:2:0:0:
153,240,126848,2,0,P|231:280|231:318,1,100.10000305481,2|0,3:2|0:0,0:0:0:0:
286,228,127189,2,0,P|312:311|286:338,1,100.10000305481,2|0,1:2|0:0,0:0:0:0:
413,363,127530,6,0,P|427:284|450:161,1,200.200006109619,2|2,3:2|1:2,0:0:0:0:
499,108,128041,1,2,2:2:0:0:
335,147,128212,2,0,B|350:99|350:99|326:47,1,100.10000305481,2|0,3:2|0:0,0:0:0:0:
201,115,128552,2,0,B|186:163|186:163|210:215,1,100.10000305481,2|0,1:2|0:0,0:0:0:0:
330,363,128893,5,2,3:2:0:0:
145,322,129064,1,2,1:2:0:0:
339,231,129234,5,2,3:2:0:0:
142,243,129405,1,2,1:2:0:0:
333,131,129575,5,2,3:2:0:0:
140,164,129746,1,2,1:2:0:0:
319,38,129916,5,2,3:2:0:0:
135,83,130087,1,2,1:2:0:0:
249,278,130257,5,2,3:2:0:0:
