osu file format v14

[General]
AudioFilename: audio.mp3
AudioLeadIn: 0
PreviewTime: 46990
Countdown: 0
SampleSet: Soft
StackLeniency: 0.7
Mode: 0
LetterboxInBreaks: 0
WidescreenStoryboard: 1

[Editor]
DistanceSpacing: 1.2
BeatDivisor: 4
GridSize: 32
TimelineZoom: 1.8

[Metadata]
Title:sympathy 4 the grinch
TitleUnicode:sympathy 4 the grinch
Artist:100 gecs
ArtistUnicode:100 gecs
Creator:aeniko
Version:ancel's expert
Source:
Tags:electronic english experimental christmas xmas hiphop hip hop hyperpop hyper pop dylan brady laura les for 1000 atlas enri kieg lugu nytro nytrocide_ mynt ancel ancelysia mattay
BeatmapID:3336643
BeatmapSetID:1606138

[Difficulty]
HPDrainRate:5
CircleSize:4
OverallDifficulty:8
ApproachRate:9.3
SliderMultiplier:1.6
SliderTickRate:1

[Events]
//Background and Video events
0,0,"test.png",0,0
Video,0,"amongus hentai free ft. Shrek.avi"
//Break Periods
2,56650,57430
2,119377,120158
//Storyboard Layer 0 (Background)
//Storyboard Layer 1 (Fail)
//Storyboard Layer 2 (Pass)
//Storyboard Layer 3 (Foreground)
//Storyboard Layer 4 (Overlay)
//Storyboard Sound Samples

[TimingPoints]
371,340.909090909091,4,2,0,60,1,0
712,340.909090909091,4,2,0,60,1,0
5825,-76.3358778625954,4,2,0,60,0,0
15712,-100,4,2,0,60,0,0
17075,-65.7894736842105,4,2,0,60,0,0
26621,-100,4,2,0,60,0,0
27984,-83.3333333333333,4,2,0,60,0,0
36337,-133.333333333333,4,2,0,60,0,0
45371,-66.6666666666667,4,2,0,60,0,0
47075,-41.6666666666667,4,2,0,90,0,1
52530,-66.6666666666667,4,2,0,90,0,1
56621,-66.6666666666667,4,2,0,90,0,0
66166,-66.6666666666667,4,2,0,90,0,0
67530,-133.333333333333,4,2,0,60,0,0
68552,-133.333333333333,4,2,0,60,0,0
72984,-100,4,2,0,60,0,0
74007,-76.3358778625954,4,2,0,60,0,0
78779,-63.6942675159236,4,2,0,60,0,0
79462,-76.3358778625954,4,2,0,60,0,0
89348,-100,4,2,0,60,0,0
90712,-83.3333333333333,4,2,0,60,0,0
98979,-133.333333333333,4,2,0,60,0,0
109121,-66.6666666666667,4,2,0,60,0,0
109802,-41.6666666666667,4,2,0,90,0,1
115257,-66.6666666666667,4,2,0,90,0,1
115768,-66.6666666666667,4,2,0,90,0,1
115938,-66.6666666666667,4,2,0,90,0,1
119348,-66.6666666666667,4,2,0,90,0,0
128893,-66.6666666666667,4,2,0,90,0,0
130257,-100,4,2,0,90,0,0

[Colours]
Combo1 : 121,193,134
Combo2 : 233,205,112
Combo3 : 118,132,188
Combo4 : 200,194,187

[HitObjects]
113,105,371,53,12,3:2:0:0:
113,105,712,6,0,P|82:154|90:192,1,80,2|0,0:0|0:0,0:0:0:0:
160,209,1052,1,2,0:0:0:0:
160,209,1223,1,2,0:0:0:0:
19,205,1393,2,0,P|61:244|100:242,1,80,2|0,0:0|0:0,0:0:0:0:
76,321,1734,2,0,P|131:302|149:270,1,80,2|0,0:0|0:0,0:0:0:0:
323,165,2075,6,0,P|295:112|259:101,1,80,2|0,0:0|0:0,0:0:0:0:
209,153,2416,1,2,0:0:0:0:
209,153,2587,1,2,0:0:0:0:
283,32,2757,2,0,P|227:50|209:83,1,80,2|0,0:0|0:0,0:0:0:0:
154,23,3098,2,0,P|142:81|161:112,1,80,2|0,0:0|0:0,0:0:0:0:
203,302,3439,5,2,0:0:0:0:
208,314,3609,1,2,0:0:0:0:
281,280,3780,5,2,0:0:0:0:
269,255,3950,1,2,0:0:0:0:
135,238,4121,5,2,0:0:0:0:
117,292,4291,1,2,0:0:0:0:
312,352,4462,5,2,0:0:0:0:
347,243,4632,1,2,0:0:0:0:
113,105,4802,6,0,P|82:154|90:192,1,80,2|0,0:0|0:0,0:0:0:0:
160,209,5143,1,2,0:0:0:0:
160,209,5314,1,2,0:0:0:0:
19,205,5484,2,0,P|61:244|100:242,1,80,2|0,0:0|0:0,0:0:0:0:
209,153,5825,1,8,0:0:0:0:
209,153,5910,1,8,0:0:0:0:
209,153,5996,1,8,0:0:0:0:
209,153,6166,6,0,P|211:95|75:51,1,209.600003837891,4|0,1:2|1:0,0:0:0:0:
89,42,6592,1,0,1:0:0:0:
89,42,6677,1,8,0:0:0:0:
13,168,6848,2,0,P|56:204|139:185,1,104.800001918945,0|8,1:0|0:0,0:0:0:0:
230,129,7189,1,0,1:0:0:0:
230,129,7274,1,0,1:0:0:0:
230,129,7359,1,8,0:0:0:0:
301,293,7530,6,0,P|425:249|506:245,1,209.600003837891,0|0,1:0|1:0,0:0:0:0:
502,244,7956,1,0,1:0:0:0:
502,244,8041,1,8,0:0:0:0:
410,359,8212,2,0,P|395:295|364:228,1,104.800001918945,0|8,1:0|0:0,0:0:0:0:
468,141,8552,2,0,P|459:161|453:235,2,52.4000009594727,0|0|8,1:0|1:0|0:0,0:0:0:0:
296,36,8893,5,0,1:0:0:0:
296,156,9064,1,8,0:0:0:0:
400,96,9234,1,0,1:0:0:0:
400,96,9319,1,0,1:0:0:0:
400,96,9405,1,8,0:0:0:0:
204,144,9575,5,0,1:0:0:0:
400,208,9746,1,8,0:0:0:0:
272,64,9916,1,0,1:0:0:0:
272,64,10001,1,0,1:0:0:0:
272,64,10087,1,8,0:0:0:0:
125,284,10257,6,0,B|247:294|187:214|321:228,1,209.600003837891,0|0,1:0|1:0,0:0:0:0:
317,227,10683,1,0,1:0:0:0:
317,227,10768,1,8,0:0:0:0:
419,169,10939,2,0,P|471:177|523:225,1,104.800001918945,0|8,1:0|0:0,0:0:0:0:
432,332,11280,2,0,P|424:304|420:280,2,52.4000009594727,0|0|8,1:0|1:0|0:0,0:0:0:0:
306,255,11621,6,0,P|202:271|98:367,1,209.600003837891,0|0,1:0|1:0,0:0:0:0:
120,332,12047,1,0,1:0:0:0:
120,332,12132,1,8,0:0:0:0:
13,231,12302,2,0,P|49:167|109:187,1,104.800001918945,0|8,1:0|0:0,0:0:0:0:
203,252,12643,1,0,1:0:0:0:
203,252,12729,1,0,1:0:0:0:
203,252,12814,1,8,0:0:0:0:
117,369,12984,6,0,P|101:265|69:157,1,209.600003837891,0|0,1:0|1:0,0:0:0:0:
71,164,13410,1,0,1:0:0:0:
71,164,13496,1,8,0:0:0:0:
156,45,13666,2,0,P|228:69|236:137,1,104.800001918945,0|8,1:0|0:0,0:0:0:0:
324,200,14007,2,0,P|363:210|404:183,2,52.4000009594727,0|0|8,1:0|1:0|0:0,0:0:0:0:
182,157,14348,5,0,1:0:0:0:
374,85,14518,1,8,0:0:0:0:
158,29,14689,1,0,1:0:0:0:
158,29,14774,1,0,1:0:0:0:
158,29,14859,1,8,0:0:0:0:
322,233,15030,5,0,1:0:0:0:
262,21,15200,1,8,0:0:0:0:
106,189,15371,1,0,1:0:0:0:
106,189,15456,1,0,1:0:0:0:
106,189,15541,1,8,0:0:0:0:
233,140,15712,6,0,P|283:112|320:123,1,80,2|0,0:0|0:0,0:0:0:0:
370,153,16052,1,2,0:0:0:0:
370,153,16223,1,2,0:0:0:0:
421,274,16393,2,0,P|371:242|362:204,1,80,2|0,0:0|0:0,0:0:0:0:
449,74,16734,1,8,0:0:0:0:
459,103,16819,1,8,0:0:0:0:
471,132,16905,1,8,0:0:0:0:
471,132,17075,6,0,L|454:283,1,121.599998515625,4|10,1:0|0:0,0:0:0:0:
363,382,17416,1,0,1:0:0:0:
363,382,17501,1,0,1:0:0:0:
363,382,17587,1,10,0:0:0:0:
256,264,17757,2,0,P|197:264|146:297,1,121.599998515625,0|10,1:0|0:0,0:0:0:0:
376,161,18098,1,0,1:0:0:0:
372,131,18183,1,0,1:0:0:0:
362,103,18268,1,10,0:0:0:0:
224,24,18439,6,0,P|160:72|172:152,1,121.599998515625,0|10,1:0|0:0,0:0:0:0:
241,252,18780,1,0,1:0:0:0:
241,252,18865,1,0,1:0:0:0:
241,252,18950,1,10,0:0:0:0:
351,138,19121,2,0,L|191:126,1,121.599998515625,0|10,1:0|0:0,0:0:0:0:
87,212,19462,2,0,P|118:205|147:202,2,60.7999992578125,0|0|10,1:0|1:0|0:0,0:0:0:0:
156,360,19802,5,0,1:0:0:0:
328,280,19973,1,10,0:0:0:0:
192,184,20143,1,0,1:0:0:0:
192,184,20229,1,0,1:0:0:0:
192,184,20314,1,10,0:0:0:0:
288,364,20484,5,0,1:0:0:0:
324,152,20655,1,10,0:0:0:0:
148,276,20825,1,0,1:0:0:0:
148,276,20910,1,0,1:0:0:0:
148,276,20996,1,10,0:0:0:0:
372,368,21166,6,0,B|360:256|272:332|258:177,1,182.399997773438,0|0,1:0|0:0,0:0:0:0:
264,200,21507,6,0,P|295:218|294:259,1,60.7999992578125,2|0,1:0|1:0,0:0:0:0:
372,244,21677,6,0,P|372:280|336:299,1,60.7999992578125,2|0,1:0|0:0,0:0:0:0:
244,367,21848,6,0,P|188:300|121:284,1,121.599998515625,2|2,1:0|1:0,0:0:0:0:
53,239,22189,2,0,P|50:207|68:170,2,60.7999992578125,0|0|10,1:0|1:0|0:0,0:0:0:0:
4,376,22530,6,0,P|70:359|136:357,1,121.599998515625,0|10,1:0|0:0,0:0:0:0:
264,279,22871,1,0,1:0:0:0:
264,279,22956,1,0,1:0:0:0:
264,279,23041,1,10,0:0:0:0:
195,135,23212,2,0,P|137:200|132:256,1,121.599998515625,0|10,1:0|0:0,0:0:0:0:
205,370,23552,1,0,1:0:0:0:
233,364,23638,1,0,1:0:0:0:
263,356,23723,1,10,0:0:0:0:
361,232,23893,6,0,P|451:267|460:338,1,121.599998515625,0|10,1:0|0:0,0:0:0:0:
342,384,24234,1,0,1:0:0:0:
342,384,24319,1,0,1:0:0:0:
342,384,24405,1,10,0:0:0:0:
242,261,24575,2,0,P|223:176|250:123,1,121.599998515625,0|10,1:0|0:0,0:0:0:0:
373,70,24916,2,0,P|382:112|369:139,2,60.7999992578125,0|0|10,1:0|1:0|0:0,0:0:0:0:
240,8,25257,5,0,1:0:0:0:
52,80,25427,1,10,0:0:0:0:
225,146,25598,1,0,1:0:0:0:
225,146,25683,1,0,1:0:0:0:
225,146,25768,1,10,0:0:0:0:
22,152,25939,5,0,1:0:0:0:
268,80,26109,1,10,0:0:0:0:
12,17,26280,1,0,1:0:0:0:
12,17,26365,1,0,1:0:0:0:
12,17,26450,1,10,0:0:0:0:
152,187,26621,6,0,B|187:141|247:168|247:168|262:152|262:152|314:177|365:130,1,240,0|2,1:0|0:0,1:0:0:0:
197,3,27302,6,0,L|192:44,2,40,8|8|8,0:0|0:0|0:0,0:0:0:0:
247,168,27643,1,8,0:0:0:0:
315,4,27814,1,8,0:0:0:0:
136,95,27984,6,0,P|89:99|42:108,1,95.9999970703126,4|10,1:2|0:0,0:0:0:0:
247,168,28325,1,4,1:2:0:0:
247,168,28410,1,0,1:0:0:0:
246,168,28496,1,10,0:0:0:0:
127,292,28666,2,0,P|92:253|90:188,1,95.9999970703126,4|10,1:2|0:0,0:0:0:0:
237,109,29007,1,4,1:2:0:0:
240,137,29092,1,0,1:0:0:0:
246,168,29177,1,10,0:0:0:0:
376,338,29348,6,0,P|450:345|507:365,1,95.9999970703126,4|10,1:2|0:0,0:0:0:0:
298,225,29689,1,4,1:2:0:0:
301,250,29774,1,0,1:0:0:0:
308,278,29859,1,10,0:0:0:0:
157,340,30030,2,0,P|83:347|26:367,1,95.9999970703126,4|10,1:2|0:0,0:0:0:0:
214,225,30371,2,0,P|213:249|207:282,2,47.9999985351563,4|0|10,1:2|1:0|0:0,0:0:0:0:
449,342,30712,6,0,P|480:257|459:232,1,95.9999970703126,4|10,1:2|0:0,0:0:0:0:
353,161,31052,1,4,1:2:0:0:
353,161,31138,1,0,1:0:0:0:
353,161,31223,1,10,0:0:0:0:
463,28,31393,2,0,P|485:69|492:117,1,95.9999970703126,4|10,1:2|0:0,0:0:0:0:
332,50,31734,1,4,1:2:0:0:
307,47,31819,1,0,1:0:0:0:
279,44,31905,1,10,0:0:0:0:
160,170,32075,6,0,P|214:149|290:141,1,95.9999970703126,4|10,1:2|0:0,0:0:0:0:
133,29,32416,1,4,1:2:0:0:
133,29,32501,1,0,1:0:0:0:
133,29,32587,1,10,0:0:0:0:
6,145,32757,2,0,P|27:199|35:275,1,95.9999970703126,4|10,1:2|0:0,0:0:0:0:
134,377,33098,2,0,P|139:353|147:331,2,47.9999985351563,4|0|10,1:2|1:0|0:0,0:0:0:0:
186,266,33439,5,0,1:0:0:0:
373,162,33780,5,8,1:2:0:0:
186,266,34121,5,0,1:0:0:0:
317,282,34291,1,0,1:0:0:0:
373,162,34462,1,8,1:2:0:0:
276,72,34632,1,0,1:0:0:0:
136,137,34802,5,12,1:2:0:0:
337,295,35143,5,12,1:2:0:0:
136,137,35484,5,12,1:2:0:0:
136,137,35569,1,0,1:0:0:0:
136,137,35655,1,0,1:0:0:0:
392,146,35825,1,12,1:2:0:0:
176,292,35996,2,0,L|207:216,1,47.9999985351563,8|8,0:0|0:0,0:0:0:0:
256,48,36166,5,2,0:0:0:0:
256,48,36507,2,0,P|208:76|204:104,1,60.0000022888184,2|0,0:0|0:0,0:0:0:0:
216,152,36848,2,0,P|248:160|316:102,1,120.000004577637,8|2,0:1|0:0,0:0:0:0:
316,93,37359,1,0,0:0:0:0:
141,140,37530,2,0,P|117:164|144:256,1,120.000004577637,2|2,0:0|0:0,0:0:0:0:
187,82,38212,2,0,P|178:49|94:19,1,120.000004577637,8|2,0:1|0:0,0:0:0:0:
86,24,38723,1,0,0:0:0:0:
0,160,38893,2,0,P|52:152|80:152,1,60.0000022888184,2|0,0:0|0:0,0:0:0:0:
244,296,39234,6,0,P|192:288|164:288,1,60.0000022888184,2|0,0:0|0:0,0:0:0:0:
124,224,39575,2,0,P|108:268|112:344,1,120.000004577637,8|2,0:1|0:0,0:0:0:0:
116,356,40087,1,0,0:0:0:0:
304,231,40257,2,0,P|273:195|206:160,1,120.000004577637,2|2,0:0|0:0,0:0:0:0:
194,158,40768,1,0,0:0:0:0:
207,384,40939,2,0,P|253:375|276:348,1,60.0000022888184,8|0,0:1|0:0,0:0:0:0:
336,348,41280,2,0,P|352:303|338:269,1,60.0000022888184,2|0,0:0|0:0,0:0:0:0:
304,231,41621,1,2,0:0:0:0:
124,368,41962,5,2,0:0:0:0:
124,368,42302,2,0,P|114:337|82:294,1,60.0000022888184,8|0,0:1|0:0,0:0:0:0:
192,272,42643,5,2,0:0:0:0:
256,152,42814,1,0,0:0:0:0:
192,272,42984,2,0,P|201:241|233:198,1,60.0000022888184,2|0,0:0|0:0,0:0:0:0:
44,208,43325,5,2,0:0:0:0:
0,60,43496,1,0,0:0:0:0:
44,208,43666,2,0,P|40:175|16:127,1,60.0000022888184,8|0,0:1|0:0,0:0:0:0:
160,12,44007,5,2,0:0:0:0:
233,34,44177,1,0,0:0:0:0:
226,111,44348,2,0,L|151:126,1,60.0000022888184,2|0,0:0|0:0,0:0:0:0:
297,78,44689,6,0,P|355:84|384:90,1,60.0000022888184,2|0,0:0|0:0,0:0:0:0:
420,125,45030,2,0,P|478:119|507:113,2,60.0000022888184,8|0|2,0:1|0:0|0:0,0:0:0:0:
420,125,46393,6,2,B|357:56|265:107|265:107|239:84|239:84|160:131|72:63,1,360.000013732911,0|0,0:0|0:0,0:0:0:0:
36,32,47075,5,4,1:0:0:0:
238,183,47246,1,0,1:0:0:0:
60,357,47416,2,0,P|48:285|16:229,1,95.9999970703126,8|0,0:0|0:0,0:0:0:0:
119,167,47587,5,0,1:0:0:0:
291,328,47757,2,0,P|407:349|427:203,1,287.999991210938,0|0,1:0|0:0,0:0:0:0:
373,131,48098,6,0,P|328:106|266:125,1,95.9999970703126,8|0,1:2|0:0,0:0:0:0:
217,39,48268,2,0,P|173:65|158:128,1,95.9999970703126,0|0,1:0|0:0,0:0:0:0:
105,194,48439,6,0,P|141:285|166:402,1,191.999994140625,0|0,0:0|1:0,0:0:0:0:
399,301,48780,2,0,P|421:207|456:118,1,191.999994140625,8|0,1:2|0:0,0:0:0:0:
235,0,49121,2,0,P|89:125|111:204,1,287.999991210938,0|0,1:0|0:0,0:0:0:0:
162,272,49462,6,0,P|214:262|279:257,1,95.9999970703126,8|0,1:2|0:0,0:0:0:0:
316,181,49632,2,0,P|368:191|433:196,1,95.9999970703126
472,261,49802,5,0,1:0:0:0:
251,105,49973,1,0,1:0:0:0:
329,361,50143,2,0,P|348:317|386:268,1,95.9999970703126,8|0,0:0|0:0,0:0:0:0:
487,181,50314,5,0,1:0:0:0:
256,334,50484,2,0,P|127:345|114:216,1,287.999991210938,0|0,1:0|0:0,0:0:0:0:
178,152,50825,6,0,P|202:111|196:65,1,95.9999970703126,8|0,1:2|0:0,0:0:0:0:
101,42,50996,2,0,P|76:82|82:128,1,95.9999970703126,0|0,1:0|0:0,0:0:0:0:
114,215,51166,6,0,P|210:186|324:181,1,191.999994140625,0|0,0:0|1:0,0:0:0:0:
503,32,51507,2,0,P|402:26|294:-7,1,191.999994140625,8|0,1:2|0:0,0:0:0:0:
22,228,51847,6,0,P|82:229|133:197,1,95.9999970703126,2|0,1:2|0:0,0:0:0:0:
194,88,52018,2,0,P|252:76|308:98,1,95.9999970703126,2|0,0:0|0:0,0:0:0:0:
282,177,52188,6,0,P|234:186|190:168,1,95.9999970703126,10|0,1:2|0:0,0:0:0:0:
108,116,52359,2,0,P|59:115|19:140,1,95.9999970703126,2|0,0:0|0:0,0:0:0:0:
184,251,52530,5,4,1:2:0:0:
184,251,52871,2,0,P|251:282|263:346,1,120.000004577637,0|2,1:0|0:0,0:0:0:0:
341,367,53212,2,0,P|428:330|375:186,1,240.000009155274,12|0,0:2|1:0,0:0:0:0:
340,175,53723,1,2,0:0:0:0:
173,78,53893,6,0,P|160:172|312:197,1,240.000009155274,4|0,1:2|1:0,0:0:0:0:
340,175,54405,1,0,0:0:0:0:
507,77,54575,6,0,P|431:19|333:137,1,240.000009155274,12|0,0:2|1:0,0:0:0:0:
340,175,55087,1,0,0:0:0:0:
488,288,55257,6,0,P|416:268|248:248,1,240.000009155274,6|2,1:2|1:2,0:0:0:0:
108,304,55768,1,2,0:0:0:0:
276,365,55939,2,0,P|265:305|252:247,1,120.000004577637,14|0,0:2|0:0,0:0:0:0:
60,96,56280,1,0,1:0:0:0:
60,96,56450,1,0,1:0:0:0:
368,356,57984,6,0,P|496:260|448:188,1,240.000009155274,2|10,1:2|0:2,0:0:0:0:
360,124,58496,1,2,0:0:0:0:
436,20,58666,2,0,P|444:100|468:156,1,120.000004577637,2|0,1:2|0:0,0:0:0:0:
316,292,59007,2,0,P|308:212|284:156,1,120.000004577637,10|0,0:2|0:0,0:0:0:0:
144,28,59348,6,0,P|16:124|64:196,1,240.000009155274,2|10,1:2|0:2,0:0:0:0:
152,260,59859,1,2,0:0:0:0:
76,364,60030,2,0,P|68:284|44:228,1,120.000004577637,2|0,1:2|0:0,0:0:0:0:
196,92,60371,2,0,P|204:172|228:228,1,120.000004577637,10|0,0:0|0:0,0:0:0:0:
348,328,60712,5,2,1:2:0:0:
364,248,60882,1,2,0:0:0:0:
236,296,61052,1,10,0:0:0:0:
252,376,61223,1,2,0:0:0:0:
432,292,61393,5,2,1:2:0:0:
512,220,61564,1,2,0:0:0:0:
247,102,61734,1,8,0:0:0:0:
288,203,61905,1,2,0:0:0:0:
368,28,62075,6,0,P|496:124|448:196,1,240.000009155274,2|8,1:2|0:0,0:0:0:0:
360,260,62587,1,2,0:0:0:0:
436,364,62757,2,0,P|444:284|468:228,1,120.000004577637,2|0,1:2|0:0,0:0:0:0:
316,92,63098,2,0,P|308:172|284:228,1,120.000004577637,10|0,0:2|0:0,0:0:0:0:
144,356,63439,6,0,P|16:260|64:188,1,240.000009155274,2|10,1:2|0:0,0:0:0:0:
152,124,63950,1,2,0:0:0:0:
240,276,64121,2,0,P|140:256|92:260,1,120.000004577637,2|0,1:2|0:0,0:0:0:0:
8,80,64462,2,0,P|108:100|156:96,1,120.000004577637,10|0,0:0|0:0,0:0:0:0:
368,28,64802,6,0,P|496:124|448:196,1,240.000009155274,2|10,1:2|0:0,0:0:0:0:
360,260,65314,1,2,0:0:0:0:
272,108,65484,2,0,P|372:128|420:124,1,120.000004577637,2|0,1:2|0:0,0:0:0:0:
504,304,65825,2,0,P|404:284|356:288,1,120.000004577637,10|0,0:0|0:0,0:0:0:0:
164,328,66166,5,0,1:0:0:0:
148,248,66337,1,8,0:0:0:0:
312,240,66507,1,0,1:0:0:0:
260,376,66677,1,10,0:0:0:0:
36,216,66848,1,0,1:0:0:0:
236,104,67018,1,8,0:0:0:0:
164,328,67189,1,0,1:0:0:0:
0,100,67359,1,8,0:0:0:0:
232,28,67530,6,0,P|273:213|304:372,1,330.000012588501,2|0,1:2|0:0,3:0:0:0:
328,376,68552,1,8,0:0:0:0:
328,376,68638,1,8,0:0:0:0:
328,376,68723,1,8,0:0:0:0:
488,320,68893,6,0,P|428:280|368:295,1,120.000004577637,4|0,2:0|1:0,0:0:0:0:
343,349,69405,1,2,0:0:0:0:
386,208,69575,2,0,P|322:239|308:301,1,120.000004577637,0|0,1:0|1:0,0:0:0:0:
184,348,70257,6,0,P|120:316|102:256,1,120.000004577637,0|0,1:0|1:0,0:0:0:0:
135,203,70768,1,2,0:0:0:0:
36,315,70939,2,0,P|31:244|77:199,1,120.000004577637,0|0,1:0|1:0,0:0:0:0:
224,144,71621,6,0,L|311:154,1,60.0000022888184,0|2,1:0|0:0,0:0:0:0:
282,246,71962,2,0,L|194:235,1,60.0000022888184,0|2,1:0|0:0,0:0:0:0:
167,88,72302,6,0,L|248:53,1,60.0000022888184,0|2,1:0|0:0,0:0:0:0:
341,303,72643,2,0,L|259:337,1,60.0000022888184,0|2,1:0|0:0,0:0:0:0:
257,196,72984,6,0,B|341:188|317:244|424:232,1,160,0|0,1:0|1:0,0:0:0:0:
476,152,73496,1,2,0:0:0:0:
400,80,73666,2,0,L|376:188,1,80,0|0,1:0|0:0,0:0:0:0:
468,384,74007,6,0,P|497:271|516:224,1,157.200002878418,12|0,0:0|0:0,0:0:0:0:
476,152,74348,6,0,L|356:124,1,104.800001918945,0|2,1:0|0:1,0:0:0:0:
236,252,74689,2,0,L|356:224,1,104.800001918945,0|2,1:0|0:1,0:0:0:0:
405,34,75030,2,0,P|289:73|277:147,1,209.600003837891,0|0,1:0|1:0,0:0:0:0:
277,147,75541,1,2,0:1:0:0:
236,268,75712,6,0,P|185:248|170:177,1,104.800001918945,0|2,1:0|0:1,0:0:0:0:
55,121,76052,2,0,P|65:67|132:40,1,104.800001918945,0|2,1:0|0:1,0:0:0:0:
284,0,76393,2,0,B|312:128|220:72|240:208,1,209.600003837891,0|0,1:0|1:0,0:0:0:0:
238,194,76905,1,2,0:1:0:0:
108,292,77075,5,0,1:0:0:0:
55,227,77246,1,2,0:1:0:0:
119,172,77416,1,0,1:0:0:0:
173,237,77587,1,2,0:1:0:0:
48,346,77757,5,0,1:0:0:0:
5,175,77927,1,2,0:1:0:0:
175,127,78098,1,0,1:0:0:0:
220,298,78268,1,2,0:1:0:0:
112,232,78439,1,0,1:0:0:0:
112,232,78779,6,0,B|113:232|113:232|114:231|114:231|115:232|115:232|116:232|116:232|116:234|116:234|117:233|117:233|118:233|118:233|118:232|118:232|119:233|119:233|120:233|120:233|120:234|120:234|121:233|121:233|122:233|122:233|122:232|122:232|123:234|123:234|124:235|124:235|125:234|125:234|126:233|126:233|126:234|126:234|127:234|127:234|128:236|128:236|129:235|129:235|130:234|130:234|130:235|130:235|131:235|131:235|132:236|132:236|132:235|132:235|133:236|133:236|134:235|134:235|134:236|134:236|135:236|135:236|136:237|136:237|136:236|136:236|137:236|137:237|137:237|138:236|138:236|138:237|138:237|139:237|139:237|139:238|139:238|140:237|140:237|141:237|141:237|142:237|142:237|142:238|142:238|143:238|143:238|143:239|143:239|144:238|144:238|145:239|145:239|146:238|146:238|146:239|146:239|147:239|147:239|147:240|147:240|148:239|148:239|148:240|149:240|149:240|150:239|150:239|150:240|150:240|151:240|151:240|151:241|151:241|152:241|152:241|153:241|153:241|153:240|153:240|153:241|153:241|154:241|154:242|154:242|155:243|155:243|155:242|155:242|156:242|156:242|157:242|157:242|157:243|157:243|158:243|158:243|158:244|158:244|159:243|159:243|160:244|160:244|161:243|161:243|161:244|161:244|162:244|162:244|162:246|162:246|163:245|163:245|167:247|167:247|165:245|165:245|165:246|165:246|165:247|165:247|166:247|166:247|167:247|167:247|168:246|168:246|168:247|168:247|169:248|169:248|169:249|169:249|170:248|170:248|170:249|171:249|171:249|172:248|172:248|172:249|172:249|172:250|173:250|173:250|173:251|173:251|173:250|173:250|174:251|174:251|175:250|175:250|175:251|175:251|176:252|176:252|176:253|176:253|177:252|177:252|177:253|178:253|178:253|179:253|179:253|179:254|179:254|179:255|179:255|180:255|180:255|181:255|181:255|182:255|182:255|182:256|182:256|182:257|182:257|182:258|182:258|183:257|183:257|184:258|184:258|185:257|185:257|185:259|185:259|186:259|186:259|185:260|185:260|186:260|186:260|187:260|187:261|187:261|188:260|188:260|188:261|188:261|188:262|189:262|189:262|188:263|188:263|189:263|189:263|190:263|190:263|191:263|191:263|191:264|191:264|191:265|191:265|191:266|191:266|192:266|192:266|193:266|193:266|194:266|194:266|193:267|193:267|194:268|194:268|193:269|193:269|195:269|195:269|196:269|196:269|196:270|196:270|196:271|196:271|196:272|196:272|197:272|197:272|198:273|198:273|199:272|199:272|198:273|198:273|198:274|199:274|199:274|198:275|198:275|199:275|199:275|200:276|200:276|201:276|201:276|200:277|200:277|201:277|201:278|201:278|200:279|200:279|201:278|201:278|202:279|202:279|203:279|203:279|202:280|202:280|203:281|203:281|202:282|202:282|203:282|203:282|204:282|204:283|204:283|205:283|205:283|204:284|204:284|205:284|205:284|204:285|204:285|205:285|205:285|206:286|206:286|207:286|207:286|206:287|206:287|207:288|207:288|206:289|206:289|207:289|207:289|208:290|208:290|209:290|209:290|208:291|208:291|209:292|209:292|208:292|208:292|209:292|209:292|209:293|210:293|210:293|211:293|211:293|210:294|210:294|210:295|210:295|210:296|210:296|211:296|211:296|211:297|211:297|212:297|212:297|212:298|212:298|212:299|212:299|212:300|212:300|213:299|213:299|213:300|213:300|214:300|214:300|214:301|214:301|214:302|214:302|214:303|214:303|215:303|215:303|215:304|215:304|216:304|216:304|216:305|216:305|216:306|216:306|216:307|216:307|217:306|217:306|217:307|217:307|218:307|218:307|218:308|218:308|218:309|218:309|218:310|218:310|219:310|219:310|219:311|219:311|220:311|220:311|220:312|220:312|220:313|220:313|221:313|221:313|221:314|222:314|222:314|223:314|223:314|222:315|222:315|223:315|223:316|223:316|222:317|222:317|223:317|223:317|224:317|224:317|225:317|225:317|225:318|225:318|225:319|225:319|225:320|225:320|226:320|226:320|227:320|227:320|228:320|228:320|227:321|227:321|228:322|228:322|227:323|227:323|229:323|229:323|230:323|230:323|230:324|230:324|230:325|231:325|231:325|230:326|230:326|231:325|231:325|232:326|232:326|233:326|233:326|233:327|233:327|234:327|234:327|233:329|233:329|234:328|234:328|235:328|235:329|235:329|236:328|236:328|236:329|236:329|236:330|237:330|237:330|237:331|237:331|238:331|238:331|239:331|239:331|239:332|239:332|240:332|240:332|240:334|240:334|241:333|241:333|242:333|242:333|242:334|242:334|243:334|243:335|243:335|243:336|243:336|244:335|244:335|245:336|245:336|246:335|246:335|246:336|246:336|246:337|247:337|247:337|247:338|247:338|248:337|248:337|248:338|248:338|249:337|249:337|249:338|249:338|250:338|250:339|250:339|250:340|250:340|251:339|251:339|252:339|252:339|253:339|253:339|253:340|253:340|254:340|254:340|254:341|254:341|255:341|255:341|256:341|256:341|256:340|256:340|257:341|257:341|257:342|257:342|257:343|257:343|258:342|258:342|259:343|259:343|260:342|260:342|260:343|260:343|261:343|261:343|261:344|261:344|262:344|262:344|263:344|263:344|264:343|264:343|264:344|264:344|265:345|265:345|265:346|265:346|266:345|266:345|267:345|267:345|268:344|268:344|268:346|268:346|269:346|269:346|269:347|269:347|270:346|270:346|271:347|271:347|272:346|272:346|272:347|272:347|273:347|273:347|273:348|273:348|273:347|273:347|274:348|275:348|275:348|275:347|275:347|275:348|275:348|276:348|277:348|277:348|277:349|277:349|277:348|277:348|278:349|278:349|279:348|279:348|279:349|279:349|280:349|280:349|281:350|281:350|281:349|281:349|282:350|282:350|283:349|283:349|283:350|283:350|284:350|284:350|285:351|285:351|285:350|285:350|286:350|286:350|287:349|287:349|287:351|287:351|288:351|288:351|288:352|288:352|289:351|289:351|290:351|290:351|291:350|291:350|291:351|291:351|292:351|292:351|292:352|292:352|293:352|293:352|294:352|294:352|295:351|295:351|295:352|295:352|296:352|296:352|296:353|296:353|297:352|297:352|298:352|298:352|299:351|299:351|299:353|299:353|300:353|300:353|300:354|300:354|301:353|301:353|302:353|302:353|303:352|303:352|303:353|303:353|304:353|304:353|304:354|304:354|305:353|305:353|306:353|306:353|307:353|307:353|307:354|307:354|308:354|308:354|308:355|308:355|309:354|309:354|310:354|310:354|311:353|311:353|311:354|311:354|312:354|312:354|312:355|312:355|313:354|313:354|314:354|314:354|314:353|314:353|315:354|315:354|316:355,1,439.600001676941,0|0,0:0|0:0,1:0:0:0:
352,344,79462,1,8,0:0:0:0:
352,344,79547,1,8,0:0:0:0:
352,344,79632,1,8,0:0:0:0:
310,192,79802,6,0,P|258:212|226:260,1,104.800001918945,4|10,1:2|0:0,0:0:0:0:
142,384,80143,1,0,1:0:0:0:
142,384,80229,1,0,1:0:0:0:
142,384,80314,1,10,0:0:0:0:
50,176,80484,2,0,P|35:226|26:278,1,104.800001918945,0|10,1:0|0:0,0:0:0:0:
206,153,80825,1,0,1:0:0:0:
201,117,80910,1,0,1:0:0:0:
189,83,80996,1,10,0:0:0:0:
64,8,81166,6,0,P|24:84|20:128,1,104.800001918945,0|10,1:0|0:0,0:0:0:0:
128,240,81507,1,0,1:0:0:0:
128,240,81592,1,0,1:0:0:0:
128,240,81677,1,10,0:0:0:0:
304,64,81848,5,0,1:0:0:0:
140,156,82018,1,2,1:3:0:0:
340,204,82189,2,0,L|403:214,2,52.4000009594727,0|0|2,1:0|1:0|1:3,0:0:0:0:
188,48,82530,5,0,1:0:0:0:
210,268,82700,1,2,1:3:0:0:
386,110,82871,1,0,1:0:0:0:
386,110,82956,1,0,1:0:0:0:
386,110,83041,1,2,1:3:0:0:
116,176,83212,5,0,1:0:0:0:
337,275,83382,1,2,1:3:0:0:
282,20,83552,1,0,1:0:0:0:
282,20,83638,1,0,1:0:0:0:
282,20,83723,1,2,1:3:0:0:
52,224,83893,6,0,P|124:256|180:220,1,104.800001918945,0|2,1:0|1:3,0:0:0:0:
201,66,84234,1,0,1:0:0:0:
201,66,84319,1,0,1:0:0:0:
201,66,84405,1,2,1:3:0:0:
324,248,84575,1,0,1:0:0:0:
116,176,84746,1,10,0:0:0:0:
329,110,84916,1,0,1:0:0:0:
329,110,85001,1,0,1:0:0:0:
329,110,85087,1,10,0:0:0:0:
214,258,85257,6,0,L|183:383,1,104.800001918945,0|10,1:0|0:0,0:0:0:0:
396,280,85598,1,0,1:0:0:0:
396,280,85683,1,0,1:0:0:0:
396,280,85768,1,10,0:0:0:0:
292,204,85939,2,0,L|316:328,1,104.800001918945,0|10,1:0|0:0,0:0:0:0:
488,360,86280,1,0,1:0:0:0:
501,325,86365,1,0,1:0:0:0:
507,290,86450,1,10,0:0:0:0:
428,160,86621,6,0,P|376:136|284:140,1,104.800001918945,0|10,1:0|0:0,0:0:0:0:
189,196,86962,1,0,1:0:0:0:
189,196,87047,1,0,1:0:0:0:
189,196,87132,1,10,0:0:0:0:
277,325,87302,2,0,L|305:189,1,104.800001918945,0|10,1:0|0:0,0:0:0:0:
250,71,87643,2,0,L|241:122,2,52.4000009594727,0|0|10,1:0|1:0|0:0,0:0:0:0:
361,132,87984,5,0,1:0:0:0:
264,296,88155,1,10,0:0:0:0:
165,129,88325,1,0,1:0:0:0:
165,129,88410,1,0,1:0:0:0:
165,129,88496,1,10,0:0:0:0:
379,250,88666,5,0,1:0:0:0:
147,252,88837,1,10,0:0:0:0:
263,51,89007,1,0,1:0:0:0:
263,51,89092,1,0,1:0:0:0:
263,51,89177,1,10,0:0:0:0:
364,200,89348,6,0,B|336:215|305:199|305:199|297:204|297:204|292:199|292:199|256:183|215:199|215:199|209:195|209:195|202:198|202:198|171:219|124:195,1,240,0|2,1:0|0:0,1:0:0:0:
64,172,90030,6,0,L|23:180,2,40,8|8|8,0:0|0:0|0:0,0:0:0:0:
224,284,90371,1,8,0:0:0:0:
45,367,90541,1,8,0:0:0:0:
236,208,90712,6,0,P|283:195|344:216,1,95.9999970703126,4|8,1:2|0:0,0:0:0:0:
491,287,91052,1,4,1:2:0:0:
491,287,91138,1,0,1:0:0:0:
491,287,91223,1,8,0:0:0:0:
343,375,91393,2,0,P|331:311|303:247,1,95.9999970703126,4|8,1:2|0:0,0:0:0:0:
429,147,91734,1,4,1:2:0:0:
424,185,91819,1,0,1:0:0:0:
420,219,91905,1,8,0:0:0:0:
288,104,92075,6,0,L|307:-6,1,95.9999970703126,4|8,1:2|0:0,0:0:0:0:
485,41,92416,1,4,1:2:0:0:
485,41,92501,1,0,1:0:0:0:
485,41,92587,1,8,0:0:0:0:
471,168,92757,2,0,L|451:278,1,95.9999970703126,4|8,1:2|0:0,0:0:0:0:
267,222,93098,2,0,L|208:212,2,47.9999985351563,4|0|8,1:2|1:0|0:0,0:0:0:0:
356,372,93439,6,0,P|378:324|376:263,1,95.9999970703126,4|8,1:2|0:0,0:0:0:0:
296,140,93780,1,4,1:2:0:0:
296,140,93865,1,0,1:0:0:0:
296,140,93950,1,8,0:0:0:0:
152,236,94121,2,0,L|246:253,1,95.9999970703126,4|8,1:2|0:0,0:0:0:0:
392,160,94462,1,4,1:2:0:0:
387,122,94547,1,0,1:0:0:0:
383,88,94631,1,8,0:0:0:0:
232,0,94802,6,0,L|120:25,1,95.9999970703126,4|8,1:2|0:0,0:0:0:0:
44,194,95143,1,4,1:2:0:0:
44,194,95229,1,0,1:0:0:0:
44,194,95314,1,8,0:0:0:0:
199,267,95484,2,0,P|238:207|226:142,1,95.9999970703126,4|8,1:2|0:0,0:0:0:0:
138,20,95825,2,0,L|130:67,2,47.9999985351563,4|0|8,1:2|1:0|0:0,0:0:0:0:
186,118,96166,5,0,1:0:0:0:
373,222,96507,5,8,1:2:0:0:
186,118,96848,5,0,1:0:0:0:
317,102,97018,1,0,1:0:0:0:
373,222,97189,1,8,1:2:0:0:
276,312,97359,1,0,1:0:0:0:
136,247,97529,5,12,1:2:0:0:
337,89,97870,5,12,1:2:0:0:
136,247,98211,5,12,1:2:0:0:
136,247,98296,1,8,0:0:0:0:
136,247,98382,1,8,0:0:0:0:
392,238,98552,1,12,1:2:0:0:
176,92,98723,2,0,L|207:168,1,47.9999985351563,8|8,0:0|0:0,0:0:0:0:
256,336,98893,5,2,0:0:0:0:
256,336,99234,2,0,P|208:308|204:280,1,60.0000022888184,2|0,0:0|0:0,0:0:0:0:
216,232,99575,2,0,P|248:224|316:282,1,120.000004577637,8|2,0:1|0:0,0:0:0:0:
316,291,100086,1,0,0:0:0:0:
141,244,100257,2,0,P|117:220|144:128,1,120.000004577637,2|2,0:0|0:0,0:0:0:0:
187,302,100939,2,0,P|178:335|94:365,1,120.000004577637,8|2,0:1|0:0,0:0:0:0:
86,360,101450,1,0,0:0:0:0:
0,224,101620,2,0,P|52:232|80:232,1,60.0000022888184,2|0,0:0|0:0,0:0:0:0:
244,88,101961,6,0,P|192:96|164:96,1,60.0000022888184,2|0,0:0|0:0,0:0:0:0:
124,160,102302,2,0,P|108:116|112:40,1,120.000004577637,8|2,0:1|0:0,0:0:0:0:
116,28,102814,1,0,0:0:0:0:
304,153,102984,2,0,P|273:189|206:224,1,120.000004577637,2|2,0:0|0:0,0:0:0:0:
194,226,103495,1,0,0:0:0:0:
207,0,103666,2,0,P|253:9|276:36,1,60.0000022888184,8|0,0:1|0:0,0:0:0:0:
336,36,104007,2,0,P|352:81|338:115,1,60.0000022888184,2|0,0:0|0:0,0:0:0:0:
220,152,104348,6,0,B|180:146|180:146|149:126|149:126|100:119,2,120.000004577637,0|0|8,1:0|0:0|0:1,0:0:0:0:
336,36,105371,5,2,0:0:0:0:
378,165,105540,1,0,0:0:0:0:
336,36,105712,2,0,P|339:68|363:115,1,60.0000022888184,2|0,0:0|0:0,0:0:0:0:
505,175,106053,5,0,1:0:0:0:
461,323,106222,1,0,0:0:0:0:
505,175,106394,2,0,P|501:208|477:256,1,60.0000022888184,8|0,0:1|0:0,0:0:0:0:
328,368,106734,5,2,0:0:0:0:
255,346,106904,1,0,0:0:0:0:
312,292,107075,6,0,B|351:297|351:297|382:317|382:317|431:324,1,120.000004577637,0|2,1:0|0:0,0:0:0:0:
200,292,107757,2,0,P|131:301|82:326,1,120.000004577637,8|2,0:1|0:0,0:0:0:0:
86,323,109121,6,2,B|130:338|171:305|171:305|184:311|184:311|190:303|190:303|240:269|304:282|304:282|313:275|313:275|322:279|322:279|374:301|438:253,1,360.000013732911,0|0,0:0|0:0,0:0:0:0:
488,212,109803,5,4,1:0:0:0:
216,120,109973,1,0,1:0:0:0:
284,380,110143,2,0,P|312:324|352:280,1,95.9999970703126,8|0,0:0|0:0,0:0:0:0:
404,188,110314,5,0,1:0:0:0:
221,328,110484,2,0,P|105:349|85:203,1,287.999991210938,0|0,1:0|0:0,0:0:0:0:
152,140,110825,6,0,P|192:132|248:172,1,95.9999970703126,8|0,1:2|0:0,0:0:0:0:
292,236,110996,2,0,P|332:244|388:204,1,95.9999970703126,0|0,1:0|0:0,0:0:0:0:
476,144,111166,6,0,P|382:121|293:86,1,191.999994140625,0|0,0:0|1:0,0:0:0:0:
24,300,111507,2,0,P|113:264|206:242,1,191.999994140625,8|0,1:2|0:0,0:0:0:0:
185,37,111848,2,0,P|84:36|38:196,1,287.999991210938,0|0,1:0|0:0,0:0:0:0:
116,252,112189,6,0,P|165:261|219:226,1,95.9999970703126,8|0,1:2|0:0,0:0:0:0:
261,176,112359,2,0,P|270:123|233:71,1,95.9999970703126
185,37,112530,5,0,1:0:0:0:
24,300,112700,1,0,1:0:0:0:
261,176,112871,2,0,P|227:149|163:143,1,95.9999970703126,8|0,0:0|0:0,0:0:0:0:
35,192,113041,5,0,1:0:0:0:
291,328,113211,2,0,P|407:349|427:203,1,287.999991210938,0|0,1:0|0:0,0:0:0:0:
322,165,113552,6,0,P|347:103|352:34,1,95.9999970703126,8|0,1:2|0:0,0:0:0:0:
480,13,113723,2,0,P|489:59|509:103,1,95.9999970703126,0|0,1:0|0:0,0:0:0:0:
433,210,113893,6,0,P|340:178|289:314,1,191.999994140625,0|0,0:0|1:0,0:0:0:0:
164,357,114234,2,0,P|72:357|29:277,1,191.999994140625,8|0,1:2|0:0,0:0:0:0:
200,63,114574,6,0,P|268:84|296:156,1,95.9999970703126,2|0,1:2|0:0,0:0:0:0:
336,85,114746,2,0,P|351:153|301:214,1,95.9999970703126,2|0,0:0|0:0,0:0:0:0:
176,281,114915,6,0,P|162:224|203:175,1,95.9999970703126,10|0,1:2|0:0,0:0:0:0:
139,177,115087,2,0,P|181:138|243:148,1,95.9999970703126,2|0,0:0|0:0,0:0:0:0:
301,240,115256,5,4,1:2:0:0:
301,240,115427,1,2,0:0:0:0:
301,240,115598,2,0,P|324:340|328:396,1,120.000004577637,0|0,1:0|0:0,0:0:0:0:
108,108,115939,2,0,P|32:264|28:344,1,240.000009155274,12|0,0:2|1:0,0:0:0:0:
88,380,116450,1,2,0:0:0:0:
333,262,116621,6,0,P|235:118|168:74,1,240.000009155274,4|0,1:2|1:0,0:0:0:0:
108,108,117131,1,0,0:0:0:0:
88,380,117302,6,0,P|261:367|332:331,1,240.000009155274,12|0,0:0|1:0,0:0:0:0:
334,262,117813,1,0,0:0:0:0:
200,40,117984,6,0,P|224:144|248:296,1,240.000009155274,4|0,1:2|1:0,0:0:0:0:
348,188,118496,1,2,0:0:0:0:
120,104,118666,2,0,P|97:171|114:242,1,120.000004577637,12|0,0:0|0:0,0:0:0:0:
368,92,119007,1,0,1:0:0:0:
368,92,119177,1,0,1:0:0:0:
104,28,120712,6,0,P|4:92|40:224,1,240.000009155274,2|10,1:2|0:0,0:0:0:0:
124,312,121223,1,2,0:0:0:0:
208,244,121393,2,0,P|232:196|216:112,1,120.000004577637,2|0,1:2|0:0,0:0:0:0:
64,384,121734,2,0,P|40:336|56:252,1,120.000004577637,10|0,0:0|0:0,0:0:0:0:
408,356,122075,6,0,P|508:292|472:160,1,240.000009155274,2|10,1:2|0:0,0:0:0:0:
388,72,122586,1,2,0:0:0:0:
304,140,122756,2,0,P|280:188|296:272,1,120.000004577637,2|0,1:2|0:0,0:0:0:0:
448,0,123097,2,0,P|472:48|456:132,1,120.000004577637,10|0,0:0|0:0,0:0:0:0:
208,40,123439,5,2,1:2:0:0:
128,56,123608,1,2,0:0:0:0:
256,192,123780,1,10,0:0:0:0:
272,112,123949,1,2,0:0:0:0:
76,160,124121,5,2,1:2:0:0:
148,240,124290,1,2,0:0:0:0:
269,384,124462,1,10,0:0:0:0:
291,278,124631,1,2,0:0:0:0:
104,356,124802,6,0,P|4:292|40:160,1,240.000009155274,2|10,1:2|0:0,0:0:0:0:
124,72,125313,1,2,0:0:0:0:
208,140,125484,2,0,P|232:188|216:272,1,120.000004577637,2|0,1:2|0:0,0:0:0:0:
64,0,125825,2,0,P|40:48|56:132,1,120.000004577637,10|0,0:0|0:0,0:0:0:0:
408,28,126166,6,0,P|504:100|452:220,1,240.000009155274,2|10,1:2|0:0,0:0:0:0:
355,336,126677,1,2,0:0:0:0:
300,204,126848,2,0,P|358:193|402:153,1,120.000004577637,2|0,1:2|0:0,0:0:0:0:
459,383,127188,2,0,P|418:347|333:341,1,120.000004577637,10|0,0:0|0:0,0:0:0:0:
104,356,127530,6,0,P|8:284|60:164,1,240.000009155274,2|10,1:2|0:0,0:0:0:0:
157,48,128041,1,2,0:0:0:0:
211,179,128212,2,0,P|153:188|109:228,1,120.000004577637,2|0,1:2|0:0,0:0:0:0:
53,1,128552,2,0,P|98:38|157:46,1,120.000004577637,10|0,0:0|0:0,0:0:0:0:
348,56,128893,5,0,1:0:0:0:
264,172,129064,1,8,0:0:0:0:
480,340,129234,1,0,1:0:0:0:
392,159,129405,1,8,0:0:0:0:
228,352,129575,1,0,1:0:0:0:
462,236,129746,1,8,0:0:0:0:
228,32,129916,1,0,1:0:0:0:
316,332,130087,1,8,0:0:0:0:
474,153,130257,5,0,1:0:0:0:
