osu file format v14

[General]
AudioFilename: audio.ogg
AudioLeadIn: 0
PreviewTime: 36457
Countdown: 0
SampleSet: Normal
StackLeniency: 0.7
Mode: 1
LetterboxInBreaks: 0
WidescreenStoryboard: 0

[Editor]
DistanceSpacing: 1
BeatDivisor: 4
GridSize: 32
TimelineZoom: 1.7

[Metadata]
Title:sympathy 4 the grinch
TitleUnicode:sympathy 4 the grinch
Artist:100 gecs
ArtistUnicode:100 gecs
Creator:Cryceptio
Version:SANTA'S BANGING ON THE BACK OF THE TRUCK!!!!
Source:
Tags:clockbite electronic english pop hyperpop hyper hype alternative dylan brady laura les osno1 christmas xmas for
BeatmapID:4353777
BeatmapSetID:2079176

[Difficulty]
HPDrainRate:6
CircleSize:5
OverallDifficulty:6
ApproachRate:5
SliderMultiplier:1.4
SliderTickRate:1

[Events]
//Background and Video events
0,0,"proxy-image.png",0,-110
//Break Periods
//Storyboard Layer 0 (Background)
//Storyboard Layer 1 (Fail)
//Storyboard Layer 2 (Pass)
//Storyboard Layer 3 (Foreground)
//Storyboard Layer 4 (Overlay)
//Storyboard Sound Samples

[TimingPoints]
323,340.909090909091,4,1,0,70,1,8
323,-80.1603206412826,4,1,0,70,0,0
663,340.909090909091,4,1,0,60,1,0
663,-100,4,1,0,60,0,0
1002,-102.025821281368,4,1,0,60,0,0
1173,-103.489904924851,4,1,0,60,0,0
1343,-105.150769785256,4,1,0,60,0,0
1684,-109.055266708405,4,1,0,60,0,0
2025,-113.730631102425,4,1,0,60,0,0
2366,-119.245061696857,4,1,0,60,0,0
2537,-122.36237897528,4,1,0,60,0,0
2707,-125.720234657875,4,1,0,60,0,0
3049,-133.333333333333,4,1,0,60,0,0
3390,-83.3333333333333,4,1,0,60,0,0
3559,-84.5765419445572,4,1,0,60,0,0
3730,-86.475162499669,4,1,0,60,0,0
3900,-88.7912624171901,4,1,0,60,0,0
4071,-91.5208090571785,4,1,0,60,0,0
4241,-94.640653554096,4,1,0,60,0,0
4412,-98.2180316885124,4,1,0,60,0,0
4582,-102.258648087968,4,1,0,60,0,0
4752,-106.846796992725,4,1,0,60,0,0
5093,-118.066869834366,4,1,0,60,0,0
5264,-124.96165613423,4,1,0,60,0,0
5435,-132.890365448505,4,1,0,60,0,0
5691,-133.422118004841,4,1,0,70,0,0
6117,-100.250626566416,4,1,0,70,0,0
6287,-99.5620589220866,4,1,0,70,0,0
6457,-98.5783048205751,4,1,0,70,0,0
6542,-98.0296312306106,4,1,0,70,0,0
6627,-97.453560779811,4,1,0,70,0,0
6798,-96.22287,4,1,0,70,0,0
6883,-95.54187,4,1,0,70,0,0
6968,-94.870445,4,1,0,70,0,0
7054,-94.20065,4,1,0,70,0,0
7139,-93.54788,4,1,0,70,0,0
7224,-92.90409,4,1,0,70,0,0
7309,-92.269104,4,1,0,70,0,0
7480,-90.9011781028792,4,1,0,70,0,0
7565,-90.2133163213025,4,1,0,70,0,0
7650,-89.5238437672082,4,1,0,70,0,0
7821,-88.1349502834775,4,1,0,70,0,0
7906,-87.4449771553696,4,1,0,70,0,0
7991,-86.7560510475096,4,1,0,70,0,0
8162,-85.36694,4,1,0,70,0,0
8247,-84.66445,4,1,0,70,0,0
8332,-83.97343,4,1,0,70,0,0
8417,-83.293594,4,1,0,70,0,0
8502,-82.62469,4,1,0,70,0,0
8588,-81.95875,4,1,0,70,0,0
8673,-81.31103,4,1,0,70,0,0
8844,-80,4,1,0,70,0,0
8929,-80.179201662416,4,1,0,70,0,0
9014,-80.4393349307226,4,1,0,70,0,0
9099,-80.7451794657709,4,1,0,70,0,0
9184,-81.0863271704478,4,1,0,70,0,0
9355,-81.8601843553778,4,1,0,70,0,0
9525,-82.7290405876514,4,1,0,70,0,0
9610,-83.1972398046632,4,1,0,70,0,0
9696,-83.6927855091403,4,1,0,70,0,0
9781,-84.2036538519736,4,1,0,70,0,0
9866,-84.7351558339244,4,1,0,70,0,0
10037,-85.8662481739857,4,1,0,70,0,0
10207,-87.0724833236307,4,1,0,70,0,0
10292,-87.7064186569038,4,1,0,70,0,0
10377,-88.3611634404637,4,1,0,70,0,0
10548,-89.7425444780334,4,1,0,70,0,0
10633,-90.4618019588696,4,1,0,70,0,0
10718,-91.2032576693127,4,1,0,70,0,0
10804,-91.9765048219739,4,1,0,70,0,0
10889,-92.7640787160573,4,1,0,70,0,0
11059,-94.4110580461064,4,1,0,70,0,0
11230,-96.1686600287365,4,1,0,70,0,0
11316,-97.1817298347911,4,1,0,70,0,0
11400,-98.0221444219079,4,1,0,70,0,0
11572,-100,4,1,0,70,0,0
11741,-99.3400917473254,4,1,0,70,0,0
11912,-98.3845884964904,4,1,0,70,0,0
11997,-97.8542091201532,4,1,0,70,0,0
12082,-97.2971454578671,4,1,0,70,0,0
12252,-96.113495,4,1,0,70,0,0
12338,-95.446495,4,1,0,70,0,0
12423,-94.79628,4,1,0,70,0,0
12508,-94.15486,4,1,0,70,0,0
12593,-93.52208,4,1,0,70,0,0
12679,-92.89044,4,1,0,70,0,0
12764,-92.274475,4,1,0,70,0,0
12934,-90.954279670243,4,1,0,70,0,0
13105,-89.608085366077,4,1,0,70,0,0
13275,-88.2652073924471,4,1,0,70,0,0
13360,-87.5937139983163,4,1,0,70,0,0
13446,-86.9150506387904,4,1,0,70,0,0
13616,-85.569496,4,1,0,70,0,0
13701,-84.884575,4,1,0,70,0,0
13787,-84.20266,4,1,0,70,0,0
13872,-83.53935,4,1,0,70,0,0
13957,-82.88641,4,1,0,70,0,0
14042,-82.24361,4,1,0,70,0,0
14127,-81.610695,4,1,0,70,0,0
14299,-80.3212851405622,4,1,0,70,0,0
14383,-80.5751139769285,4,1,0,70,0,0
14468,-80.9491866311569,4,1,0,70,0,0
14554,-81.3962939251397,4,1,0,70,0,0
14639,-81.8913373084941,4,1,0,70,0,0
14809,-83.0140228819899,4,1,0,70,0,0
14980,-84.3009604106481,4,1,0,70,0,0
15065,-84.9956897619915,4,1,0,70,0,0
15150,-85.7260886393388,4,1,0,70,0,0
15235,-86.4919595461534,4,1,0,70,0,0
15321,-87.3030141634362,4,1,0,70,0,0
15491,-89.0146851596466,4,1,0,70,0,0
15662,-90.8858160841178,4,1,0,70,0,0
16344,-100,4,1,0,70,0,0
16685,-132.450331766288,4,1,0,70,0,0
17026,-99.7506234413965,4,1,0,70,0,0
17196,-99.0957061416141,4,1,0,70,0,0
17366,-98.1593347320619,4,1,0,70,0,0
17451,-97.6367333556321,4,1,0,70,0,0
17537,-97.0811683089774,4,1,0,70,0,0
17707,-95.91403,4,1,0,70,0,0
17792,-95.26399,4,1,0,70,0,0
17877,-94.62272,4,1,0,70,0,0
17963,-93.98261,4,1,0,70,0,0
18048,-93.35841,4,1,0,70,0,0
18133,-92.742455,4,1,0,70,0,0
18218,-92.13457,4,1,0,70,0,0
18389,-90.8238358014106,4,1,0,70,0,0
18474,-90.1641379717604,4,1,0,70,0,0
18559,-89.5024900882511,4,1,0,70,0,0
18730,-88.1684141116227,4,1,0,70,0,0
18815,-87.5050595820933,4,1,0,70,0,0
18900,-86.8423048068964,4,1,0,70,0,0
19071,-85.5127571556344,4,1,0,70,0,0
19156,-84.8545938599929,4,1,0,70,0,0
19241,-84.1987410558646,4,1,0,70,0,0
19326,-83.5455310794,4,1,0,70,0,0
19412,-82.8876339364795,4,1,0,70,0,0
19582,-81.5970855567113,4,1,0,70,0,0
19753,-80.3212851405622,4,1,0,70,0,0
19838,-80.50012021161,4,1,0,70,0,0
19923,-80.7597127394703,4,1,0,70,0,0
20008,-81.0649085069075,4,1,0,70,0,0
20093,-81.4053159738511,4,1,0,70,0,0
20264,-82.1774291845057,4,1,0,70,0,0
20434,-83.0442201396603,4,1,0,70,0,0
20519,-83.5112594281673,4,1,0,70,0,0
20605,-84.0055415920074,4,1,0,70,0,0
20690,-84.5150687197897,4,1,0,70,0,0
20775,-85.0451337217297,4,1,0,70,0,0
20946,-86.1730268542956,4,1,0,70,0,0
21116,-87.3756386722647,4,1,0,70,0,0
21201,-88.0075822403357,4,1,0,70,0,0
21287,-88.6680085934066,4,1,0,70,0,0
21457,-90.0369029499592,4,1,0,70,0,0
21542,-90.7536079200664,4,1,0,70,0,0
21627,-91.4923511450442,4,1,0,70,0,0
21713,-92.2626817149,4,1,0,70,0,0
21798,-93.0471928604507,4,1,0,70,0,0
21968,-94.6874669201351,4,1,0,70,0,0
22054,-95.5546947782869,4,1,0,70,0,0
22139,-96.4374650449404,4,1,0,70,0,0
22309,-98.2824296298579,4,1,0,70,0,0
22394,-99.2462423313125,4,1,0,70,0,0
22481,-100.250626566416,4,1,0,70,0,0
22650,-99.5672533967939,4,1,0,70,0,0
22821,-98.5783048205751,4,1,0,70,0,0
22906,-98.0296312306106,4,1,0,70,0,0
22991,-97.453560779811,4,1,0,70,0,0
23162,-96.2309397916605,4,1,0,70,0,0
23247,-95.5985885802764,4,1,0,70,0,0
23332,-94.9535011591936,4,1,0,70,0,0
23502,-93.6334177552244,4,1,0,70,0,0
23589,-92.9800092980009,4,1,0,70,0,0
23673,-92.2765276396256,4,1,0,70,0,0
23843,-90.90076,4,1,0,70,0,0
23929,-90.17572,4,1,0,70,0,0
24014,-89.47038,4,1,0,70,0,0
24099,-88.776,4,1,0,70,0,0
24184,-88.09231,4,1,0,70,0,0
24269,-87.419075,4,1,0,70,0,0
24355,-86.748314,4,1,0,70,0,0
24525,-85.3833244975162,4,1,0,70,0,0
24610,-84.7003992897889,4,1,0,70,0,0
24696,-84.0122973370288,4,1,0,70,0,0
24781,-83.3353641211176,4,1,0,70,0,0
24866,-82.6618881158399,4,1,0,70,0,0
25037,-81.3185811494342,4,1,0,70,0,0
25208,-80,4,1,0,70,0,0
25292,-80.3257524594192,4,1,0,70,0,0
25377,-80.806901174591,4,1,0,70,0,0
25463,-81.3836861986801,4,1,0,70,0,0
25548,-82.0244751495647,4,1,0,70,0,0
25718,-83.4861820973562,4,1,0,70,0,0
25889,-85.1763928480726,4,1,0,70,0,0
25974,-86.0954001188963,4,1,0,70,0,0
26059,-87.0666149959063,4,1,0,70,0,0
26144,-88.0905713510672,4,1,0,70,0,0
26230,-89.1812114289617,4,1,0,70,0,0
26400,-91.5043660152237,4,1,0,70,0,0
26571,-94.077774867041,4,1,0,70,0,0
26913,-100.000000003725,4,1,0,70,0,0
27253,-133.779264214047,4,1,0,70,0,0
27338,-130.757069363561,4,1,0,70,0,0
27423,-126.627202515623,4,1,0,70,0,0
27593,-117.50022770027,4,1,0,70,0,0
27764,-108.323652353265,4,1,0,70,0,0
27935,-99.7506234413965,4,1,0,70,0,0
28105,-99.4754330739956,4,1,0,70,0,0
28275,-99.0782947239724,4,1,0,70,0,0
28360,-98.8547381327081,4,1,0,70,0,0
28446,-98.6155633472497,4,1,0,70,0,0
28531,-98.3681914884479,4,1,0,70,0,0
28616,-98.1113129414708,4,1,0,70,0,0
28787,-97.5700401981614,4,1,0,70,0,0
28872,-97.2905018121217,4,1,0,70,0,0
28957,-97.0049144445241,4,1,0,70,0,0
29127,-96.4178004945227,4,1,0,70,0,0
29213,-96.1136573073751,4,1,0,70,0,0
29298,-95.8088927534476,4,1,0,70,0,0
29468,-95.1883710418048,4,1,0,70,0,0
29639,-94.5514723296541,4,1,0,70,0,0
29724,-94.230811070404,4,1,0,70,0,0
29809,-93.9077619649047,4,1,0,70,0,0
29980,-93.2514887420775,4,1,0,70,0,0
30065,-92.9224933747071,4,1,0,70,0,0
30150,-92.5918917388617,4,1,0,70,0,0
30321,-91.9225871617913,4,1,0,70,0,0
30407,-91.9225871617913,4,1,0,70,0,0
30491,-91.2526051007818,4,1,0,70,0,0
30576,-90.9162339834343,4,1,0,70,0,0
30662,-90.5751365479825,4,1,0,70,0,0
30832,-89.8990531773567,4,1,0,70,0,0
30917,-89.5603158790795,4,1,0,70,0,0
31002,-89.2212460449697,4,1,0,70,0,0
31088,-88.8779427216391,4,1,0,70,0,0
31173,-88.5384778220239,4,1,0,70,0,0
31259,-88.5384778220239,4,1,0,70,0,0
31343,-87.8594183067885,4,1,0,70,0,0
31514,-87.1767001513853,4,1,0,70,0,0
31599,-86.837639053114,4,1,0,70,0,0
31684,-86.4988652083652,4,1,0,70,0,0
31855,-85.8184462759651,4,1,0,70,0,0
31940,-85.480894248726,4,1,0,70,0,0
32025,-85.1438568849257,4,1,0,70,0,0
32196,-84.4675761500636,4,1,0,70,0,0
32366,-83.797886972888,4,1,0,70,0,0
32451,-83.4641348388054,4,1,0,70,0,0
32537,-83.1272511008848,4,1,0,70,0,0
32707,-82.4638178395453,4,1,0,70,0,0
32792,-82.1334150875251,4,1,0,70,0,0
32877,-81.8039312344565,4,1,0,70,0,0
33048,-81.1439919585412,4,1,0,70,0,0
33133,-80.8174521726527,4,1,0,70,0,0
33218,-80.4919436587136,4,1,0,70,0,0
33304,-80.163680222824,4,1,0,70,0,0
33390,-79.8403193612775,4,1,0,70,0,0
33559,-80.7272122771002,4,1,0,70,0,0
33644,-81.3544067772144,4,1,0,70,0,0
33730,-82.0688925346448,4,1,0,70,0,0
33900,-83.6850199751853,4,1,0,70,0,0
34071,-85.5612183523221,4,1,0,70,0,0
34156,-86.5847116106439,4,1,0,70,0,0
34241,-87.6689323409314,4,1,0,70,0,0
34326,-88.814917651546,4,1,0,70,0,0
34412,-90.0388047422585,4,1,0,70,0,0
34582,-92.6570986841626,4,1,0,70,0,0
34752,-95.5576030816041,4,1,0,70,0,0
34838,-97.1408019784582,4,1,0,70,0,0
34923,-98.7873920143007,4,1,0,70,0,0
35008,-100.519831448922,4,1,0,70,0,0
35093,-102.343131973422,4,1,0,70,0,0
35264,-106.309570130256,4,1,0,70,0,0
35434,-110.692625027417,4,1,0,70,0,0
35519,-113.068086653519,4,1,0,70,0,0
35605,-115.608646894691,4,1,0,70,0,0
35690,-118.26568235667,4,1,0,70,0,0
35775,-121.079470451427,4,1,0,70,0,0
35946,-127.268855016836,4,1,0,70,0,0
36117,340.909090909091,4,1,0,60,1,0
36117,-134.228187919463,4,1,0,60,0,0
36798,-111.111110825965,4,1,0,60,0,0
37139,-133.77926420738,4,1,0,60,0,0
38162,-111.111110825965,4,1,0,60,0,0
38503,-133.77926420738,4,1,0,60,0,0
39526,-111.111110825965,4,1,0,60,0,0
39866,-133.779264187378,4,1,0,60,0,0
40548,-111.42061281337,4,1,0,60,0,0
40718,-113.270868085478,4,1,0,60,0,0
40888,-116.071376864337,4,1,0,60,0,0
41059,-119.545205351868,4,1,0,60,0,0
41229,-123.616537688824,4,1,0,60,0,0
41400,-128.359291495256,4,1,0,60,0,0
41571,-133.779264214047,4,1,0,60,0,0
42253,-111.111110825965,4,1,0,60,0,0
42594,-132.890365428769,4,1,0,60,0,0
43616,-111.111110825965,4,1,0,60,0,0
43957,-133.77926420738,4,1,0,60,0,0
44980,-111.111110825965,4,1,0,60,0,0
45321,-133.333333333333,4,1,0,60,0,0
45491,-128.985538239437,4,1,0,60,0,0
45661,-123.15090407604,4,1,0,60,0,0
45831,-116.970562335828,4,1,0,60,0,0
46002,-110.77985271762,4,1,0,60,0,0
46172,-104.830283203243,4,1,0,60,0,0
46343,-99.1412350593849,4,1,0,60,0,0
46684,-88.8123227177766,4,1,0,60,0,0
46854,-84.1755683260774,4,1,0,60,0,0
47026,-79.8403193612775,4,1,0,90,0,1
47195,-79.666967034004,4,1,0,90,0,1
47280,-79.5470988310867,4,1,0,90,0,1
47366,-79.4132078981996,4,1,0,90,0,1
47536,-79.1203678249249,4,1,0,90,0,1
47621,-78.9626925514446,4,1,0,90,0,1
47706,-78.7987732614955,4,1,0,90,0,1
47792,-78.6272796506402,4,1,0,90,0,1
47877,-78.4527727984895,4,1,0,90,0,1
48047,-78.090661780195,4,1,0,90,0,1
48133,-77.9015960201784,4,1,0,90,0,1
48218,-77.7112764521978,4,1,0,90,0,1
48388,-77.3214120656991,4,1,0,90,0,1
48473,-77.1223341419111,4,1,0,90,0,1
48559,-76.9183819926202,4,1,0,90,0,1
48644,-76.7144842297375,4,1,0,90,0,1
48729,-76.5084521958929,4,1,0,90,0,1
48900,-76.0881167300634,4,1,0,90,0,1
48985,-75.8765509772415,4,1,0,90,0,1
49070,-75.663410363851,4,1,0,90,0,1
49241,-75.2303147805618,4,1,0,90,0,1
49326,-75.01310544999,4,1,0,90,0,1
49411,-74.7947467317392,4,1,0,90,0,1
49496,-74.575329434747,4,1,0,90,0,1
49581,-74.3549393091807,4,1,0,90,0,1
49667,-74.1310491392866,4,1,0,90,0,1
49752,-73.9089432066432,4,1,0,90,0,1
49922,-73.4625766423245,4,1,0,90,0,1
50008,-73.2358106470345,4,1,0,90,0,1
50093,-73.0111347178175,4,1,0,90,0,1
50263,-72.5603879308312,4,1,0,90,0,1
50348,-72.3344277493566,4,1,0,90,0,1
50434,-72.105482086458,4,1,0,90,0,1
50519,-71.8789249618939,4,1,0,90,0,1
50604,-71.6521430208248,4,1,0,90,0,1
50775,-71.1954101019941,4,1,0,90,0,1
50860,-70.9682147449589,4,1,0,90,0,1
50945,-70.7409634461099,4,1,0,90,0,1
51115,-70.2864421438089,4,1,0,90,0,1
51116,-70.283768839474,4,1,0,90,0,1
51201,-70.0565703199074,4,1,0,90,0,1
51286,-69.8294577234047,4,1,0,90,0,1
51371,-69.6024628005128,4,1,0,90,0,1
51456,-69.375615992862,4,1,0,90,0,1
51627,-68.9198193400948,4,1,0,90,0,1
51797,-68.4676192474941,4,1,0,90,0,1
51883,-68.2392778486021,4,1,0,90,0,1
51968,-68.0139001788624,4,1,0,90,0,1
52053,-67.7888521161273,4,1,0,90,0,1
52138,-67.5641554605759,4,1,0,90,0,1
52223,-67.339831126368,4,1,0,90,0,1
52309,-67.1132670960465,4,1,0,90,0,1
52480,-66.6666666666667,4,1,0,90,0,1
52650,-67.2121989002985,4,1,0,90,0,1
52820,-68.0209220689166,4,1,0,90,0,1
52905,-68.4877195320604,4,1,0,90,0,1
52991,-68.9966694834057,4,1,0,90,0,1
53161,-70.1033193070669,4,1,0,90,0,1
53331,-71.3371818828287,4,1,0,90,0,1
53417,-72.0089582361424,4,1,0,90,0,1
53502,-72.7044372977415,4,1,0,90,0,1
53587,-73.4315747405955,4,1,0,90,0,1
53672,-74.1908678116299,4,1,0,90,0,1
53843,-75.8185751624892,4,1,0,90,0,1
54013,-77.5754010194175,4,1,0,90,0,1
54098,-78.508371815908,4,1,0,90,0,1
54184,-79.4910785254485,4,1,0,90,0,1
54354,-81.5543093636563,4,1,0,90,0,1
54525,-83.802819054349,4,1,0,90,0,1
54610,-84.9899570158871,4,1,0,90,0,1
54695,-86.2261307027455,4,1,0,90,0,1
54780,-87.5137477943343,4,1,0,90,0,1
54866,-88.8715345258423,4,1,0,90,0,1
55036,-91.7299903966737,4,1,0,90,0,1
55206,-94.8419713405382,4,1,0,90,0,1
55377,-98.2585605883209,4,1,0,90,0,1
55462,-100.074698285763,4,1,0,90,0,1
55547,-101.975724666102,4,1,0,90,0,1
55718,-106.080281067614,4,1,0,90,0,1
55888,-110.575413586726,4,1,0,90,0,1
55973,-112.996752031657,4,1,0,90,0,1
56059,-115.576238290329,4,1,0,90,0,1
56229,-121.09936943511,4,1,0,90,0,1
56571,-134.228187919463,4,1,0,70,0,0
57935,-79.8403193612775,4,1,0,90,0,1
58104,-79.5937052035912,4,1,0,90,0,1
58275,-79.2335197047466,4,1,0,90,0,1
58360,-79.0319849753537,4,1,0,90,0,1
58445,-78.8190645131559,4,1,0,90,0,1
58530,-78.5964387706815,4,1,0,90,0,1
58616,-78.3626258962927,4,1,0,90,0,1
58786,-77.8790034841072,4,1,0,90,0,1
58956,-77.3718660304802,4,1,0,90,0,1
59042,-77.1078459504679,4,1,0,90,0,1
59127,-76.8426043852851,4,1,0,90,0,1
59297,-76.30091607493,4,1,0,90,0,1
59468,-75.7432565145859,4,1,0,90,0,1
59638,-75.1784558546331,4,1,0,90,0,1
59723,-74.8927819069632,4,1,0,90,0,1
59809,-74.6018215083353,4,1,0,90,0,1
59894,-74.3125401955641,4,1,0,90,0,1
59979,-74.0217484638811,4,1,0,90,0,1
60150,-73.4328471006714,4,1,0,90,0,1
60320,-72.843244247796,4,1,0,90,0,1
60405,-72.5472368059227,4,1,0,90,0,1
60491,-72.2470983508163,4,1,0,90,0,1
60661,-71.6523399476912,4,1,0,90,0,1
60746,-71.3544444526527,4,1,0,90,0,1
60831,-71.0563353913525,4,1,0,90,0,1
60917,-70.7545948779789,4,1,0,90,0,1
61002,-70.4563269942425,4,1,0,90,0,1
61087,-70.1581049313583,4,1,0,90,0,1
61172,-69.8600055185827,4,1,0,90,0,1
61258,-69.5585981138049,4,1,0,90,0,1
61343,-69.2609616074487,4,1,0,90,0,1
61428,-68.9636550119901,4,1,0,90,0,1
61513,-68.6667399012354,4,1,0,90,0,1
61598,-68.3702745769903,4,1,0,90,0,1
61684,-68.0708355800199,4,1,0,90,0,1
61769,-67.7754393903784,4,1,0,90,0,1
61854,-67.4806505653638,4,1,0,90,0,1
61939,-67.1865159665407,4,1,0,90,0,1
62026,-66.8896321070234,4,1,0,90,0,1
62196,-79.8403193612775,4,1,0,90,0,1
62366,-79.4771468040921,4,1,0,90,0,1
62451,-79.228575506669,4,1,0,90,0,1
62536,-78.9553301842681,4,1,0,90,0,1
62621,-78.6627742587626,4,1,0,90,0,1
62706,-78.354429780632,4,1,0,90,0,1
62877,-77.6959774475024,4,1,0,90,0,1
63047,-77.0020754370865,4,1,0,90,0,1
63133,-76.6392806773438,4,1,0,90,0,1
63218,-76.2742319856984,4,1,0,90,0,1
63388,-75.5279487330685,4,1,0,90,0,1
63559,-74.7598600895535,4,1,0,90,0,1
63729,-73.9832272726522,4,1,0,90,0,1
63814,-73.5911498544152,4,1,0,90,0,1
63900,-73.1924314856867,4,1,0,90,0,1
63985,-72.7966916165017,4,1,0,90,0,1
64070,-72.3996200650382,4,1,0,90,0,1
64241,-71.5979219820364,4,1,0,90,0,1
64411,-70.7987819869265,4,1,0,90,0,1
64496,-70.3989766354264,4,1,0,90,0,1
64581,-69.9992802383066,4,1,0,90,0,1
64752,-69.1962367805588,4,1,0,90,0,1
64922,-68.4003510211392,4,1,0,90,0,1
65093,-67.6033964519878,4,1,0,90,0,1
65178,-67.2089079409198,4,1,0,90,0,1
65263,-66.8156684463133,4,1,0,90,0,1
65348,-66.4237786602176,4,1,0,90,0,1
65434,-66.0287475786214,4,1,0,90,0,1
65604,-65.252563337609,4,1,0,90,0,1
65775,-64.4786137179281,4,1,0,90,0,1
65860,-64.0966105125244,4,1,0,90,0,1
65945,-63.716486713469,4,1,0,90,0,1
66115,-62.9620914890668,4,1,0,90,0,1
66116,-62.9576775413791,4,1,0,90,0,1
66201,-62.5835269211116,4,1,0,90,0,1
66286,-62.211449984117,4,1,0,90,0,1
66371,-61.8414856665622,4,1,0,90,0,1
66456,-61.4736695530016,4,1,0,90,0,1
66542,-61.1037455743652,4,1,0,90,0,1
66627,-60.7403463358307,4,1,0,90,0,1
66712,-60.3791841175254,4,1,0,90,0,1
66797,-60.0202828857251,4,1,0,90,0,1
66883,-59.6594822601829,4,1,0,90,0,1
66968,-59.3051922468918,4,1,0,90,0,1
67053,-58.9532208974572,4,1,0,90,0,1
67138,-58.6035829942033,4,1,0,90,0,1
67223,-58.2562913456555,4,1,0,90,0,1
67309,-57.9073129133758,4,1,0,90,0,1
67394,-57.564772745221,4,1,0,90,0,1
67480,-57.2246065808298,4,1,0,90,0,1
68503,-133.333336651325,4,1,0,70,0,0
68844,-99.7506234413965,4,1,0,70,0,0
69184,-101.753477025725,4,1,0,70,0,0
69354,-103.1869235469,4,1,0,70,0,0
69525,-104.831402798605,4,1,0,70,0,0
69866,-108.672970516712,4,1,0,70,0,0
70206,-113.25311870639,4,1,0,70,0,0
70547,-118.662944872774,4,1,0,70,0,0
70718,-121.717846781106,4,1,0,70,0,0
70888,-125.005822714363,4,1,0,70,0,0
71230,-132.450331125828,4,1,0,70,0,0
71571,-83.3333333333333,4,1,0,70,0,0
71741,-84.5933053502583,4,1,0,70,0,0
71911,-86.4933802041128,4,1,0,70,0,0
72081,-88.8237625600067,4,1,0,70,0,0
72252,-91.5710706829812,4,1,0,70,0,0
72422,-94.7124486816582,4,1,0,70,0,0
72593,-98.3161371216634,4,1,0,70,0,0
72763,-102.388552148975,4,1,0,70,0,0
72934,-107.044505458076,4,1,0,70,0,0
73275,-118.380375743743,4,1,0,70,0,0
73445,-125.311365764487,4,1,0,70,0,0
73616,-133.384212216429,4,1,0,70,0,0
73957,-80.1603200907198,4,1,0,70,0,0
74298,-100.250626566416,4,1,0,70,0,0
74468,-99.569152734922,4,1,0,70,0,0
74638,-98.5953650410391,4,1,0,70,0,0
74723,-98.052163925283,4,1,0,70,0,0
74809,-97.4749217871118,4,1,0,70,0,0
74979,-96.2709799612552,4,1,0,70,0,0
75064,-95.6446261223615,4,1,0,70,0,0
75150,-94.9979873321078,4,1,0,70,0,0
75235,-94.3482493102894,4,1,0,70,0,0
75320,-93.6897787271945,4,1,0,70,0,0
75491,-92.3447963847276,4,1,0,70,0,0
75661,-90.989198664445,4,1,0,70,0,0
75746,-90.3071043846362,4,1,0,70,0,0
75831,-89.6233152964573,4,1,0,70,0,0
76002,-88.2455741660554,4,1,0,70,0,0
76087,-87.5609938780051,4,1,0,70,0,0
76172,-86.8773547676253,4,1,0,70,0,0
76258,-86.1871464833703,4,1,0,70,0,0
76343,-85.5068814566999,4,1,0,70,0,0
76513,-84.1536886743335,4,1,0,70,0,0
76684,-82.8047490665911,4,1,0,70,0,0
76769,-82.1395333420541,4,1,0,70,0,0
76854,-81.4781864072423,4,1,0,70,0,0
77026,-80.1603206412826,4,1,0,70,0,0
77110,-80.6028798459144,4,1,0,70,0,0
77195,-81.2588982501325,4,1,0,70,0,0
77280,-82.0392043017323,4,1,0,70,0,0
77366,-82.9315778549484,4,1,0,70,0,0
77536,-84.9638162354765,4,1,0,70,0,0
77706,-87.3323598774292,4,1,0,70,0,0
77792,-88.6586011803019,4,1,0,70,0,0
77877,-90.0563769990597,4,1,0,70,0,0
77962,-91.5435484238581,4,1,0,70,0,0
78047,-93.123851635452,4,1,0,70,0,0
78218,-96.6042236741528,4,1,0,70,0,0
78389,-100.502512562814,4,1,0,70,0,0
79412,-133.333333982362,4,1,0,70,0,0
79753,-100,4,1,0,70,0,0
79923,-99.3283351459584,4,1,0,70,0,0
80093,-98.3683736595117,4,1,0,70,0,0
80178,-97.8327878238407,4,1,0,70,0,0
80263,-97.2703181597801,4,1,0,70,0,0
80434,-96.068214,4,1,0,70,0,0
80519,-95.402725,4,1,0,70,0,0
80604,-94.746414,4,1,0,70,0,0
80690,-94.09151,4,1,0,70,0,0
80775,-93.45305,4,1,0,70,0,0
80860,-92.8232,4,1,0,70,0,0
80945,-92.20179,4,1,0,70,0,0
81115,-90.8704033177262,4,1,0,70,0,0
81116,-90.8624904936743,4,1,0,70,0,0
81201,-90.1887204425061,4,1,0,70,0,0
81286,-89.5131656542309,4,1,0,70,0,0
81457,-88.1516790216952,4,1,0,70,0,0
81542,-87.4750080517916,4,1,0,70,0,0
81627,-86.799156499261,4,1,0,70,0,0
81798,-85.4439608645013,4,1,0,70,0,0
81883,-84.7734097712515,4,1,0,70,0,0
81968,-84.1054158701114,4,1,0,70,0,0
82053,-83.4403152599142,4,1,0,70,0,0
82138,-82.7784123073109,4,1,0,70,0,0
82309,-81.4575953013665,4,1,0,70,0,0
82480,-80.1603206412826,4,1,0,70,0,0
82565,-80.3403280426497,4,1,0,70,0,0
82650,-80.6016345014884,4,1,0,70,0,0
82735,-80.9088637772025,4,1,0,70,0,0
82820,-81.2515629393055,4,1,0,70,0,0
82991,-82.0289663300956,4,1,0,70,0,0
83161,-82.9018485848132,4,1,0,70,0,0
83246,-83.3722368098373,4,1,0,70,0,0
83331,-83.8642002156972,4,1,0,70,0,0
83417,-84.383402481688,4,1,0,70,0,0
83502,-84.9174393465136,4,1,0,70,0,0
83673,-86.0539848109245,4,1,0,70,0,0
83843,-87.2661232582765,4,1,0,70,0,0
83928,-87.9031974357429,4,1,0,70,0,0
84013,-88.5612104094954,4,1,0,70,0,0
84184,-89.9495743917724,4,1,0,70,0,0
84269,-90.6725148745739,4,1,0,70,0,0
84354,-91.4178010359026,4,1,0,70,0,0
84439,-92.1859050689842,4,1,0,70,0,0
84525,-92.9867975685846,4,1,0,70,0,0
84695,-94.6425684997052,4,1,0,70,0,0
84780,-95.5078910593061,4,1,0,70,0,0
84866,-96.409739301689,4,1,0,70,0,0
85036,-98.2735233973178,4,1,0,70,0,0
85121,-99.2474593899649,4,1,0,70,0,0
85207,-100.250626566416,4,1,0,70,0,0
85377,-99.5556177475414,4,1,0,70,0,0
85548,-98.5564886583494,4,1,0,70,0,0
85633,-98.0024886921815,4,1,0,70,0,0
85718,-97.4209746200728,4,1,0,70,0,0
85889,-96.1871875929412,4,1,0,70,0,0
85974,-95.5492352403814,4,1,0,70,0,0
86059,-94.8985430039606,4,1,0,70,0,0
86229,-93.5673094915747,4,1,0,70,0,0
86315,-92.9800092980009,4,1,0,70,0,0
86400,-92.1993783154777,4,1,0,70,0,0
86570,-90.821392077396,4,1,0,70,0,0
86656,-90.821392077396,4,1,0,70,0,0
86741,-89.4255247169218,4,1,0,70,0,0
86826,-88.7301525819836,4,1,0,70,0,0
86911,-88.0347302868015,4,1,0,70,0,0
86996,-87.3398858195207,4,1,0,70,0,0
87081,-86.6461855412059,4,1,0,70,0,0
87252,-85.2561110797243,4,1,0,70,0,0
87337,-84.5687510615043,4,1,0,70,0,0
87422,-83.8843077162933,4,1,0,70,0,0
87508,-83.195128312432,4,1,0,70,0,0
87593,-82.5175506460997,4,1,0,70,0,0
87764,-81.1663280386738,4,1,0,70,0,0
87935,-79.8403193612775,4,1,0,70,0,0
88019,-80.2880848196851,4,1,0,70,0,0
88104,-80.9519637301251,4,1,0,70,0,0
88190,-81.7517741379073,4,1,0,70,0,0
88275,-82.6454596005583,4,1,0,70,0,0
88445,-84.7044862744205,4,1,0,70,0,0
88616,-87.1214654586048,4,1,0,70,0,0
88701,-88.452188945051,4,1,0,70,0,0
88786,-89.8714037668384,4,1,0,70,0,0
88871,-91.3822421309793,4,1,0,70,0,0
88957,-93.0081494343685,4,1,0,70,0,0
89127,-96.5300809748705,4,1,0,70,0,0
89298,-100.502512562814,4,1,0,70,0,0
89980,-134.228187919463,4,1,0,70,0,0
90065,-131.215063235076,4,1,0,70,0,0
90150,-127.096163719376,4,1,0,70,0,0
90320,-117.987575820109,4,1,0,70,0,0
90491,-108.82135644181,4,1,0,70,0,0
90662,-100.250626566416,4,1,0,70,0,0
90831,-99.9664602697348,4,1,0,70,0,0
91002,-99.5511684567583,4,1,0,70,0,0
91087,-99.3186649897433,4,1,0,70,0,0
91173,-99.0699591215313,4,1,0,70,0,0
91258,-98.8127739333811,4,1,0,70,0,0
91343,-98.5457527008347,4,1,0,70,0,0
91514,-97.983267438828,4,1,0,70,0,0
91599,-97.6928584909496,4,1,0,70,0,0
91684,-97.3962247929275,4,1,0,70,0,0
91854,-96.7865903595208,4,1,0,70,0,0
91940,-96.4708806523364,4,1,0,70,0,0
92025,-96.1545942327709,4,1,0,70,0,0
92195,-95.50688,4,1,0,70,0,0
92280,-95.172455,4,1,0,70,0,0
92366,-94.8365,4,1,0,70,0,0
92451,-94.50675,4,1,0,70,0,0
92536,-94.17929,4,1,0,70,0,0
92706,-93.507194476083,4,1,0,70,0,0
92792,-93.1624573738411,4,1,0,70,0,0
92877,-92.8201351846563,4,1,0,70,0,0
92962,-92.4764003108031,4,1,0,70,0,0
93047,-92.1314131168627,4,1,0,70,0,0
93218,-91.4341874722219,4,1,0,70,0,0
93303,-91.086303509376,4,1,0,70,0,0
93388,-90.7377206776749,4,1,0,70,0,0
93389,-90.7336160249054,4,1,0,70,0,0
93559,-90.0348117529701,4,1,0,70,0,0
93644,-89.6848163008294,4,1,0,70,0,0
93729,-89.3345612417003,4,1,0,70,0,0
93814,-88.9841418054337,4,1,0,70,0,0
93900,-88.6295247009626,4,1,0,70,0,0
94070,-87.928655381894,4,1,0,70,0,0
94156,-87.574319247742,4,1,0,70,0,0
94241,-87.2243490320574,4,1,0,70,0,0
94326,-86.8746927926221,4,1,0,70,0,0
94411,-86.5254164520245,4,1,0,70,0,0
94582,-85.8241560698203,4,1,0,70,0,0
94667,-85.4763897967023,4,1,0,70,0,0
94752,-85.1292364832399,4,1,0,70,0,0
94923,-84.4329068511869,4,1,0,70,0,0
95008,-84.0878978653555,4,1,0,70,0,0
95093,-83.743691793636,4,1,0,70,0,0
95178,-83.4003302182514,4,1,0,70,0,0
95263,-83.0578526335925,4,1,0,70,0,0
95434,-82.3716963298399,4,1,0,70,0,0
95519,-82.0321000614071,4,1,0,70,0,0
95604,-81.6935270866835,4,1,0,70,0,0
95775,-81.0156193856265,4,1,0,70,0,0
95860,-80.6803054507004,4,1,0,70,0,0
95945,-80.3461273411524,4,1,0,70,0,0
96031,-80.0091986064739,4,1,0,70,0,0
96116,-79.6812749003984,4,1,0,70,0,0
96286,-80.5710258946158,4,1,0,70,0,0
96371,-81.196381803578,4,1,0,70,0,0
96457,-81.9084654355078,4,1,0,70,0,0
96627,-83.5186019047467,4,1,0,70,0,0
96797,-85.3756820823572,4,1,0,70,0,0
96883,-86.4065641428239,4,1,0,70,0,0
96968,-87.4861841947187,4,1,0,70,0,0
97053,-88.6272024295763,4,1,0,70,0,0
97138,-89.831129718837,4,1,0,70,0,0
97309,-92.4520349372537,4,1,0,70,0,0
97479,-95.3387953039002,4,1,0,70,0,0
97565,-96.9142705884481,4,1,0,70,0,0
97650,-98.5526660322808,4,1,0,70,0,0
97735,-100.276308312006,4,1,0,70,0,0
97820,-102.090158544611,4,1,0,70,0,0
97991,-106.035368112178,4,1,0,70,0,0
98161,-110.393909904502,4,1,0,70,0,0
98246,-112.755627910467,4,1,0,70,0,0
98331,-115.250943307252,4,1,0,70,0,0
98417,-117.922036214017,4,1,0,70,0,0
98502,-120.718304396554,4,1,0,70,0,0
98673,-126.867585447586,4,1,0,70,0,0
98844,340.909090909091,4,1,0,70,1,0
98844,-133.779264214047,4,1,0,70,0,0
99525,-111.111110825965,4,1,0,60,0,0
99866,-133.77926420738,4,1,0,60,0,0
100889,-111.111110825965,4,1,0,60,0,0
101230,-133.77926420738,4,1,0,60,0,0
102253,-111.111110825965,4,1,0,60,0,0
102593,-133.779264187378,4,1,0,60,0,0
103275,-111.42061281337,4,1,0,60,0,0
103445,-113.270868085478,4,1,0,60,0,0
103615,-116.071376864337,4,1,0,60,0,0
103786,-119.545205351868,4,1,0,60,0,0
103956,-123.616537688824,4,1,0,60,0,0
104127,-128.359291495256,4,1,0,60,0,0
104298,-133.779264214047,4,1,0,60,0,0
104980,-111.111110825965,4,1,0,60,0,0
105321,-132.890365428769,4,1,0,60,0,0
106343,-111.111110825965,4,1,0,60,0,0
106684,-133.77926420738,4,1,0,60,0,0
107707,-111.111110825965,4,1,0,60,0,0
108048,-133.333333333333,4,1,0,60,0,0
108218,-128.985538239437,4,1,0,60,0,0
108388,-123.15090407604,4,1,0,60,0,0
108558,-116.970562335828,4,1,0,60,0,0
108729,-110.77985271762,4,1,0,60,0,0
108899,-104.830283203243,4,1,0,60,0,0
109070,-99.1412350593849,4,1,0,60,0,0
109411,-88.8123227177766,4,1,0,60,0,0
109581,-84.1755683260774,4,1,0,60,0,0
109753,-79.8403193612775,4,1,0,90,0,1
109922,-79.666967034004,4,1,0,90,0,1
110007,-79.5470988310867,4,1,0,90,0,1
110093,-79.4132078981996,4,1,0,90,0,1
110263,-79.1203678249249,4,1,0,90,0,1
110348,-78.9626925514446,4,1,0,90,0,1
110433,-78.7987732614955,4,1,0,90,0,1
110519,-78.6272796506402,4,1,0,90,0,1
110604,-78.4527727984895,4,1,0,90,0,1
110774,-78.090661780195,4,1,0,90,0,1
110860,-77.9015960201784,4,1,0,90,0,1
110945,-77.7112764521978,4,1,0,90,0,1
111115,-77.3214120656991,4,1,0,90,0,1
111200,-77.1223341419111,4,1,0,90,0,1
111286,-76.9183819926202,4,1,0,90,0,1
111371,-76.7144842297375,4,1,0,90,0,1
111456,-76.5084521958929,4,1,0,90,0,1
111627,-76.0881167300634,4,1,0,90,0,1
111712,-75.8765509772415,4,1,0,90,0,1
111797,-75.663410363851,4,1,0,90,0,1
111968,-75.2303147805618,4,1,0,90,0,1
112053,-75.01310544999,4,1,0,90,0,1
112138,-74.7947467317392,4,1,0,90,0,1
112223,-74.575329434747,4,1,0,90,0,1
112308,-74.3549393091807,4,1,0,90,0,1
112394,-74.1310491392866,4,1,0,90,0,1
112479,-73.9089432066432,4,1,0,90,0,1
112649,-73.4625766423245,4,1,0,90,0,1
112735,-73.2358106470345,4,1,0,90,0,1
112820,-73.0111347178175,4,1,0,90,0,1
112990,-72.5603879308312,4,1,0,90,0,1
113075,-72.3344277493566,4,1,0,90,0,1
113161,-72.105482086458,4,1,0,90,0,1
113331,-71.6521430208248,4,1,0,90,0,1
113417,-71.6521430208248,4,1,0,90,0,1
113502,-71.1954101019941,4,1,0,90,0,1
113587,-70.9682147449589,4,1,0,90,0,1
113672,-70.7409634461099,4,1,0,90,0,1
113842,-70.2864421438089,4,1,0,90,0,1
113843,-70.283768839474,4,1,0,90,0,1
113928,-70.0565703199074,4,1,0,90,0,1
114013,-69.8294577234047,4,1,0,90,0,1
114098,-69.6024628005128,4,1,0,90,0,1
114183,-69.375615992862,4,1,0,90,0,1
114354,-68.9198193400948,4,1,0,90,0,1
114524,-68.4676192474941,4,1,0,90,0,1
114610,-68.2392778486021,4,1,0,90,0,1
114695,-68.0139001788624,4,1,0,90,0,1
114780,-67.7888521161273,4,1,0,90,0,1
114865,-67.5641554605759,4,1,0,90,0,1
114950,-67.339831126368,4,1,0,90,0,1
115036,-67.1132670960465,4,1,0,90,0,1
115207,-66.6666666666667,4,1,0,90,0,1
115377,-67.2121989002985,4,1,0,90,0,1
115547,-68.0209220689166,4,1,0,90,0,1
115632,-68.4877195320604,4,1,0,90,0,1
115718,-68.9966694834057,4,1,0,90,0,1
115888,-70.1033193070669,4,1,0,90,0,1
116058,-71.3371818828287,4,1,0,90,0,1
116144,-72.0089582361424,4,1,0,90,0,1
116229,-72.7044372977415,4,1,0,90,0,1
116314,-73.4315747405955,4,1,0,90,0,1
116399,-74.1908678116299,4,1,0,90,0,1
116570,-75.8185751624892,4,1,0,90,0,1
116740,-77.5754010194175,4,1,0,90,0,1
116825,-78.508371815908,4,1,0,90,0,1
116911,-79.4910785254485,4,1,0,90,0,1
117081,-81.5543093636563,4,1,0,90,0,1
117252,-83.802819054349,4,1,0,90,0,1
117337,-84.9899570158871,4,1,0,90,0,1
117422,-86.2261307027455,4,1,0,90,0,1
117507,-87.5137477943343,4,1,0,90,0,1
117593,-88.8715345258423,4,1,0,90,0,1
117763,-91.7299903966737,4,1,0,90,0,1
117933,-94.8419713405382,4,1,0,90,0,1
118104,-98.2585605883209,4,1,0,90,0,1
118189,-100.074698285763,4,1,0,90,0,1
118274,-101.975724666102,4,1,0,90,0,1
118445,-106.080281067614,4,1,0,90,0,1
118615,-110.575413586726,4,1,0,90,0,1
118700,-112.996752031657,4,1,0,90,0,1
118786,-115.576238290329,4,1,0,90,0,1
118956,-121.09936943511,4,1,0,90,0,1
119298,-134.228187919463,4,1,0,70,0,0
120662,-79.8403193612775,4,1,0,90,0,1
120831,-79.5937052035912,4,1,0,90,0,1
121002,-79.2335197047466,4,1,0,90,0,1
121087,-79.0319849753537,4,1,0,90,0,1
121172,-78.8190645131559,4,1,0,90,0,1
121257,-78.5964387706815,4,1,0,90,0,1
121343,-78.3626258962927,4,1,0,90,0,1
121513,-77.8790034841072,4,1,0,90,0,1
121683,-77.3718660304802,4,1,0,90,0,1
121769,-77.1078459504679,4,1,0,90,0,1
121854,-76.8426043852851,4,1,0,90,0,1
122024,-76.30091607493,4,1,0,90,0,1
122195,-75.7432565145859,4,1,0,90,0,1
122365,-75.1784558546331,4,1,0,90,0,1
122450,-74.8927819069632,4,1,0,90,0,1
122536,-74.6018215083353,4,1,0,90,0,1
122621,-74.3125401955641,4,1,0,90,0,1
122706,-74.0217484638811,4,1,0,90,0,1
122877,-73.4328471006714,4,1,0,90,0,1
123047,-72.843244247796,4,1,0,90,0,1
123132,-72.5472368059227,4,1,0,90,0,1
123218,-72.2470983508163,4,1,0,90,0,1
123388,-71.6523399476912,4,1,0,90,0,1
123473,-71.3544444526527,4,1,0,90,0,1
123558,-71.0563353913525,4,1,0,90,0,1
123644,-70.7545948779789,4,1,0,90,0,1
123729,-70.4563269942425,4,1,0,90,0,1
123814,-70.1581049313583,4,1,0,90,0,1
123899,-69.8600055185827,4,1,0,90,0,1
123985,-69.5585981138049,4,1,0,90,0,1
124070,-69.2609616074487,4,1,0,90,0,1
124155,-68.9636550119901,4,1,0,90,0,1
124240,-68.6667399012354,4,1,0,90,0,1
124325,-68.3702745769903,4,1,0,90,0,1
124411,-68.0708355800199,4,1,0,90,0,1
124496,-67.7754393903784,4,1,0,90,0,1
124581,-67.4806505653638,4,1,0,90,0,1
124666,-67.1865159665407,4,1,0,90,0,1
124753,-66.8896321070234,4,1,0,90,0,1
124923,-79.8403193612775,4,1,0,90,0,1
125093,-79.471669597022,4,1,0,90,0,1
125178,-79.2193787468109,4,1,0,90,0,1
125263,-78.9420721151031,4,1,0,90,0,1
125348,-78.6451997348377,4,1,0,90,0,1
125433,-78.3323415237157,4,1,0,90,0,1
125604,-77.664372892968,4,1,0,90,0,1
125774,-76.9606228071387,4,1,0,90,0,1
125860,-76.5927528899121,4,1,0,90,0,1
125945,-76.2226486034697,4,1,0,90,0,1
126115,-75.4661894423239,4,1,0,90,0,1
126286,-74.6878510966065,4,1,0,90,0,1
126456,-73.9010850091544,4,1,0,90,0,1
126541,-73.5039798719705,4,1,0,90,0,1
126627,-73.1002091527099,4,1,0,90,0,1
126712,-72.6995150146776,4,1,0,90,0,1
126797,-72.2975329266345,4,1,0,90,0,1
126968,-71.4861046873979,4,1,0,90,0,1
127138,-70.677510884105,4,1,0,90,0,1
127223,-70.2730677223588,4,1,0,90,0,1
127308,-69.8687960113875,4,1,0,90,0,1
127479,-69.0567451537466,4,1,0,90,0,1
127649,-68.2521759572073,4,1,0,90,0,1
127820,-67.4467692554553,4,1,0,90,0,1
127905,-67.0481869067766,4,1,0,90,0,1
127990,-66.6509257850269,4,1,0,90,0,1
128075,-66.2550870125473,4,1,0,90,0,1
128161,-65.8561347215194,4,1,0,90,0,1
128331,-65.0724195683488,4,1,0,90,0,1
128502,-64.2911899338571,4,1,0,90,0,1
128587,-63.9056778212044,4,1,0,90,0,1
128672,-63.5221176916726,4,1,0,90,0,1
128842,-56.7787223035029,4,1,0,90,0,1
128843,-62.7566138239764,4,1,0,90,0,1
128928,-62.3792430987572,4,1,0,90,0,1
129013,-62.0040168712928,4,1,0,90,0,1
129098,-61.6309735048496,4,1,0,90,0,1
129183,-61.2601479673408,4,1,0,90,0,1
129269,-60.8872493476673,4,1,0,90,0,1
129354,-60.5209787298957,4,1,0,90,0,1
129439,-60.1570126767902,4,1,0,90,0,1
129524,-59.795374401877,4,1,0,90,0,1
129610,-59.4318717125527,4,1,0,90,0,1
129695,-59.0749766448104,4,1,0,90,0,1
129780,-58.720464623464,4,1,0,90,0,1
129865,-58.3683495928794,4,1,0,90,0,1
129950,-58.0186435087285,4,1,0,90,0,1
130036,-57.6672851537198,4,1,0,90,0,1
130121,-57.3224540378232,4,1,0,90,0,1
130207,-56.980056980057,4,1,0,70,0,0

[HitObjects]
416,224,323,5,12,0:0:0:0:
416,224,663,1,0,0:0:0:0:
416,224,1003,1,0,0:0:0:0:
416,224,1174,1,0,0:0:0:0:
416,224,1344,1,8,0:0:0:0:
416,224,1685,1,8,0:0:0:0:
416,224,2026,1,0,0:0:0:0:
416,224,2367,1,0,0:0:0:0:
416,224,2538,1,0,0:0:0:0:
416,224,2708,1,8,0:0:0:0:
416,224,3049,1,8,0:0:0:0:
416,224,3390,1,0,0:0:0:0:
416,224,3560,1,0,0:0:0:0:
416,224,3731,1,8,0:0:0:0:
416,224,3901,1,8,0:0:0:0:
416,224,4072,1,0,0:0:0:0:
416,224,4242,1,0,0:0:0:0:
416,224,4413,1,8,0:0:0:0:
416,224,4583,1,0,0:0:0:0:
416,224,4753,1,8,0:0:0:0:
416,224,5094,1,0,0:0:0:0:
416,224,5265,1,0,0:0:0:0:
416,224,5435,1,8,0:0:0:0:
416,224,5776,1,8,0:0:0:0:
416,224,5861,1,8,0:0:0:0:
416,224,5947,1,8,0:0:0:0:
416,224,6117,1,12,0:0:0:0:
416,224,6288,1,0,0:0:0:0:
416,224,6458,1,8,0:0:0:0:
416,224,6543,1,0,0:0:0:0:
416,224,6628,1,8,0:0:0:0:
416,224,6799,1,0,0:0:0:0:
416,224,6884,1,8,0:0:0:0:
416,224,6969,1,8,0:0:0:0:
416,224,7055,1,0,0:0:0:0:
416,224,7140,1,8,0:0:0:0:
416,224,7225,1,0,0:0:0:0:
416,224,7310,1,0,0:0:0:0:
416,224,7481,1,8,0:0:0:0:
416,224,7566,1,0,0:0:0:0:
416,224,7651,1,8,0:0:0:0:
416,224,7822,1,0,0:0:0:0:
416,224,7907,1,8,0:0:0:0:
416,224,7992,1,0,0:0:0:0:
416,224,8163,1,8,0:0:0:0:
416,224,8248,1,0,0:0:0:0:
416,224,8333,1,8,0:0:0:0:
416,224,8418,1,8,0:0:0:0:
416,224,8503,1,0,0:0:0:0:
416,224,8589,1,0,0:0:0:0:
416,224,8674,1,8,0:0:0:0:
416,224,8844,1,0,0:0:0:0:
416,224,8930,1,8,0:0:0:0:
416,224,9015,1,0,0:0:0:0:
416,224,9100,1,8,0:0:0:0:
416,224,9185,1,0,0:0:0:0:
416,224,9356,1,8,0:0:0:0:
416,224,9526,1,8,0:0:0:0:
416,224,9611,1,8,0:0:0:0:
416,224,9697,1,0,0:0:0:0:
416,224,9782,1,0,0:0:0:0:
416,224,9867,1,8,0:0:0:0:
416,224,10038,1,8,0:0:0:0:
416,224,10208,1,0,0:0:0:0:
416,224,10293,1,8,0:0:0:0:
416,224,10378,1,0,0:0:0:0:
416,224,10549,1,8,0:0:0:0:
416,224,10634,1,0,0:0:0:0:
416,224,10719,1,8,0:0:0:0:
416,224,10805,1,8,0:0:0:0:
416,224,10890,1,0,0:0:0:0:
416,224,11060,1,0,0:0:0:0:
416,224,11231,1,8,0:0:0:0:
416,224,11316,1,0,0:0:0:0:
416,224,11401,1,8,0:0:0:0:
416,224,11572,1,0,0:0:0:0:
416,224,11742,1,8,0:0:0:0:
416,224,11913,1,0,0:0:0:0:
416,224,11998,1,0,0:0:0:0:
416,224,12083,1,8,0:0:0:0:
416,224,12253,1,0,0:0:0:0:
416,224,12339,1,0,0:0:0:0:
416,224,12424,1,8,0:0:0:0:
416,224,12509,1,0,0:0:0:0:
416,224,12594,1,8,0:0:0:0:
416,224,12680,1,0,0:0:0:0:
416,224,12765,1,0,0:0:0:0:
416,224,12935,1,8,0:0:0:0:
416,224,13106,1,0,0:0:0:0:
416,224,13276,1,0,0:0:0:0:
416,224,13361,1,0,0:0:0:0:
416,224,13447,1,8,0:0:0:0:
416,224,13617,1,8,0:0:0:0:
416,224,13702,1,0,0:0:0:0:
416,224,13788,1,8,0:0:0:0:
416,224,13873,1,8,0:0:0:0:
416,224,13958,1,0,0:0:0:0:
416,224,14043,1,8,0:0:0:0:
416,224,14128,1,8,0:0:0:0:
416,224,14299,1,8,0:0:0:0:
384,224,14384,1,0,0:0:0:0:
384,224,14469,1,0,0:0:0:0:
384,224,14555,1,0,0:0:0:0:
384,224,14640,1,8,0:0:0:0:
416,224,14810,1,0,0:0:0:0:
416,224,14981,1,8,0:0:0:0:
384,224,15066,1,0,0:0:0:0:
384,224,15151,1,8,0:0:0:0:
384,224,15236,1,0,0:0:0:0:
384,224,15322,1,8,0:0:0:0:
416,224,15492,1,0,0:0:0:0:
416,224,15663,1,8,0:0:0:0:
416,224,16685,1,8,0:0:0:0:
416,224,16770,1,8,0:0:0:0:
416,224,16856,1,8,0:0:0:0:
416,224,17026,1,12,0:0:0:0:
416,224,17197,1,0,0:0:0:0:
416,224,17367,1,8,0:0:0:0:
416,224,17452,1,0,0:0:0:0:
416,224,17538,1,8,0:0:0:0:
416,224,17708,1,0,0:0:0:0:
416,224,17793,1,8,0:0:0:0:
416,224,17878,1,8,0:0:0:0:
416,224,17964,1,8,0:0:0:0:
416,224,18049,1,0,0:0:0:0:
384,224,18134,1,0,0:0:0:0:
416,224,18219,1,8,0:0:0:0:
416,224,18390,1,8,0:0:0:0:
416,224,18475,1,8,0:0:0:0:
416,224,18560,1,0,0:0:0:0:
416,224,18731,1,8,0:0:0:0:
416,224,18816,1,0,0:0:0:0:
416,224,18901,1,8,0:0:0:0:
416,224,19072,1,0,0:0:0:0:
416,224,19157,1,8,0:0:0:0:
416,224,19242,1,8,0:0:0:0:
416,224,19327,1,8,0:0:0:0:
416,224,19413,1,0,0:0:0:0:
416,224,19583,1,8,0:0:0:0:
416,224,19753,1,0,0:0:0:0:
416,224,19839,1,0,0:0:0:0:
416,224,19924,1,8,0:0:0:0:
416,224,20009,1,0,0:0:0:0:
416,224,20094,1,8,0:0:0:0:
416,224,20265,1,0,0:0:0:0:
416,224,20435,1,8,0:0:0:0:
416,224,20520,1,0,0:0:0:0:
416,224,20606,1,0,0:0:0:0:
416,224,20691,1,0,0:0:0:0:
416,224,20776,1,8,0:0:0:0:
416,224,20947,1,8,0:0:0:0:
416,224,21117,1,0,0:0:0:0:
416,224,21202,1,0,0:0:0:0:
416,224,21288,1,8,0:0:0:0:
416,224,21458,1,8,0:0:0:0:
416,224,21543,1,0,0:0:0:0:
416,224,21628,1,0,0:0:0:0:
416,224,21714,1,0,0:0:0:0:
416,224,21799,1,8,0:0:0:0:
416,224,21969,1,0,0:0:0:0:
416,224,22055,1,0,0:0:0:0:
416,224,22140,1,8,0:0:0:0:
416,224,22310,1,8,0:0:0:0:
416,224,22395,1,8,0:0:0:0:
416,224,22481,1,0,0:0:0:0:
416,224,22651,1,8,0:0:0:0:
416,224,22822,1,0,0:0:0:0:
416,224,22907,1,8,0:0:0:0:
416,224,22992,1,0,0:0:0:0:
416,224,23163,1,8,0:0:0:0:
416,224,23248,1,0,0:0:0:0:
416,224,23333,1,8,0:0:0:0:
416,224,23503,1,0,0:0:0:0:
416,224,23589,1,8,0:0:0:0:
416,224,23674,1,8,0:0:0:0:
416,224,23844,1,0,0:0:0:0:
416,224,23930,1,8,0:0:0:0:
416,224,24015,1,8,0:0:0:0:
416,224,24100,1,0,0:0:0:0:
416,224,24185,1,8,0:0:0:0:
416,224,24270,1,8,0:0:0:0:
416,224,24356,1,0,0:0:0:0:
416,224,24526,1,8,0:0:0:0:
416,224,24611,1,8,0:0:0:0:
416,224,24697,1,8,0:0:0:0:
416,224,24782,1,0,0:0:0:0:
416,224,24867,1,8,0:0:0:0:
416,224,25038,1,0,0:0:0:0:
416,224,25208,1,8,0:0:0:0:
416,224,25293,1,8,0:0:0:0:
416,224,25378,1,8,0:0:0:0:
416,224,25464,1,0,0:0:0:0:
416,224,25549,1,8,0:0:0:0:
416,224,25719,1,0,0:0:0:0:
416,224,25890,1,8,0:0:0:0:
416,224,25975,1,0,0:0:0:0:
416,224,26060,1,8,0:0:0:0:
416,224,26145,1,0,0:0:0:0:
416,224,26231,1,0,0:0:0:0:
416,224,26401,1,8,0:0:0:0:
416,224,26572,1,0,0:0:0:0:
416,224,27253,1,8,0:0:0:0:
416,224,27339,1,8,0:0:0:0:
416,224,27424,1,8,0:0:0:0:
416,224,27594,1,8,0:0:0:0:
416,224,27765,1,8,0:0:0:0:
416,224,27935,1,4,0:0:0:0:
416,224,28106,1,8,0:0:0:0:
416,224,28276,1,8,0:0:0:0:
416,224,28361,1,0,0:0:0:0:
416,224,28447,1,8,0:0:0:0:
416,224,28532,1,8,0:0:0:0:
416,224,28617,1,0,0:0:0:0:
416,224,28788,1,8,0:0:0:0:
416,224,28873,1,8,0:0:0:0:
416,224,28958,1,0,0:0:0:0:
416,224,29128,1,8,0:0:0:0:
416,224,29214,1,0,0:0:0:0:
416,224,29299,1,8,0:0:0:0:
416,224,29469,1,0,0:0:0:0:
416,224,29640,1,8,0:0:0:0:
416,224,29725,1,8,0:0:0:0:
416,224,29810,1,0,0:0:0:0:
416,224,29981,1,8,0:0:0:0:
416,224,30066,1,0,0:0:0:0:
416,224,30151,1,8,0:0:0:0:
416,224,30322,1,8,0:0:0:0:
416,224,30407,1,8,0:0:0:0:
416,224,30492,1,0,0:0:0:0:
416,224,30577,1,0,0:0:0:0:
416,224,30663,1,8,0:0:0:0:
416,224,30833,1,8,0:0:0:0:
416,224,30918,1,0,0:0:0:0:
416,224,31003,1,8,0:0:0:0:
416,224,31089,1,0,0:0:0:0:
416,224,31174,1,8,0:0:0:0:
416,224,31259,1,8,0:0:0:0:
416,224,31344,1,0,0:0:0:0:
416,224,31515,1,8,0:0:0:0:
416,224,31600,1,8,0:0:0:0:
416,224,31685,1,0,0:0:0:0:
416,224,31856,1,8,0:0:0:0:
416,224,31941,1,0,0:0:0:0:
416,224,32026,1,8,0:0:0:0:
416,224,32197,1,0,0:0:0:0:
416,224,32367,1,8,0:0:0:0:
416,224,32452,1,8,0:0:0:0:
416,224,32538,1,0,0:0:0:0:
416,224,32708,1,8,0:0:0:0:
416,224,32793,1,0,0:0:0:0:
416,224,32878,1,8,0:0:0:0:
416,224,33049,1,8,0:0:0:0:
416,224,33134,1,0,0:0:0:0:
416,224,33219,1,8,0:0:0:0:
416,224,33305,1,8,0:0:0:0:
416,224,33390,1,4,0:0:0:0:
416,224,33560,1,8,0:0:0:0:
416,224,33645,1,0,0:0:0:0:
416,224,33731,1,8,0:0:0:0:
416,224,33901,1,0,0:0:0:0:
416,224,34072,1,8,0:0:0:0:
416,224,34157,1,0,0:0:0:0:
416,224,34242,1,8,0:0:0:0:
416,224,34327,1,8,0:0:0:0:
416,224,34413,1,0,0:0:0:0:
416,224,34583,1,8,0:0:0:0:
416,224,34753,1,0,0:0:0:0:
416,224,34839,1,8,0:0:0:0:
416,224,34924,1,8,0:0:0:0:
416,224,35009,1,8,0:0:0:0:
416,224,35094,1,0,0:0:0:0:
416,224,35265,1,8,0:0:0:0:
416,224,35435,1,0,0:0:0:0:
416,224,35520,1,8,0:0:0:0:
416,224,35606,1,8,0:0:0:0:
416,224,35691,1,8,0:0:0:0:
416,224,35776,1,0,0:0:0:0:
416,224,35947,1,8,0:0:0:0:
416,224,36117,1,4,0:0:0:0:
416,224,36457,1,0,0:0:0:0:
416,224,36628,1,0,0:0:0:0:
416,224,36798,1,8,0:0:0:0:
416,224,37139,1,8,0:0:0:0:
416,224,37310,1,0,0:0:0:0:
416,224,37480,1,8,0:0:0:0:
416,224,37821,1,0,0:0:0:0:
416,224,38162,1,8,0:0:0:0:
416,224,38503,1,8,0:0:0:0:
416,224,38673,1,8,0:0:0:0:
416,224,38844,1,0,0:0:0:0:
416,224,39185,1,0,0:0:0:0:
416,224,39355,1,0,0:0:0:0:
416,224,39526,1,8,0:0:0:0:
416,224,39867,1,8,0:0:0:0:
416,224,40037,1,8,0:0:0:0:
416,224,40207,1,0,0:0:0:0:
416,224,40548,1,0,0:0:0:0:
416,224,40719,1,0,0:0:0:0:
416,224,40889,1,8,0:0:0:0:
416,224,41060,1,8,0:0:0:0:
416,224,41230,1,0,0:0:0:0:
416,224,41401,1,8,0:0:0:0:
416,224,41571,1,0,0:0:0:0:
416,224,41912,1,0,0:0:0:0:
416,224,42082,1,0,0:0:0:0:
416,224,42253,1,8,0:0:0:0:
416,224,42594,1,8,0:0:0:0:
416,224,42764,1,8,0:0:0:0:
416,224,42935,1,0,0:0:0:0:
416,224,43276,1,0,0:0:0:0:
416,224,43446,1,0,0:0:0:0:
416,224,43617,1,8,0:0:0:0:
416,224,43957,1,8,0:0:0:0:
416,224,44128,1,0,0:0:0:0:
416,224,44298,1,8,0:0:0:0:
416,224,44639,1,0,0:0:0:0:
416,224,44980,1,8,0:0:0:0:
416,224,45321,1,0,0:0:0:0:
416,224,45492,1,0,0:0:0:0:
416,224,45662,1,8,0:0:0:0:
416,224,45832,1,0,0:0:0:0:
416,224,46003,1,8,0:0:0:0:
416,224,46173,1,8,0:0:0:0:
416,224,46344,1,0,0:0:0:0:
416,224,46685,1,8,0:0:0:0:
416,224,46855,1,8,0:0:0:0:
416,224,47026,1,4,0:0:0:0:
416,224,47196,1,8,0:0:0:0:
416,224,47281,1,0,0:0:0:0:
416,224,47367,1,8,0:0:0:0:
416,224,47537,1,8,0:0:0:0:
416,224,47622,1,0,0:0:0:0:
416,224,47707,1,8,0:0:0:0:
416,224,47793,1,8,0:0:0:0:
416,224,47878,1,0,0:0:0:0:
416,224,48048,1,8,0:0:0:0:
416,224,48134,1,8,0:0:0:0:
416,224,48219,1,0,0:0:0:0:
416,224,48389,1,8,0:0:0:0:
416,224,48474,1,0,0:0:0:0:
416,224,48560,1,0,0:0:0:0:
416,224,48645,1,0,0:0:0:0:
416,224,48730,1,8,0:0:0:0:
416,224,48901,1,0,0:0:0:0:
416,224,48986,1,0,0:0:0:0:
416,224,49071,1,8,0:0:0:0:
416,224,49242,1,0,0:0:0:0:
416,224,49327,1,8,0:0:0:0:
416,224,49412,1,0,0:0:0:0:
416,224,49497,1,0,0:0:0:0:
416,224,49582,1,8,0:0:0:0:
416,224,49668,1,0,0:0:0:0:
416,224,49753,1,8,0:0:0:0:
416,224,49923,1,0,0:0:0:0:
416,224,50009,1,0,0:0:0:0:
416,224,50094,1,8,0:0:0:0:
416,224,50264,1,8,0:0:0:0:
416,224,50349,1,0,0:0:0:0:
416,224,50435,1,8,0:0:0:0:
416,224,50520,1,8,0:0:0:0:
416,224,50605,1,0,0:0:0:0:
416,224,50776,1,0,0:0:0:0:
416,224,50861,1,8,0:0:0:0:
416,224,50946,1,0,0:0:0:0:
416,224,51117,1,8,0:0:0:0:
416,224,51202,1,0,0:0:0:0:
416,224,51287,1,0,0:0:0:0:
416,224,51372,1,0,0:0:0:0:
416,224,51457,1,8,0:0:0:0:
416,224,51628,1,0,0:0:0:0:
416,224,51798,1,8,0:0:0:0:
416,224,51884,1,0,0:0:0:0:
416,224,51969,1,8,0:0:0:0:
416,224,52054,1,8,0:0:0:0:
416,224,52139,1,0,0:0:0:0:
416,224,52224,1,0,0:0:0:0:
416,224,52310,1,8,0:0:0:0:
416,224,52480,1,12,0:0:0:0:
416,224,52651,1,0,0:0:0:0:
416,224,52821,1,0,0:0:0:0:
416,224,52906,1,8,0:0:0:0:
416,224,52992,1,0,0:0:0:0:
416,224,53162,1,8,0:0:0:0:
416,224,53332,1,0,0:0:0:0:
416,224,53418,1,8,0:0:0:0:
416,224,53503,1,0,0:0:0:0:
416,224,53588,1,0,0:0:0:0:
416,224,53673,1,8,0:0:0:0:
416,224,53844,1,0,0:0:0:0:
416,224,54014,1,0,0:0:0:0:
416,224,54099,1,8,0:0:0:0:
416,224,54185,1,0,0:0:0:0:
416,224,54355,1,8,0:0:0:0:
416,224,54526,1,0,0:0:0:0:
416,224,54611,1,0,0:0:0:0:
416,224,54696,1,8,0:0:0:0:
416,224,54781,1,0,0:0:0:0:
416,224,54867,1,8,0:0:0:0:
416,224,55037,1,0,0:0:0:0:
416,224,55207,1,12,0:0:0:0:
416,224,55378,1,8,0:0:0:0:
416,224,55463,1,8,0:0:0:0:
416,224,55548,1,0,0:0:0:0:
416,224,55719,1,4,0:0:0:0:
416,224,55889,1,0,0:0:0:0:
416,224,55974,1,8,0:0:0:0:
416,224,56060,1,0,0:0:0:0:
416,224,56230,1,12,0:0:0:0:
416,224,57935,1,4,0:0:0:0:
416,224,58105,1,8,0:0:0:0:
416,224,58276,1,8,0:0:0:0:
384,224,58361,1,0,0:0:0:0:
384,224,58446,1,0,0:0:0:0:
384,224,58531,1,0,0:0:0:0:
384,224,58617,1,8,0:0:0:0:
384,224,58787,1,0,0:0:0:0:
384,224,58957,1,8,0:0:0:0:
384,224,59043,1,8,0:0:0:0:
384,224,59128,1,0,0:0:0:0:
384,224,59298,1,0,0:0:0:0:
416,224,59469,1,8,0:0:0:0:
416,224,59639,1,8,0:0:0:0:
416,224,59724,1,0,0:0:0:0:
416,224,59810,1,8,0:0:0:0:
416,224,59895,1,0,0:0:0:0:
416,224,59980,1,8,0:0:0:0:
416,224,60151,1,0,0:0:0:0:
416,224,60321,1,8,0:0:0:0:
416,224,60406,1,8,0:0:0:0:
416,224,60492,1,0,0:0:0:0:
416,224,60662,1,8,0:0:0:0:
416,224,60747,1,0,0:0:0:0:
416,224,60832,1,0,0:0:0:0:
416,224,60918,1,0,0:0:0:0:
416,224,61003,1,8,0:0:0:0:
416,224,61088,1,0,0:0:0:0:
416,224,61173,1,8,0:0:0:0:
416,224,61259,1,8,0:0:0:0:
416,224,61344,1,0,0:0:0:0:
416,224,61429,1,8,0:0:0:0:
416,224,61514,1,8,0:0:0:0:
416,224,61599,1,8,0:0:0:0:
416,224,61685,1,0,0:0:0:0:
416,224,61770,1,8,0:0:0:0:
416,224,61855,1,0,0:0:0:0:
416,224,61940,1,0,0:0:0:0:
416,224,62026,1,8,0:0:0:0:
416,224,62196,1,0,0:0:0:0:
416,224,62367,1,8,0:0:0:0:
416,224,62452,1,0,0:0:0:0:
416,224,62537,1,8,0:0:0:0:
416,224,62622,1,8,0:0:0:0:
416,224,62707,1,0,0:0:0:0:
416,224,62878,1,8,0:0:0:0:
416,224,63048,1,0,0:0:0:0:
416,224,63134,1,0,0:0:0:0:
416,224,63219,1,8,0:0:0:0:
416,224,63389,1,0,0:0:0:0:
416,224,63560,1,8,0:0:0:0:
416,224,63730,1,8,0:0:0:0:
416,224,63815,1,0,0:0:0:0:
416,224,63901,1,0,0:0:0:0:
416,224,63986,1,0,0:0:0:0:
416,224,64071,1,8,0:0:0:0:
416,224,64242,1,0,0:0:0:0:
416,224,64412,1,8,0:0:0:0:
416,224,64497,1,8,0:0:0:0:
416,224,64582,1,0,0:0:0:0:
416,224,64753,1,0,0:0:0:0:
416,224,64923,1,8,0:0:0:0:
416,224,65094,1,8,0:0:0:0:
416,224,65179,1,0,0:0:0:0:
416,224,65264,1,8,0:0:0:0:
416,224,65349,1,0,0:0:0:0:
416,224,65435,1,8,0:0:0:0:
416,224,65605,1,0,0:0:0:0:
416,224,65776,1,8,0:0:0:0:
416,224,65861,1,8,0:0:0:0:
416,224,65946,1,0,0:0:0:0:
416,224,66117,1,0,0:0:0:0:
416,224,66202,1,0,0:0:0:0:
416,224,66287,1,8,0:0:0:0:
416,224,66372,1,0,0:0:0:0:
416,224,66457,1,8,0:0:0:0:
416,224,66543,1,0,0:0:0:0:
416,224,66628,1,8,0:0:0:0:
416,224,66713,1,8,0:0:0:0:
416,224,66798,1,0,0:0:0:0:
416,224,66884,1,0,0:0:0:0:
416,224,66969,1,8,0:0:0:0:
416,224,67054,1,8,0:0:0:0:
416,224,67139,1,0,0:0:0:0:
416,224,67224,1,8,0:0:0:0:
416,224,67310,1,0,0:0:0:0:
416,224,67395,1,0,0:0:0:0:
416,224,67480,1,8,0:0:0:0:
416,224,68503,1,8,0:0:0:0:
416,224,68588,1,8,0:0:0:0:
416,224,68673,1,8,0:0:0:0:
416,224,68844,1,12,0:0:0:0:
416,224,69185,1,8,0:0:0:0:
416,224,69355,1,8,0:0:0:0:
416,224,69526,1,0,0:0:0:0:
416,224,69867,1,0,0:0:0:0:
416,224,70207,1,8,0:0:0:0:
416,224,70548,1,8,0:0:0:0:
416,224,70719,1,8,0:0:0:0:
416,224,70889,1,0,0:0:0:0:
416,224,71230,1,0,0:0:0:0:
416,224,71571,1,8,0:0:0:0:
416,224,71742,1,0,0:0:0:0:
416,224,71912,1,8,0:0:0:0:
416,224,72082,1,8,0:0:0:0:
416,224,72253,1,0,0:0:0:0:
416,224,72423,1,8,0:0:0:0:
416,224,72594,1,0,0:0:0:0:
416,224,72764,1,0,0:0:0:0:
416,224,72935,1,8,0:0:0:0:
416,224,73276,1,8,0:0:0:0:
416,224,73446,1,0,0:0:0:0:
416,224,73617,1,8,0:0:0:0:
416,224,73957,1,12,0:0:0:0:
416,224,74298,1,0,0:0:0:0:
416,224,74469,1,8,0:0:0:0:
416,224,74639,1,0,0:0:0:0:
416,224,74724,1,0,0:0:0:0:
416,224,74810,1,8,0:0:0:0:
416,224,74980,1,8,0:0:0:0:
416,224,75065,1,0,0:0:0:0:
416,224,75151,1,0,0:0:0:0:
416,224,75236,1,0,0:0:0:0:
416,224,75321,1,8,0:0:0:0:
416,224,75492,1,8,0:0:0:0:
416,224,75662,1,0,0:0:0:0:
416,224,75747,1,0,0:0:0:0:
416,224,75832,1,0,0:0:0:0:
416,224,76003,1,8,0:0:0:0:
384,224,76088,1,0,0:0:0:0:
416,224,76173,1,8,0:0:0:0:
416,224,76259,1,0,0:0:0:0:
416,224,76344,1,8,0:0:0:0:
416,224,76514,1,0,0:0:0:0:
416,224,76685,1,8,0:0:0:0:
416,224,76770,1,8,0:0:0:0:
416,224,76855,1,0,0:0:0:0:
416,224,77026,1,8,0:0:0:0:
416,224,77111,1,0,0:0:0:0:
416,224,77196,1,8,0:0:0:0:
416,224,77281,1,8,0:0:0:0:
416,224,77367,1,0,0:0:0:0:
416,224,77537,1,8,0:0:0:0:
416,224,77707,1,0,0:0:0:0:
416,224,77793,1,0,0:0:0:0:
416,224,77878,1,8,0:0:0:0:
416,224,77963,1,0,0:0:0:0:
416,224,78048,1,8,0:0:0:0:
416,224,78219,1,0,0:0:0:0:
416,224,78389,1,8,0:0:0:0:
416,224,79412,1,8,0:0:0:0:
416,224,79497,1,8,0:0:0:0:
416,224,79582,1,8,0:0:0:0:
416,224,79753,1,12,0:0:0:0:
416,224,79924,1,0,0:0:0:0:
416,224,80094,1,8,0:0:0:0:
416,224,80179,1,0,0:0:0:0:
416,224,80264,1,8,0:0:0:0:
416,224,80435,1,0,0:0:0:0:
416,224,80520,1,8,0:0:0:0:
416,224,80605,1,8,0:0:0:0:
416,224,80691,1,8,0:0:0:0:
416,224,80776,1,0,0:0:0:0:
416,224,80861,1,8,0:0:0:0:
384,224,80946,1,0,0:0:0:0:
416,224,81117,1,8,0:0:0:0:
416,224,81202,1,0,0:0:0:0:
416,224,81287,1,8,0:0:0:0:
416,224,81458,1,0,0:0:0:0:
416,224,81543,1,8,0:0:0:0:
416,224,81628,1,0,0:0:0:0:
416,224,81799,1,8,0:0:0:0:
416,224,81884,1,0,0:0:0:0:
416,224,81969,1,0,0:0:0:0:
416,224,82054,1,8,0:0:0:0:
416,224,82139,1,0,0:0:0:0:
416,224,82310,1,8,0:0:0:0:
416,224,82480,1,8,0:0:0:0:
416,224,82566,1,0,0:0:0:0:
416,224,82651,1,0,0:0:0:0:
416,224,82736,1,8,0:0:0:0:
416,224,82821,1,0,0:0:0:0:
416,224,82992,1,0,0:0:0:0:
416,224,83162,1,8,0:0:0:0:
416,224,83247,1,0,0:0:0:0:
416,224,83332,1,8,0:0:0:0:
416,224,83418,1,8,0:0:0:0:
416,224,83503,1,0,0:0:0:0:
416,224,83674,1,0,0:0:0:0:
416,224,83844,1,8,0:0:0:0:
416,224,83929,1,0,0:0:0:0:
416,224,84014,1,8,0:0:0:0:
416,224,84185,1,8,0:0:0:0:
416,224,84270,1,0,0:0:0:0:
416,224,84355,1,8,0:0:0:0:
416,224,84440,1,8,0:0:0:0:
416,224,84526,1,0,0:0:0:0:
416,224,84696,1,8,0:0:0:0:
416,224,84781,1,8,0:0:0:0:
416,224,84867,1,0,0:0:0:0:
416,224,85037,1,8,0:0:0:0:
416,224,85122,1,8,0:0:0:0:
416,224,85208,1,0,0:0:0:0:
416,224,85378,1,8,0:0:0:0:
416,224,85549,1,0,0:0:0:0:
416,224,85634,1,8,0:0:0:0:
416,224,85719,1,0,0:0:0:0:
416,224,85890,1,8,0:0:0:0:
416,224,85975,1,0,0:0:0:0:
416,224,86060,1,8,0:0:0:0:
416,224,86230,1,0,0:0:0:0:
416,224,86315,1,8,0:0:0:0:
416,224,86401,1,8,0:0:0:0:
416,224,86571,1,0,0:0:0:0:
416,224,86656,1,8,0:0:0:0:
416,224,86742,1,8,0:0:0:0:
416,224,86827,1,0,0:0:0:0:
416,224,86912,1,8,0:0:0:0:
416,224,86997,1,8,0:0:0:0:
416,224,87082,1,0,0:0:0:0:
416,224,87253,1,0,0:0:0:0:
416,224,87338,1,0,0:0:0:0:
416,224,87423,1,8,0:0:0:0:
416,224,87509,1,0,0:0:0:0:
416,224,87594,1,8,0:0:0:0:
416,224,87765,1,0,0:0:0:0:
416,224,87935,1,0,0:0:0:0:
416,224,88020,1,0,0:0:0:0:
416,224,88105,1,8,0:0:0:0:
416,224,88191,1,0,0:0:0:0:
416,224,88276,1,8,0:0:0:0:
416,224,88446,1,0,0:0:0:0:
416,224,88617,1,8,0:0:0:0:
416,224,88702,1,0,0:0:0:0:
416,224,88787,1,8,0:0:0:0:
416,224,88872,1,8,0:0:0:0:
416,224,88958,1,0,0:0:0:0:
416,224,89128,1,0,0:0:0:0:
416,224,89298,1,8,0:0:0:0:
416,224,89980,1,8,0:0:0:0:
416,224,90066,1,8,0:0:0:0:
416,224,90151,1,8,0:0:0:0:
416,224,90321,1,8,0:0:0:0:
416,224,90492,1,8,0:0:0:0:
416,224,90662,1,4,0:0:0:0:
416,224,90832,1,8,0:0:0:0:
416,224,91003,1,8,0:0:0:0:
416,224,91088,1,0,0:0:0:0:
416,224,91174,1,8,0:0:0:0:
416,224,91259,1,8,0:0:0:0:
416,224,91344,1,0,0:0:0:0:
416,224,91515,1,8,0:0:0:0:
416,224,91600,1,0,0:0:0:0:
416,224,91685,1,8,0:0:0:0:
416,224,91855,1,8,0:0:0:0:
416,224,91941,1,0,0:0:0:0:
416,224,92026,1,8,0:0:0:0:
416,224,92196,1,0,0:0:0:0:
416,224,92281,1,8,0:0:0:0:
416,224,92367,1,8,0:0:0:0:
416,224,92452,1,8,0:0:0:0:
416,224,92537,1,0,0:0:0:0:
416,224,92707,1,8,0:0:0:0:
416,224,92793,1,0,0:0:0:0:
416,224,92878,1,8,0:0:0:0:
416,224,92963,1,0,0:0:0:0:
416,224,93048,1,8,0:0:0:0:
416,224,93219,1,0,0:0:0:0:
416,224,93304,1,0,0:0:0:0:
416,224,93390,1,8,0:0:0:0:
416,224,93560,1,8,0:0:0:0:
416,224,93645,1,0,0:0:0:0:
416,224,93730,1,8,0:0:0:0:
416,224,93815,1,0,0:0:0:0:
416,224,93901,1,8,0:0:0:0:
416,224,94071,1,8,0:0:0:0:
416,224,94157,1,0,0:0:0:0:
416,224,94242,1,0,0:0:0:0:
416,224,94327,1,0,0:0:0:0:
416,224,94412,1,8,0:0:0:0:
416,224,94583,1,8,0:0:0:0:
416,224,94668,1,0,0:0:0:0:
416,224,94753,1,8,0:0:0:0:
416,224,94924,1,8,0:0:0:0:
416,224,95009,1,0,0:0:0:0:
416,224,95094,1,0,0:0:0:0:
416,224,95179,1,0,0:0:0:0:
416,224,95264,1,8,0:0:0:0:
416,224,95435,1,0,0:0:0:0:
416,224,95520,1,0,0:0:0:0:
416,224,95605,1,8,0:0:0:0:
416,224,95776,1,8,0:0:0:0:
416,224,95861,1,0,0:0:0:0:
416,224,95946,1,8,0:0:0:0:
416,224,96032,1,8,0:0:0:0:
416,224,96117,1,4,0:0:0:0:
416,224,96287,1,8,0:0:0:0:
416,224,96372,1,8,0:0:0:0:
416,224,96458,1,0,0:0:0:0:
416,224,96628,1,8,0:0:0:0:
416,224,96798,1,8,0:0:0:0:
416,224,96884,1,0,0:0:0:0:
416,224,96969,1,8,0:0:0:0:
416,224,97054,1,8,0:0:0:0:
416,224,97139,1,0,0:0:0:0:
416,224,97310,1,8,0:0:0:0:
416,224,97480,1,0,0:0:0:0:
416,224,97566,1,0,0:0:0:0:
416,224,97651,1,8,0:0:0:0:
416,224,97736,1,0,0:0:0:0:
416,224,97821,1,8,0:0:0:0:
416,224,97992,1,0,0:0:0:0:
416,224,98162,1,0,0:0:0:0:
416,224,98247,1,0,0:0:0:0:
416,224,98332,1,8,0:0:0:0:
416,224,98418,1,0,0:0:0:0:
416,224,98503,1,8,0:0:0:0:
416,224,98674,1,8,0:0:0:0:
416,224,98844,1,4,0:0:0:0:
416,224,99184,1,0,0:0:0:0:
416,224,99355,1,0,0:0:0:0:
416,224,99525,1,8,0:0:0:0:
416,224,99866,1,8,0:0:0:0:
416,224,100037,1,0,0:0:0:0:
416,224,100207,1,8,0:0:0:0:
416,224,100548,1,0,0:0:0:0:
416,224,100889,1,8,0:0:0:0:
416,224,101230,1,8,0:0:0:0:
416,224,101400,1,8,0:0:0:0:
416,224,101571,1,0,0:0:0:0:
416,224,101912,1,0,0:0:0:0:
416,224,102082,1,0,0:0:0:0:
416,224,102253,1,8,0:0:0:0:
416,224,102594,1,8,0:0:0:0:
416,224,102764,1,0,0:0:0:0:
416,224,102934,1,8,0:0:0:0:
416,224,103275,1,0,0:0:0:0:
416,224,103446,1,0,0:0:0:0:
416,224,103616,1,8,0:0:0:0:
416,224,103787,1,0,0:0:0:0:
416,224,103957,1,8,0:0:0:0:
416,224,104128,1,8,0:0:0:0:
416,224,104298,1,4,0:0:0:0:
64,64,104639,1,0,0:0:0:0:
64,64,104809,1,0,0:0:0:0:
448,64,104980,1,8,0:0:0:0:
416,224,105321,1,0,0:0:0:0:
416,224,105491,1,8,0:0:0:0:
416,224,105662,1,0,0:0:0:0:
416,224,106003,1,4,0:0:0:0:
416,224,106344,1,8,0:0:0:0:
416,224,106684,1,8,0:0:0:0:
416,224,106855,1,8,0:0:0:0:
416,224,107025,1,4,0:0:0:0:
416,224,107366,1,0,0:0:0:0:
416,224,107707,1,8,0:0:0:0:
416,224,108048,1,0,0:0:0:0:
416,224,108219,1,0,0:0:0:0:
416,224,108389,1,8,0:0:0:0:
416,224,108559,1,0,0:0:0:0:
416,224,108730,1,8,0:0:0:0:
416,224,108900,1,8,0:0:0:0:
416,224,109071,1,0,0:0:0:0:
416,224,109412,1,8,0:0:0:0:
416,224,109582,1,8,0:0:0:0:
416,224,109753,1,4,0:0:0:0:
416,224,109923,1,8,0:0:0:0:
416,224,110008,1,0,0:0:0:0:
416,224,110094,1,8,0:0:0:0:
416,224,110264,1,0,0:0:0:0:
416,224,110349,1,0,0:0:0:0:
416,224,110434,1,8,0:0:0:0:
416,224,110520,1,0,0:0:0:0:
416,224,110605,1,8,0:0:0:0:
416,224,110775,1,0,0:0:0:0:
416,224,110861,1,8,0:0:0:0:
416,224,110946,1,0,0:0:0:0:
416,224,111116,1,8,0:0:0:0:
416,224,111201,1,0,0:0:0:0:
416,224,111287,1,0,0:0:0:0:
416,224,111372,1,0,0:0:0:0:
416,224,111457,1,8,0:0:0:0:
416,224,111628,1,0,0:0:0:0:
416,224,111713,1,0,0:0:0:0:
416,224,111798,1,8,0:0:0:0:
416,224,111969,1,8,0:0:0:0:
416,224,112054,1,0,0:0:0:0:
416,224,112139,1,8,0:0:0:0:
416,224,112224,1,8,0:0:0:0:
416,224,112309,1,0,0:0:0:0:
416,224,112395,1,8,0:0:0:0:
416,224,112480,1,0,0:0:0:0:
416,224,112650,1,8,0:0:0:0:
416,224,112736,1,0,0:0:0:0:
416,224,112821,1,8,0:0:0:0:
416,224,112991,1,0,0:0:0:0:
416,224,113076,1,0,0:0:0:0:
416,224,113162,1,8,0:0:0:0:
416,224,113332,1,8,0:0:0:0:
416,224,113417,1,0,0:0:0:0:
416,224,113503,1,0,0:0:0:0:
416,224,113588,1,8,0:0:0:0:
416,224,113673,1,0,0:0:0:0:
416,224,113844,1,8,0:0:0:0:
416,224,113929,1,0,0:0:0:0:
416,224,114014,1,8,0:0:0:0:
416,224,114099,1,0,0:0:0:0:
416,224,114184,1,8,0:0:0:0:
416,224,114355,1,0,0:0:0:0:
416,224,114525,1,8,0:0:0:0:
416,224,114611,1,0,0:0:0:0:
416,224,114696,1,0,0:0:0:0:
416,224,114781,1,8,0:0:0:0:
416,224,114866,1,8,0:0:0:0:
416,224,114951,1,0,0:0:0:0:
416,224,115037,1,8,0:0:0:0:
416,224,115207,1,4,0:0:0:0:
416,224,115378,1,8,0:0:0:0:
416,224,115548,1,8,0:0:0:0:
416,224,115633,1,8,0:0:0:0:
416,224,115719,1,0,0:0:0:0:
416,224,115889,1,8,0:0:0:0:
416,224,116059,1,0,0:0:0:0:
416,224,116145,1,0,0:0:0:0:
416,224,116230,1,8,0:0:0:0:
416,224,116315,1,0,0:0:0:0:
416,224,116400,1,8,0:0:0:0:
416,224,116571,1,0,0:0:0:0:
416,224,116741,1,8,0:0:0:0:
416,224,116826,1,0,0:0:0:0:
416,224,116912,1,8,0:0:0:0:
416,224,117082,1,0,0:0:0:0:
416,224,117253,1,8,0:0:0:0:
416,224,117338,1,0,0:0:0:0:
416,224,117423,1,8,0:0:0:0:
416,224,117508,1,0,0:0:0:0:
416,224,117594,1,8,0:0:0:0:
416,224,117764,1,0,0:0:0:0:
416,224,117934,1,12,0:0:0:0:
416,224,118105,1,0,0:0:0:0:
416,224,118190,1,0,0:0:0:0:
416,224,118275,1,8,0:0:0:0:
416,224,118446,1,4,0:0:0:0:
416,224,118616,1,8,0:0:0:0:
416,224,118701,1,8,0:0:0:0:
416,224,118787,1,0,0:0:0:0:
416,224,118957,1,12,0:0:0:0:
416,224,120662,1,4,0:0:0:0:
416,224,120832,1,8,0:0:0:0:
416,224,121003,1,0,0:0:0:0:
384,224,121088,1,8,0:0:0:0:
384,224,121173,1,8,0:0:0:0:
384,224,121258,1,0,0:0:0:0:
384,224,121344,1,8,0:0:0:0:
384,224,121514,1,8,0:0:0:0:
384,224,121684,1,0,0:0:0:0:
384,224,121770,1,0,0:0:0:0:
384,224,121855,1,8,0:0:0:0:
384,224,122025,1,0,0:0:0:0:
416,224,122196,1,8,0:0:0:0:
416,224,122366,1,8,0:0:0:0:
416,224,122451,1,0,0:0:0:0:
416,224,122537,1,8,0:0:0:0:
416,224,122622,1,0,0:0:0:0:
416,224,122707,1,8,0:0:0:0:
416,224,122878,1,0,0:0:0:0:
416,224,123048,1,8,0:0:0:0:
416,224,123133,1,8,0:0:0:0:
416,224,123219,1,0,0:0:0:0:
416,224,123389,1,8,0:0:0:0:
416,224,123474,1,0,0:0:0:0:
416,224,123559,1,0,0:0:0:0:
416,224,123645,1,0,0:0:0:0:
416,224,123730,1,8,0:0:0:0:
416,224,123815,1,0,0:0:0:0:
416,224,123900,1,8,0:0:0:0:
416,224,123986,1,8,0:0:0:0:
416,224,124071,1,0,0:0:0:0:
416,224,124156,1,8,0:0:0:0:
416,224,124241,1,8,0:0:0:0:
416,224,124326,1,8,0:0:0:0:
416,224,124412,1,0,0:0:0:0:
416,224,124497,1,8,0:0:0:0:
416,224,124582,1,0,0:0:0:0:
416,224,124667,1,0,0:0:0:0:
416,224,124753,1,8,0:0:0:0:
416,224,124923,1,0,0:0:0:0:
416,224,125094,1,8,0:0:0:0:
416,224,125179,1,0,0:0:0:0:
416,224,125264,1,8,0:0:0:0:
416,224,125349,1,8,0:0:0:0:
416,224,125434,1,0,0:0:0:0:
416,224,125605,1,8,0:0:0:0:
416,224,125775,1,8,0:0:0:0:
416,224,125861,1,0,0:0:0:0:
416,224,125946,1,8,0:0:0:0:
416,224,126116,1,0,0:0:0:0:
416,224,126287,1,8,0:0:0:0:
416,224,126457,1,8,0:0:0:0:
416,224,126542,1,0,0:0:0:0:
416,224,126628,1,8,0:0:0:0:
416,224,126713,1,8,0:0:0:0:
416,224,126798,1,0,0:0:0:0:
416,224,126969,1,8,0:0:0:0:
416,224,127139,1,0,0:0:0:0:
416,224,127224,1,0,0:0:0:0:
416,224,127309,1,8,0:0:0:0:
416,224,127480,1,0,0:0:0:0:
416,224,127650,1,8,0:0:0:0:
416,224,127821,1,0,0:0:0:0:
416,224,127906,1,0,0:0:0:0:
416,224,127991,1,8,0:0:0:0:
416,224,128076,1,0,0:0:0:0:
416,224,128162,1,8,0:0:0:0:
416,224,128332,1,8,0:0:0:0:
416,224,128503,1,0,0:0:0:0:
416,224,128588,1,8,0:0:0:0:
416,224,128673,1,0,0:0:0:0:
416,224,128844,1,0,0:0:0:0:
416,224,128929,1,0,0:0:0:0:
416,224,129014,1,8,0:0:0:0:
416,224,129099,1,0,0:0:0:0:
416,224,129184,1,8,0:0:0:0:
416,224,129270,1,0,0:0:0:0:
416,224,129355,1,8,0:0:0:0:
416,224,129440,1,8,0:0:0:0:
416,224,129525,1,0,0:0:0:0:
416,224,129611,1,0,0:0:0:0:
416,224,129696,1,8,0:0:0:0:
416,224,129781,1,8,0:0:0:0:
416,224,129866,1,0,0:0:0:0:
416,224,129951,1,8,0:0:0:0:
416,224,130037,1,0,0:0:0:0:
416,224,130122,1,0,0:0:0:0:
416,224,130207,1,8,0:0:0:0:
