osu file format v14

[General]
AudioFilename: audio.ogg
AudioLeadIn: 0
PreviewTime: 36457
Countdown: 0
SampleSet: Normal
StackLeniency: 0.7
Mode: 1
LetterboxInBreaks: 0
WidescreenStoryboard: 1

[Editor]
DistanceSpacing: 1
BeatDivisor: 2
GridSize: 32
TimelineZoom: 1.7

[Metadata]
Title:sympathy 4 the grinch
TitleUnicode:sympathy 4 the grinch
Artist:100 gecs
ArtistUnicode:100 gecs
Creator:Cryceptio
Version:FUTSUU!!!!
Source:
Tags:clockbite electronic english pop hyperpop hyper hype alternative dylan brady laura les osno1 christmas xmas for
BeatmapID:4353774
BeatmapSetID:2079176

[Difficulty]
HPDrainRate:7
CircleSize:5
OverallDifficulty:4
ApproachRate:5
SliderMultiplier:1.4
SliderTickRate:1

[Events]
//Background and Video events
0,0,"proxy-image.png",0,-110
//Break Periods
//Storyboard Layer 0 (Background)
//Storyboard Layer 1 (Fail)
//Storyboard Layer 2 (Pass)
//Storyboard Layer 3 (Foreground)
//Storyboard Layer 4 (Overlay)
//Storyboard Sound Samples

[TimingPoints]
323,340.909090909091,4,1,0,70,1,8
663,340.909090909091,4,1,0,60,1,0
5691,-100,4,1,0,70,0,0
36117,340.909090909091,4,1,0,60,1,0
47026,-100,4,1,0,90,0,1
56571,-100,4,1,0,70,0,0
57935,-100,4,1,0,90,0,1
67480,-100,4,1,0,70,0,0
98844,340.909090909091,4,1,0,70,1,0
109753,-100,4,1,0,90,0,1
119298,-100,4,1,0,70,0,0
120662,-100,4,1,0,90,0,1
130207,-100,4,1,0,70,0,0

[HitObjects]
448,320,323,5,12,0:0:0:0:
64,224,663,1,0,0:0:0:0:
64,224,1003,1,0,0:0:0:0:
64,224,1174,1,0,0:0:0:0:
448,64,1344,1,8,0:0:0:0:
448,64,1685,1,8,0:0:0:0:
64,224,2026,1,0,0:0:0:0:
64,224,2367,1,0,0:0:0:0:
64,224,2538,1,0,0:0:0:0:
448,64,2708,1,8,0:0:0:0:
448,64,3049,1,8,0:0:0:0:
64,224,3390,1,0,0:0:0:0:
64,224,3560,1,0,0:0:0:0:
448,64,3731,1,8,0:0:0:0:
64,224,4072,1,0,0:0:0:0:
64,224,4242,1,0,0:0:0:0:
448,64,4413,1,8,0:0:0:0:
64,224,4583,1,0,0:0:0:0:
448,64,4753,1,8,0:0:0:0:
64,224,5094,1,0,0:0:0:0:
64,224,5265,1,0,0:0:0:0:
448,64,5435,1,8,0:0:0:0:
448,320,6117,1,12,0:0:0:0:
448,64,6458,1,8,0:0:0:0:
448,64,6628,1,8,0:0:0:0:
64,224,6799,1,0,0:0:0:0:
448,64,7140,1,8,0:0:0:0:
448,64,7481,1,8,0:0:0:0:
64,224,7822,1,0,0:0:0:0:
64,224,7992,1,0,0:0:0:0:
448,64,8163,1,8,0:0:0:0:
64,224,8503,1,0,0:0:0:0:
64,224,8844,1,0,0:0:0:0:
448,64,9526,1,8,0:0:0:0:
64,224,9697,1,0,0:0:0:0:
448,64,9867,1,8,0:0:0:0:
448,64,10038,1,8,0:0:0:0:
64,224,10208,1,0,0:0:0:0:
64,224,10890,1,0,0:0:0:0:
448,64,11231,1,8,0:0:0:0:
64,224,11572,1,0,0:0:0:0:
64,224,11913,1,0,0:0:0:0:
448,64,12083,1,8,0:0:0:0:
64,224,12253,1,0,0:0:0:0:
448,64,12594,1,8,0:0:0:0:
448,64,12935,1,8,0:0:0:0:
64,224,13276,1,0,0:0:0:0:
448,64,13447,1,8,0:0:0:0:
448,64,13617,1,8,0:0:0:0:
64,224,13958,1,0,0:0:0:0:
448,64,14299,1,8,0:0:0:0:
448,64,14981,1,8,0:0:0:0:
448,64,15151,1,8,0:0:0:0:
448,64,15322,1,8,0:0:0:0:
64,224,15492,1,0,0:0:0:0:
448,64,15663,1,8,0:0:0:0:
64,224,16344,1,0,0:0:0:0:
448,64,16685,1,8,0:0:0:0:
448,320,17026,1,12,0:0:0:0:
448,64,17367,1,8,0:0:0:0:
448,64,17538,1,8,0:0:0:0:
64,224,17708,1,0,0:0:0:0:
64,224,18049,1,0,0:0:0:0:
448,64,18390,1,8,0:0:0:0:
448,64,18731,1,8,0:0:0:0:
448,64,18901,1,8,0:0:0:0:
64,224,19072,1,0,0:0:0:0:
448,64,19413,1,8,0:0:0:0:
64,224,19753,1,0,0:0:0:0:
448,64,20435,1,8,0:0:0:0:
64,224,20606,1,0,0:0:0:0:
448,64,20776,1,8,0:0:0:0:
448,64,20947,1,8,0:0:0:0:
64,224,21117,1,0,0:0:0:0:
448,64,21799,1,8,0:0:0:0:
448,64,22140,1,8,0:0:0:0:
64,224,22481,1,0,0:0:0:0:
64,224,22822,1,0,0:0:0:0:
64,224,22992,1,0,0:0:0:0:
448,64,23163,1,8,0:0:0:0:
64,224,23503,1,0,0:0:0:0:
64,224,23844,1,0,0:0:0:0:
448,64,24185,1,8,0:0:0:0:
64,224,24356,1,0,0:0:0:0:
448,64,24526,1,8,0:0:0:0:
64,64,24867,1,0,0:0:0:0:
448,64,25208,1,8,0:0:0:0:
448,64,25890,1,8,0:0:0:0:
448,64,26060,1,8,0:0:0:0:
64,224,26231,1,0,0:0:0:0:
448,64,26401,1,8,0:0:0:0:
64,224,26572,1,0,0:0:0:0:
448,64,27253,1,8,0:0:0:0:
448,320,27935,1,12,0:0:0:0:
448,64,28276,1,8,0:0:0:0:
64,224,28617,1,0,0:0:0:0:
448,64,28788,1,8,0:0:0:0:
64,224,28958,1,0,0:0:0:0:
448,64,29299,1,8,0:0:0:0:
64,224,29640,1,0,0:0:0:0:
448,64,29981,1,8,0:0:0:0:
448,64,30151,1,8,0:0:0:0:
448,64,30322,1,8,0:0:0:0:
64,64,30663,1,0,0:0:0:0:
448,64,31003,1,8,0:0:0:0:
64,224,31344,1,0,0:0:0:0:
448,64,31515,1,8,0:0:0:0:
64,224,31685,1,0,0:0:0:0:
64,224,32026,1,0,0:0:0:0:
448,64,32367,1,8,0:0:0:0:
448,64,32708,1,8,0:0:0:0:
64,224,32878,1,0,0:0:0:0:
448,64,33049,1,8,0:0:0:0:
64,320,33390,1,4,0:0:0:0:
448,64,34072,1,8,0:0:0:0:
64,224,34413,1,0,0:0:0:0:
448,64,34583,1,8,0:0:0:0:
64,224,34753,1,0,0:0:0:0:
64,224,35435,1,0,0:0:0:0:
64,320,36117,1,4,0:0:0:0:
448,64,36798,1,8,0:0:0:0:
448,64,37480,1,8,0:0:0:0:
64,224,37821,1,0,0:0:0:0:
448,64,38162,1,8,0:0:0:0:
64,224,38844,1,0,0:0:0:0:
448,64,39526,1,8,0:0:0:0:
448,64,39867,1,8,0:0:0:0:
64,224,40207,1,0,0:0:0:0:
448,64,40889,1,8,0:0:0:0:
64,224,41571,1,0,0:0:0:0:
64,224,41912,1,0,0:0:0:0:
448,64,42253,1,8,0:0:0:0:
64,224,42935,1,0,0:0:0:0:
448,64,43617,1,8,0:0:0:0:
448,64,43957,1,8,0:0:0:0:
448,64,44298,1,8,0:0:0:0:
64,64,44980,1,0,0:0:0:0:
448,64,45662,1,8,0:0:0:0:
64,320,47026,1,4,0:0:0:0:
448,64,47366,1,8,0:0:0:0:
448,64,47537,1,8,0:0:0:0:
448,64,47707,1,8,0:0:0:0:
448,64,48048,1,8,0:0:0:0:
448,64,48389,1,8,0:0:0:0:
64,224,48560,1,0,0:0:0:0:
448,64,48730,1,8,0:0:0:0:
448,64,49071,1,8,0:0:0:0:
64,224,49412,1,0,0:0:0:0:
448,64,49582,1,8,0:0:0:0:
448,64,49753,1,8,0:0:0:0:
448,64,50094,1,8,0:0:0:0:
448,64,50264,1,8,0:0:0:0:
448,64,50435,1,8,0:0:0:0:
64,224,50776,1,0,0:0:0:0:
448,64,51117,1,8,0:0:0:0:
448,64,51457,1,8,0:0:0:0:
64,224,51628,1,0,0:0:0:0:
448,64,51798,1,8,0:0:0:0:
64,64,52139,1,0,0:0:0:0:
448,64,52310,1,0,0:0:0:0:
448,320,52480,1,12,0:0:0:0:
448,64,53162,1,8,0:0:0:0:
64,224,53844,1,0,0:0:0:0:
64,224,54185,1,0,0:0:0:0:
64,224,54526,1,0,0:0:0:0:
448,64,54867,1,8,0:0:0:0:
64,224,55037,1,0,0:0:0:0:
448,320,55207,1,12,0:0:0:0:
64,320,55719,1,4,0:0:0:0:
448,320,56230,1,12,0:0:0:0:
64,320,57935,1,4,0:0:0:0:
448,64,58276,1,8,0:0:0:0:
64,224,58446,1,0,0:0:0:0:
448,64,58617,1,8,0:0:0:0:
448,64,58957,1,8,0:0:0:0:
64,224,59298,1,0,0:0:0:0:
448,64,59639,1,8,0:0:0:0:
448,64,59810,1,8,0:0:0:0:
448,64,59980,1,8,0:0:0:0:
64,64,60321,1,0,0:0:0:0:
448,64,60662,1,8,0:0:0:0:
64,224,61344,1,0,0:0:0:0:
448,64,62026,1,8,0:0:0:0:
448,64,62367,1,8,0:0:0:0:
448,64,62537,1,8,0:0:0:0:
64,224,62707,1,0,0:0:0:0:
64,224,63048,1,0,0:0:0:0:
64,224,63389,1,0,0:0:0:0:
448,64,63730,1,8,0:0:0:0:
64,224,63901,1,0,0:0:0:0:
448,64,64071,1,8,0:0:0:0:
448,64,64412,1,8,0:0:0:0:
64,224,64753,1,0,0:0:0:0:
448,64,65094,1,8,0:0:0:0:
448,64,65264,1,8,0:0:0:0:
448,64,65435,1,8,0:0:0:0:
448,64,65776,1,8,0:0:0:0:
64,224,66117,1,0,0:0:0:0:
64,224,66798,1,0,0:0:0:0:
64,224,67139,1,0,0:0:0:0:
64,224,67310,1,0,0:0:0:0:
448,64,67480,1,8,0:0:0:0:
448,320,68844,1,12,0:0:0:0:
448,64,69185,1,8,0:0:0:0:
448,64,69355,1,8,0:0:0:0:
64,224,69526,1,0,0:0:0:0:
64,224,69867,1,0,0:0:0:0:
448,64,70207,1,8,0:0:0:0:
448,64,70548,1,8,0:0:0:0:
448,64,70719,1,8,0:0:0:0:
64,224,70889,1,0,0:0:0:0:
64,224,71230,1,0,0:0:0:0:
448,64,71571,1,8,0:0:0:0:
64,224,72253,1,0,0:0:0:0:
448,64,72423,1,8,0:0:0:0:
64,224,72594,1,0,0:0:0:0:
64,224,72764,1,0,0:0:0:0:
448,64,72935,1,8,0:0:0:0:
448,64,73617,1,8,0:0:0:0:
448,320,73957,1,12,0:0:0:0:
64,224,74298,1,0,0:0:0:0:
64,224,74639,1,0,0:0:0:0:
448,64,74810,1,8,0:0:0:0:
448,64,74980,1,8,0:0:0:0:
448,64,75321,1,8,0:0:0:0:
64,224,75662,1,0,0:0:0:0:
448,64,76003,1,8,0:0:0:0:
448,64,76173,1,8,0:0:0:0:
448,64,76344,1,8,0:0:0:0:
64,64,76685,1,0,0:0:0:0:
448,64,77026,1,8,0:0:0:0:
64,224,77707,1,0,0:0:0:0:
448,64,77878,1,8,0:0:0:0:
448,64,78048,1,8,0:0:0:0:
64,224,78219,1,0,0:0:0:0:
448,64,78389,1,8,0:0:0:0:
64,224,79071,1,0,0:0:0:0:
448,64,79412,1,8,0:0:0:0:
448,320,79753,1,12,0:0:0:0:
448,64,80094,1,8,0:0:0:0:
448,64,80265,1,8,0:0:0:0:
64,224,80435,1,0,0:0:0:0:
64,224,80776,1,0,0:0:0:0:
448,64,81117,1,8,0:0:0:0:
64,224,81458,1,0,0:0:0:0:
64,224,81628,1,0,0:0:0:0:
448,64,81799,1,8,0:0:0:0:
64,224,82140,1,0,0:0:0:0:
448,64,82480,1,8,0:0:0:0:
448,64,83162,1,8,0:0:0:0:
448,64,83333,1,8,0:0:0:0:
64,224,83503,1,0,0:0:0:0:
64,224,83674,1,0,0:0:0:0:
448,64,83844,1,8,0:0:0:0:
64,64,84526,1,0,0:0:0:0:
448,64,84867,1,8,0:0:0:0:
64,224,85208,1,0,0:0:0:0:
64,224,85549,1,0,0:0:0:0:
64,224,85719,1,0,0:0:0:0:
448,64,85890,1,8,0:0:0:0:
64,224,86230,1,0,0:0:0:0:
64,224,86571,1,0,0:0:0:0:
448,64,86912,1,8,0:0:0:0:
64,64,87083,1,0,0:0:0:0:
64,224,87253,1,0,0:0:0:0:
448,64,87594,1,8,0:0:0:0:
64,224,87935,1,0,0:0:0:0:
448,64,88617,1,8,0:0:0:0:
448,64,88787,1,8,0:0:0:0:
64,224,88958,1,0,0:0:0:0:
64,224,89128,1,0,0:0:0:0:
448,64,89299,1,8,0:0:0:0:
448,64,89980,1,8,0:0:0:0:
64,320,90662,1,4,0:0:0:0:
448,64,91003,1,8,0:0:0:0:
64,224,91344,1,0,0:0:0:0:
448,64,91515,1,8,0:0:0:0:
448,64,91685,1,8,0:0:0:0:
448,64,92026,1,8,0:0:0:0:
64,64,92367,1,0,0:0:0:0:
448,64,92708,1,8,0:0:0:0:
448,64,92878,1,8,0:0:0:0:
448,64,93049,1,8,0:0:0:0:
448,64,93390,1,8,0:0:0:0:
64,64,93730,1,0,0:0:0:0:
448,64,94071,1,8,0:0:0:0:
64,224,94242,1,0,0:0:0:0:
448,64,94412,1,8,0:0:0:0:
448,64,94753,1,8,0:0:0:0:
64,224,95094,1,0,0:0:0:0:
64,224,95435,1,0,0:0:0:0:
448,64,95605,1,8,0:0:0:0:
448,64,95776,1,8,0:0:0:0:
64,320,96117,1,4,0:0:0:0:
448,64,96799,1,8,0:0:0:0:
64,224,97140,1,0,0:0:0:0:
448,64,97310,1,8,0:0:0:0:
64,224,97480,1,0,0:0:0:0:
64,224,98162,1,0,0:0:0:0:
64,320,98844,1,4,0:0:0:0:
448,64,99525,1,8,0:0:0:0:
448,64,100207,1,8,0:0:0:0:
64,224,100548,1,0,0:0:0:0:
448,64,100889,1,8,0:0:0:0:
64,224,101571,1,0,0:0:0:0:
448,64,102253,1,8,0:0:0:0:
448,64,102593,1,8,0:0:0:0:
448,64,102934,1,8,0:0:0:0:
448,64,103616,1,8,0:0:0:0:
64,320,104298,1,4,0:0:0:0:
448,64,104980,1,8,0:0:0:0:
64,224,105662,1,0,0:0:0:0:
64,320,106003,1,4,0:0:0:0:
448,64,106344,1,8,0:0:0:0:
448,64,106684,1,8,0:0:0:0:
64,320,107025,1,4,0:0:0:0:
448,64,107707,1,8,0:0:0:0:
448,64,108389,1,8,0:0:0:0:
64,320,109753,1,4,0:0:0:0:
448,64,110094,1,8,0:0:0:0:
64,224,110264,1,0,0:0:0:0:
448,64,110434,1,8,0:0:0:0:
64,224,110775,1,0,0:0:0:0:
448,64,111116,1,8,0:0:0:0:
64,224,111287,1,0,0:0:0:0:
448,64,111457,1,8,0:0:0:0:
448,64,111798,1,8,0:0:0:0:
448,64,112139,1,8,0:0:0:0:
64,224,112309,1,0,0:0:0:0:
64,224,112480,1,0,0:0:0:0:
448,64,112821,1,8,0:0:0:0:
64,224,112991,1,0,0:0:0:0:
448,64,113162,1,8,0:0:0:0:
64,224,113503,1,0,0:0:0:0:
448,64,113844,1,8,0:0:0:0:
448,64,114184,1,8,0:0:0:0:
64,224,114355,1,0,0:0:0:0:
448,64,114525,1,8,0:0:0:0:
448,64,114866,1,8,0:0:0:0:
448,64,115037,1,8,0:0:0:0:
64,320,115207,1,4,0:0:0:0:
448,64,115889,1,8,0:0:0:0:
64,224,116571,1,0,0:0:0:0:
448,64,116912,1,8,0:0:0:0:
448,64,117253,1,8,0:0:0:0:
448,64,117594,1,8,0:0:0:0:
64,224,117764,1,0,0:0:0:0:
448,320,117934,1,12,0:0:0:0:
64,320,118446,1,4,0:0:0:0:
448,320,118957,1,12,0:0:0:0:
64,320,120662,1,4,0:0:0:0:
64,224,121003,1,0,0:0:0:0:
448,64,121173,1,8,0:0:0:0:
448,64,121344,1,8,0:0:0:0:
64,224,121684,1,0,0:0:0:0:
64,224,122025,1,0,0:0:0:0:
448,64,122366,1,8,0:0:0:0:
448,64,122537,1,8,0:0:0:0:
448,64,122707,1,8,0:0:0:0:
64,64,123048,1,0,0:0:0:0:
448,64,123389,1,8,0:0:0:0:
64,224,124071,1,0,0:0:0:0:
448,64,124753,1,8,0:0:0:0:
448,64,125094,1,8,0:0:0:0:
448,64,125264,1,8,0:0:0:0:
64,224,125434,1,0,0:0:0:0:
448,64,125775,1,8,0:0:0:0:
64,224,126116,1,0,0:0:0:0:
448,64,126457,1,8,0:0:0:0:
448,64,126628,1,8,0:0:0:0:
64,224,126798,1,0,0:0:0:0:
64,224,127139,1,0,0:0:0:0:
64,224,127480,1,0,0:0:0:0:
64,224,127821,1,0,0:0:0:0:
448,64,127991,1,8,0:0:0:0:
448,64,128162,1,8,0:0:0:0:
64,224,128503,1,0,0:0:0:0:
64,224,128844,1,0,0:0:0:0:
64,224,129525,1,0,0:0:0:0:
64,224,129866,1,0,0:0:0:0:
64,224,130037,1,0,0:0:0:0:
448,64,130207,1,8,0:0:0:0:
