osu file format v14

[General]
AudioFilename: audio.ogg
AudioLeadIn: 0
PreviewTime: 36457
Countdown: 0
SampleSet: Normal
StackLeniency: 0.7
Mode: 1
LetterboxInBreaks: 0
WidescreenStoryboard: 1

[Editor]
DistanceSpacing: 1
BeatDivisor: 8
GridSize: 32
TimelineZoom: 4.999998

[Metadata]
Title:sympathy 4 the grinch
TitleUnicode:sympathy 4 the grinch
Artist:100 gecs
ArtistUnicode:100 gecs
Creator:Cryceptio
Version:CLOCKBITE'S ONI!!!!
Source:
Tags:clockbite electronic english pop hyperpop hyper hype alternative dylan brady laura les osno1 christmas xmas for
BeatmapID:4353773
BeatmapSetID:2079176

[Difficulty]
HPDrainRate:5.5
CircleSize:5
OverallDifficulty:5.5
ApproachRate:10
SliderMultiplier:1.4
SliderTickRate:1

[Events]
//Background and Video events
0,0,"proxy-image.png",0,-110
//Break Periods
2,45368,46576
2,108095,109303
//Storyboard Layer 0 (Background)
//Storyboard Layer 1 (Fail)
//Storyboard Layer 2 (Pass)
//Storyboard Layer 3 (Foreground)
//Storyboard Layer 4 (Overlay)
//Storyboard Sound Samples

[TimingPoints]
323,340.909090909091,4,1,0,70,1,8
323,-100,4,1,0,70,0,8
663,340.909090909091,4,1,0,60,1,0
663,-133.333333333333,4,1,0,60,0,0
5691,-125,4,1,0,70,0,0
6117,-99.9999999999999,4,1,0,70,0,0
6202,-111.111111111111,4,1,0,70,0,0
16003,-90.9090909090909,4,1,0,70,0,0
16089,-92.5925925925926,4,1,0,70,0,0
16259,-95.2380952380952,4,1,0,70,0,0
16685,-108.108108108108,4,1,0,70,0,0
17026,-95.2380952380954,4,1,0,70,0,0
17111,-105.263157894737,4,1,0,70,0,0
21458,-90.9090909090909,4,1,0,70,0,0
21685,-93.4579439252336,4,1,0,70,0,0
21913,-96.1538461538461,4,1,0,70,0,0
22026,-105.263157894737,4,1,0,70,0,0
27253,-102.564102564103,4,1,0,70,0,0
27934,-100,4,1,0,70,0,0
28275,-99.37876,4,1,0,70,0,0
28616,-98.765205,4,1,0,70,0,0
28787,-98.46037,4,1,0,70,0,0
28957,-98.15917,4,1,0,70,0,0
29042,-98.00928,4,1,0,70,0,0
29127,-97.859825,4,1,0,70,0,0
29298,-97.56055,4,1,0,70,0,0
29468,-97.26482,4,1,0,70,0,0
29639,-96.96916,4,1,0,70,0,0
29724,-96.82286,4,1,0,70,0,0
29809,-96.676994,4,1,0,70,0,0
29980,-96.384895,4,1,0,70,0,0
30150,-96.09625,4,1,0,70,0,0
30321,-95.80765,4,1,0,70,0,0
30406,-95.66483,4,1,0,70,0,0
30491,-95.52243,4,1,0,70,0,0
30576,-95.38048,4,1,0,70,0,0
30662,-95.23726,4,1,0,70,0,0
31002,-94.67528,4,1,0,70,0,0
31343,-94.11825,4,1,0,70,0,0
31514,-93.841385,4,1,0,70,0,0
31684,-93.56775,4,1,0,70,0,0
31769,-93.43153,4,1,0,70,0,0
31855,-93.29411,4,1,0,70,0,0
32025,-93.02364,4,1,0,70,0,0
32196,-92.753174,4,1,0,70,0,0
32366,-92.48584,4,1,0,70,0,0
32451,-92.35275,4,1,0,70,0,0
32537,-92.21848,4,1,0,70,0,0
32707,-91.954216,4,1,0,70,0,0
32877,-91.69145,4,1,0,70,0,0
33048,-91.42866,4,1,0,70,0,0
33133,-91.29859,4,1,0,70,0,0
33218,-91.1689,4,1,0,70,0,0
33304,-91.03805,4,1,0,70,0,0
33389,-90.91527,4,1,0,70,0,0
33730,-93.07224,4,1,0,70,0,0
34071,-95.33406,4,1,0,70,0,0
34241,-96.50322,4,1,0,70,0,0
34412,-97.70855,4,1,0,70,0,0
34582,-98.93705,4,1,0,70,0,0
34752,-100.19682,4,1,0,70,0,0
35093,-102.82306,4,1,0,70,0,0
35434,-105.59067,4,1,0,70,0,0
35519,-106.303894,4,1,0,70,0,0
35605,-107.035385,4,1,0,70,0,0
35775,-108.51139,4,1,0,70,0,0
35946,-110.03771,4,1,0,70,0,0
36031,-110.81251,4,1,0,70,0,0
36117,340.909090909091,4,1,0,60,1,0
36117,-133.333333333333,4,1,0,60,0,0
36798,-111.111111111111,4,1,0,60,0,0
36884,-133.333333333333,4,1,0,60,0,0
38141,-111.111111111111,4,1,0,60,0,0
38227,-133.333333333333,4,1,0,60,0,0
39504,-111.111111111111,4,1,0,60,0,0
39590,-133.333333333333,4,1,0,60,0,0
40868,-111.111111111111,4,1,0,60,0,0
40954,-133.333333333333,4,1,0,60,0,0
42232,-111.111111111111,4,1,0,60,0,0
42318,-133.333333333333,4,1,0,60,0,0
43595,-111.111111111111,4,1,0,60,0,0
43681,-133.333333333333,4,1,0,60,0,0
44959,-111.111111111111,4,1,0,60,0,0
45045,-133.333333333333,4,1,0,60,0,0
47026,-90.90909,4,1,0,90,0,1
47195,-91.427414,4,1,0,90,0,1
47366,-91.95479,4,1,0,90,0,1
47451,-92.21922,4,1,0,90,0,1
47536,-92.48515,4,1,0,90,0,1
47621,-92.75263,4,1,0,90,0,1
47706,-93.02166,4,1,0,90,0,1
47877,-93.56764,4,1,0,90,0,1
48047,-94.11684,4,1,0,90,0,1
48133,-94.397125,4,1,0,90,0,1
48218,-94.67579,4,1,0,90,0,1
48388,-95.23809,4,1,0,90,0,1
48559,-95.81049,4,1,0,90,0,1
48729,-96.38639,4,1,0,90,0,1
49070,-97.56273,4,1,0,90,0,1
49241,-98.16349,4,1,0,90,0,1
49411,-98.76811,4,1,0,90,0,1
49496,-99.073235,4,1,0,90,0,1
49581,-99.38025,4,1,0,90,0,1
49667,-99.6928,4,1,0,90,0,1
49752,-90.912125,4,1,0,90,0,1
49922,-91.4301,4,1,0,90,0,1
50093,-91.95712,4,1,0,90,0,1
50178,-92.22135,4,1,0,90,0,1
50263,-92.487114,4,1,0,90,0,1
50348,-92.7544,4,1,0,90,0,1
50434,-93.02642,4,1,0,90,0,1
50604,-93.568855,4,1,0,90,0,1
50775,-94.1209,4,1,0,90,0,1
50860,-94.39773,4,1,0,90,0,1
50945,-94.6762,4,1,0,90,0,1
51116,-95.24142,4,1,0,90,0,1
51286,-95.81007,4,1,0,90,0,1
51456,-96.38554,4,1,0,90,0,1
51542,-96.679306,4,1,0,90,0,1
51627,-96.97141,4,1,0,90,0,1
51797,-97.560974,4,1,0,90,0,1
51968,-98.16127,4,1,0,90,0,1
52138,-98.76544,4,1,0,90,0,1
52223,-99.07031,4,1,0,90,0,1
52309,-99.38069,4,1,0,90,0,1
52394,-99.68939,4,1,0,90,0,1
52479,-90.912125,4,1,0,90,0,1
52820,-91.95712,4,1,0,90,0,1
52991,-92.49026,4,1,0,90,0,1
53161,-93.02642,4,1,0,90,0,1
53246,-93.29685,4,1,0,90,0,1
53331,-93.568855,4,1,0,90,0,1
53502,-94.1209,4,1,0,90,0,1
53672,-94.6762,4,1,0,90,0,1
53843,-95.24142,4,1,0,90,0,1
53928,-95.5249,4,1,0,90,0,1
54013,-95.81007,4,1,0,90,0,1
54184,-96.388954,4,1,0,90,0,1
54354,-96.97141,4,1,0,90,0,1
54525,-97.56446,4,1,0,90,0,1
54610,-97.86195,4,1,0,90,0,1
54695,-98.16127,4,1,0,90,0,1
54780,-98.462425,4,1,0,90,0,1
54866,-98.76901,4,1,0,90,0,1
55036,-99.38069,4,1,0,90,0,1
55206,-100.00366,4,1,0,90,0,1
55377,-100.63403,4,1,0,90,0,1
55718,-101.91511,4,1,0,90,0,1
55888,-102.56603,4,1,0,90,0,1
56229,-80,4,1,0,90,0,1
56571,-105.263157894737,4,1,0,70,0,0
57935,-83.3333333333333,4,1,0,90,0,1
58276,-86.9565217391304,4,1,0,90,0,1
58446,-88.8888888888889,4,1,0,90,0,1
58617,-76.9230769230769,4,1,0,90,0,1
58957,-80,4,1,0,90,0,1
59277,-83.3333333333333,4,1,0,90,0,1
59618,-86.9565217391304,4,1,0,90,0,1
59788,-88.8888888888889,4,1,0,90,0,1
59959,-76.9230769230769,4,1,0,90,0,1
60299,-80,4,1,0,90,0,1
60662,-83.3333333333333,4,1,0,90,0,1
60832,-85.1063829787234,4,1,0,90,0,1
61003,-86.9565217391304,4,1,0,90,0,1
61173,-88.8888888888889,4,1,0,90,0,1
61344,-76.9230769230769,4,1,0,90,0,1
61514,-78.4313725490196,4,1,0,90,0,1
61685,-80,4,1,0,90,0,1
61855,-81.6326530612245,4,1,0,90,0,1
62004,-83.3333333333333,4,1,0,90,0,1
62345,-86.9565217391304,4,1,0,90,0,1
62515,-88.8888888888889,4,1,0,90,0,1
62686,-76.9230769230769,4,1,0,90,0,1
63026,-80,4,1,0,90,0,1
63325,-83.3333333333333,4,1,0,90,0,1
63666,-86.9565217391304,4,1,0,90,0,1
63836,-88.8888888888889,4,1,0,90,0,1
64007,-76.9230769230769,4,1,0,90,0,1
64347,-80,4,1,0,90,0,1
64667,-83.3333333333333,4,1,0,90,0,1
65008,-86.9565217391304,4,1,0,90,0,1
65178,-88.8888888888889,4,1,0,90,0,1
65349,-76.9230769230769,4,1,0,90,0,1
65689,-80,4,1,0,90,0,1
66052,-83.3333333333333,4,1,0,90,0,1
66222,-85.1063829787234,4,1,0,90,0,1
66393,-86.9565217391304,4,1,0,90,0,1
66563,-88.8888888888889,4,1,0,90,0,1
66734,-76.9230769230769,4,1,0,90,0,1
66904,-78.4313725490196,4,1,0,90,0,1
67075,-80,4,1,0,90,0,1
67245,-81.6326530612245,4,1,0,90,0,1
67480,-83.3333333333333,4,1,0,70,0,0
68503,-142.857142857143,4,1,0,70,0,0
68844,-111.111111111111,4,1,0,70,0,0
68929,-125,4,1,0,70,0,0
73957,-95.2380952380952,4,1,0,70,0,0
74298,-117.647058823529,4,1,0,70,0,0
78730,-86.9565217391302,4,1,0,70,0,0
79412,-105.263157894737,4,1,0,70,0,0
79753,-95.2380952380952,4,1,0,70,0,0
79838,-105.263157894737,4,1,0,70,0,0
89938,-102.564102564103,4,1,0,70,0,0
90619,-100,4,1,0,70,0,0
90960,-99.37876,4,1,0,70,0,0
91301,-98.765205,4,1,0,70,0,0
91472,-98.46037,4,1,0,70,0,0
91642,-98.15917,4,1,0,70,0,0
91727,-98.00928,4,1,0,70,0,0
91812,-97.859825,4,1,0,70,0,0
91983,-97.56055,4,1,0,70,0,0
92153,-97.26482,4,1,0,70,0,0
92324,-96.96916,4,1,0,70,0,0
92409,-96.82286,4,1,0,70,0,0
92494,-96.676994,4,1,0,70,0,0
92665,-96.384895,4,1,0,70,0,0
92835,-96.09625,4,1,0,70,0,0
93006,-95.80765,4,1,0,70,0,0
93091,-95.66483,4,1,0,70,0,0
93176,-95.52243,4,1,0,70,0,0
93261,-95.38048,4,1,0,70,0,0
93347,-95.23726,4,1,0,70,0,0
93687,-94.67528,4,1,0,70,0,0
94028,-94.11825,4,1,0,70,0,0
94199,-93.841385,4,1,0,70,0,0
94369,-93.56775,4,1,0,70,0,0
94454,-93.43153,4,1,0,70,0,0
94540,-93.29411,4,1,0,70,0,0
94710,-93.02364,4,1,0,70,0,0
94881,-92.753174,4,1,0,70,0,0
95051,-92.48584,4,1,0,70,0,0
95136,-92.35275,4,1,0,70,0,0
95222,-92.21848,4,1,0,70,0,0
95392,-91.954216,4,1,0,70,0,0
95562,-91.69145,4,1,0,70,0,0
95733,-91.42866,4,1,0,70,0,0
95818,-91.29859,4,1,0,70,0,0
95903,-91.1689,4,1,0,70,0,0
95989,-91.03805,4,1,0,70,0,0
96074,-90.91527,4,1,0,70,0,0
96415,-93.07224,4,1,0,70,0,0
96756,-95.33406,4,1,0,70,0,0
96926,-96.50322,4,1,0,70,0,0
97097,-97.70855,4,1,0,70,0,0
97267,-98.93705,4,1,0,70,0,0
97437,-100.19682,4,1,0,70,0,0
97778,-102.82306,4,1,0,70,0,0
98119,-105.59067,4,1,0,70,0,0
98204,-106.303894,4,1,0,70,0,0
98290,-107.035385,4,1,0,70,0,0
98460,-108.51139,4,1,0,70,0,0
98631,-110.03771,4,1,0,70,0,0
98716,-110.81251,4,1,0,70,0,0
98844,340.909090909091,4,1,0,70,1,0
98844,-133.333333333333,4,1,0,70,0,0
99483,-111.111111111111,4,1,0,60,0,0
99569,-133.333333333333,4,1,0,60,0,0
100846,-111.111111111111,4,1,0,60,0,0
100932,-133.333333333333,4,1,0,60,0,0
102210,-111.111111111111,4,1,0,60,0,0
102296,-133.333333333333,4,1,0,60,0,0
103574,-111.111111111111,4,1,0,60,0,0
103660,-133.333333333333,4,1,0,60,0,0
104937,-111.111111111111,4,1,0,60,0,0
105023,-133.333333333333,4,1,0,60,0,0
106301,-111.111111111111,4,1,0,60,0,0
106387,-133.333333333333,4,1,0,60,0,0
107665,-111.111111111111,4,1,0,60,0,0
107751,-133.333333333333,4,1,0,60,0,0
109753,-90.90909,4,1,0,90,0,1
109900,-91.427414,4,1,0,90,0,1
110071,-91.95479,4,1,0,90,0,1
110156,-92.21922,4,1,0,90,0,1
110241,-92.48515,4,1,0,90,0,1
110326,-92.75263,4,1,0,90,0,1
110411,-93.02166,4,1,0,90,0,1
110582,-93.56764,4,1,0,90,0,1
110752,-94.11684,4,1,0,90,0,1
110838,-94.397125,4,1,0,90,0,1
110923,-94.67579,4,1,0,90,0,1
111093,-95.23809,4,1,0,90,0,1
111264,-95.81049,4,1,0,90,0,1
111434,-96.38639,4,1,0,90,0,1
111775,-97.56273,4,1,0,90,0,1
111946,-98.16349,4,1,0,90,0,1
112116,-98.76811,4,1,0,90,0,1
112201,-99.073235,4,1,0,90,0,1
112286,-99.38025,4,1,0,90,0,1
112372,-99.6928,4,1,0,90,0,1
112457,-90.912125,4,1,0,90,0,1
112627,-91.4301,4,1,0,90,0,1
112798,-91.95712,4,1,0,90,0,1
112883,-92.22135,4,1,0,90,0,1
112968,-92.487114,4,1,0,90,0,1
113053,-92.7544,4,1,0,90,0,1
113139,-93.02642,4,1,0,90,0,1
113309,-93.568855,4,1,0,90,0,1
113480,-94.1209,4,1,0,90,0,1
113565,-94.39773,4,1,0,90,0,1
113650,-94.6762,4,1,0,90,0,1
113821,-95.24142,4,1,0,90,0,1
113991,-95.81007,4,1,0,90,0,1
114161,-96.38554,4,1,0,90,0,1
114247,-96.679306,4,1,0,90,0,1
114332,-96.97141,4,1,0,90,0,1
114502,-97.560974,4,1,0,90,0,1
114673,-98.16127,4,1,0,90,0,1
114843,-98.76544,4,1,0,90,0,1
114928,-99.07031,4,1,0,90,0,1
115014,-99.38069,4,1,0,90,0,1
115099,-99.68939,4,1,0,90,0,1
115184,-90.912125,4,1,0,90,0,1
115525,-91.95712,4,1,0,90,0,1
115696,-92.49026,4,1,0,90,0,1
115866,-93.02642,4,1,0,90,0,1
115951,-93.29685,4,1,0,90,0,1
116036,-93.568855,4,1,0,90,0,1
116207,-94.1209,4,1,0,90,0,1
116377,-94.6762,4,1,0,90,0,1
116548,-95.24142,4,1,0,90,0,1
116633,-95.5249,4,1,0,90,0,1
116718,-95.81007,4,1,0,90,0,1
116889,-96.388954,4,1,0,90,0,1
117059,-96.97141,4,1,0,90,0,1
117230,-97.56446,4,1,0,90,0,1
117315,-97.86195,4,1,0,90,0,1
117400,-98.16127,4,1,0,90,0,1
117485,-98.462425,4,1,0,90,0,1
117571,-98.76901,4,1,0,90,0,1
117741,-99.38069,4,1,0,90,0,1
117911,-100.00366,4,1,0,90,0,1
118082,-100.63403,4,1,0,90,0,1
118423,-101.91511,4,1,0,90,0,1
118593,-102.56603,4,1,0,90,0,1
118934,-80,4,1,0,90,0,1
119298,-105.263157894737,4,1,0,70,0,0
120662,-83.3333333333333,4,1,0,90,0,1
120960,-86.9565217391304,4,1,0,90,0,1
121130,-88.8888888888889,4,1,0,90,0,1
121301,-76.9230769230769,4,1,0,90,0,1
121641,-80,4,1,0,90,0,1
121961,-83.3333333333333,4,1,0,90,0,1
122302,-86.9565217391304,4,1,0,90,0,1
122472,-88.8888888888889,4,1,0,90,0,1
122643,-76.9230769230769,4,1,0,90,0,1
122983,-80,4,1,0,90,0,1
123346,-83.3333333333333,4,1,0,90,0,1
123516,-85.1063829787234,4,1,0,90,0,1
123687,-86.9565217391304,4,1,0,90,0,1
123857,-88.8888888888889,4,1,0,90,0,1
124028,-76.9230769230769,4,1,0,90,0,1
124198,-78.4313725490196,4,1,0,90,0,1
124369,-80,4,1,0,90,0,1
124539,-81.6326530612245,4,1,0,90,0,1
124688,-83.3333333333333,4,1,0,90,0,1
125029,-86.9565217391304,4,1,0,90,0,1
125199,-88.8888888888889,4,1,0,90,0,1
125370,-76.9230769230769,4,1,0,90,0,1
125710,-80,4,1,0,90,0,1
126009,-83.3333333333333,4,1,0,90,0,1
126350,-86.9565217391304,4,1,0,90,0,1
126520,-88.8888888888889,4,1,0,90,0,1
126691,-76.9230769230769,4,1,0,90,0,1
127031,-80,4,1,0,90,0,1
127351,-83.3333333333333,4,1,0,90,0,1
127692,-86.9565217391304,4,1,0,90,0,1
127862,-88.8888888888889,4,1,0,90,0,1
128033,-76.9230769230769,4,1,0,90,0,1
128373,-80,4,1,0,90,0,1
128736,-83.3333333333333,4,1,0,90,0,1
128906,-85.1063829787234,4,1,0,90,0,1
129077,-86.9565217391304,4,1,0,90,0,1
129247,-88.8888888888889,4,1,0,90,0,1
129418,-76.9230769230769,4,1,0,90,0,1
129588,-78.4313725490196,4,1,0,90,0,1
129759,-80,4,1,0,90,0,1
129929,-81.6326530612245,4,1,0,90,0,1
130207,-83.3333333333333,4,1,0,70,0,0

[HitObjects]
303,212,323,5,12,0:0:0:0:
310,188,663,1,0,0:0:0:0:
182,231,1003,1,0,0:0:0:0:
182,231,1174,1,0,0:0:0:0:
182,231,1344,1,8,0:0:0:0:
182,231,1685,1,8,0:0:0:0:
182,231,2026,1,0,0:0:0:0:
182,231,2367,1,8,0:0:0:0:
182,231,2538,1,0,0:0:0:0:
182,231,2708,1,8,0:0:0:0:
182,231,3049,1,8,0:0:0:0:
182,231,3390,1,0,0:0:0:0:
182,231,3560,1,8,0:0:0:0:
182,231,3731,1,8,0:0:0:0:
182,231,3901,1,0,0:0:0:0:
182,231,4072,1,8,0:0:0:0:
182,231,4242,1,0,0:0:0:0:
182,231,4413,1,8,0:0:0:0:
182,231,4583,1,8,0:0:0:0:
182,231,4753,1,0,0:0:0:0:
182,231,5094,1,0,0:0:0:0:
182,231,5265,1,0,0:0:0:0:
182,231,5435,1,8,0:0:0:0:
182,231,5776,1,8,0:0:0:0:
182,231,5861,1,8,0:0:0:0:
182,231,5947,1,8,0:0:0:0:
182,231,6117,1,4,0:0:0:0:
179,168,6458,1,8,0:0:0:0:
179,168,6628,1,0,0:0:0:0:
184,171,6799,1,8,0:0:0:0:
185,172,7140,1,8,0:0:0:0:
215,135,7225,1,8,0:0:0:0:
215,135,7310,1,0,0:0:0:0:
185,172,7481,1,8,0:0:0:0:
184,171,7822,1,0,0:0:0:0:
185,172,7992,1,8,0:0:0:0:
185,172,8163,1,0,0:0:0:0:
185,172,8503,1,0,0:0:0:0:
215,138,8589,1,0,0:0:0:0:
215,138,8674,1,8,0:0:0:0:
184,171,8844,1,0,0:0:0:0:
185,172,9015,1,0,0:0:0:0:
185,172,9185,1,8,0:0:0:0:
250,118,9270,1,8,0:0:0:0:
185,172,9356,1,0,0:0:0:0:
202,104,9526,1,8,0:0:0:0:
202,104,9697,1,0,0:0:0:0:
248,123,9782,1,0,0:0:0:0:
185,172,9867,1,8,0:0:0:0:
185,172,10038,1,8,0:0:0:0:
185,172,10208,1,0,0:0:0:0:
221,179,10378,1,8,0:0:0:0:
221,179,10719,1,8,0:0:0:0:
221,179,11060,1,8,0:0:0:0:
221,179,11401,1,8,0:0:0:0:
221,179,11572,1,0,0:0:0:0:
221,179,11913,1,0,0:0:0:0:
221,179,12083,1,0,0:0:0:0:
221,179,12253,1,8,0:0:0:0:
182,172,12594,1,0,0:0:0:0:
221,179,12680,1,8,0:0:0:0:
182,172,12765,1,0,0:0:0:0:
221,179,12935,1,8,0:0:0:0:
221,179,13276,1,8,0:0:0:0:
221,179,13447,1,8,0:0:0:0:
221,179,13617,1,0,0:0:0:0:
221,179,13958,1,8,0:0:0:0:
183,173,14043,1,0,0:0:0:0:
189,180,14128,1,8,0:0:0:0:
221,179,14299,1,0,0:0:0:0:
221,179,14469,1,0,0:0:0:0:
192,180,14640,1,0,0:0:0:0:
221,179,14725,1,8,0:0:0:0:
221,179,14810,1,0,0:0:0:0:
221,179,14981,1,8,0:0:0:0:
278,209,15151,1,8,0:0:0:0:
221,179,15236,1,0,0:0:0:0:
221,179,15322,1,8,0:0:0:0:
221,179,15492,1,8,0:0:0:0:
221,179,15663,1,0,0:0:0:0:
252,222,16003,1,8,0:0:0:0:
252,222,16131,1,8,0:0:0:0:
252,222,16387,1,12,0:0:0:0:
224,223,16685,1,8,0:0:0:0:
224,223,16770,1,8,0:0:0:0:
224,223,16856,1,8,0:0:0:0:
208,220,17026,1,4,0:0:0:0:
214,158,17367,5,8,0:0:0:0:
214,158,17538,1,0,0:0:0:0:
214,158,17708,1,8,0:0:0:0:
243,175,17793,1,8,0:0:0:0:
199,235,17878,1,8,0:0:0:0:
214,158,18049,1,0,0:0:0:0:
199,235,18134,1,0,0:0:0:0:
199,235,18219,1,0,0:0:0:0:
214,158,18390,1,8,0:0:0:0:
214,158,18731,1,0,0:0:0:0:
214,158,18901,1,0,0:0:0:0:
214,158,19072,1,8,0:0:0:0:
170,204,19157,1,8,0:0:0:0:
174,206,19242,1,0,0:0:0:0:
214,158,19413,1,0,0:0:0:0:
174,207,19498,1,0,0:0:0:0:
174,209,19583,1,8,0:0:0:0:
214,158,19753,1,0,0:0:0:0:
214,158,19924,1,0,0:0:0:0:
214,158,20094,1,8,0:0:0:0:
186,207,20180,1,0,0:0:0:0:
214,158,20265,1,8,0:0:0:0:
214,158,20435,1,0,0:0:0:0:
214,158,20606,1,8,0:0:0:0:
185,207,20691,1,8,0:0:0:0:
214,158,20776,1,0,0:0:0:0:
270,218,20861,1,0,0:0:0:0:
214,158,20947,1,8,0:0:0:0:
214,158,21117,1,0,0:0:0:0:
242,202,21458,1,8,0:0:0:0:
242,202,21685,1,8,0:0:0:0:
242,202,21913,1,8,0:0:0:0:
275,203,22310,1,8,0:0:0:0:
251,179,22481,1,0,0:0:0:0:
195,181,22822,1,8,0:0:0:0:
195,181,22992,1,0,0:0:0:0:
195,181,23163,1,8,0:0:0:0:
205,75,23248,1,0,0:0:0:0:
205,75,23333,1,8,0:0:0:0:
135,172,23503,1,0,0:0:0:0:
205,75,23589,1,8,0:0:0:0:
205,75,23674,1,0,0:0:0:0:
145,175,23844,1,8,0:0:0:0:
145,175,24185,1,8,0:0:0:0:
145,175,24356,1,0,0:0:0:0:
145,175,24526,1,8,0:0:0:0:
205,75,24611,1,8,0:0:0:0:
205,83,24697,1,8,0:0:0:0:
205,83,24867,1,0,0:0:0:0:
205,83,24952,1,0,0:0:0:0:
205,83,25038,1,0,0:0:0:0:
176,164,25208,1,8,0:0:0:0:
176,164,25378,1,8,0:0:0:0:
176,164,25549,1,0,0:0:0:0:
206,83,25634,1,8,0:0:0:0:
176,164,25719,1,0,0:0:0:0:
176,164,25890,1,8,0:0:0:0:
176,164,26060,1,0,0:0:0:0:
206,83,26145,1,0,0:0:0:0:
176,164,26231,1,0,0:0:0:0:
206,83,26316,1,0,0:0:0:0:
176,164,26401,1,8,0:0:0:0:
184,221,26572,5,0,0:0:0:0:
184,221,27253,1,8,0:0:0:0:
189,222,27339,1,8,0:0:0:0:
184,221,27424,1,8,0:0:0:0:
189,222,27594,1,8,0:0:0:0:
189,222,27765,1,8,0:0:0:0:
189,222,27935,1,0,0:0:0:0:
176,164,28276,1,0,0:0:0:0:
263,166,28617,1,8,0:0:0:0:
299,231,28788,1,8,0:0:0:0:
299,231,28958,1,0,0:0:0:0:
263,166,29043,1,0,0:0:0:0:
263,166,29128,1,8,0:0:0:0:
195,226,29299,1,0,0:0:0:0:
263,166,29469,1,0,0:0:0:0:
195,226,29640,1,8,0:0:0:0:
263,166,29725,1,8,0:0:0:0:
263,166,29810,1,0,0:0:0:0:
195,226,29981,1,8,0:0:0:0:
263,166,30151,1,0,0:0:0:0:
195,226,30322,1,8,0:0:0:0:
263,166,30407,1,0,0:0:0:0:
263,166,30492,1,8,0:0:0:0:
263,166,30577,1,8,0:0:0:0:
195,226,30663,1,0,0:0:0:0:
195,226,31003,1,0,0:0:0:0:
195,226,31344,1,8,0:0:0:0:
263,173,31515,1,0,0:0:0:0:
195,226,31685,1,8,0:0:0:0:
263,173,31770,1,0,0:0:0:0:
263,173,31856,1,8,0:0:0:0:
195,226,32026,1,0,0:0:0:0:
263,173,32197,1,8,0:0:0:0:
195,226,32367,1,0,0:0:0:0:
263,173,32452,1,8,0:0:0:0:
263,173,32538,1,0,0:0:0:0:
195,226,32708,1,8,0:0:0:0:
263,173,32878,1,0,0:0:0:0:
195,226,33049,1,8,0:0:0:0:
263,173,33134,1,8,0:0:0:0:
263,173,33219,1,8,0:0:0:0:
263,173,33305,1,8,0:0:0:0:
263,173,33390,1,0,0:0:0:0:
195,226,33731,1,8,0:0:0:0:
195,226,34072,1,0,0:0:0:0:
144,128,34242,1,0,0:0:0:0:
144,128,34413,1,8,0:0:0:0:
144,128,34583,1,0,0:0:0:0:
144,128,34753,1,0,0:0:0:0:
144,128,35094,1,8,0:0:0:0:
157,148,35435,1,8,0:0:0:0:
161,150,35520,1,8,0:0:0:0:
161,150,35606,1,8,0:0:0:0:
161,150,35776,1,8,0:0:0:0:
161,151,35947,1,8,0:0:0:0:
161,150,36032,1,8,0:0:0:0:
285,206,36457,5,0,0:0:0:0:
285,206,36628,1,0,0:0:0:0:
292,262,36798,5,8,0:0:0:0:
292,262,37139,1,8,0:0:0:0:
292,262,37310,1,0,0:0:0:0:
292,262,37480,1,8,0:0:0:0:
292,262,37821,1,0,0:0:0:0:
292,262,38162,1,8,0:0:0:0:
292,262,38503,1,8,0:0:0:0:
292,262,38673,1,8,0:0:0:0:
292,262,38844,1,0,0:0:0:0:
292,262,39185,1,8,0:0:0:0:
292,262,39355,1,0,0:0:0:0:
292,262,39526,1,8,0:0:0:0:
292,262,39867,1,0,0:0:0:0:
292,262,40037,1,8,0:0:0:0:
292,262,40207,1,0,0:0:0:0:
292,262,40548,1,0,0:0:0:0:
292,262,40719,1,8,0:0:0:0:
292,262,40889,1,8,0:0:0:0:
292,262,41230,1,8,0:0:0:0:
292,262,41401,1,8,0:0:0:0:
292,262,41571,1,0,0:0:0:0:
292,262,41912,1,8,0:0:0:0:
292,262,42253,1,8,0:0:0:0:
292,262,42594,1,0,0:0:0:0:
292,262,42764,1,0,0:0:0:0:
292,262,42935,1,8,0:0:0:0:
292,262,43276,1,8,0:0:0:0:
292,262,43446,1,0,0:0:0:0:
292,262,43617,1,8,0:0:0:0:
292,262,43957,1,8,0:0:0:0:
292,262,44128,1,8,0:0:0:0:
292,262,44298,1,0,0:0:0:0:
292,262,44980,1,8,0:0:0:0:
190,181,47026,5,4,0:0:0:0:
174,184,47196,1,0,0:0:0:0:
188,211,47367,1,8,0:0:0:0:
188,211,47452,1,0,0:0:0:0:
188,211,47537,1,8,0:0:0:0:
188,211,47622,1,8,0:0:0:0:
188,211,47707,1,0,0:0:0:0:
188,211,47878,1,0,0:0:0:0:
188,211,48048,1,8,0:0:0:0:
336,171,48134,1,8,0:0:0:0:
188,211,48219,1,0,0:0:0:0:
150,71,48389,1,8,0:0:0:0:
166,108,48560,1,0,0:0:0:0:
165,165,48730,1,8,0:0:0:0:
161,170,49071,1,8,0:0:0:0:
160,170,49242,1,0,0:0:0:0:
159,170,49412,1,8,0:0:0:0:
158,171,49497,1,8,0:0:0:0:
159,170,49582,1,8,0:0:0:0:
157,171,49668,1,8,0:0:0:0:
157,171,49753,1,0,0:0:0:0:
301,220,49923,1,0,0:0:0:0:
301,220,50094,1,8,0:0:0:0:
301,220,50179,1,8,0:0:0:0:
301,220,50264,1,0,0:0:0:0:
301,220,50349,1,8,0:0:0:0:
301,229,50435,1,0,0:0:0:0:
252,232,50605,1,0,0:0:0:0:
252,232,50776,1,8,0:0:0:0:
252,232,50861,1,8,0:0:0:0:
252,232,50946,1,0,0:0:0:0:
252,232,51117,1,8,0:0:0:0:
145,180,51287,1,0,0:0:0:0:
177,144,51457,1,8,0:0:0:0:
186,66,51543,1,0,0:0:0:0:
177,144,51628,1,8,0:0:0:0:
161,146,51798,1,0,0:0:0:0:
161,146,51969,1,0,0:0:0:0:
161,146,52139,1,8,0:0:0:0:
160,148,52224,1,8,0:0:0:0:
161,146,52310,1,8,0:0:0:0:
132,176,52395,1,8,0:0:0:0:
160,150,52480,1,4,0:0:0:0:
174,202,52821,1,0,0:0:0:0:
168,209,52992,1,0,0:0:0:0:
167,210,53162,1,8,0:0:0:0:
167,210,53247,1,8,0:0:0:0:
167,213,53332,1,0,0:0:0:0:
165,218,53503,1,8,0:0:0:0:
165,218,53673,1,8,0:0:0:0:
164,228,53844,1,0,0:0:0:0:
164,228,53929,1,0,0:0:0:0:
163,236,54014,1,8,0:0:0:0:
157,246,54185,1,0,0:0:0:0:
156,246,54355,1,0,0:0:0:0:
154,253,54526,1,8,0:0:0:0:
155,254,54611,1,8,0:0:0:0:
155,254,54696,1,0,0:0:0:0:
154,262,54781,1,0,0:0:0:0:
155,254,54867,1,8,0:0:0:0:
154,263,55037,1,8,0:0:0:0:
153,264,55207,1,0,0:0:0:0:
152,270,55378,1,0,0:0:0:0:
145,262,55719,1,0,0:0:0:0:
145,262,55889,1,8,0:0:0:0:
142,189,56230,2,4,L|274:202,1,131.25
294,196,57935,5,4,0:0:0:0:
190,177,58276,1,4,0:0:0:0:
190,177,58446,1,4,0:0:0:0:
294,196,58617,1,12,0:0:0:0:
294,196,58957,1,12,0:0:0:0:
294,196,59298,1,4,0:0:0:0:
212,154,59639,1,12,0:0:0:0:
212,154,59810,1,4,0:0:0:0:
294,196,59980,1,12,0:0:0:0:
294,196,60321,1,12,0:0:0:0:
294,196,60662,1,4,0:0:0:0:
212,204,60832,1,12,0:0:0:0:
212,204,61003,1,12,0:0:0:0:
353,269,61173,1,4,0:0:0:0:
353,269,61344,1,12,0:0:0:0:
353,269,61514,1,4,0:0:0:0:
353,269,61685,1,12,0:0:0:0:
353,269,61855,1,12,0:0:0:0:
353,269,62026,1,4,0:0:0:0:
316,177,62367,1,12,0:0:0:0:
316,177,62537,1,12,0:0:0:0:
316,177,62707,1,12,0:0:0:0:
318,162,63048,1,12,0:0:0:0:
168,90,63389,1,4,0:0:0:0:
168,90,63730,1,4,0:0:0:0:
168,90,63901,1,4,0:0:0:0:
168,90,64071,1,12,0:0:0:0:
168,90,64412,1,12,0:0:0:0:
168,90,64753,1,4,0:0:0:0:
168,90,65094,1,12,0:0:0:0:
168,90,65264,1,4,0:0:0:0:
168,90,65435,1,12,0:0:0:0:
168,90,65776,1,12,0:0:0:0:
200,200,66117,1,12,0:0:0:0:
258,218,66287,1,4,0:0:0:0:
258,218,66457,1,4,0:0:0:0:
246,206,66628,1,12,0:0:0:0:
374,177,66798,1,4,0:0:0:0:
246,206,66969,1,12,0:0:0:0:
245,204,67139,1,4,0:0:0:0:
246,206,67310,1,4,0:0:0:0:
377,195,67480,1,12,0:0:0:0:
243,168,68503,1,8,0:0:0:0:
243,168,68588,1,8,0:0:0:0:
243,168,68673,1,8,0:0:0:0:
289,184,68844,1,4,0:0:0:0:
197,193,69185,1,0,0:0:0:0:
197,193,69355,1,0,0:0:0:0:
197,193,69526,1,8,0:0:0:0:
197,193,69867,1,8,0:0:0:0:
197,193,70207,1,0,0:0:0:0:
197,193,70548,1,8,0:0:0:0:
197,193,70719,1,8,0:0:0:0:
197,193,70889,1,0,0:0:0:0:
197,193,71230,1,0,0:0:0:0:
197,193,71571,1,8,0:0:0:0:
197,193,71742,1,0,0:0:0:0:
197,193,71912,1,8,0:0:0:0:
197,193,72082,1,8,0:0:0:0:
197,193,72253,1,0,0:0:0:0:
197,193,72423,1,8,0:0:0:0:
197,193,72594,1,0,0:0:0:0:
197,193,72764,1,0,0:0:0:0:
197,193,72935,1,8,0:0:0:0:
199,198,73276,1,0,0:0:0:0:
199,198,73617,1,0,0:0:0:0:
199,198,73957,1,12,0:0:0:0:
157,162,74298,1,0,0:0:0:0:
254,175,74639,1,8,0:0:0:0:
254,175,74810,1,0,0:0:0:0:
254,175,74980,1,8,0:0:0:0:
254,175,75321,1,0,0:0:0:0:
190,221,75406,1,0,0:0:0:0:
190,221,75492,1,0,0:0:0:0:
254,175,75662,1,8,0:0:0:0:
254,175,76003,1,0,0:0:0:0:
254,175,76173,1,8,0:0:0:0:
254,175,76344,1,0,0:0:0:0:
254,175,76685,1,8,0:0:0:0:
201,218,76770,1,8,0:0:0:0:
201,218,76855,1,8,0:0:0:0:
254,175,77026,1,0,0:0:0:0:
254,175,77139,1,0,0:0:0:0:
254,175,77367,1,8,0:0:0:0:
261,178,77537,1,0,0:0:0:0:
260,179,77707,1,8,0:0:0:0:
260,179,77821,1,8,0:0:0:0:
260,179,78048,1,0,0:0:0:0:
260,179,78219,1,0,0:0:0:0:
261,178,78389,1,8,0:0:0:0:
256,192,78730,12,0,79242,0:0:0:0:
217,163,79412,5,8,0:0:0:0:
217,163,79497,1,8,0:0:0:0:
217,163,79582,1,8,0:0:0:0:
208,220,79753,1,4,0:0:0:0:
214,158,80094,5,8,0:0:0:0:
214,158,80264,1,0,0:0:0:0:
214,158,80435,1,8,0:0:0:0:
243,175,80520,1,0,0:0:0:0:
199,235,80605,1,8,0:0:0:0:
214,158,80776,1,8,0:0:0:0:
199,235,80861,1,8,0:0:0:0:
199,235,80946,1,0,0:0:0:0:
214,158,81117,1,8,0:0:0:0:
214,158,81457,1,0,0:0:0:0:
214,158,81628,1,0,0:0:0:0:
214,158,81798,1,8,0:0:0:0:
170,204,81884,1,8,0:0:0:0:
174,206,81969,1,0,0:0:0:0:
214,158,82139,1,8,0:0:0:0:
174,207,82224,1,0,0:0:0:0:
174,209,82310,1,8,0:0:0:0:
214,158,82480,1,0,0:0:0:0:
214,158,82651,1,0,0:0:0:0:
214,158,82821,1,8,0:0:0:0:
186,207,82906,1,8,0:0:0:0:
214,158,82992,1,8,0:0:0:0:
214,158,83162,1,0,0:0:0:0:
214,158,83332,1,8,0:0:0:0:
185,207,83418,1,0,0:0:0:0:
214,158,83503,1,0,0:0:0:0:
270,218,83588,1,0,0:0:0:0:
214,158,83673,1,8,0:0:0:0:
214,158,83844,1,0,0:0:0:0:
295,142,84014,1,8,0:0:0:0:
243,144,84355,1,8,0:0:0:0:
242,202,84696,1,8,0:0:0:0:
275,203,85037,1,8,0:0:0:0:
251,179,85207,1,0,0:0:0:0:
195,181,85548,1,8,0:0:0:0:
195,181,85719,1,0,0:0:0:0:
195,181,85889,1,8,0:0:0:0:
205,75,85974,1,8,0:0:0:0:
205,75,86060,1,8,0:0:0:0:
135,172,86230,1,0,0:0:0:0:
205,75,86315,1,0,0:0:0:0:
205,75,86401,1,8,0:0:0:0:
145,175,86571,1,0,0:0:0:0:
145,175,86912,1,8,0:0:0:0:
145,175,87082,1,0,0:0:0:0:
145,175,87253,1,8,0:0:0:0:
205,75,87338,1,0,0:0:0:0:
205,83,87423,1,8,0:0:0:0:
205,83,87594,1,0,0:0:0:0:
205,83,87679,1,0,0:0:0:0:
205,83,87764,1,0,0:0:0:0:
176,164,87935,1,8,0:0:0:0:
176,164,88105,1,0,0:0:0:0:
176,164,88276,1,8,0:0:0:0:
176,164,88361,1,8,0:0:0:0:
206,83,88446,1,0,0:0:0:0:
176,164,88617,1,8,0:0:0:0:
176,164,88787,1,0,0:0:0:0:
206,83,88872,1,8,0:0:0:0:
176,164,88957,1,8,0:0:0:0:
206,83,89043,1,8,0:0:0:0:
176,164,89128,1,0,0:0:0:0:
184,221,89298,5,0,0:0:0:0:
184,221,89980,1,8,0:0:0:0:
189,222,90065,1,8,0:0:0:0:
184,221,90151,1,8,0:0:0:0:
189,222,90321,1,8,0:0:0:0:
189,222,90492,1,8,0:0:0:0:
189,222,90662,1,0,0:0:0:0:
176,164,91003,1,0,0:0:0:0:
263,166,91344,1,8,0:0:0:0:
299,231,91514,1,8,0:0:0:0:
299,231,91685,1,0,0:0:0:0:
263,166,91770,1,0,0:0:0:0:
263,166,91855,1,8,0:0:0:0:
195,226,92026,1,0,0:0:0:0:
263,166,92196,1,0,0:0:0:0:
195,226,92367,1,8,0:0:0:0:
263,166,92452,1,8,0:0:0:0:
263,166,92537,1,0,0:0:0:0:
195,226,92707,1,8,0:0:0:0:
263,166,92878,1,0,0:0:0:0:
195,226,93048,1,8,0:0:0:0:
263,166,93134,1,0,0:0:0:0:
263,166,93219,1,8,0:0:0:0:
263,166,93304,1,8,0:0:0:0:
195,226,93389,1,0,0:0:0:0:
195,226,93730,1,0,0:0:0:0:
195,226,94071,1,8,0:0:0:0:
263,173,94242,1,0,0:0:0:0:
195,226,94412,1,8,0:0:0:0:
263,173,94497,1,0,0:0:0:0:
263,173,94582,1,8,0:0:0:0:
195,226,94753,1,0,0:0:0:0:
263,173,94923,1,8,0:0:0:0:
195,226,95094,1,0,0:0:0:0:
263,173,95179,1,8,0:0:0:0:
263,173,95264,1,0,0:0:0:0:
195,226,95435,1,8,0:0:0:0:
263,173,95605,1,0,0:0:0:0:
195,226,95776,1,8,0:0:0:0:
263,173,95861,1,8,0:0:0:0:
263,173,95946,1,8,0:0:0:0:
263,173,96031,1,8,0:0:0:0:
263,173,96117,1,0,0:0:0:0:
195,226,96457,1,8,0:0:0:0:
195,226,96798,1,0,0:0:0:0:
144,128,96969,1,0,0:0:0:0:
144,128,97139,1,8,0:0:0:0:
144,128,97310,1,0,0:0:0:0:
144,128,97480,1,0,0:0:0:0:
144,128,97821,1,8,0:0:0:0:
157,148,98162,1,8,0:0:0:0:
161,150,98247,1,8,0:0:0:0:
161,150,98332,1,8,0:0:0:0:
161,150,98503,1,8,0:0:0:0:
161,151,98673,1,8,0:0:0:0:
161,150,98759,1,8,0:0:0:0:
285,206,99184,5,0,0:0:0:0:
285,206,99355,1,0,0:0:0:0:
292,262,99525,5,8,0:0:0:0:
292,262,99866,1,8,0:0:0:0:
292,262,100037,1,0,0:0:0:0:
292,262,100207,1,8,0:0:0:0:
292,262,100548,1,0,0:0:0:0:
292,262,100889,1,8,0:0:0:0:
292,262,101230,1,8,0:0:0:0:
292,262,101400,1,8,0:0:0:0:
292,262,101571,1,0,0:0:0:0:
292,262,101912,1,8,0:0:0:0:
292,262,102082,1,0,0:0:0:0:
292,262,102253,1,8,0:0:0:0:
292,262,102594,1,0,0:0:0:0:
292,262,102764,1,8,0:0:0:0:
292,262,102934,1,0,0:0:0:0:
292,262,103275,1,0,0:0:0:0:
292,262,103446,1,8,0:0:0:0:
292,262,103616,1,8,0:0:0:0:
292,262,103957,1,8,0:0:0:0:
292,262,104128,1,8,0:0:0:0:
292,262,104298,1,0,0:0:0:0:
292,262,104639,1,8,0:0:0:0:
292,262,104980,1,8,0:0:0:0:
292,262,105321,1,0,0:0:0:0:
292,262,105491,1,8,0:0:0:0:
292,262,105662,1,0,0:0:0:0:
292,262,106003,1,0,0:0:0:0:
292,262,106173,1,0,0:0:0:0:
292,262,106344,1,8,0:0:0:0:
292,262,106684,1,8,0:0:0:0:
292,262,106855,1,8,0:0:0:0:
292,262,107025,1,0,0:0:0:0:
292,262,107707,1,8,0:0:0:0:
190,181,109753,5,4,0:0:0:0:
174,184,109923,1,0,0:0:0:0:
188,211,110094,1,8,0:0:0:0:
188,211,110179,1,0,0:0:0:0:
188,211,110264,1,8,0:0:0:0:
188,211,110349,1,8,0:0:0:0:
188,211,110434,1,0,0:0:0:0:
188,211,110605,1,0,0:0:0:0:
188,211,110775,1,8,0:0:0:0:
336,171,110861,1,8,0:0:0:0:
188,211,110946,1,0,0:0:0:0:
150,71,111116,1,8,0:0:0:0:
166,108,111287,1,0,0:0:0:0:
165,165,111457,1,8,0:0:0:0:
161,170,111798,1,8,0:0:0:0:
160,170,111969,1,0,0:0:0:0:
159,170,112139,1,8,0:0:0:0:
158,171,112224,1,8,0:0:0:0:
159,170,112309,1,8,0:0:0:0:
157,171,112395,1,8,0:0:0:0:
157,171,112480,1,0,0:0:0:0:
301,220,112650,1,0,0:0:0:0:
301,220,112821,1,8,0:0:0:0:
301,220,112906,1,8,0:0:0:0:
301,220,112991,1,0,0:0:0:0:
301,220,113076,1,8,0:0:0:0:
301,229,113162,1,0,0:0:0:0:
252,232,113332,1,0,0:0:0:0:
252,232,113503,1,8,0:0:0:0:
252,232,113588,1,8,0:0:0:0:
252,232,113673,1,0,0:0:0:0:
252,232,113844,1,8,0:0:0:0:
145,180,114014,1,0,0:0:0:0:
177,144,114184,1,8,0:0:0:0:
186,66,114270,1,0,0:0:0:0:
177,144,114355,1,8,0:0:0:0:
161,146,114525,1,0,0:0:0:0:
161,146,114696,1,0,0:0:0:0:
161,146,114866,1,8,0:0:0:0:
160,148,114951,1,8,0:0:0:0:
161,146,115037,1,8,0:0:0:0:
132,176,115122,1,8,0:0:0:0:
160,150,115207,1,4,0:0:0:0:
174,202,115548,1,0,0:0:0:0:
168,209,115719,1,0,0:0:0:0:
167,210,115889,1,8,0:0:0:0:
167,210,115974,1,8,0:0:0:0:
167,213,116059,1,0,0:0:0:0:
165,218,116230,1,8,0:0:0:0:
165,218,116400,1,8,0:0:0:0:
164,228,116571,1,0,0:0:0:0:
164,228,116656,1,0,0:0:0:0:
163,236,116741,1,8,0:0:0:0:
157,246,116912,1,0,0:0:0:0:
156,246,117082,1,0,0:0:0:0:
154,253,117253,1,8,0:0:0:0:
155,254,117338,1,8,0:0:0:0:
155,254,117423,1,0,0:0:0:0:
154,262,117508,1,0,0:0:0:0:
155,254,117594,1,8,0:0:0:0:
154,263,117764,1,8,0:0:0:0:
153,264,117934,1,0,0:0:0:0:
152,270,118105,1,0,0:0:0:0:
145,262,118446,1,0,0:0:0:0:
145,262,118616,1,8,0:0:0:0:
142,189,118957,2,4,L|274:202,1,131.25
294,196,120662,5,4,0:0:0:0:
190,177,121003,1,4,0:0:0:0:
190,177,121173,1,4,0:0:0:0:
294,196,121344,1,12,0:0:0:0:
294,196,121684,1,12,0:0:0:0:
294,196,122025,1,4,0:0:0:0:
212,154,122366,1,12,0:0:0:0:
212,154,122537,1,4,0:0:0:0:
294,196,122707,1,12,0:0:0:0:
294,196,123048,1,12,0:0:0:0:
294,196,123389,1,4,0:0:0:0:
212,204,123559,1,12,0:0:0:0:
212,204,123730,1,12,0:0:0:0:
353,269,123900,1,4,0:0:0:0:
353,269,124071,1,12,0:0:0:0:
353,269,124241,1,4,0:0:0:0:
353,269,124412,1,12,0:0:0:0:
353,269,124582,1,12,0:0:0:0:
353,269,124753,1,4,0:0:0:0:
316,177,125094,1,12,0:0:0:0:
316,177,125264,1,12,0:0:0:0:
316,177,125434,1,12,0:0:0:0:
318,162,125775,1,12,0:0:0:0:
168,90,126116,1,4,0:0:0:0:
168,90,126457,1,4,0:0:0:0:
168,90,126628,1,4,0:0:0:0:
168,90,126798,1,12,0:0:0:0:
168,90,127139,1,12,0:0:0:0:
168,90,127480,1,4,0:0:0:0:
168,90,127821,1,12,0:0:0:0:
168,90,127991,1,4,0:0:0:0:
168,90,128162,1,12,0:0:0:0:
168,90,128503,1,12,0:0:0:0:
200,200,128844,1,12,0:0:0:0:
258,218,129014,1,4,0:0:0:0:
258,218,129184,1,4,0:0:0:0:
246,206,129355,1,12,0:0:0:0:
374,177,129525,1,4,0:0:0:0:
246,206,129696,1,12,0:0:0:0:
245,204,129866,1,4,0:0:0:0:
246,206,130037,1,4,0:0:0:0:
377,195,130207,1,12,0:0:0:0:
