osu file format v14

[General]
AudioFilename: audio.mp3
AudioLeadIn: 0
PreviewTime: 29778
Countdown: 0
SampleSet: Soft
StackLeniency: 0.4
Mode: 0
LetterboxInBreaks: 0
WidescreenStoryboard: 0

[Editor]
Bookmarks: 5850,17278,28707,51564,62993,85850,97278,108707
DistanceSpacing: 0.7
BeatDivisor: 4
GridSize: 32
TimelineZoom: 1.5

[Metadata]
Title:stupid horse
TitleUnicode:stupid horse
Artist:100 gecs
ArtistUnicode:100 gecs
Creator:hehe
Version:neigh
Source:
Tags:laura les dylan brady 1000 xxendless_slaughterxx acylica sing silverboxer pishifat ancelysia third fourth wave ska english punk reggae pop
BeatmapID:2336864
BeatmapSetID:1118839

[Difficulty]
HPDrainRate:6
CircleSize:4
OverallDifficulty:9
ApproachRate:9
SliderMultiplier:1.4
SliderTickRate:1

[Events]
//Background and Video events
0,0,"horse_original.jpg",0,0
//Break Periods
2,95336,96678
2,112479,113821
//Storyboard Layer 0 (Background)
//Storyboard Layer 1 (Fail)
//Storyboard Layer 2 (Pass)
//Storyboard Layer 3 (Foreground)
//Storyboard Layer 4 (Overlay)
//Storyboard Sound Samples

[TimingPoints]
136,357.142857142858,4,2,1,40,1,0
5850,-100,4,2,1,50,0,0
17278,-71.4285714285714,4,2,1,70,0,1
26207,-71.4285714285714,4,2,1,80,0,1
26386,-62.5,4,2,1,80,0,1
27100,-55.5555555555556,4,2,1,80,0,1
28707,-166.666666666667,4,2,1,40,0,0
32636,-100,4,2,1,40,0,0
32993,-166.666666666667,4,2,1,40,0,0
38350,-100,4,2,1,40,0,0
38707,-166.666666666667,4,2,1,40,0,0
44064,-100,4,2,1,40,0,0
44421,-166.666666666667,4,2,1,40,0,0
46921,-100,4,2,1,40,0,0
47278,-166.666666666667,4,2,1,40,0,0
49778,-100,4,2,1,50,0,0
51207,-166.666666666667,4,2,1,50,0,0
51564,-166.666666666667,4,2,1,60,0,0
51921,-100,4,2,1,60,0,0
57278,-83.3333333333333,4,2,1,60,0,0
65850,-71.4285714285714,4,2,1,70,0,1
68796,-62.5,4,2,1,70,0,1
74421,-71.4285714285714,4,2,1,70,0,1
83528,-62.5,4,2,1,70,0,1
84064,-62.5,4,2,1,80,0,1
84243,-55.5555555555556,4,2,1,80,0,1
85850,-166.666666666667,4,2,1,40,0,0
97278,-62.5,4,2,1,70,0,1
106386,-55.5555555555556,4,2,1,70,0,1
106921,-55.5555555555556,4,2,1,80,0,1
107100,-50,4,2,1,80,0,1
108707,-166.666666666667,4,2,1,50,0,0

[Colours]
Combo1 : 0,255,255
Combo2 : 220,157,95
Combo3 : 217,102,89
Combo4 : 255,0,0

[HitObjects]
149,174,5136,5,2,2:0:0:0:
149,174,5314,1,2,2:3:0:0:
145,153,5403,1,2,2:3:0:0:
141,132,5493,1,2,2:3:0:0:
226,197,5671,1,2,2:0:0:0:
239,27,5850,6,0,P|307:41|357:89,1,140.112,4|0,3:1|2:0,2:0:0:0:
452,61,6386,1,2,2:0:0:0:
452,60,6564,2,0,P|446:94|444:129,1,70.0560000000004,0|2,2:0|2:0,2:0:0:0:
329,258,6921,2,0,P|334:292|336:327,1,70.0560000000004,0|2,2:0|2:0,2:0:0:0:
413,358,7278,37,0,2:0:0:0:
489,262,7457,1,2,2:0:0:0:
388,192,7636,1,0,2:0:0:0:
312,292,7814,1,2,2:0:0:0:
398,206,7993,6,0,P|399:155|392:101,1,105.28,4|0,2:0|2:0,2:0:0:0:
401,94,8350,2,0,B|306:79|366:52|250:48,1,140.112,4|0,2:0|2:0,2:0:0:0:
122,68,8886,37,2,2:0:0:0:
51,26,9064,2,0,P|45:61|48:96,1,70.0560000000004,0|2,2:0|2:0,2:0:0:0:
175,135,9421,2,0,L|256:120,1,70.0560000000004,0|2,2:0|2:0,2:0:0:0:
5,215,9778,2,0,L|86:230,1,70.0560000000004,0|2,2:0|2:0,2:0:0:0:
117,298,10136,5,0,2:0:0:0:
278,256,10314,1,2,2:0:0:0:
209,321,10493,1,0,2:0:0:0:
396,372,10671,1,2,2:0:0:0:
406,184,10850,38,0,P|473:216|485:263,1,105.28,4|0,2:0|2:0,2:0:0:0:
495,244,11207,2,0,P|478:302|475:387,1,140.112,4|0,2:0|2:0,2:0:0:0:
441,307,11743,5,2,2:0:0:0:
313,298,11921,2,0,P|261:306|223:321,1,70.0560000000004,0|2,2:0|2:0,2:0:0:0:
344,183,12278,2,0,P|371:205|375:239,1,70.0560000000004,0|2,2:0|2:0,2:0:0:0:
219,232,12636,1,0,2:0:0:0:
370,361,12814,1,2,2:0:0:0:
407,125,12993,38,0,P|340:141|270:142,1,140.112,0|0,2:0|2:0,2:0:0:0:
238,65,13528,1,2,2:0:0:0:
90,31,13707,2,0,P|37:52|56:118,1,105.28,4|0,2:0|2:0,2:0:0:0:
29,106,14064,2,0,P|83:111|159:161,1,140.112,4|0,2:0|2:0,2:0:0:0:
109,298,14600,5,2,2:0:0:0:
154,230,14778,2,0,P|147:184|131:137,1,70.0560000000004,0|2,2:0|2:0,2:0:0:0:
41,240,15136,1,0,2:0:0:0:
84,376,15314,1,2,2:0:0:0:
60,159,15493,1,0,2:0:0:0:
16,320,15671,1,2,2:0:0:0:
258,335,15850,37,0,2:0:0:0:
56,243,16028,1,2,2:0:0:0:
271,153,16207,1,0,2:0:0:0:
204,267,16386,1,2,2:0:0:0:
183,49,16564,5,2,2:0:0:0:
183,49,16743,1,2,2:3:0:0:
190,83,16832,1,2,2:3:0:0:
198,117,16921,1,2,2:3:0:0:
281,0,17100,1,2,2:0:0:0:
481,124,17278,6,0,P|481:76|475:27,1,98.0783970092778,4|8,3:2|2:3,2:0:0:0:
363,151,17636,1,0,3:0:0:0:
385,160,17725,1,0,3:0:0:0:
408,169,17814,1,8,2:3:0:0:
230,206,17993,6,0,P|181:227|166:303,1,98.0783970092778,0|8,3:0|2:3,2:0:0:0:
464,227,18350,1,0,3:0:0:0:
488,221,18439,1,0,3:0:0:0:
512,216,18528,1,8,2:3:0:0:
238,285,18707,37,0,3:0:0:0:
428,349,18886,2,0,L|437:275,1,49.1567985046388,8|8,2:3|2:3,2:0:0:0:
505,90,19064,1,0,3:0:0:0:
509,114,19153,1,0,3:0:0:0:
512,138,19243,1,8,2:3:0:0:
246,275,19421,6,0,L|259:163,1,98.3135970092776,0|8,3:0|2:3,2:0:0:0:
434,60,19778,1,0,3:0:0:0:
438,35,19868,1,0,3:0:0:0:
442,11,19957,1,8,2:3:0:0:
202,76,20136,38,0,P|249:88|294:108,1,98.0783970092778,0|8,3:0|2:3,2:0:0:0:
22,287,20493,1,4,3:2:0:0:
46,285,20582,1,0,3:0:0:0:
70,283,20671,1,8,2:3:0:0:
300,120,20850,6,0,P|329:84|314:39,1,98.0783970092778,4|8,3:2|2:3,2:0:0:0:
134,336,21207,1,0,3:0:0:0:
159,338,21296,1,0,3:0:0:0:
183,340,21386,1,8,2:3:0:0:
357,248,21564,38,0,L|374:357,1,98.3135970092776,0|8,3:0|2:3,2:0:0:0:
250,163,21921,1,0,3:0:0:0:
272,174,22011,1,0,3:0:0:0:
294,184,22100,1,8,2:3:0:0:
427,205,22278,6,0,L|445:82,1,98.3135970092776,0|8,3:0|2:3,2:0:0:0:
143,226,22636,1,0,3:0:0:0:
166,221,22725,1,0,3:0:0:0:
190,216,22814,1,8,2:3:0:0:
512,249,22993,37,4,3:2:0:0:
276,347,23171,1,8,2:3:0:0:
469,172,23350,1,0,3:0:0:0:
233,30,23528,1,8,2:3:0:0:
283,336,23707,5,0,3:0:0:0:
95,168,23886,1,8,2:3:0:0:
386,166,24064,1,0,3:0:0:0:
348,384,24243,1,8,2:3:0:0:
512,107,24421,37,0,3:0:0:0:
229,17,24600,1,8,2:3:0:0:
85,324,24778,1,0,3:0:0:0:
98,321,24868,1,0,3:0:0:0:
112,318,24957,2,0,L|101:374,1,49.3135985046389,8|8,2:3|2:3,2:0:0:0:
232,28,25136,5,0,3:0:0:0:
289,384,25314,1,8,2:3:0:0:
452,113,25493,1,0,3:0:0:0:
441,66,25582,1,0,3:0:0:0:
431,17,25671,1,8,2:3:0:0:
258,264,25850,38,0,P|250:241|242:191,1,49.3135985046389,0|0,3:0|2:0,2:0:0:0:
288,108,26028,2,0,P|296:131|304:181,1,49.3135985046389,8|0,2:3|2:0,2:0:0:0:
202,148,26207,5,0,3:0:0:0:
188,143,26296,1,0,3:0:0:0:
174,139,26386,2,0,P|146:144|118:146,1,56.3584000000002,8|0,2:3|2:0,2:0:0:0:
338,234,26564,1,0,3:0:0:0:
351,238,26653,1,0,3:0:0:0:
365,242,26743,2,0,P|392:236|420:234,1,56.3584000000002,8|0,2:3|2:0,2:0:0:0:
85,384,26921,37,0,3:0:0:0:
153,353,27011,1,0,3:0:0:0:
221,322,27100,2,0,P|218:294|210:252,1,63.403198077393,8|0,2:3|2:0,2:0:0:0:
31,150,27278,5,0,3:0:0:0:
31,94,27368,1,0,3:0:0:0:
59,46,27457,1,8,2:3:0:0:
106,17,27546,1,8,2:3:0:0:
161,15,27636,1,0,3:0:0:0:
211,40,27725,1,0,3:0:0:0:
242,86,27814,1,8,2:3:0:0:
247,141,27903,1,8,2:3:0:0:
224,192,27993,37,0,3:0:0:0:
223,267,28082,1,0,3:0:0:0:
263,332,28171,1,8,2:3:0:0:
331,366,28261,1,8,2:3:0:0:
407,358,28350,1,0,3:0:0:0:
467,312,28439,1,0,3:0:0:0:
493,240,28528,1,8,2:3:0:0:
477,166,28618,1,8,2:3:0:0:
424,111,28707,22,2,B|328:108|368:153|247:148,1,168.134394873047,6|8,3:1|2:3,1:0:0:0:
92,29,29778,5,0,2:0:0:0:
176,38,29957,1,0,2:0:0:0:
102,20,30136,38,0,P|50:39|35:152,3,168.055994873047,0|8|0|8,2:0|2:3|3:0|2:3,1:0:0:0:
108,305,32636,6,0,L|111:256,1,35.2240000000002,2|0,2:0|2:0,2:0:0:0:
36,233,32814,2,0,L|33:267,1,35.2240000000002,2|0,2:0|2:0,2:0:0:0:
116,314,32993,38,0,P|197:323|294:352,3,168.055994873047,0|8|0|8,2:0|2:3|3:0|2:3,1:0:0:0:
412,282,35493,5,0,2:0:0:0:
426,364,35671,1,0,2:0:0:0:
397,290,35850,38,2,L|408:112,3,168.055994873047,2|10|2|10,2:0|2:3|3:0|2:3,1:0:0:0:
276,33,38350,6,0,L|184:48,1,70.0560000000004,2|0,2:0|2:0,2:0:0:0:
208,37,38618,1,0,2:0:0:0:
210,30,38707,38,0,P|180:89|261:142,3,168.055994873047,0|8|0|8,2:0|2:3|3:0|2:3,1:0:0:0:
50,155,41207,5,0,2:0:0:0:
179,199,41386,1,0,2:0:0:0:
54,142,41564,38,0,P|84:176|124:299,3,168.055994873047,0|8|0|8,2:0|2:3|3:0|2:3,1:0:0:0:
240,312,44064,6,0,L|235:346,1,35.2240000000002,2|0,2:0|2:0,2:0:0:0:
310,266,44243,2,0,L|314:231,1,35.2240000000002,2|0,2:0|2:0,2:0:0:0:
233,303,44421,38,0,B|159:312|159:312|149:330|149:330|61:343,3,168.055994873047,0|8|0|8,2:0|2:3|3:0|2:3,1:0:0:0:
376,347,46921,6,0,P|370:330|366:313,1,35.2240000000002,2|0,2:0|2:0,2:0:0:0:
470,225,47100,2,0,P|475:241|479:258,1,35.2240000000002,2|0,2:0|2:0,2:0:0:0:
391,353,47278,38,0,P|325:306|245:323,2,168.016794873047,0|8|0,2:0|2:3|3:0,1:0:0:0:
247,312,49064,2,0,P|186:319|152:314,1,84.0671974365239,2|8,2:0|2:3,1:0:0:0:
83,368,49778,6,0,L|92:320,1,35.2240000000002,2|0,2:0|2:0,2:0:0:0:
27,278,49957,2,0,L|18:230,1,35.2240000000002,2|0,2:0|2:0,2:0:0:0:
80,180,50136,37,0,2:0:0:0:
17,287,50314,1,0,2:0:0:0:
142,227,50493,1,0,3:0:0:0:
21,124,50671,1,0,2:0:0:0:
71,190,50850,1,8,2:3:0:0:
57,50,51028,1,0,2:0:0:0:
127,300,51207,6,0,L|202:311,1,63.167998077393,0|0,2:0|2:0,2:0:0:0:
196,317,51564,37,6,2:0:0:0:
454,192,51743,1,2,2:0:0:0:
460,272,51921,2,0,P|463:237|461:202,1,70.0560000000004,0|0,2:0|2:0,2:0:0:0:
376,124,52278,2,0,P|372:158|374:193,1,70.0560000000004,0|0,2:0|2:0,2:0:0:0:
317,323,52636,2,0,P|320:288|318:253,1,70.0560000000004,0|0,2:0|2:0,2:0:0:0:
454,192,52993,5,6,2:0:0:0:
228,30,53171,1,2,2:0:0:0:
150,43,53350,2,0,L|248:37,1,70.0560000000004,0|0,2:0|2:0,2:0:0:0:
283,87,53707,2,0,L|381:93,1,70.0560000000004,0|0,2:0|2:0,2:0:0:0:
158,154,54064,2,0,L|256:148,1,70.0560000000004,0|0,2:0|2:0,2:0:0:0:
228,30,54421,37,6,2:0:0:0:
70,369,54600,1,2,2:0:0:0:
6,320,54778,2,0,P|27:347|59:358,1,70.0560000000004,0|0,2:0|2:0,2:0:0:0:
84,215,55136,2,0,P|70:246|77:280,1,70.0560000000004,0|0,2:0|2:0,2:0:0:0:
213,230,55493,2,0,P|178:234|152:257,1,70.0560000000004,0|0,2:0|2:0,2:0:0:0:
70,369,55850,5,6,2:0:0:0:
346,293,56028,1,2,2:0:0:0:
326,376,56207,1,0,2:0:0:0:
356,285,56386,1,0,2:0:0:0:
254,232,56564,37,2,2:0:0:0:
254,232,56743,1,2,2:3:0:0:
259,252,56832,1,2,2:3:0:0:
264,272,56921,1,2,2:3:0:0:
321,179,57100,1,2,2:0:0:0:
192,126,57278,6,0,P|199:145|204:194,1,42.268798718262,2|0,1:2|2:0,2:0:0:0:
161,271,57457,2,0,P|154:252|149:203,1,42.268798718262,2|0,2:0|2:0,2:0:0:0:
199,115,57636,38,0,P|151:127|61:206,1,168.134394873047,0|0,1:0|1:0,2:0:0:0:
33,115,58171,1,0,2:0:0:0:
119,22,58350,2,0,P|114:80|114:124,1,84.0671974365239,0|0,1:0|2:0,2:0:0:0:
28,291,58707,6,0,L|85:278,1,42.268798718262,2|0,1:2|2:0,2:0:0:0:
141,326,58886,2,0,L|198:313,1,42.268798718262,2|0,2:0|2:0,2:0:0:0:
35,304,59064,38,0,P|71:247|171:247,1,168.134394873047,0|0,1:0|1:0,2:0:0:0:
284,180,59600,1,0,2:0:0:0:
373,324,59778,2,0,P|425:328|475:319,1,84.0671974365239,0|0,1:0|2:0,2:0:0:0:
289,272,60136,6,0,L|279:344,1,42.268798718262,6|0,1:2|2:0,2:0:0:0:
373,218,60314,2,0,L|379:171,1,42.268798718262,2|0,2:0|2:0,2:0:0:0:
288,263,60493,38,0,P|282:214|289:145,1,84.0671974365239,4|0,1:2|2:0,2:0:0:0:
457,209,60850,2,0,P|463:160|456:91,1,84.0671974365239,4|0,1:2|2:0,2:0:0:0:
252,103,61207,2,0,P|258:54|251:-15,1,84.0671974365239,4|0,1:2|2:0,2:0:0:0:
72,169,61564,6,0,P|52:173|32:180,1,42.268798718262,6|0,1:2|2:0,2:0:0:0:
135,340,61743,2,0,P|155:335|175:328,1,42.268798718262,2|0,2:0|2:0,2:0:0:0:
65,159,61921,38,0,L|57:277,1,84.0671974365239,4|0,1:2|2:0,2:0:0:0:
222,184,62278,6,0,P|201:188|181:195,1,42.268798718262,6|0,1:2|2:0,2:0:0:0:
284,354,62457,2,0,P|304:349|324:342,1,42.268798718262,2|0,2:0|2:0,2:0:0:0:
214,173,62636,38,0,L|206:291,1,84.0671974365239,4|0,1:2|2:0,2:0:0:0:
410,362,62993,5,4,3:1:0:0:
426,369,63082,1,0,3:0:0:0:
444,371,63171,1,0,3:0:0:0:
462,368,63261,1,0,3:0:0:0:
479,360,63350,1,0,3:0:0:0:
492,347,63439,1,0,3:0:0:0:
501,331,63528,1,0,3:0:0:0:
505,313,63618,1,0,3:0:0:0:
503,295,63707,1,0,3:0:0:0:
497,278,63796,1,0,3:0:0:0:
485,263,63886,1,0,3:0:0:0:
470,253,63975,1,0,3:0:0:0:
453,248,64064,1,0,3:0:0:0:
435,247,64153,1,0,3:0:0:0:
417,252,64243,1,0,3:0:0:0:
402,262,64332,1,0,3:0:0:0:
390,276,64421,37,0,3:0:0:0:
363,291,64511,1,0,3:0:0:0:
332,293,64600,1,0,3:0:0:0:
303,281,64689,1,0,3:0:0:0:
283,257,64778,1,0,3:0:0:0:
277,226,64868,1,0,3:0:0:0:
285,196,64957,1,8,3:3:0:0:
306,173,65046,1,0,3:0:0:0:
336,162,65136,5,2,3:2:0:0:
336,162,65314,1,10,2:3:0:0:
342,121,65403,1,2,2:3:0:0:
348,79,65493,1,2,2:3:0:0:
410,205,65671,1,2,2:0:0:0:
469,38,65850,6,0,P|458:85|456:134,1,98.0783970092778,4|8,3:2|2:3,2:0:0:0:
229,56,66207,1,0,3:0:0:0:
253,51,66296,1,0,3:0:0:0:
277,47,66386,1,8,2:3:0:0:
423,302,66564,6,0,P|421:253|410:205,1,98.0783970092778,0|8,3:2|2:3,2:0:0:0:
122,98,66921,1,0,3:0:0:0:
145,102,67011,1,0,3:0:0:0:
169,106,67100,1,8,2:3:0:0:
168,286,67278,38,0,P|97:305|81:354,1,98.0783970092778,0|8,3:2|2:3,2:0:0:0:
315,346,67636,1,0,3:0:0:0:
339,350,67725,1,0,3:0:0:0:
363,354,67814,1,8,2:3:0:0:
154,364,67993,5,0,3:2:0:0:
177,100,68171,2,0,L|194:166,1,49.3135985046389,8|8,2:3|2:3,2:0:0:0:
423,302,68350,1,0,3:0:0:0:
447,297,68439,1,0,3:0:0:0:
471,293,68528,1,8,2:3:0:0:
80,346,68707,37,4,3:2:0:0:
12,305,68796,2,0,P|4:279|0:251,1,56.3584000000002,0|8,2:0|2:3,2:0:0:0:
186,73,69064,5,4,3:2:0:0:
253,113,69153,2,0,P|261:139|266:167,1,56.3584000000002,0|8,2:0|2:3,2:0:0:0:
233,358,69421,37,4,3:2:0:0:
310,341,69511,2,0,L|384:324,1,56.3584000000002,0|8,2:0|2:3,2:0:0:0:
473,167,69778,5,4,3:2:0:0:
396,184,69868,2,0,L|322:201,1,56.3584000000002,0|8,2:0|2:3,2:0:0:0:
224,352,70136,37,4,3:2:0:0:
431,369,70225,2,0,P|442:328|433:282,1,56.3584000000002,0|8,2:0|2:3,2:0:0:0:
335,204,70493,1,0,3:0:0:0:
327,177,70582,1,0,3:0:0:0:
319,150,70671,1,8,2:3:0:0:
73,222,70850,6,0,P|141:220|211:227,1,112.0896,0|8,3:2|2:3,2:0:0:0:
372,83,71207,1,0,3:0:0:0:
378,55,71296,1,0,3:0:0:0:
384,28,71386,1,8,2:3:0:0:
215,320,71564,37,4,3:2:0:0:
189,214,71653,2,0,P|207:194|232:181,1,56.3584000000002,0|8,2:0|2:3,2:0:0:0:
454,352,71921,5,4,3:2:0:0:
349,377,72011,2,0,P|328:358|315:334,1,56.3584000000002,0|8,3:0|2:3,2:0:0:0:
487,113,72278,37,4,3:2:0:0:
512,218,72368,2,0,P|493:238|468:251,1,56.3584000000002,0|8,3:0|2:3,2:0:0:0:
247,80,72636,5,4,3:2:0:0:
352,54,72725,2,0,P|372:73|385:98,1,56.3584000000002,0|8,2:0|2:3,2:0:0:0:
108,56,72993,37,4,3:2:0:0:
256,89,73082,2,0,L|270:148,1,56.1792000000001,0|8,2:0|2:3,2:0:0:0:
84,289,73350,1,0,3:0:0:0:
93,262,73439,1,0,3:0:0:0:
103,236,73528,1,8,2:3:0:0:
329,358,73707,5,0,3:0:0:0:
506,138,73886,2,0,L|431:146,1,56.3584000000002,8|0,2:3|2:0,2:0:0:0:
164,182,74064,1,0,3:0:0:0:
159,155,74153,1,0,3:0:0:0:
155,127,74243,1,8,2:3:0:0:
143,360,74421,38,0,P|187:340|225:309,1,98.0783970092778,0|8,3:2|2:3,2:0:0:0:
416,374,74778,1,0,3:0:0:0:
391,378,74868,1,0,3:0:0:0:
367,382,74957,1,8,2:3:0:0:
324,146,75136,6,0,L|339:275,1,98.0783970092778,0|8,3:0|2:3,2:0:0:0:
512,316,75493,1,0,3:0:0:0:
487,313,75582,1,0,3:0:0:0:
463,310,75671,1,8,2:3:0:0:
332,137,75850,37,0,3:0:0:0:
118,207,76028,2,0,L|178:213,1,49.3135985046389,8|8,2:3|2:3,2:0:0:0:
273,323,76207,1,0,3:0:0:0:
297,325,76296,1,0,3:0:0:0:
321,327,76386,1,8,2:3:0:0:
63,147,76564,6,0,P|37:209|63:265,1,98.0783970092778,0|8,3:0|2:3,2:0:0:0:
160,384,76921,1,0,3:0:0:0:
184,379,77011,1,0,3:0:0:0:
208,374,77100,1,8,2:3:0:0:
187,142,77278,38,0,P|190:94|185:45,1,98.0783970092778,0|8,3:0|2:3,2:0:0:0:
406,127,77636,1,0,3:0:0:0:
403,151,77725,1,0,3:0:0:0:
400,175,77814,1,8,2:3:0:0:
449,319,77993,6,0,P|469:275|464:227,1,98.0783970092778,0|8,3:0|2:3,2:0:0:0:
462,24,78350,1,0,3:0:0:0:
467,48,78439,1,0,3:0:0:0:
471,72,78528,1,8,2:3:0:0:
292,244,78707,38,0,L|170:229,1,97.9999970092774,0|8,3:0|2:3,2:0:0:0:
6,78,79064,1,0,3:0:0:0:
2,53,79153,1,0,3:0:0:0:
0,29,79243,1,8,2:3:0:0:
317,169,79421,6,0,P|356:196|371:242,1,98.0783970092778,0|8,3:0|2:3,2:0:0:0:
64,172,79778,1,0,3:0:0:0:
69,148,79868,1,0,3:0:0:0:
74,124,79957,1,8,2:3:0:0:
222,317,80136,37,4,3:2:0:0:
467,183,80314,1,8,2:3:0:0:
207,27,80493,1,0,3:0:0:0:
419,112,80671,1,8,2:3:0:0:
309,366,80850,5,0,3:0:0:0:
214,38,81028,1,8,2:3:0:0:
24,295,81207,1,0,3:0:0:0:
251,187,81386,1,8,2:3:0:0:
60,206,81564,37,0,3:0:0:0:
470,275,81743,1,8,2:3:0:0:
154,314,81921,1,0,3:0:0:0:
145,305,82011,1,0,3:0:0:0:
137,295,82100,2,0,L|209:287|209:287,1,49.3135985046389,8|8,2:3|2:3,2:0:0:0:
456,282,82278,5,0,3:0:0:0:
275,8,82457,1,8,2:3:0:0:
50,198,82636,1,0,3:0:0:0:
59,150,82725,1,0,3:0:0:0:
69,102,82814,1,8,2:3:0:0:
341,93,82993,38,0,L|335:141,1,49.3135985046389,0|0,3:0|2:0,2:0:0:0:
254,63,83171,2,0,L|261:14,1,49.3135985046389,8|0,2:3|2:0,2:0:0:0:
368,212,83350,5,0,3:0:0:0:
373,226,83439,1,0,3:0:0:0:
377,240,83528,2,0,P|372:268|370:296,1,56.3584000000002,8|0,2:3|2:0,2:0:0:0:
162,381,83707,1,0,3:0:0:0:
157,367,83796,1,0,3:0:0:0:
153,353,83886,2,0,P|158:325|160:297,1,56.3584000000002,8|0,2:3|2:0,2:0:0:0:
178,48,84064,37,0,3:0:0:0:
200,119,84153,1,0,3:0:0:0:
225,190,84243,2,0,P|261:194|300:189,1,63.403198077393,8|0,2:3|2:0,2:0:0:0:
481,234,84421,5,0,3:0:0:0:
481,290,84511,1,0,3:0:0:0:
453,338,84600,1,8,2:3:0:0:
406,367,84689,1,8,2:3:0:0:
351,369,84778,1,0,3:0:0:0:
301,344,84868,1,0,3:0:0:0:
270,298,84957,1,8,2:3:0:0:
265,243,85046,1,8,2:3:0:0:
288,192,85136,37,0,3:0:0:0:
289,117,85225,1,0,3:0:0:0:
249,52,85314,1,8,2:3:0:0:
181,18,85403,1,8,2:3:0:0:
105,26,85493,1,0,3:0:0:0:
45,72,85582,1,0,3:0:0:0:
19,144,85671,1,8,2:3:0:0:
35,218,85761,1,8,2:3:0:0:
88,273,85850,22,2,B|184:276|144:231|265:236,1,168.134394873047,6|8,3:1|2:3,1:1:0:0:
420,355,86921,5,0,2:0:0:0:
336,346,87100,1,0,2:0:0:0:
410,364,87278,38,0,P|462:345|477:232,3,168.055994873047,0|8|0|8,2:0|2:3|3:0|2:3,1:0:0:0:
404,79,89778,5,0,2:0:0:0:
476,151,89957,1,0,2:0:0:0:
396,70,90136,38,0,P|315:61|218:32,3,168.055994873047,0|8|0|8,2:0|2:3|3:0|2:3,1:0:0:0:
100,102,92636,5,0,2:0:0:0:
86,20,92814,1,0,2:0:0:0:
115,94,92993,38,0,L|104:272,3,168.055994873047,0|8|0|8,2:0|2:3|3:0|2:3,1:0:0:0:
281,339,97278,22,0,P|285:284|280:228,1,112.0896,4|8,3:2|2:3,2:0:0:0:
64,352,97636,1,0,3:0:0:0:
36,357,97725,1,0,3:0:0:0:
9,362,97814,1,8,2:3:0:0:
158,61,97993,6,0,P|97:93|95:168,1,112.0896,0|8,3:0|2:3,2:0:0:0:
173,306,98350,1,0,3:0:0:0:
145,300,98439,1,0,3:0:0:0:
118,294,98528,1,8,2:3:0:0:
289,350,98707,37,0,3:0:0:0:
166,70,98886,2,0,L|234:79,1,56.3584000000002,8|8,2:3|2:3,2:0:0:0:
415,47,99064,1,0,3:0:0:0:
411,74,99153,1,0,3:0:0:0:
406,102,99243,1,8,2:3:0:0:
118,294,99421,6,0,L|229:279,1,112.0896,0|8,3:0|2:3,2:0:0:0:
478,212,99778,1,0,3:0:0:0:
474,184,99868,1,0,3:0:0:0:
471,156,99957,1,8,2:3:0:0:
72,130,100136,38,0,P|75:75|85:20,1,112.0896,0|8,3:0|2:3,2:0:0:0:
226,316,100493,1,0,3:0:0:0:
221,343,100582,1,0,3:0:0:0:
217,371,100671,1,8,2:3:0:0:
8,181,100850,6,0,P|18:236|21:291,1,112.0896,0|8,3:0|2:3,2:0:0:0:
281,208,101207,1,0,3:0:0:0:
283,235,101296,1,0,3:0:0:0:
284,263,101386,1,8,2:3:0:0:
328,120,101564,38,0,L|448:103,1,112.0896,0|8,3:0|2:3,2:0:0:0:
178,12,101921,1,0,3:0:0:0:
151,15,102011,1,0,3:0:0:0:
123,18,102100,1,8,2:3:0:0:
474,35,102278,6,0,P|511:75|512:130,1,112.0896,0|8,3:0|2:3,2:0:0:0:
88,92,102636,1,0,3:0:0:0:
61,88,102725,1,0,3:0:0:0:
33,85,102814,1,8,2:3:0:0:
251,32,102993,37,4,3:2:0:0:
79,285,103171,1,8,2:3:0:0:
338,337,103350,1,0,3:0:0:0:
159,250,103528,1,8,2:3:0:0:
413,165,103707,5,0,3:0:0:0:
239,28,103886,1,8,2:3:0:0:
416,374,104064,1,0,3:0:0:0:
4,321,104243,1,8,2:3:0:0:
228,21,104421,37,0,3:0:0:0:
259,376,104600,1,8,2:3:0:0:
401,79,104778,1,0,3:0:0:0:
390,75,104868,1,0,3:0:0:0:
379,70,104957,2,0,L|390:135,1,56.3584000000002,8|8,2:3|2:3,2:0:0:0:
496,286,105136,5,0,3:0:0:0:
303,45,105314,1,8,2:3:0:0:
199,318,105493,1,0,3:0:0:0:
143,323,105582,1,0,3:0:0:0:
87,329,105671,1,8,2:3:0:0:
166,79,105850,38,0,P|193:81|220:88,1,56.3584000000002,0|0,3:0|2:0,2:0:0:0:
55,185,106028,2,0,P|27:182|0:175,1,56.3584000000002,8|0,2:3|2:0,2:0:0:0:
274,356,106207,5,0,3:0:0:0:
279,342,106296,1,0,3:0:0:0:
283,328,106386,2,0,P|278:300|274:248,1,63.403198077393,8|0,2:3|2:0,2:0:0:0:
432,23,106564,1,0,3:0:0:0:
427,37,106653,1,0,3:0:0:0:
423,51,106743,2,0,P|428:79|432:131,1,63.403198077393,8|0,2:3|2:0,2:0:0:0:
485,301,106921,37,0,3:0:0:0:
412,330,107011,1,0,3:0:0:0:
352,281,107100,2,0,P|353:229|343:166,1,70.4480000000004,8|0,2:3|2:0,2:0:0:0:
345,82,107278,5,0,3:0:0:0:
316,28,107368,1,0,3:0:0:0:
263,0,107457,1,8,2:3:0:0:
203,5,107546,1,8,2:3:0:0:
156,44,107636,1,0,3:0:0:0:
139,101,107725,1,0,3:0:0:0:
156,159,107814,1,8,2:3:0:0:
203,197,107903,1,8,2:3:0:0:
263,203,107993,37,0,3:0:0:0:
217,132,108082,1,0,3:0:0:0:
139,101,108171,1,8,2:3:0:0:
57,121,108261,1,8,2:3:0:0:
2,185,108350,1,0,3:0:0:0:
0,269,108439,1,0,3:0:0:0:
36,341,108528,1,8,2:3:0:0:
113,376,108618,1,8,2:3:0:0:
195,360,108707,22,0,B|185:286|185:286|195:266|195:266|186:184,1,168.134394873047,4|8,3:1|2:3,1:0:0:0:
436,212,109778,5,0,2:0:0:0:
403,303,109957,1,0,2:0:0:0:
435,227,110136,38,0,P|363:230|320:311,3,168.067194873047,0|8|0|8,2:0|2:3|3:0|2:3,1:0:0:0:
55,82,114421,6,0,B|155:82|105:29|211:38,1,168.134394873047,4|8,3:1|2:3,1:0:0:0:
215,307,115493,37,0,2:0:0:0:
7,345,115671,1,0,2:0:0:0:
224,298,115850,6,0,L|40:280,3,168.055994873047,0|8|0|8,2:0|2:3|3:0|2:3,1:0:0:0:
