osu file format v14

[General]
AudioFilename: audio.mp3
AudioLeadIn: 0
PreviewTime: 29778
Countdown: 0
SampleSet: Soft
StackLeniency: 0.4
Mode: 0
LetterboxInBreaks: 0
WidescreenStoryboard: 1

[Editor]
DistanceSpacing: 0.7
BeatDivisor: 4
GridSize: 32
TimelineZoom: 1.5

[Metadata]
Title:stupid horse
TitleUnicode:stupid horse
Artist:100 gecs
ArtistUnicode:100 gecs
Creator:hehe
Version:acyl's insane
Source:
Tags:laura les dylan brady 1000 xxendless_slaughterxx acylica sing silverboxer pishifat ancelysia third fourth wave ska english punk reggae pop
BeatmapID:2336955
BeatmapSetID:1118839

[Difficulty]
HPDrainRate:5
CircleSize:3.6
OverallDifficulty:9
ApproachRate:9
SliderMultiplier:1.68
SliderTickRate:1

[Events]
//Background and Video events
0,0,"horse_original.jpg",0,0
//Break Periods
//Storyboard Layer 0 (Background)
//Storyboard Layer 1 (Fail)
//Storyboard Layer 2 (Pass)
//Storyboard Layer 3 (Foreground)
//Storyboard Layer 4 (Overlay)
//Storyboard Sound Samples

[TimingPoints]
136,357.142857142858,4,2,1,40,1,0
5850,-133.333333333333,4,2,1,50,0,0
17278,-100,4,2,1,70,0,0
26207,-100,4,2,1,80,0,0
28707,-66.6666666666667,4,2,1,40,0,0
30136,-200,4,2,1,40,0,0
31564,-66.6666666666667,4,2,1,40,0,0
32636,-200,4,2,1,40,0,0
34421,-66.6666666666667,4,2,1,40,0,0
35850,-200,4,2,1,40,0,0
37278,-66.6666666666667,4,2,1,40,0,0
38707,-200,4,2,1,40,0,0
40136,-133.333333333333,4,2,1,40,0,0
49778,-133.333333333333,4,2,1,50,0,0
51564,-133.333333333333,4,2,1,60,0,0
62993,-100,4,2,1,60,0,0
65850,-100,4,2,1,70,0,0
84064,-100,4,2,1,80,0,0
85850,-100,4,2,1,40,0,0
97278,-66.6666666666667,4,2,1,70,0,0
106921,-66.6666666666667,4,2,1,80,0,0
108707,-66.6666666666667,4,2,1,50,0,0
112993,-133.333333333333,4,2,1,50,0,0

[Colours]
Combo1 : 0,255,255
Combo2 : 220,157,95
Combo3 : 217,102,89
Combo4 : 255,0,0

[HitObjects]
57,39,5314,5,2,2:3:0:0:
58,28,5403,1,2,2:3:0:0:
60,18,5492,1,2,2:3:0:0:
272,274,5850,5,4,3:1:0:0:
341,229,6028,2,0,L|326:146,1,63.0000024032594,2|0,2:0|0:0,0:0:0:0:
486,358,6386,1,2,2:0:0:0:
497,277,6564,37,0,2:0:0:0:
405,338,6743,2,0,L|334:347,1,63.0000024032594,2|0,2:0|2:0,0:0:0:0:
178,211,7100,1,2,2:0:0:0:
195,292,7278,5,0,2:0:0:0:
228,143,7457,1,2,2:0:0:0:
182,302,7636,1,0,2:0:0:0:
241,366,7814,1,2,2:0:0:0:
104,325,7993,38,0,P|70:319|23:312,1,63.0000024032594,4|2,2:0|2:0,0:0:0:0:
255,236,8350,2,0,P|289:230|336:223,1,63.0000024032594,4|2,2:0|2:0,0:0:0:0:
125,137,8707,5,0,0:0:0:0:
141,57,8886,1,2,2:0:0:0:
62,80,9064,2,0,P|15:69|-4:63,1,63.0000024032594,0|2,2:0|2:0,0:0:0:0:
192,184,9421,37,0,2:0:0:0:
122,219,9600,1,2,2:0:0:0:
245,298,9778,2,0,P|252:250|259:208,1,63.0000024032594,0|2,2:0|2:0,0:0:0:0:
312,56,10136,5,0,2:0:0:0:
335,139,10314,1,2,2:0:0:0:
417,169,10493,1,0,2:0:0:0:
501,22,10671,1,2,2:0:0:0:
511,107,10850,38,0,P|468:98|436:91,1,63.0000024032594,4|2,2:0|2:0,0:0:0:0:
254,235,11207,2,0,P|297:226|329:219,1,63.0000024032594,4|2,2:0|2:0,0:0:0:0:
511,299,11564,5,0,0:0:0:0:
440,253,11743,2,0,L|451:172,2,63.0000024032594,2|0|2,2:0|2:0|2:0,0:0:0:0:
357,12,12278,37,0,2:0:0:0:
286,58,12457,2,0,L|304:143,2,63.0000024032594,2|0|2,2:0|2:0|2:0,0:0:0:0:
81,23,12993,6,0,L|232:39,1,126.000004806519,0|0,2:0|0:0,0:0:0:0:
355,161,13528,1,2,2:0:0:0:
301,221,13707,2,0,L|325:372,2,126.000004806519,4|4|0,2:0|2:0|0:0,0:0:0:0:
148,128,14778,37,0,2:0:0:0:
126,203,14957,1,2,2:0:0:0:
70,148,15136,2,0,P|61:92|61:63,2,63.0000024032594,0|2|0,2:0|2:0|2:0,0:0:0:0:
40,332,15671,1,2,2:0:0:0:
108,287,15850,6,0,L|191:300,1,63.0000024032594,0|2,2:0|2:0,0:0:0:0:
218,360,16207,2,0,L|301:373,1,63.0000024032594,0|2,2:0|2:0,0:0:0:0:
353,327,16564,1,2,2:0:0:0:
502,362,16743,37,2,2:3:0:0:
499,353,16832,1,2,2:3:0:0:
495,344,16921,1,2,2:3:0:0:
511,27,17278,21,4,3:2:0:0:
352,90,17457,1,8,2:3:0:0:
462,97,17635,1,0,3:0:0:0:
447,95,17725,1,0,3:0:0:0:
435,88,17814,1,8,2:3:0:0:
287,32,17993,5,0,3:0:0:0:
334,196,18171,1,8,2:3:0:0:
238,306,18350,1,0,3:0:0:0:
232,323,18439,1,0,3:0:0:0:
231,338,18528,1,8,2:3:0:0:
315,336,18707,37,0,3:0:0:0:
127,229,18886,2,0,L|134:294,1,42,8|8,2:3|2:3,0:0:0:0:
249,145,19064,1,0,3:0:0:0:
255,128,19153,1,0,3:0:0:0:
256,113,19242,1,8,2:3:0:0:
189,64,19421,5,0,3:0:0:0:
345,113,19600,1,8,2:3:0:0:
245,236,19778,1,0,3:0:0:0:
245,236,19868,1,0,3:0:0:0:
245,236,19957,1,8,2:3:0:0:
63,176,20136,38,0,P|106:150|173:154,1,84,0|8,3:0|2:3,0:0:0:0:
228,321,20493,1,4,3:2:0:0:
230,336,20582,1,0,3:0:0:0:
227,353,20671,1,8,2:3:0:0:
405,225,20850,6,0,P|363:195|319:195,1,84,4|8,3:2|2:3,0:0:0:0:
207,68,21207,1,0,3:0:0:0:
205,83,21296,1,0,3:0:0:0:
208,100,21385,1,8,2:3:0:0:
286,83,21564,37,0,3:0:0:0:
141,225,21743,1,8,2:3:0:0:
319,308,21921,2,0,L|310:249,2,42,0|0|8,3:0|3:0|2:3,0:0:0:0:
332,384,22278,5,0,3:0:0:0:
400,291,22457,1,8,2:3:0:0:
512,339,22636,1,0,3:0:0:0:
512,339,22725,1,0,3:0:0:0:
512,339,22814,1,8,2:3:0:0:
478,117,22993,38,0,L|468:180,1,42,4|0,3:2|0:0,0:0:0:0:
312,266,23171,2,0,L|322:203,1,42,8|0,2:3|0:0,0:0:0:0:
459,238,23350,1,0,3:0:0:0:
334,146,23528,1,8,2:3:0:0:
169,197,23707,5,0,3:0:0:0:
108,138,23886,1,8,2:3:0:0:
108,138,23975,1,0,0:0:0:0:
108,138,24064,2,0,L|6:123,1,84,0|8,3:0|2:3,0:0:0:0:
279,7,24421,2,0,P|270:51|257:119,1,84,0|8,3:0|2:3,0:0:0:0:
192,0,24778,1,0,3:0:0:0:
192,0,24868,1,0,3:0:0:0:
192,0,24957,1,8,2:3:0:0:
390,170,25136,37,0,3:0:0:0:
319,220,25314,1,8,2:3:0:0:
237,193,25493,1,0,3:0:0:0:
231,180,25582,1,0,3:0:0:0:
230,167,25671,1,8,2:3:0:0:
391,365,25850,6,0,L|380:299,3,42,0|0|8|0,3:0|2:0|2:3|2:0,0:0:0:0:
470,351,26207,2,0,L|459:285,3,42,0|0|8|0,3:0|3:0|2:3|2:0,0:0:0:0:
319,228,26564,37,0,3:0:0:0:
321,214,26653,1,0,3:0:0:0:
323,200,26742,1,8,2:3:0:0:
325,186,26831,1,0,2:0:0:0:
329,171,26921,2,0,L|337:104,3,42,0|0|8|0,3:0|3:0|2:3|2:0,0:0:0:0:
512,45,27278,5,0,3:0:0:0:
486,13,27368,1,0,3:0:0:0:
455,0,27457,1,8,2:3:0:0:
420,6,27546,1,8,2:3:0:0:
393,26,27636,1,0,3:0:0:0:
368,46,27725,1,0,3:0:0:0:
333,50,27814,1,8,2:3:0:0:
301,39,27903,1,8,2:3:0:0:
280,16,27993,37,0,3:0:0:0:
209,70,28171,1,8,2:3:0:0:
209,70,28261,1,8,2:3:0:0:
209,70,28350,1,0,3:0:0:0:
127,13,28528,1,8,2:3:0:0:
197,258,28707,22,0,B|242:284|245:368|149:424|69:350|88:293|92:283|97:275|142:232|119:128|-22:116|-56:241|10:288,1,504.000019226075,6|8,3:1|2:3,0:0:0:0:
324,254,29778,5,0,2:0:0:0:
324,254,29957,1,0,2:0:0:0:
475,333,30136,38,0,L|466:289,1,42,4|0,0:0|0:0,0:0:0:0:
399,350,30493,2,0,L|390:306,1,42,0|0,3:0|0:0,0:0:0:0:
471,183,30850,2,0,L|515:174,3,42,8|0|0|0,2:3|0:0|3:0|0:0,0:0:0:0:
344,60,31564,6,0,B|345:33|350:-8|410:-13|433:0|476:46|455:83|426:121|386:102|382:100|376:101|342:96|302:83|289:47|242:58|198:113|201:211|240:256|353:207|236:141,1,504.000019226075,6|8,3:2|2:3,0:0:0:0:
12,33,32636,37,2,2:0:0:0:
12,33,32814,1,2,2:0:0:0:
157,72,32993,6,0,L|167:130,1,42,4|0,0:0|0:0,0:0:0:0:
80,86,33350,2,0,L|90:144,1,42,0|0,3:0|0:0,0:0:0:0:
233,161,33707,2,0,L|223:219,2,42,8|0|0,2:3|0:0|3:0,0:0:0:0:
99,384,34421,38,0,B|75:390|46:394|8:382|-35:336|-29:231|71:206|131:222|130:282|140:295|146:306|175:338|243:328|266:273|266:273|234:292|201:278,1,504.000019226075,6|8,3:2|2:3,0:0:0:0:
338,70,35493,5,0,2:0:0:0:
338,70,35671,1,0,2:0:0:0:
415,54,35850,38,0,L|470:43,1,42,4|0,0:0|0:0,0:0:0:0:
258,85,36207,2,0,L|203:96,1,42,0|0,3:0|0:0,0:0:0:0:
356,149,36564,2,0,L|367:204,3,42,8|0|0|0,2:3|0:0|3:0|0:0,0:0:0:0:
468,281,37278,6,0,B|512:230|482:182|459:157|405:165|373:210|389:274|389:274|402:329|370:374|316:382|294:357|264:310|316:252,1,504.000019226075,6|8,3:2|2:3,0:0:0:0:
135,326,38350,37,2,2:0:0:0:
135,326,38528,1,0,2:0:0:0:
204,384,38707,6,0,L|210:328,1,42,4|0,0:0|0:0,0:0:0:0:
219,266,39064,2,0,L|225:210,1,42,0|0,3:0|0:0,0:0:0:0:
41,254,39421,2,0,L|97:260,2,42,8|0|0,2:3|0:0|3:0,0:0:0:0:
126,77,40136,38,0,L|146:213,2,126.000004806519,6|0|8,3:2|0:0|2:3,0:0:0:0:
312,227,41207,5,0,2:0:0:0:
312,227,41386,1,0,2:0:0:0:
374,166,41564,38,0,P|418:165|451:166,1,63.0000024032594,4|0,0:0|0:0,0:0:0:0:
316,366,41921,2,0,P|293:317|281:285,1,63.0000024032594
210,178,42278,2,0,P|198:216|188:245,3,63.0000024032594,8|0|0|0,2:3|0:0|0:0|0:0,0:0:0:0:
133,297,42993,6,0,L|-7:311,2,126.000004806519,6|0|8,3:2|0:0|2:3,0:0:0:0:
0,97,44064,37,2,2:0:0:0:
0,97,44242,1,2,2:0:0:0:
77,53,44421,6,0,L|153:60,1,63.0000024032594,4|0,0:0|0:0,0:0:0:0:
201,192,44778,2,0,L|192:108,1,63.0000024032594
312,61,45136,37,8,2:3:0:0:
384,21,45314,1,0,0:0:0:0:
443,80,45493,2,0,P|438:120|435:155,1,63.0000024032594
347,261,45850,6,0,B|325:200|325:200|360:132,2,126.000004806519,6|0|8,3:2|0:0|2:3,0:0:0:0:
306,330,46921,37,2,2:0:0:0:
306,330,47100,1,2,2:0:0:0:
372,380,47278,2,0,P|410:369|439:364,1,63.0000024032594,4|0,0:0|0:0,0:0:0:0:
495,253,47636,2,0,P|484:215|479:186,1,63.0000024032594
385,120,47993,5,8,2:3:0:0:
359,46,48171,1,0,0:0:0:0:
279,23,48350,1,0,0:0:0:0:
203,52,48528,1,0,0:0:0:0:
16,60,48707,38,0,P|28:112|34:144,1,63.0000024032594,6|0,3:2|0:0,0:0:0:0:
23,208,49064,2,0,P|102:197|157:191,1,126.000004806519,4|8,0:0|2:3,0:0:0:0:
365,365,49778,5,2,2:0:0:0:
387,287,49957,1,2,2:0:0:0:
285,344,50136,38,0,P|274:289|268:257,1,63.0000024032594,0|0,2:0|2:0,0:0:0:0:
420,149,50493,2,0,P|409:204|403:236,1,63.0000024032594,0|0,3:0|2:0,0:0:0:0:
274,80,50850,5,8,2:3:0:0:
212,140,51028,1,0,2:0:0:0:
142,85,51207,2,0,P|97:75|68:71,1,63.0000024032594,0|0,2:0|0:0,0:0:0:0:
11,129,51564,37,6,2:0:0:0:
47,360,51743,1,2,2:0:0:0:
100,295,51921,5,0,2:0:0:0:
100,295,52100,1,0,2:0:0:0:
169,343,52278,2,0,P|207:334|243:330,3,63.0000024032594,0|0|0|0,2:0|2:0|2:0|2:0,0:0:0:0:
303,375,52993,37,6,2:0:0:0:
498,238,53171,1,2,2:0:0:0:
418,216,53350,5,0,2:0:0:0:
418,216,53528,1,0,2:0:0:0:
439,296,53707,2,0,P|448:334|452:370,3,63.0000024032594,0|0|0|0,2:0|2:0|2:0|2:0,0:0:0:0:
362,275,54421,37,6,2:0:0:0:
398,36,54600,1,2,2:0:0:0:
338,99,54778,6,0,L|322:42,2,31.5000012016297,0|0|0,2:0|0:0|2:0,0:0:0:0:
251,86,55136,1,0,0:0:0:0:
251,86,55314,1,0,0:0:0:0:
197,154,55493,1,0,0:0:0:0:
197,154,55671,1,0,0:0:0:0:
230,240,55850,37,6,2:0:0:0:
0,155,56029,1,2,2:0:0:0:
74,120,56207,6,0,L|63:80,2,31.5000012016297,0|0|0,2:0|0:0|2:0,0:0:0:0:
69,200,56564,1,2,2:0:0:0:
241,28,56743,37,2,2:3:0:0:
238,41,56832,1,2,2:3:0:0:
235,54,56921,1,2,2:3:0:0:
457,370,57278,5,2,1:2:0:0:
443,290,57636,1,0,1:0:0:0:
360,305,57993,1,0,1:0:0:0:
373,383,58350,1,0,1:0:0:0:
24,239,58707,37,2,1:2:0:0:
105,214,59064,1,0,1:0:0:0:
162,273,59421,1,0,1:0:0:0:
241,250,59778,1,0,1:0:0:0:
497,35,60136,5,6,1:2:0:0:
414,18,60493,1,4,1:2:0:0:
314,62,60850,1,4,1:2:0:0:
279,189,61207,1,4,1:2:0:0:
328,364,61564,37,6,1:2:0:0:
328,364,61921,1,4,1:2:0:0:
219,252,62278,5,6,1:2:0:0:
153,311,62457,1,2,2:0:0:0:
148,327,62546,1,0,2:0:0:0:
147,348,62636,1,4,1:2:0:0:
300,286,62814,1,0,2:0:0:0:
170,183,62993,38,0,P|118:171|80:157,1,84,4|0,3:1|2:0,0:0:0:0:
53,87,63350,1,0,2:0:0:0:
53,87,63439,1,0,2:0:0:0:
53,87,63528,1,0,2:0:0:0:
86,252,63707,6,0,P|96:319|102:360,1,84,0|0,2:0|2:0,0:0:0:0:
240,248,63975,1,0,2:0:0:0:
240,248,64064,2,0,P|249:186|256:147,1,84,0|0,2:0|2:0,0:0:0:0:
192,0,64421,37,0,2:0:0:0:
328,186,64600,1,0,2:0:0:0:
404,131,64778,1,0,2:0:0:0:
404,131,64868,1,0,2:0:0:0:
404,131,64957,1,8,2:3:0:0:
344,54,65136,1,2,2:0:0:0:
469,250,65314,5,10,2:3:0:0:
468,262,65403,1,2,2:3:0:0:
466,272,65493,1,2,2:3:0:0:
264,375,65850,6,0,P|256:318|248:274,1,84,4|8,3:2|2:3,0:0:0:0:
298,225,66207,1,0,3:0:0:0:
298,225,66296,1,0,3:0:0:0:
298,225,66386,1,8,2:3:0:0:
179,368,66564,6,0,P|126:357|70:339,1,84,0|8,3:2|2:3,0:0:0:0:
337,303,66832,1,0,0:0:0:0:
337,303,66921,2,0,P|390:314|446:332,1,84,0|8,3:0|2:3,0:0:0:0:
476,382,67278,37,0,3:2:0:0:
450,176,67457,1,8,2:3:0:0:
375,209,67636,1,0,3:0:0:0:
375,209,67725,1,0,3:0:0:0:
375,209,67814,1,8,2:3:0:0:
484,104,67993,6,0,P|495:46|504:6,1,84,0|8,3:2|2:3,0:0:0:0:
500,21,68261,1,8,2:3:0:0:
500,21,68350,1,0,3:0:0:0:
303,111,68528,1,8,2:3:0:0:
245,59,68707,37,4,3:2:0:0:
245,59,68796,1,0,2:0:0:0:
245,59,68886,1,8,2:3:0:0:
141,181,69064,2,0,L|149:240,2,42,4|0|8,3:2|2:0|2:3,0:0:0:0:
65,155,69421,5,4,3:2:0:0:
65,155,69510,1,0,2:0:0:0:
65,155,69600,1,8,2:3:0:0:
219,278,69778,2,0,L|227:219,2,42,4|0|8,3:2|2:0|2:3,0:0:0:0:
100,370,70136,38,0,P|90:308|81:267,1,84,4|8,3:2|2:3,0:0:0:0:
244,159,70493,1,0,3:0:0:0:
244,159,70582,1,0,3:0:0:0:
244,159,70671,1,8,2:3:0:0:
98,137,70850,6,0,P|122:170|179:183,1,84,0|8,3:2|2:3,0:0:0:0:
278,32,71207,1,0,3:0:0:0:
294,60,71297,1,0,3:0:0:0:
294,93,71386,1,8,2:3:0:0:
198,29,71564,38,0,L|140:19,2,42,4|0|8,3:2|2:0|2:3,0:0:0:0:
370,154,71921,1,4,3:2:0:0:
370,154,72011,1,0,3:0:0:0:
370,154,72100,1,8,2:3:0:0:
327,222,72278,6,0,L|338:298,2,42,4|0|8,3:2|3:0|2:3,0:0:0:0:
472,83,72636,1,4,3:2:0:0:
472,83,72725,1,0,2:0:0:0:
472,83,72814,1,8,2:3:0:0:
405,22,72993,38,0,P|354:11|313:-2,1,84,4|8,3:2|2:3,0:0:0:0:
188,127,73350,1,0,3:0:0:0:
188,127,73439,1,0,3:0:0:0:
188,127,73528,1,8,2:3:0:0:
99,98,73707,6,0,P|94:52|113:13,1,84,0|8,3:0|2:3,0:0:0:0:
284,207,73975,1,0,2:0:0:0:
284,207,74064,2,0,P|231:220|186:192,1,84,0|8,3:0|2:3,0:0:0:0:
141,261,74421,37,0,3:2:0:0:
162,337,74600,1,8,2:3:0:0:
249,326,74778,1,0,3:0:0:0:
249,326,74868,1,0,3:0:0:0:
249,326,74957,1,8,2:3:0:0:
58,183,75136,6,0,P|68:124|76:85,1,84,0|8,3:0|2:3,0:0:0:0:
30,27,75493,1,0,3:0:0:0:
30,27,75582,1,0,3:0:0:0:
30,27,75671,1,8,2:3:0:0:
193,172,75850,38,0,L|287:159,1,84,0|8,3:0|2:3,0:0:0:0:
355,9,76118,1,8,2:3:0:0:
355,9,76207,2,0,L|260:21,1,84,0|8,3:0|2:3,0:0:0:0:
191,29,76564,5,0,3:0:0:0:
343,200,76743,1,8,2:3:0:0:
381,131,76921,1,0,3:0:0:0:
381,131,77011,1,0,3:0:0:0:
381,131,77100,1,8,2:3:0:0:
461,244,77278,38,0,P|449:305|443:361,1,84,0|8,3:0|2:3,0:0:0:0:
512,384,77636,1,0,3:0:0:0:
512,384,77725,1,0,3:0:0:0:
512,384,77814,1,8,2:3:0:0:
260,302,77993,5,0,3:0:0:0:
303,374,78171,1,8,2:3:0:0:
338,223,78350,1,0,3:0:0:0:
338,223,78439,1,0,3:0:0:0:
338,223,78528,1,8,2:3:0:0:
142,242,78707,38,0,P|97:235|50:224,1,84,0|8,3:0|2:3,0:0:0:0:
179,317,79064,2,0,L|191:385,2,42,0|0|8,3:0|3:0|2:3,0:0:0:0:
262,161,79421,6,0,P|270:101|276:60,1,84,0|8,3:0|2:3,0:0:0:0:
345,39,79778,2,0,L|398:30,3,42,0|0|8|0,3:0|3:0|2:3|0:0,0:0:0:0:
193,14,80136,37,4,3:2:0:0:
349,118,80314,1,8,2:3:0:0:
187,201,80493,1,0,3:0:0:0:
192,14,80671,1,8,2:3:0:0:
300,189,80850,6,0,P|296:251|290:295,1,84,0|8,3:0|2:3,0:0:0:0:
103,131,81207,2,0,P|107:78|109:37,1,84,0|8,3:0|2:3,0:0:0:0:
31,174,81564,37,0,3:0:0:0:
216,273,81743,1,8,2:3:0:0:
139,375,81922,1,0,3:0:0:0:
139,375,82011,1,0,3:0:0:0:
139,375,82100,2,0,L|126:302,1,42,8|8,2:3|2:3,0:0:0:0:
222,359,82278,6,0,P|296:369|338:375,1,84,0|8,3:0|2:3,0:0:0:0:
83,266,82546,1,0,0:0:0:0:
83,266,82636,2,0,P|9:256|-33:250,1,84,0|8,3:0|2:3,0:0:0:0:
251,226,82993,37,0,3:0:0:0:
411,358,83171,1,8,2:3:0:0:
428,163,83350,1,0,3:0:0:0:
251,226,83528,1,8,2:3:0:0:
460,291,83707,6,0,L|447:212,1,42,0|0,3:0|3:0,0:0:0:0:
300,122,83886,2,0,L|311:190,1,42,8|0,2:3|2:0,0:0:0:0:
358,61,84064,2,0,L|428:52,3,42,0|0|8|0,3:0|3:0|2:3|2:0,0:0:0:0:
220,98,84421,37,0,3:0:0:0:
185,111,84511,1,0,3:0:0:0:
148,104,84600,1,8,2:3:0:0:
124,82,84689,1,8,2:3:0:0:
112,49,84778,1,0,3:0:0:0:
88,27,84867,1,0,3:0:0:0:
51,20,84956,1,8,2:3:0:0:
16,33,85046,1,8,2:3:0:0:
0,61,85136,5,0,3:0:0:0:
1,67,85225,1,0,3:0:0:0:
2,74,85314,2,0,L|7:152,1,42,8|8,2:3|2:3,0:0:0:0:
131,239,85493,2,0,L|126:161,1,42,0|0,3:0|3:0,0:0:0:0:
37,305,85671,2,0,L|115:300,1,42,8|8,2:3|2:3,0:0:0:0:
351,384,85850,5,6,3:1:0:0:
351,384,86386,1,0,0:0:0:0:
420,335,86564,2,0,L|235:352,1,168,8|0,2:3|2:0,0:0:0:0:
82,299,87278,6,0,B|51:192|36:151|36:151|25:120|24:107|23:72|81:47|110:70|117:117|119:165,2,336
234,373,89243,1,0,0:0:0:0:
158,347,89421,2,0,L|349:308,1,168,8|2,2:3|2:0,0:0:0:0:
494,384,90136,38,0,B|467:275|459:232|459:232|453:200|448:188|431:157|368:165|355:199|372:243|394:286,2,336
208,304,92100,1,0,0:0:0:0:
291,294,92278,2,0,L|100:263,1,168,8|0,2:3|2:0,0:0:0:0:
0,37,92993,6,0,B|45:3|109:23|137:84|130:97|111:147|154:205|228:204|257:165,2,336,4|8|6,0:0|2:3|3:2,0:0:0:0:
58,289,94957,1,0,0:0:0:0:
4,348,95136,2,0,L|34:171,1,168,8|0,2:3|0:0,0:0:0:0:
209,36,95850,37,0,0:0:0:0:
480,134,97278,22,0,L|343:120,1,126.000004806519,4|8,3:2|2:3,0:0:0:0:
211,240,97635,1,0,3:0:0:0:
205,213,97725,1,0,3:0:0:0:
199,191,97814,1,8,2:3:0:0:
125,151,97993,5,0,3:0:0:0:
298,232,98171,1,8,2:3:0:0:
168,350,98350,1,0,3:0:0:0:
168,350,98439,1,0,3:0:0:0:
168,350,98529,1,8,2:3:0:0:
286,152,98707,38,0,L|269:3,1,126.000004806519,0|8,3:0|2:3,0:0:0:0:
271,26,98975,1,8,2:3:0:0:
271,26,99064,1,0,3:0:0:0:
124,152,99243,1,8,2:3:0:0:
310,305,99421,5,0,3:0:0:0:
295,384,99600,1,8,2:3:0:0:
189,254,99778,1,0,3:0:0:0:
213,250,99868,1,0,3:0:0:0:
242,247,99957,1,8,2:3:0:0:
374,357,100136,37,0,3:0:0:0:
126,303,100314,1,8,2:3:0:0:
369,194,100493,1,0,3:0:0:0:
369,194,100582,1,0,3:0:0:0:
369,194,100671,2,0,L|269:179,1,63.0000024032594,8|0,2:3|0:0,0:0:0:0:
208,167,100850,5,0,3:0:0:0:
295,384,101028,1,8,2:3:0:0:
452,287,101207,1,0,3:0:0:0:
452,287,101296,1,0,3:0:0:0:
452,287,101385,2,0,L|437:187,1,63.0000024032594,8|0,2:3|0:0,0:0:0:0:
411,0,101564,37,0,3:0:0:0:
512,173,101743,1,8,2:3:0:0:
490,28,101921,1,0,3:0:0:0:
481,50,102010,1,0,3:0:0:0:
462,65,102100,1,8,2:3:0:0:
265,254,102278,5,0,3:0:0:0:
193,88,102457,1,8,2:3:0:0:
365,181,102636,1,0,3:0:0:0:
339,184,102725,1,0,3:0:0:0:
312,188,102814,1,8,2:3:0:0:
77,128,102993,38,0,L|103:-16,1,126.000004806519,4|8,3:2|2:3,0:0:0:0:
236,161,103350,2,0,L|258:37,1,126.000004806519,0|8,3:0|2:3,0:0:0:0:
453,107,103707,5,0,3:0:0:0:
385,156,103886,1,8,2:3:0:0:
462,192,104064,37,0,3:0:0:0:
258,37,104243,1,8,2:3:0:0:
453,107,104421,6,0,L|290:91,1,126.000004806519,0|8,3:0|2:3,0:0:0:0:
132,166,104778,1,0,3:0:0:0:
160,164,104868,1,0,3:0:0:0:
184,144,104957,1,8,2:3:0:0:
90,51,105136,37,0,3:0:0:0:
169,285,105314,1,8,2:3:0:0:
327,94,105493,1,0,3:0:0:0:
90,51,105671,1,8,2:3:0:0:
225,226,105850,5,0,3:0:0:0:
223,210,105939,1,0,3:0:0:0:
221,194,106028,1,8,2:3:0:0:
219,179,106117,1,8,2:3:0:0:
217,163,106207,2,0,L|312:170,3,63.0000024032594,0|0|8|8,3:0|3:0|2:3|2:3,0:0:0:0:
354,280,106564,37,0,3:0:0:0:
352,296,106653,1,0,3:0:0:0:
350,312,106742,1,8,2:3:0:0:
348,327,106831,1,8,2:3:0:0:
346,343,106921,2,0,L|441:336,3,63.0000024032594,0|0|8|8,3:0|3:0|2:3|2:3,0:0:0:0:
508,115,107278,5,0,3:0:0:0:
470,120,107368,1,0,3:0:0:0:
450,98,107457,1,8,2:3:0:0:
412,104,107547,1,8,2:3:0:0:
389,80,107636,2,0,L|321:86,1,63.0000024032594,0|0,3:0|3:0,0:0:0:0:
512,281,107814,2,0,L|506:213,1,63.0000024032594,8|8,2:3|2:3,0:0:0:0:
260,1,107993,37,0,3:0:0:0:
222,24,108082,1,0,3:0:0:0:
203,63,108171,1,8,2:3:0:0:
211,106,108261,1,8,2:3:0:0:
240,138,108350,1,0,3:0:0:0:
269,170,108439,1,0,3:0:0:0:
277,213,108529,1,8,2:3:0:0:
258,252,108618,1,8,2:3:0:0:
220,275,108707,21,4,3:1:0:0:
220,275,110136,1,4,0:0:0:0:
140,296,110850,1,8,2:3:0:0:
59,318,111564,5,6,3:2:0:0:
59,318,112993,2,0,L|74:45,1,252.000009613037
72,66,114421,37,6,3:2:0:0:
72,66,115850,1,4,0:0:0:0:
148,49,116564,1,8,2:3:0:0:
227,32,117278,5,6,3:2:0:0:
227,32,118707,2,0,P|275:113|441:108,1,252.000009613037
450,48,119778,37,0,0:0:0:0:
