osu file format v14

[General]
AudioFilename: audio.mp3
AudioLeadIn: 0
PreviewTime: 159210
Countdown: 0
SampleSet: Soft
StackLeniency: 0.4
Mode: 0
LetterboxInBreaks: 0
WidescreenStoryboard: 1

[Editor]
Bookmarks: 7878,27224,35915,41523,45029,60730,65216,83160,92132,101104,105590,119048,123534,136992,145964,154936,159422,168394,177366,195310,212132
DistanceSpacing: 1.4
BeatDivisor: 12
GridSize: 16
TimelineZoom: 3.599999

[Metadata]
Title:ringtone (remix) [feat. Charli XCX, Rico Nasty, Kero Kero Bonito]
TitleUnicode:ringtone (remix) [feat. Charli XCX, Rico Nasty, Kero Kero Bonito]
Artist:100 gecs
ArtistUnicode:100 gecs
Creator:Haruto
Version:tomatsu's expert
Source:
Tags:1000 gecs dylan brady laura les osno1 future pop english electronic haruto_aizawa ancelysia smh tomadoi agatsu shiinoha kotone
BeatmapID:2356116
BeatmapSetID:1117775

[Difficulty]
HPDrainRate:5
CircleSize:3.7
OverallDifficulty:8
ApproachRate:9
SliderMultiplier:1.6
SliderTickRate:1

[Events]
//Background and Video events
0,0,"ringtone (2).png",0,0
//Break Periods
2,159422,167652
//Storyboard Layer 0 (Background)
//Storyboard Layer 1 (Fail)
//Storyboard Layer 2 (Pass)
//Storyboard Layer 3 (Foreground)
//Storyboard Layer 4 (Overlay)
//Storyboard Sound Samples

[TimingPoints]
28,560.747663551402,4,2,1,50,1,0
28,-200,4,2,1,50,0,0
8859,-58.8235294117647,4,2,1,70,0,0
27785,-58.8235294117647,4,2,1,50,0,0
35915,-55.5555555555556,4,2,1,70,0,0
36126,-55.5555555555556,4,2,1,20,0,0
36196,-55.5555555555556,4,2,1,70,0,0
44887,-58.8235294117647,4,2,1,70,0,0
53859,-55.5555555555556,4,2,1,70,0,0
54981,-58.8235294117647,4,2,1,70,0,0
61710,-58.8235294117647,4,2,1,50,0,0
65074,-55.5555555555556,4,2,1,70,0,0
83018,-55.5555555555556,4,2,1,50,0,0
91990,-55.5555555555556,4,2,1,60,0,0
100962,-55.5555555555556,4,2,1,60,0,0
118906,-55.5555555555556,4,2,1,50,0,0
123392,-55.5555555555556,4,2,1,60,0,0
136850,-125,4,2,1,50,0,0
139934,-90.9090909090909,4,2,1,50,0,0
140775,-142.857142857143,4,2,1,50,0,0
141336,-125,4,2,1,50,0,0
144420,-83.3333333333333,4,2,1,50,0,0
144981,-66.6666666666667,4,2,1,50,0,0
145331,-66.6666666666667,4,2,1,5,0,0
145401,-58.8235294117647,4,2,1,50,0,0
145822,-52.6315789473684,4,2,1,60,0,0
154794,-125,4,2,1,40,0,0
168252,-100,4,2,1,50,0,0
172177,-200,4,2,1,50,0,0
173018,-100,4,2,1,50,0,0
175822,-55.5555555555556,4,2,1,50,0,0
177224,-50,4,2,1,70,0,0
181289,-43.4782608695652,4,2,1,70,0,0
181429,-38.4615384615385,4,2,1,70,0,0
181710,-45.4545454545455,4,2,1,70,0,0
182831,-50,4,2,1,70,0,0
183392,-500,4,2,1,70,0,0
183953,-45.4545454545455,4,2,1,70,0,0
185915,-34.4827586206897,4,2,1,70,0,0
186196,-45.4545454545455,4,2,1,70,0,0
195168,-100,4,3,2,65,0,0
202948,-100,4,3,2,25,0,0
203018,-100,4,3,2,65,0,0
207434,-100,4,3,2,25,0,0
207504,-100,4,3,2,65,0,0
208626,-500,4,3,2,70,0,0
209747,-83.3333333333333,4,3,2,60,0,0
210308,-500,4,3,2,50,0,0
211920,-500,4,3,2,20,0,0
211990,-500,4,3,2,65,0,0

[Colours]
Combo1 : 132,137,124
Combo2 : 220,211,109
Combo3 : 185,185,185
Combo4 : 236,186,119

[HitObjects]
0,294,28,6,0,L|124:275,1,120,2|2,0:0|0:0,0:0:0:0:
184,237,2270,6,0,L|302:255,1,120,2|2,0:0|0:0,0:0:0:0:
373,287,4513,5,2,0:0:0:0:
448,262,5355,2,0,P|455:167|466:97,1,160,2|0,0:0|0:0,0:0:0:0:
340,144,6756,6,0,L|214:167,1,120,2|0,0:0|0:0,0:0:0:0:
77,40,7878,5,0,3:0:0:0:
143,72,8018,1,0,3:0:0:0:
247,29,8158,1,0,3:0:0:0:
71,48,8999,6,0,B|140:55|139:82|221:85,1,136.000002593994,4|0,3:0|0:0,0:0:0:0:
350,219,9560,2,0,L|369:288,1,68.0000012969971,8|0,1:2|0:0,0:0:0:0:
511,221,9841,2,0,P|495:166|402:157,1,136.000002593994,8|2,3:0|0:0,0:0:0:0:
425,145,10261,6,0,L|414:195,2,34.0000006484985,0|0|2,0:0|0:0|0:0,0:0:0:0:
294,161,10542,1,0,0:0:0:0:
189,83,10682,2,0,B|250:70|269:97|333:76,1,136.000002593994,8|0,0:0|0:0,0:0:0:0:
134,164,11242,6,0,L|-11:189,1,136.000002593994,4|0,3:0|0:0,0:0:0:0:
122,240,11663,1,0,0:0:0:0:
213,303,11803,2,0,L|238:384,1,68.0000012969971,8|0,1:2|0:0,0:0:0:0:
305,295,12084,1,8,3:0:0:0:
305,295,12224,1,0,0:0:0:0:
408,153,12364,6,0,P|336:173|246:191,1,136.000002593994,2|0,0:0|0:0,0:0:0:0:
276,185,12785,2,0,L|263:242,2,34.0000006484985,0|0|2,3:2|3:0|3:2,0:0:0:0:
462,366,13205,2,0,B|468:332|468:332|459:284,1,68.0000012969971,8|0,1:2|0:0,0:0:0:0:
388,348,13485,5,4,3:0:0:0:
503,186,13626,2,0,P|422:200|401:267,1,136.000002593994,0|0,0:0|0:0,0:0:0:0:
330,272,14046,2,0,L|255:293,1,68.0000012969971,8|0,1:2|0:0,0:0:0:0:
125,371,14327,2,0,B|122:335|122:335|129:290,1,68.0000012969971,10|2,3:0|0:0,0:0:0:0:
232,207,14607,6,0,B|177:199|161:221|74:206,2,136.000002593994,2|0|8,0:0|0:0|1:2,0:0:0:0:
60,81,15448,1,0,0:0:0:0:
60,81,15588,1,0,0:0:0:0:
161,0,15728,6,0,L|137:77,1,68.0000012969971,10|0,3:0|0:0,0:0:0:0:
233,207,16009,2,0,B|248:141|248:141|223:64,1,136.000002593994,0|8,0:0|1:2,0:0:0:0:
82,234,16570,2,0,L|15:249,1,68.0000012969971,4|0,3:0|0:0,0:0:0:0:
145,285,16850,6,0,P|194:300|218:379,2,136.000002593994,2|2|8,0:0|0:0|1:2,0:0:0:0:
343,195,17691,1,2,0:0:0:0:
343,195,17831,1,2,0:0:0:0:
258,117,17971,6,0,B|280:100|280:100|311:97|311:97|307:111|307:111|326:98|326:98|343:104|343:104|367:106,1,136.000002593994,2|0,0:1|0:0,0:0:0:0:
423,160,18392,1,0,0:0:0:0:
512,227,18532,2,0,L|494:295,1,68.0000012969971,8|0,1:2|0:0,0:0:0:0:
388,287,18813,6,0,B|324:280|319:302|237:289,1,136.000002593994,4|0,0:3|0:0,0:0:0:0:
252,291,19233,2,0,L|245:339,2,34.0000006484985,0|0|0,0:0|0:0|0:0,0:0:0:0:
183,246,19513,1,0,0:0:0:0:
292,142,19654,2,0,L|260:-1,1,136.000002593994,8|0,1:2|0:0,0:0:0:0:
201,66,20074,1,0,0:0:0:0:
11,25,20214,6,0,P|81:15|177:9,1,136.000002593994,6|0,3:0|0:0,0:0:0:0:
79,94,20635,1,0,0:0:0:0:
31,155,20775,1,8,1:2:0:0:
21,149,21056,6,0,P|92:165|111:231,1,136.000002593994,10|2,3:0|0:0,0:0:0:0:
173,268,21476,1,2,0:0:0:0:
92,337,21616,2,0,L|12:359,1,68.0000012969971,2|2,0:0|0:0,0:0:0:0:
178,262,21897,2,0,B|243:252|256:284|334:265,2,136.000002593994,10|2|6,1:2|0:0|3:0,0:0:0:0:
366,109,22738,6,0,P|372:83|380:25,1,68.0000012969971,2|0,0:0|0:0,0:0:0:0:
512,149,23018,2,0,P|462:195|386:185,1,136.000002593994,8|10,1:2|3:0,0:0:0:0:
321,203,23439,1,0,0:0:0:0:
221,293,23579,2,0,P|211:329|197:366,1,68.0000012969971,2|0,0:0|0:0,0:0:0:0:
200,357,23789,1,0,0:0:0:0:
200,357,23859,6,0,P|259:350|368:348,1,136.000002593994,2|8,0:0|1:2,0:0:0:0:
200,202,24420,2,0,B|166:209|166:209|119:206,1,68.0000012969971,0|0,0:0|0:0,0:0:0:0:
62,177,24700,6,0,P|48:224|32:273,1,68.0000012969971,4|0,3:0|0:0,0:0:0:0:
174,115,24981,2,0,P|163:82|154:49,1,68.0000012969971,4|0,3:0|0:0,0:0:0:0:
286,170,25261,2,0,P|339:180|411:200,1,102.000001945496,8|0,1:2|0:0,0:0:0:0:
385,192,25542,1,0,3:2:0:0:
507,343,25682,6,0,P|481:302|395:307,1,136.000002593994,0|0,0:0|0:0,0:0:0:0:
328,329,26102,2,0,L|254:348,1,68.0000012969971,4|0,3:0|0:0,0:0:0:0:
137,279,26383,2,0,B|75:272|69:296|-19:286,2,136.000002593994,8|4|4,1:2|3:0|3:0,0:0:0:0:
430,208,27785,5,8,3:0:0:0:
151,124,29186,5,4,3:0:0:0:
374,96,30028,5,4,3:0:0:0:
388,107,31429,5,4,3:0:0:0:
171,217,32270,5,8,3:0:0:0:
88,182,33672,5,4,3:0:0:0:
166,200,34093,1,8,3:0:0:0:
166,200,34163,1,8,0:3:0:0:
239,178,34513,1,4,3:0:0:0:
370,76,35074,5,4,3:0:0:0:
449,82,35495,1,4,3:0:0:0:
449,82,35565,1,4,0:3:0:0:
497,144,35915,6,0,P|486:197|472:272,1,107.999996704102,4|0,3:0|0:0,0:0:0:0:
475,249,36196,2,0,P|440:260|381:280,1,71.9999978027344,0|0,0:0|0:0,0:0:0:0:
218,369,36476,2,0,P|227:312|314:297,1,143.999995605469,8|10,1:2|3:0,0:0:0:0:
359,341,36897,1,0,0:0:0:0:
235,178,37037,6,0,P|193:194|144:206,1,71.9999978027344,2|0,0:0|0:0,0:0:0:0:
204,24,37317,2,0,P|188:56|178:93,1,71.9999978027344,2|0,0:0|0:0,0:0:0:0:
382,168,37598,2,0,P|358:112|268:100,1,143.999995605469,10|2,1:2|0:1,0:0:0:0:
386,177,38018,1,2,0:1:0:0:
256,293,38158,6,0,P|351:279|431:274,1,143.999995605469,4|0,3:0|0:0,0:0:0:0:
278,215,38579,1,0,0:0:0:0:
133,304,38719,2,0,P|125:342|111:389,1,71.9999978027344,8|0,1:2|0:0,0:0:0:0:
266,213,38999,2,0,B|258:166|258:166|258:142|258:142|239:53,1,143.999995605469,8|2,3:0|0:1,0:0:0:0:
242,71,39420,5,2,0:1:0:0:
110,141,39560,2,0,L|14:165,1,71.9999978027344,0|2,0:0|0:1,0:0:0:0:
179,260,39841,2,0,P|244:288|259:377,1,143.999995605469,10|2,1:2|0:1,0:0:0:0:
265,353,40261,2,0,L|319:345,2,35.9999989013672,0|0|4,0:0|0:0|3:0,0:0:0:0:
483,174,40682,6,0,P|468:231|459:264,1,71.9999978027344,2|0,0:0|0:0,0:0:0:0:
277,95,40962,2,0,B|350:82|359:107|433:93,1,143.999995605469,8|10,1:2|3:0,0:0:0:0:
274,169,41383,1,0,0:0:0:0:
176,235,41523,6,0,P|208:241|261:255,1,71.9999978027344,2|0,0:0|0:0,0:0:0:0:
166,56,41803,2,0,P|175:111|192:155,1,71.9999978027344,2|0,0:0|0:0,0:0:0:0:
2,266,42084,2,0,P|31:191|106:188,1,143.999995605469,10|2,1:2|0:1,0:0:0:0:
210,341,42504,1,2,0:1:0:0:
103,270,42644,6,0,P|164:263|270:246,1,143.999995605469,10|0,3:0|0:0,0:0:0:0:
415,183,43065,2,0,B|426:222|426:222|424:271,1,71.9999978027344,8|8,3:0|1:2,0:0:0:0:
341,166,43345,1,0,0:0:0:0:
488,31,43485,2,0,B|441:45|441:45|416:58|416:58|320:84,1,143.999995605469,4|0,3:0|0:0,0:0:0:0:
351,75,43906,5,0,0:0:0:0:
248,23,44046,2,0,P|231:78|213:120,1,71.9999978027344,4|0,3:0|0:0,0:0:0:0:
334,246,44327,1,8,1:2:0:0:
310,160,44467,1,4,3:0:0:0:
265,284,44607,1,0,0:0:0:0:
405,229,44747,1,0,0:0:0:0:
312,355,44887,6,0,B|248:298|161:324|161:324,2,136.000002593994,2|2|0,0:0|0:0|0:0,0:0:0:0:
150,183,45728,1,0,0:0:0:0:
150,183,45799,1,0,0:0:0:0:
150,183,45869,1,0,0:0:0:0:
150,183,45939,1,0,0:0:0:0:
150,183,46009,2,0,B|145:105|115:130|114:49,2,136.000002593994,2|0|0,0:0|0:0|0:0,0:0:0:0:
148,189,47130,6,0,P|210:200|291:216,2,136.000002593994,4|2|8,3:0|0:1|1:2,0:0:0:0:
295,112,47831,1,0,0:0:0:0:
244,0,47971,2,0,P|230:44|211:81,1,68.0000012969971,4|2,3:0|0:0,0:0:0:0:
359,172,48252,6,0,P|417:171|446:88,2,136.000002593994,2|0|8,0:1|0:0|1:2,0:0:0:0:
303,224,48953,1,0,0:0:0:0:
397,346,49093,2,0,P|382:297|372:251,1,68.0000012969971,0|0,0:0|0:0,0:0:0:0:
226,251,49373,6,0,P|179:259|88:269,1,136.000002593994,4|2,3:0|0:1,0:0:0:0:
91,268,49794,2,0,L|77:329,2,34.0000006484985,0|0|8,0:0|0:0|1:2,0:0:0:0:
171,344,50074,1,0,0:0:0:0:
303,254,50214,6,0,P|300:208|198:176,1,136.000002593994,6|2,3:0|0:1,0:0:0:0:
170,119,50635,1,0,0:0:0:0:
254,62,50775,2,0,L|332:52,1,68.0000012969971,0|0,0:0|0:0,0:0:0:0:
446,127,51056,2,0,B|466:64|466:64|439:-1,1,136.000002593994,8|4,1:2|0:0,0:0:0:0:
357,138,51476,1,0,0:0:0:0:
357,138,51546,1,0,0:0:0:0:
357,138,51616,6,0,P|352:197|339:282,1,136.000002593994,4|2,3:0|0:1,0:0:0:0:
394,327,52037,1,0,0:0:0:0:
445,230,52177,2,0,L|527:217,1,68.0000012969971,8|0,1:2|0:0,0:0:0:0:
335,279,52457,6,0,B|269:264|273:308|173:283,1,136.000002593994,4|2,3:0|0:1,0:0:0:0:
135,329,52878,1,0,0:0:0:0:
22,260,53018,2,0,L|1:340,1,68.0000012969971,2|0,0:0|0:0,0:0:0:0:
159,213,53299,2,0,P|143:151|59:144,1,136.000002593994,10|0,1:2|0:0,0:0:0:0:
13,92,53719,1,0,0:0:0:0:
149,17,53859,38,0,L|139:53,10,23.9999992675781,0|0|0|0|0|0|0|0|0|0|0,3:0|0:0|0:0|3:0|0:0|0:0|3:0|0:0|0:0|3:0|0:0,0:0:0:0:
232,88,54420,2,0,L|222:52,10,23.9999992675781,8|0|0|0|0|0|0|0|0|0|0,3:2|0:0|0:0|3:0|0:0|0:0|3:0|0:0|0:0|3:0|0:0,0:0:0:0:
328,80,54981,6,0,P|359:73|419:57,1,68.0000012969971,2|0,0:0|0:0,0:0:0:0:
511,222,55261,2,0,B|438:214|462:180|358:170,1,136.000002593994,2|8,0:0|1:0,0:0:0:0:
319,215,55682,1,0,0:0:0:0:
422,296,55822,2,0,P|430:340|443:385,1,68.0000012969971,0|0,0:0|0:0,0:0:0:0:
310,289,56102,6,0,P|241:279|158:264,1,136.000002593994,4|2,3:0|0:1,0:0:0:0:
307,295,56523,1,0,0:0:0:0:
438,162,56663,2,0,L|460:231,1,68.0000012969971,8|0,1:2|0:0,0:0:0:0:
337,128,56943,2,0,B|328:52|304:81|293:-8,1,136.000002593994,8|2,3:0|0:1,0:0:0:0:
294,0,57364,6,0,L|347:13,2,34.0000006484985,0|0|2,0:0|0:0|0:0,0:0:0:0:
399,62,57644,1,0,0:0:0:0:
268,172,57785,2,0,P|201:185|134:198,1,136.000002593994,8|2,1:2|0:0,0:0:0:0:
374,380,58345,6,0,B|391:316|391:316|361:236,2,136.000002593994,4|2|8,3:0|0:1|1:2,0:0:0:0:
299,287,59046,1,0,0:0:0:0:
357,159,59186,2,0,P|397:153|441:143,1,68.0000012969971,4|2,3:0|0:0,0:0:0:0:
275,214,59467,6,0,B|217:206|222:242|132:225,1,136.000002593994,2|2,0:1|0:0,0:0:0:0:
142,303,59887,1,0,0:0:0:0:
207,378,60028,2,0,L|231:293,1,68.0000012969971,8|0,1:2|0:0,0:0:0:0:
43,246,60308,2,0,L|61:311,1,68.0000012969971,0|0,0:0|0:0,0:0:0:0:
174,155,60588,6,0,B|181:75|218:106|217:-1,1,136.000002593994,4|0,3:0|0:0,0:0:0:0:
305,138,61009,1,0,0:0:0:0:
415,60,61149,2,0,P|381:65|347:69,1,68.0000012969971,8|0,1:2|0:0,0:0:0:0:
480,209,61429,2,0,B|484:175|484:175|473:132,1,68.0000012969971,8|0,3:0|0:0,0:0:0:0:
326,215,61710,6,0,P|335:280|402:306,1,136.000002593994,0|0,0:0|0:0,0:0:0:0:
398,315,62270,2,0,P|460:295|476:232,1,136.000002593994,0|0,0:0|0:0,0:0:0:0:
401,106,62691,1,0,0:0:0:0:
401,106,62761,1,0,0:0:0:0:
401,106,62831,5,2,0:0:0:0:
57,58,64794,1,2,0:0:0:0:
120,114,64934,1,2,0:0:0:0:
215,25,65074,6,0,P|283:17|384:9,1,143.999995605469,6|0,3:0|0:0,0:0:0:0:
242,107,65495,1,0,0:0:0:0:
164,204,65635,2,0,P|134:237|106:279,1,71.9999978027344,8|0,1:2|0:0,0:0:0:0:
219,283,65915,2,0,P|263:280|312:268,1,71.9999978027344,8|0,3:0|0:0,0:0:0:0:
140,384,66196,6,0,B|68:374|95:344|-11:336,1,143.999995605469,0|0,0:0|0:0,0:0:0:0:
133,250,66616,1,0,0:0:0:0:
143,110,66756,1,8,1:2:0:0:
195,174,66897,1,0,0:0:0:0:
66,115,67037,1,0,0:0:0:0:
190,38,67177,1,0,0:0:0:0:
307,117,67317,6,0,P|371:107|427:96,1,107.999996704102,4|0,3:0|0:0,0:0:0:0:
413,98,67598,2,0,P|425:58|446:11,1,71.9999978027344,2|0,0:0|0:0,0:0:0:0:
512,209,67878,2,0,P|486:258|398:261,1,143.999995605469,8|8,1:2|3:0,0:0:0:0:
489,360,68299,1,0,0:0:0:0:
323,278,68439,6,0,P|310:328|291:371,1,71.9999978027344,2|0,0:0|0:0,0:0:0:0:
473,286,68719,1,2,0:0:0:0:
378,168,68859,1,0,0:0:0:0:
378,168,68929,1,0,0:0:0:0:
378,168,68999,2,0,P|330:158|282:145,1,71.9999978027344,8|0,1:2|0:0,0:0:0:0:
403,262,69280,1,2,0:1:0:0:
265,213,69420,1,2,0:1:0:0:
132,283,69560,6,0,B|112:214|112:214|133:145,1,143.999995605469,4|0,3:0|0:0,0:0:0:0:
210,268,69981,1,8,3:0:0:0:
60,364,70121,2,0,P|-2:346|-30:340,1,71.9999978027344,8|0,1:2|0:0,0:0:0:0:
58,260,70401,2,0,P|49:215|35:166,1,71.9999978027344,4|0,3:0|0:0,0:0:0:0:
252,92,70682,6,0,P|252:162|181:193,1,143.999995605469,0|4,0:0|3:0,0:0:0:0:
186,39,71102,1,0,0:0:0:0:
292,164,71242,1,8,1:2:0:0:
174,116,71383,1,4,3:0:0:0:
339,90,71523,2,0,P|399:99|434:125,1,71.9999978027344,0|0,0:0|0:0,0:0:0:0:
512,211,71803,6,0,P|430:243|385:242,1,107.999996704102,4|0,3:0|0:0,0:0:0:0:
411,244,72084,2,0,P|404:291|386:338,1,71.9999978027344,0|0,0:0|0:0,0:0:0:0:
250,384,72364,2,0,B|245:302|216:332|220:232,1,143.999995605469,8|6,1:2|3:0,0:0:0:0:
337,367,72785,1,2,0:0:0:0:
217,238,72925,6,0,P|160:252|130:271,1,71.9999978027344,2|0,0:0|0:0,0:0:0:0:
314,93,73205,2,0,P|298:139|288:192,1,71.9999978027344,2|0,0:0|0:0,0:0:0:0:
114,34,73485,2,0,P|168:49|185:138,1,143.999995605469,2|2,1:2|0:1,0:0:0:0:
102,35,73906,1,2,0:1:0:0:
0,130,74046,5,4,3:0:0:0:
8,135,74327,2,0,P|17:178|30:223,1,71.9999978027344,0|0,0:0|0:0,0:0:0:0:
173,317,74607,1,8,1:2:0:0:
201,242,74747,1,0,0:0:0:0:
96,332,74887,1,4,3:0:0:0:
230,374,75028,1,0,0:0:0:0:
103,244,75168,6,0,P|29:259|13:338,1,143.999995605469,0|0,0:0|0:0,0:0:0:0:
110,240,75588,1,0,0:0:0:0:
66,71,75728,2,0,P|53:127|40:167,1,71.9999978027344,8|0,1:2|0:0,0:0:0:0:
173,37,76009,1,0,0:0:0:0:
250,137,76149,1,0,0:0:0:0:
395,77,76289,6,0,P|340:71|248:57,1,143.999995605469,4|0,3:0|0:0,0:0:0:0:
400,83,76710,1,0,0:0:0:0:
493,190,76850,2,0,P|501:239|514:285,1,71.9999978027344,8|0,1:2|0:0,0:0:0:0:
402,240,77130,2,0,P|356:229|319:216,1,71.9999978027344,10|2,3:0|0:0,0:0:0:0:
496,351,77411,6,0,P|436:364|338:389,2,143.999995605469,2|2|8,0:0|0:0|1:2,0:0:0:0:
345,218,78252,1,2,0:1:0:0:
459,142,78392,1,2,0:1:0:0:
426,9,78532,6,0,P|397:102|368:169,1,143.999995605469,4|0,3:0|0:0,0:0:0:0:
435,218,78953,1,8,3:0:0:0:
317,310,79093,2,0,P|333:371|340:408,1,71.9999978027344,8|0,1:2|0:0,0:0:0:0:
395,290,79373,1,4,3:0:0:0:
289,217,79513,1,0,0:0:0:0:
177,301,79654,6,0,B|105:299|119:265|27:261,1,143.999995605469,0|4,0:0|3:0,0:0:0:0:
166,218,80074,1,0,0:0:0:0:
254,131,80214,1,8,1:2:0:0:
129,66,80355,1,4,3:0:0:0:
181,140,80495,1,0,0:0:0:0:
311,62,80635,1,0,0:0:0:0:
468,173,80775,6,0,P|404:167|309:162,1,143.999995605469,6|0,1:2|0:0,0:0:0:0:
5,333,83018,5,4,3:2:0:0:
81,326,83579,1,2,0:0:0:0:
157,315,84140,1,2,0:0:0:0:
239,195,84420,1,2,0:0:0:0:
136,244,84700,1,2,0:0:0:0:
286,256,84981,1,0,0:0:0:0:
143,166,85261,6,0,B|59:150|12:219|12:219,1,143.999995605469,2|0,0:0|0:0,0:0:0:0:
80,78,85682,2,0,B|164:94|211:25|211:25,1,143.999995605469,2|0,0:0|0:0,0:0:0:0:
277,63,86102,1,0,0:0:0:0:
449,172,86383,5,2,0:0:0:0:
512,211,86663,2,0,B|374:194|357:301|219:280,1,287.999991210938,2|2,0:0|0:0,0:0:0:0:
418,322,87504,6,0,B|449:240|394:150|303:171|303:171,1,215.999993408203,0|0,3:0|0:0,0:0:0:0:
199,98,88065,2,0,B|168:180|223:270|314:249|314:249,1,215.999993408203,2|0,0:0|0:0,0:0:0:0:
286,55,88626,2,0,L|-33:88,1,287.999991210938,2|2,0:0|0:0,0:0:0:0:
119,358,89747,6,0,P|137:290|145:271,1,71.9999978027344,2|0,0:0|0:0,0:0:0:0:
66,276,90028,1,0,0:0:0:0:
200,195,90168,2,0,P|274:222|279:309,1,143.999995605469,2|0,0:0|0:0,0:0:0:0:
290,280,90588,1,0,0:0:0:0:
501,362,90869,1,2,0:0:0:0:
466,289,91149,2,0,L|512:-6,1,287.999991210938,2|2,0:0|0:0,0:0:0:0:
285,120,91990,6,0,B|215:115|223:151|124:142,1,143.999995605469,4|0,1:2|0:0,0:0:0:0:
289,349,92551,2,0,P|296:308|310:261,1,71.9999978027344,2|0,1:3|0:0,0:0:0:0:
183,313,92831,2,0,P|192:347|197:383,1,71.9999978027344,0|0,3:0|0:0,0:0:0:0:
373,243,93112,6,0,P|336:190|261:194,1,143.999995605469,4|0,0:0|3:0,0:0:0:0:
28,59,93672,2,0,P|101:53|185:35,1,143.999995605469,2|0,1:3|3:0,0:0:0:0:
368,177,94233,6,0,P|381:119|395:75,1,71.9999978027344,4|0,0:0|0:0,0:0:0:0:
286,184,94513,1,0,0:0:0:0:
394,279,94654,2,0,P|449:261|479:253,1,71.9999978027344,0|0,3:0|1:0,0:0:0:0:
407,364,94934,1,0,0:0:0:0:
286,278,95074,2,0,P|231:260|201:252,1,71.9999978027344,0|0,3:0|0:0,0:0:0:0:
99,135,95355,6,0,B|85:173|85:173|85:222,1,71.9999978027344,4|0,0:0|0:0,0:0:0:0:
227,142,95635,2,0,B|226:70|253:100|244:-3,1,143.999995605469,0|2,3:0|1:3,0:0:0:0:
87,226,96196,2,0,L|-12:250,1,71.9999978027344,0|0,0:0|0:0,0:0:0:0:
123,344,96476,6,0,P|202:351|234:279,1,143.999995605469,4|0,0:0|0:0,0:0:0:0:
411,135,97037,2,0,P|396:208|384:288,1,143.999995605469,2|0,1:3|3:0,0:0:0:0:
315,202,97457,1,0,0:0:0:0:
215,147,97598,6,0,P|274:131|306:120,1,71.9999978027344,4|0,0:0|0:0,0:0:0:0:
261,304,97878,2,0,P|226:284|177:258,1,71.9999978027344,0|0,3:0|0:0,0:0:0:0:
64,134,98158,2,0,B|88:306,1,143.999995605469,2|0,1:3|0:0,0:0:0:0:
264,85,98719,6,0,L|286:-1,1,71.9999978027344,4|0,0:0|0:0,0:0:0:0:
368,139,98999,1,0,1:0:0:0:
512,22,99140,2,0,P|451:37|349:66,1,143.999995605469,0|0,0:0|0:0,0:0:0:0:
456,217,99560,2,0,P|461:180|472:137,1,71.9999978027344,0|0,3:0|0:0,0:0:0:0:
336,249,99841,5,0,1:0:0:0:
404,334,99981,1,0,1:0:0:0:
323,272,100121,1,0,1:0:0:0:
281,366,100261,1,0,1:0:0:0:
155,244,100401,6,0,B|157:210|132:177|132:177|103:220|114:287|137:338,1,215.999993408203,4|0,1:2|0:0,0:0:0:0:
246,210,100962,5,4,3:0:0:0:
145,90,101102,1,0,0:0:0:0:
207,33,101242,2,0,L|293:18,1,71.9999978027344,2|0,0:0|0:0,0:0:0:0:
424,122,101523,2,0,P|433:83|451:24,1,71.9999978027344,8|0,1:2|0:0,0:0:0:0:
304,150,101803,2,0,B|293:186|293:186|292:240,1,71.9999978027344,4|0,3:0|0:0,0:0:0:0:
365,300,102084,1,2,0:0:0:0:
7,366,103205,6,0,L|47:206,1,143.999995605469,4|2,3:0|0:0,0:0:0:0:
26,151,103626,1,0,0:0:0:0:
123,32,103766,2,0,P|73:46|31:57,1,71.9999978027344,8|0,1:2|0:0,0:0:0:0:
175,233,104046,2,0,P|241:233|278:153,1,143.999995605469,8|0,3:0|3:0,0:0:0:0:
417,31,105448,6,0,P|430:78|440:113,1,71.9999978027344,4|0,3:0|0:0,0:0:0:0:
318,189,105728,1,2,0:0:0:0:
340,116,105869,1,0,0:0:0:0:
232,76,106009,2,0,P|178:95|150:117,1,71.9999978027344,8|0,1:2|0:0,0:0:0:0:
23,174,106289,6,0,B|103:180|80:215|173:219,1,143.999995605469,8|2,3:0|0:0,0:0:0:0:
223,259,106710,1,0,0:0:0:0:
128,374,106850,2,0,P|117:335|99:296,1,71.9999978027344,2|0,0:0|0:0,0:0:0:0:
227,350,107130,2,0,P|283:364|312:377,1,71.9999978027344,8|0,1:2|0:0,0:0:0:0:
467,223,107411,2,0,P|407:235|375:322,1,143.999995605469,0|4,0:0|3:0,0:0:0:0:
478,217,107831,5,0,0:0:0:0:
389,54,107971,2,0,P|368:101|370:146,1,71.9999978027344,4|8,3:0|3:0,0:0:0:0:
267,258,108252,2,0,P|246:211|248:166,1,71.9999978027344,8|0,1:2|0:0,0:0:0:0:
276,74,108532,2,0,B|206:60|220:102|108:78,1,143.999995605469,4|2,3:0|0:0,0:0:0:0:
271,154,108953,5,0,0:0:0:0:
380,268,109093,1,4,3:0:0:0:
309,302,109233,1,0,0:0:0:0:
363,182,109373,2,0,P|411:174|445:165,1,71.9999978027344,8|4,1:2|3:0,0:0:0:0:
302,57,109654,2,0,P|350:65|384:74,1,71.9999978027344,4|0,3:0|0:0,0:0:0:0:
259,219,109934,6,0,P|178:244|169:318,1,143.999995605469,4|0,3:0|0:0,0:0:0:0:
234,331,110355,1,0,0:0:0:0:
132,375,110495,2,0,P|86:365|38:360,1,71.9999978027344,2|0,1:3|0:0,0:0:0:0:
236,207,110775,2,0,P|316:226|337:296,1,143.999995605469,8|2,3:0|0:0,0:0:0:0:
227,73,111336,6,0,P|234:31|237:-12,1,71.9999978027344,0|2,0:0|0:0,0:0:0:0:
138,119,111616,2,0,P|86:135|-12:177,1,143.999995605469,2|0,1:3|0:0,0:0:0:0:
252,364,112177,5,4,3:0:0:0:
208,297,112317,1,0,0:0:0:0:
292,253,112457,2,0,P|338:264|385:271,1,71.9999978027344,0|0,0:0|0:0,0:0:0:0:
461,377,112738,2,0,B|463:303|489:335|493:228,1,143.999995605469,2|4,1:3|3:0,0:0:0:0:
369,43,113299,6,0,P|413:27|453:5,1,71.9999978027344,2|2,0:0|0:0,0:0:0:0:
430,198,113579,2,0,P|397:182|363:170,1,71.9999978027344,2|2,0:0|0:0,0:0:0:0:
285,37,113859,2,0,P|213:36|185:104,1,143.999995605469,2|0,1:3|0:0,0:0:0:0:
278,296,114420,6,0,B|188:289|179:372|58:360,1,215.999993408203,4|0,3:0|0:0,0:0:0:0:
161,253,114981,2,0,L|192:157,1,71.9999978027344,2|0,1:3|0:0,0:0:0:0:
63,40,115261,2,0,L|90:187,1,143.999995605469,0|0,0:0|0:0,0:0:0:0:
293,11,115962,5,0,0:0:0:0:
366,75,116102,2,0,L|450:91,1,71.9999978027344,2|0,1:3|0:0,0:0:0:0:
324,144,116383,2,0,L|240:160,1,71.9999978027344,0|0,0:0|0:0,0:0:0:0:
140,266,116663,6,0,B|126:199|126:199|132:111,1,143.999995605469,4|2,3:0|0:0,0:0:0:0:
153,271,117084,1,4,0:3:0:0:
82,346,117224,2,0,L|6:370,1,71.9999978027344,8|0,0:3|0:0,0:0:0:0:
211,356,117504,2,0,B|294:342|278:387|379:371,1,143.999995605469,4|0,3:0|0:0,0:0:0:0:
412,329,117925,5,0,0:0:0:0:
489,239,118065,2,0,P|497:280|508:324,1,71.9999978027344,4|0,3:0|0:0,0:0:0:0:
374,226,118345,2,0,P|327:215|280:209,1,71.9999978027344,2|4,1:2|3:0,0:0:0:0:
424,22,118626,2,0,P|434:70|444:104,1,71.9999978027344,0|0,0:0|0:0,0:0:0:0:
440,92,118836,1,0,0:0:0:0:
440,92,118906,6,0,L|211:123,1,215.999993408203,4|0,3:0|0:0,0:0:0:0:
171,173,119467,2,0,P|158:229|146:263,1,71.9999978027344,0|0,0:0|0:0,0:0:0:0:
225,377,119747,2,0,P|251:325|334:321,1,143.999995605469,8|0,3:0|0:0,0:0:0:0:
63,142,120588,6,0,P|67:187|66:230,1,71.9999978027344,0|0,0:0|0:0,0:0:0:0:
150,300,120869,2,0,P|150:264|153:228,1,71.9999978027344,0|0,0:0|0:0,0:0:0:0:
47,115,121149,6,0,B|153:69|152:154|268:109,1,215.999993408203,4|0,3:0|0:0,0:0:0:0:
324,70,121710,2,0,P|367:83|412:93,1,71.9999978027344,0|0,0:0|0:0,0:0:0:0:
512,179,121990,2,0,B|460:197|460:197|442:212|442:212|358:238,1,143.999995605469,8|0,3:0|0:0,0:0:0:0:
124,367,122831,6,0,P|136:318|142:282,1,71.9999978027344,2|0,1:3|0:0,0:0:0:0:
230,342,123112,1,0,0:0:0:0:
130,187,123252,1,0,0:0:0:0:
130,187,123322,1,0,0:0:0:0:
130,187,123392,6,0,P|57:190|31:261,1,143.999995605469,4|0,3:0|0:0,0:0:0:0:
202,229,123813,1,0,0:0:0:0:
145,78,123953,2,0,P|101:67|63:53,1,71.9999978027344,2|0,1:3|0:0,0:0:0:0:
253,173,124233,2,0,P|270:123|276:73,1,71.9999978027344,8|0,3:0|0:0,0:0:0:0:
105,213,124513,6,0,B|114:302|94:277|99:370,2,143.999995605469,0|0|2,0:0|0:0|1:3,0:0:0:0:
301,335,125355,2,0,P|345:345|399:361,1,71.9999978027344,0|0,0:0|0:0,0:0:0:0:
473,228,125635,6,0,P|487:277|501:313,1,71.9999978027344,4|0,3:0|0:0,0:0:0:0:
388,206,125915,1,0,0:0:0:0:
494,75,126056,2,0,P|424:93|328:113,1,143.999995605469,8|0,3:0|0:0,0:0:0:0:
221,199,126476,2,0,B|217:161|217:161|226:112,1,71.9999978027344,4|0,3:0|0:0,0:0:0:0:
378,238,126756,6,0,P|326:253|278:272,1,71.9999978027344,0|0,0:0|0:0,0:0:0:0:
175,350,127037,2,0,B|98:338|111:379|7:357,1,143.999995605469,4|2,3:0|1:3,0:0:0:0:
177,188,127457,2,0,P|185:233|195:282,1,71.9999978027344,4|0,3:0|0:0,0:0:0:0:
41,183,127738,1,0,0:0:0:0:
41,183,127808,1,0,0:0:0:0:
41,183,127878,6,0,B|40:112|40:112|65:23,1,143.999995605469,4|2,3:0|0:1,0:0:0:0:
128,9,128299,1,0,0:0:0:0:
229,90,128439,2,0,L|321:108,1,71.9999978027344,2|0,1:3|0:0,0:0:0:0:
433,195,128719,1,4,3:0:0:0:
309,119,128859,2,0,L|319:163,2,35.9999989013672,2|2|2,0:0|0:0|0:1,0:0:0:0:
452,354,129560,6,0,B|388:400|285:355|296:243,1,215.999993408203,0|0,0:0|0:0,0:0:0:0:
206,209,130121,6,0,P|142:228|55:259,1,143.999995605469,4|2,3:0|0:1,0:0:0:0:
150,344,130542,1,0,0:0:0:0:
55,260,130682,1,2,1:3:0:0:
0,359,130822,1,0,0:0:0:0:
152,147,130962,2,0,P|162:203|173:245,1,71.9999978027344,8|2,3:0|0:0,0:0:0:0:
30,140,131242,1,2,0:1:0:0:
300,20,131803,6,0,P|342:28|389:35,1,71.9999978027344,0|0,0:0|0:0,0:0:0:0:
485,114,132084,2,0,B|492:79|492:79|485:31,1,71.9999978027344,0|0,3:0|0:0,0:0:0:0:
312,130,132364,6,0,P|323:188|378:210,1,107.999996704102,4|2,3:0|0:0,0:0:0:0:
363,210,132644,2,0,P|372:266|385:305,1,71.9999978027344,2|0,0:1|0:0,0:0:0:0:
224,384,132925,2,0,P|237:304|253:218,1,143.999995605469,2|8,1:3|3:0,0:0:0:0:
201,183,133345,1,2,0:0:0:0:
290,5,133485,6,0,P|343:17|381:23,1,71.9999978027344,2|0,0:1|0:0,0:0:0:0:
327,168,133766,2,0,P|314:135|303:101,1,71.9999978027344,0|0,0:0|0:0,0:0:0:0:
161,20,134046,2,0,P|100:28|66:106,1,143.999995605469,2|0,1:3|0:0,0:0:0:0:
160,220,134467,1,0,0:0:0:0:
37,309,134607,6,0,P|50:256|56:213,1,71.9999978027344,4|2,3:0|0:0,0:0:0:0:
138,315,134887,1,2,0:1:0:0:
269,217,135028,2,0,P|327:208|445:203,1,143.999995605469,4|0,3:0|0:0,0:0:0:0:
478,358,135448,2,0,L|497:280,1,71.9999978027344,4|0,3:0|0:0,0:0:0:0:
495,288,135658,1,0,0:0:0:0:
495,288,135728,1,2,0:1:0:0:
314,98,136009,6,0,B|303:137|303:137|301:189,1,71.9999978027344,4|0,3:0|0:0,0:0:0:0:
332,238,136289,1,2,1:3:0:0:
433,131,136429,2,0,P|469:126|513:113,1,71.9999978027344,4|0,3:0|0:0,0:0:0:0:
443,212,136710,1,0,0:0:0:0:
512,109,136850,6,0,B|472:97|472:97|436:73|436:73|386:59,1,128,8|0,3:0|3:0,0:0:0:0:
160,257,137691,2,0,B|118:268|118:268|82:292|82:292|42:304,1,128,2|0,0:0|0:0,0:0:0:0:
36,295,139093,6,0,P|95:303|104:369,1,128,2|0,0:0|3:0,0:0:0:0:
346,144,139934,6,0,P|294:140|248:251,1,176.000005371094,2|0,0:0|3:0,0:0:0:0:
313,284,140775,2,0,B|299:311|318:338|307:366,1,83.9999974365235,0|0,0:0|0:0,0:0:0:0:
391,342,141336,6,0,B|433:333|433:333|514:366,1,128,2|2,0:0|0:0,0:0:0:0:
225,252,142177,2,0,B|183:243|183:243|102:276,1,128,2|2,0:0|0:0,0:0:0:0:
98,288,143299,1,2,0:0:0:0:
310,180,143579,6,0,B|333:124|298:116|325:47,1,128,2|0,0:0|0:0,0:0:0:0:
254,0,144420,6,0,P|219:16|211:78,1,95.9999970703126,2|0,0:0|0:0,0:0:0:0:
401,213,144981,6,0,P|453:222|459:320,1,150.000005722046,0|0,3:0|0:0,0:0:0:0:
370,373,145401,6,0,B|360:338|360:338|380:274|380:274|371:202,1,170.000003242493,0|0,3:0|0:0,0:0:0:0:
299,166,145822,6,0,P|229:185|219:256,1,151.999995941162,4|0,0:1|0:0,0:0:0:0:
356,370,146242,1,0,0:0:0:0:
224,250,146383,2,0,B|134:232|163:264|49:251,2,151.999995941162,12|8|0,1:2|3:0|3:0,0:0:0:0:
285,195,147084,1,0,3:0:0:0:
471,281,147224,2,0,P|462:246|441:211,1,75.9999979705811,0|0,0:0|0:0,0:0:0:0:
413,35,147504,2,0,B|366:85|365:186|365:186,2,151.999995941162,12|0|4,1:2|1:0|0:1,0:0:0:0:
422,47,148345,5,0,0:0:0:0:
274,173,148485,2,0,B|219:200|171:155|114:186,1,151.999995941162,0|0,0:0|0:0,0:0:0:0:
28,283,148906,2,0,B|11:285|11:285|4:243|4:243|40:237,1,75.9999979705811,4|0,3:0|0:0,0:0:0:0:
150,359,149116,5,0,0:0:0:0:
162,362,149186,2,0,B|225:379|225:379|250:286|250:286|186:267,1,227.999993911743,0|0,3:0|0:0,0:0:0:0:
44,376,149747,5,12,1:2:0:0:
343,230,150028,1,2,3:0:0:0:
139,12,150308,6,0,B|105:89|158:87|134:161,1,151.999995941162,8|0,3:0|0:0,0:0:0:0:
186,214,150728,1,0,0:0:0:0:
232,140,150869,2,0,P|272:126|309:106,1,75.9999979705811,12|0,1:2|0:0,0:0:0:0:
74,209,151149,2,0,P|54:239|34:277,1,75.9999979705811,4|0,3:0|0:0,0:0:0:0:
48,380,151429,5,0,3:0:0:0:
50,372,151570,1,0,3:0:0:0:
53,365,151710,1,0,3:0:0:0:
47,357,151990,5,12,1:2:0:0:
291,275,152270,1,2,1:0:0:0:
437,336,152481,5,0,0:0:0:0:
461,351,152551,2,0,B|502:323|502:323|469:212,1,151.999995941162,4|0,3:0|0:0,0:0:0:0:
255,83,152971,2,0,P|236:115|222:154,1,75.9999979705811,4|12,3:0|1:2,0:0:0:0:
453,146,153252,5,0,0:0:0:0:
512,96,153392,2,0,P|499:60|479:27,1,75.9999979705811,4|0,3:0|0:0,0:0:0:0:
137,241,153813,5,0,0:0:0:0:
3,311,153953,2,0,P|20:244|68:167,1,151.999995941162,4|0,3:0|0:0,0:0:0:0:
316,313,154373,2,0,B|398:327|390:346|472:364,1,151.999995941162,4|0,3:0|0:0,0:0:0:0:
470,376,154794,6,0,L|435:229,1,128,2|0,0:0|0:0,0:0:0:0:
278,163,155635,2,0,P|302:80|312:32,2,128,2|0|0,0:0|0:0|0:0,0:0:0:0:
503,180,157037,6,0,B|461:163|423:181|366:165,1,128,0|0,0:0|0:0,0:0:0:0:
509,170,157878,2,0,L|475:182,1,32,2|0,0:0|0:0,0:0:0:0:
241,316,158158,5,2,0:0:0:0:
175,266,158299,1,2,0:0:0:0:
332,256,158439,5,2,0:0:0:0:
96,327,158579,1,2,0:0:0:0:
219,289,158719,5,2,0:0:0:0:
215,301,158999,1,2,0:0:0:0:
103,52,168252,6,0,B|38:84|38:84|67:179,1,160,2|0,3:2|0:0,0:0:0:0:
144,247,169093,2,0,L|190:266,2,40,2|0|0,3:2|0:0|0:0,0:0:0:0:
8,338,169654,1,0,0:0:0:0:
142,232,169934,2,0,B|204:198|260:257|320:231,1,160,2|2,0:0|3:2,0:0:0:0:
315,224,170775,2,0,P|293:227|268:237,1,40,0|0,0:0|0:0,0:0:0:0:
356,312,171056,6,0,P|380:317|405:329,2,40,0|0|2,0:0|0:0|0:0,0:0:0:0:
512,359,171616,6,0,L|501:236,1,120
253,145,172177,6,0,L|270:66,1,80,0|2,0:0|0:0,0:0:0:0:
347,229,173018,6,0,L|337:179,1,40
253,145,173299,2,0,P|210:153|167:173,1,80,0|2,0:0|0:0,0:0:0:0:
9,11,173859,6,0,P|22:43|31:90,2,80,0|0|0,0:0|0:0|0:0,0:0:0:0:
338,365,174981,6,0,P|397:364|427:276,1,160,2|0,0:0|0:0,0:0:0:0:
129,294,175752,5,0,0:0:0:0:
145,307,175822,2,0,P|48:329|56:174,1,287.999991210938,2|0,0:0|0:0,0:0:0:0:
355,0,176523,5,0,0:0:0:0:
359,14,176593,1,0,0:0:0:0:
360,34,176663,1,8,1:2:0:0:
313,102,176803,5,0,0:0:0:0:
213,128,176943,5,0,0:0:0:0:
99,65,177084,5,0,0:0:0:0:
366,265,177224,2,0,B|381:271|381:271|414:260|414:260|454:206|413:146,1,160,4|2,3:0|0:0,0:0:0:0:
215,251,177644,1,0,0:0:0:0:
291,309,177785,2,0,P|306:342|316:388,1,80,8|0,1:2|0:0,0:0:0:0:
32,220,178065,6,0,B|112:201|105:175|188:150,1,160,6|2,3:0|0:3,0:0:0:0:
256,166,178485,1,0,0:0:0:0:
21,236,178626,2,0,B|-21:193|-21:193|50:89,2,160,2|8|0,0:0|1:2|0:0,0:0:0:0:
480,82,179467,6,0,P|436:49|329:24,1,160,4|0,3:0|0:0,0:0:0:0:
271,75,179887,1,0,0:0:0:0:
429,198,180028,6,0,P|415:211|398:223,1,40,8|0,1:2|0:0,0:0:0:0:
334,274,180168,2,0,P|315:268|296:259,1,40,0|0,0:0|0:0,0:0:0:0:
225,190,180308,6,0,P|209:226|204:274,1,80,8|0,3:0|0:0,0:0:0:0:
484,302,180588,2,0,P|508:243|511:140,1,160,2|2,0:1|0:1,0:0:0:0:
460,90,181009,2,0,L|421:70,1,40,2|0,0:1|0:0,0:0:0:0:
434,90,181149,2,0,L|398:108,1,40,8|0,1:2|0:0,0:0:0:0:
323,146,181289,6,0,P|298:139|276:130,1,46.0000008773804,0|0,0:0|0:0,0:0:0:0:
165,237,181429,6,0,P|137:209|114:135,1,103.999995239258,2|0,0:1|0:0,0:0:0:0:
362,296,181710,6,0,P|285:320|211:383,1,176.000005371094,4|2,3:0|0:0,0:0:0:0:
134,331,182130,1,0,0:0:0:0:
468,206,182270,2,0,B|488:295|424:270|449:376,1,176.000005371094,8|4,1:2|3:0,0:0:0:0:
434,75,182691,5,2,0:0:0:0:
296,147,182831,2,0,L|385:170,1,80,2|0,0:0|0:0,0:0:0:0:
222,32,183112,2,0,P|179:46|137:58,1,80,2|0,0:0|0:0,0:0:0:0:
16,310,183392,6,0,L|25:286,1,24,8|0,1:2|0:0,0:0:0:0:
23,210,183953,6,0,P|78:214|128:318,1,176.000005371094,4|0,3:0|0:0,0:0:0:0:
194,179,184373,5,8,3:0:0:0:
271,340,184513,5,8,0:0:0:0:
338,372,184654,1,0,0:0:0:0:
412,363,184794,1,4,3:0:0:0:
464,303,184934,1,0,0:0:0:0:
277,244,185074,5,0,0:0:0:0:
259,253,185214,1,0,0:0:0:0:
345,162,185355,5,4,3:0:0:0:
456,202,185495,1,0,0:0:0:0:
449,41,185635,5,8,1:2:0:0:
262,144,185775,1,4,3:0:0:0:
133,36,185915,2,0,B|98:19|55:41|7:25,1,116.000003540039,0|0,0:0|0:0,0:0:0:0:
239,49,186126,5,0,0:0:0:0:
256,40,186196,2,0,B|357:32|335:63|448:56,1,176.000005371094,4|2,3:0|0:0,0:0:0:0:
108,332,186756,2,0,P|61:325|68:213,1,176.000005371094,8|10,1:2|3:0,0:0:0:0:
128,243,187177,1,2,0:0:0:0:
268,121,187317,2,0,P|228:139|181:147,1,88.000002685547,2|0,0:0|0:0,0:0:0:0:
392,206,187598,2,0,B|413:249|413:249|440:284,1,88.000002685547,2|0,0:0|0:0,0:0:0:0:
237,384,187878,6,0,B|236:317|293:293|298:203,1,176.000005371094,10|0,1:2|0:0,0:0:0:0:
287,215,188439,6,0,P|207:201|181:278,1,176.000005371094,4|0,3:0|0:0,0:0:0:0:
256,302,188859,1,0,0:0:0:0:
53,380,188999,6,0,P|63:338|88:297,1,88.000002685547,8|0,1:2|0:0,0:0:0:0:
23,145,189280,5,4,3:0:0:0:
0,232,189420,2,0,L|85:210,2,88.000002685547,0|2|2,0:0|0:1|0:1,0:0:0:0:
133,140,189841,5,2,0:1:0:0:
169,164,189981,1,2,0:1:0:0:
237,127,190121,5,8,1:2:0:0:
307,216,190261,5,0,0:0:0:0:
408,78,190401,5,2,0:1:0:0:
478,290,190542,6,0,P|487:266|491:240,1,44.0000013427735,0|0,0:0|0:0,0:0:0:0:
425,193,190682,6,0,P|376:196|341:310,1,176.000005371094,4|2,3:0|0:0,0:0:0:0:
114,16,191242,2,0,P|163:19|198:133,1,176.000005371094,8|10,1:2|3:0,0:0:0:0:
271,167,191663,1,2,0:0:0:0:
166,200,191803,2,0,B|89:207|77:240|-7:255,2,176.000005371094,2|2|8,0:3|0:0|1:2,0:0:0:0:
166,200,192644,1,0,0:0:0:0:
461,384,192925,6,0,B|517:357|517:357|475:246,1,176.000005371094,4|0,3:0|0:0,0:0:0:0:
402,244,193345,1,0,0:0:0:0:
430,71,193485,2,0,P|459:94|481:144,1,88.000002685547,8|0,1:2|0:0,0:0:0:0:
280,242,193766,5,4,3:0:0:0:
191,105,193906,1,0,0:0:0:0:
357,43,194046,2,0,P|339:83|306:111,1,88.000002685547,0|0,0:0|0:0,0:0:0:0:
136,247,194327,5,4,3:0:0:0:
136,247,194467,1,0,0:0:0:0:
312,341,194607,5,8,1:2:0:0:
312,341,194747,1,0,0:0:0:0:
135,337,194887,5,0,0:0:0:0:
316,239,195028,1,0,0:0:0:0:
80,64,195168,6,0,P|62:130|49:225,1,160,6|0,0:0|0:0,0:0:0:0:
18,298,196289,2,0,L|-6:308,2,20
470,364,196850,6,0,P|467:312|367:283,1,160,10|0,0:0|0:0,0:0:0:0:
305,239,197971,6,0,P|313:191|397:166,1,140,10|0,0:0|0:0,0:0:0:0:
409,175,198532,1,2,0:2:0:0:
253,348,198813,6,0,P|180:343|157:266,1,160,10|0,0:0|0:0,0:0:0:0:
218,0,199654,6,0,B|234:44|234:44|225:108|225:108|251:166,1,160,10|0,0:3|0:0,0:0:0:0:
142,59,200775,2,0,L|118:50,2,20
499,70,201336,6,0,B|442:84|442:84|419:119|419:119|349:139,1,160,10|0,0:0|0:0,0:0:0:0:
248,322,202457,6,0,B|208:309|208:309|168:273|168:273|115:258,1,140,10|0,0:0|0:0,0:0:0:0:
110,271,203018,1,2,0:2:0:0:
311,384,203299,6,0,B|368:367|368:367|391:332|391:332|448:318,1,160,10|0,3:0|0:0,0:0:0:0:
461,327,204140,6,0,L|423:168,1,160,6|0,0:3|0:0,0:0:0:0:
170,35,205261,2,0,L|178:0,2,20,2|2|2,0:1|0:1|0:1,0:0:0:0:
248,89,205822,6,0,P|179:116|88:131,1,160,10|0,3:0|0:0,0:0:0:0:
333,229,206943,6,0,P|419:244|481:268,1,140,10|0,3:0|0:0,0:0:0:0:
481,279,207504,1,2,0:1:0:0:
50,369,207785,6,0,P|40:341|25:203,1,160,10|0,3:0|0:0,0:0:0:0:
38,137,208626,6,0,L|68:150,1,32,6|0,3:0|0:0,0:0:0:0:
119,206,209747,2,0,L|127:240,2,23.9999992675781,2|2|2,0:1|0:1|0:1,0:0:0:0:
314,11,210308,6,0,L|345:-1,1,32,10|0,0:0|0:0,0:0:0:0:
437,181,211429,6,0,L|463:192,1,28,10|0,3:0|0:0,0:0:0:0:
498,261,211990,2,0,L|496:264,2,4,2|0|0,0:1|0:0|0:0,0:0:0:0:
