osu file format v14

[General]
AudioFilename: audio.mp3
AudioLeadIn: 0
PreviewTime: 159210
Countdown: 0
SampleSet: Soft
StackLeniency: 0.7
Mode: 0
LetterboxInBreaks: 0
WidescreenStoryboard: 1

[Editor]
Bookmarks: 6898,8020,27366,36057,42506,45029,60730,65216,83160,92132,101104,105590,119048,123534,136992,145964,154936,159422,168394,177366,179609,195310,212132
DistanceSpacing: 1.1
BeatDivisor: 8
GridSize: 16
TimelineZoom: 2.4

[Metadata]
Title:ringtone (remix) [feat. Charli XCX, Rico Nasty, Kero Kero Bonito]
TitleUnicode:ringtone (remix) [feat. Charli XCX, Rico Nasty, Kero Kero Bonito]
Artist:100 gecs
ArtistUnicode:100 gecs
Creator:Haruto
Version:smh's hard
Source:
Tags:1000 gecs dylan brady laura les osno1 future pop english electronic haruto_aizawa ancelysia smh tomadoi agatsu shiinoha kotone
BeatmapID:2342508
BeatmapSetID:1117775

[Difficulty]
HPDrainRate:5
CircleSize:3.8
OverallDifficulty:6
ApproachRate:8
SliderMultiplier:1.8
SliderTickRate:1

[Events]
//Background and Video events
0,0,"luca_special.jpg",0,0
//Break Periods
2,137050,145072
2,154993,158300
//Storyboard Layer 0 (Background)
//Storyboard Layer 1 (Fail)
//Storyboard Layer 2 (Pass)
//Storyboard Layer 3 (Foreground)
//Storyboard Layer 4 (Overlay)
//Storyboard Sound Samples

[TimingPoints]
28,560.747663551402,4,2,1,40,1,0
588,-100,4,2,1,40,0,0
869,-100,4,2,1,40,0,0
1429,-100,4,2,1,40,0,0
2270,-100,4,2,1,40,0,0
2830,-100,4,2,1,40,0,0
3112,-100,4,2,1,40,0,0
3672,-100,4,2,1,40,0,0
4513,-100,4,2,1,40,0,0
5073,-100,4,2,1,40,0,0
5355,-100,4,2,1,40,0,0
5915,-100,4,2,1,50,0,0
6756,-100,4,2,1,50,0,0
7316,-100,4,2,1,50,0,0
7598,-100,4,2,1,70,0,0
11428,-100,4,2,1,70,0,0
11523,-100,4,2,1,70,0,0
13671,-100,4,2,1,50,0,0
13766,-100,4,2,1,70,0,0
20400,-100,4,2,1,50,0,0
20495,-100,4,2,1,70,0,0
24420,-100,4,2,1,70,0,0
24700,-100,4,2,1,70,0,0
28345,-100,4,2,1,50,0,0
28626,-100,4,2,1,50,0,0
29746,-100,4,2,1,50,0,0
30028,-100,4,2,1,50,0,0
30588,-100,4,2,1,50,0,0
30869,-100,4,2,1,50,0,0
31289,-100,4,2,1,50,0,0
31429,-100,4,2,1,50,0,0
32830,-100,4,2,1,50,0,0
33112,-100,4,2,1,50,0,0
33392,-100,4,2,1,50,0,0
33672,-100,4,2,1,50,0,0
33952,-100,4,2,1,50,0,0
34093,-100,4,2,1,50,0,0
34654,-100,4,2,1,50,0,0
34934,-100,4,2,1,50,0,0
35074,-100,4,2,1,50,0,0
35355,-100,4,2,1,50,0,0
35495,-100,4,2,1,50,0,0
35635,-100,4,2,1,50,0,0
35915,-100,4,2,1,70,0,0
36662,-100,4,2,1,40,0,0
36756,-100,4,2,1,70,0,0
40587,-100,4,2,1,40,0,0
40682,-100,4,2,1,70,0,0
41428,-100,4,2,1,40,0,0
41523,-100,4,2,1,70,0,0
42224,-100,4,2,1,40,0,0
42364,-100,4,2,1,70,0,0
45027,-100,4,2,1,60,0,0
45167,-100,4,2,1,60,0,0
45868,-100,4,2,1,60,0,0
46008,-100,4,2,1,60,0,0
49559,-100,4,2,1,40,0,0
49654,-100,4,2,1,60,0,0
51802,-100,4,2,1,40,0,0
51897,-100,4,2,1,60,0,0
55121,-100,4,2,1,60,0,0
55261,-100,4,2,1,60,0,0
55401,-100,4,2,1,60,0,0
55542,-100,4,2,1,60,0,0
55822,-100,4,2,1,60,0,0
56102,-100,4,2,1,60,0,0
56288,-100,4,2,1,40,0,0
56383,-100,4,2,1,60,0,0
63391,-100,4,2,1,40,0,0
63672,-100,4,2,1,40,0,0
64232,-100,4,2,1,40,0,0
64794,-100,4,2,1,60,0,0
65260,-100,4,2,1,60,0,0
65355,-100,4,2,1,70,0,0
67503,-100,4,2,1,50,0,0
67598,-100,4,2,1,70,0,0
72550,-100,4,2,1,50,0,0
72644,-100,4,2,1,70,0,0
76756,-100,4,2,1,50,0,0
76850,-100,4,2,1,70,0,0
82738,-100,4,2,1,50,0,0
83018,-100,4,2,1,50,0,0
83578,-100,4,2,1,50,0,0
91990,-100,4,2,1,70,0,0
92130,-100,4,2,1,50,0,0
92270,-100,4,2,1,70,0,0
93252,-100,4,2,1,50,0,0
93392,-100,4,2,1,70,0,0
93532,-100,4,2,1,50,0,0
93672,-100,4,2,1,70,0,0
94092,-100,4,2,1,50,0,0
94233,-100,4,2,1,70,0,0
94794,-100,4,2,1,70,0,0
95074,-100,4,2,1,70,0,0
95495,-100,4,2,1,50,0,0
95635,-100,4,2,1,70,0,0
96896,-100,4,2,1,70,0,0
97037,-100,4,2,1,70,0,0
97738,-100,4,2,1,50,0,0
97878,-100,4,2,1,70,0,0
98298,-100,4,2,1,50,0,0
98439,-100,4,2,1,70,0,0
98859,-100,4,2,1,50,0,0
98999,-100,4,2,1,70,0,0
100681,-100,4,2,1,50,0,0
100962,-100,4,2,1,70,0,0
106149,-100,4,2,1,50,0,0
106289,-100,4,2,1,70,0,0
108672,-100,4,2,1,70,0,0
108813,-100,4,2,1,70,0,0
110074,-100,4,2,1,50,0,0
110214,-100,4,2,1,70,0,0
110355,-100,4,2,1,70,0,0
110915,-100,4,2,1,70,0,0
111336,-100,4,2,1,70,0,0
111896,-100,4,2,1,70,0,0
112177,-100,4,2,1,70,0,0
112457,-100,4,2,1,70,0,0
112598,-100,4,2,1,70,0,0
114560,-100,4,2,1,50,0,0
114700,-100,4,2,1,70,0,0
114840,-100,4,2,1,70,0,0
115542,-100,4,2,1,70,0,0
116102,-100,4,2,1,70,0,0
116382,-100,4,2,1,70,0,0
116663,-100,4,2,1,70,0,0
116803,-100,4,2,1,50,0,0
116943,-100,4,2,1,70,0,0
117785,-100,4,2,1,70,0,0
117925,-100,4,2,1,50,0,0
118065,-100,4,2,1,70,0,0
118205,-100,4,2,1,50,0,0
118345,-100,4,2,1,70,0,0
118625,-100,4,2,1,70,0,0
118906,-100,4,2,1,50,0,0
119466,-100,4,2,1,50,0,0
119747,-100,4,2,1,50,0,0
120307,-100,4,2,1,50,0,0
120588,-100,4,2,1,50,0,0
120868,-100,4,2,1,50,0,0
121149,-100,4,2,1,50,0,0
121569,-100,4,2,1,50,0,0
121990,-100,4,2,1,50,0,0
122270,-100,4,2,1,50,0,0
122690,-100,4,2,1,50,0,0
123112,-100,4,2,1,50,0,0
123392,-100,4,2,1,70,0,0
124093,-100,4,2,1,40,0,0
124233,-100,4,2,1,70,0,0
126896,-100,4,2,1,40,0,0
127037,-100,4,2,1,70,0,0
127598,-100,4,2,1,50,0,0
127878,-100,4,2,1,70,0,0
129419,-100,4,2,1,50,0,0
130121,-100,4,2,1,70,0,0
130541,-100,4,2,1,70,0,0
130682,-100,4,2,1,70,0,0
131523,-100,4,2,1,50,0,0
132084,-100,4,2,1,70,0,0
132224,-100,4,2,1,70,0,0
132364,-100,4,2,1,70,0,0
132830,-100,4,2,1,50,0,0
132925,-100,4,2,1,70,0,0
133625,-100,4,2,1,70,0,0
133766,-100,4,2,1,70,0,0
134466,-100,4,2,1,70,0,0
134607,-100,4,2,1,70,0,0
135868,-100,4,2,1,50,0,0
136009,-100,4,2,1,70,0,0
136149,-100,4,2,1,70,0,0
136289,-100,4,2,1,70,0,0
146242,-100,4,2,1,70,0,0
146383,-100,4,2,1,70,0,0
146523,-100,4,2,1,50,0,0
146663,-100,4,2,1,70,0,0
146943,-100,4,2,1,70,0,0
147223,-100,4,2,1,70,0,0
147364,-100,4,2,1,70,0,0
147504,-100,4,2,1,70,0,0
148485,-100,4,2,1,70,0,0
148626,-100,4,2,1,70,0,0
148766,-100,4,2,1,70,0,0
148906,-100,4,2,1,70,0,0
149186,-100,4,2,1,70,0,0
149372,-100,4,2,1,50,0,0
149467,-100,4,2,1,70,0,0
150448,-100,4,2,1,50,0,0
150588,-100,4,2,1,70,0,0
150728,-100,4,2,1,70,0,0
151289,-100,4,2,1,70,0,0
151710,-100,4,2,1,70,0,0
151850,-100,4,2,1,50,0,0
151990,-100,4,2,1,70,0,0
153672,-100,4,2,1,60,0,0
159280,-100,4,2,1,40,0,0
164186,-100,4,2,1,30,0,0
164327,-100,4,2,1,40,0,0
164607,-100,4,2,1,50,0,0
164887,-100,4,2,1,30,0,0
166009,-100,4,2,1,50,0,0
166429,-100,4,2,1,30,0,0
166570,-100,4,2,1,50,0,0
166850,-100,4,2,1,50,0,0
167130,-100,4,2,1,30,0,0
168252,-100,4,2,1,50,0,0
168812,-100,4,2,1,30,0,0
169093,-100,4,2,1,50,0,0
169513,-100,4,2,1,30,0,0
169654,-100,4,2,1,50,0,0
169934,-100,4,2,1,50,0,0
170214,-100,4,2,1,30,0,0
170495,-100,4,2,1,50,0,0
170915,-100,4,2,1,30,0,0
171056,-100,4,2,1,50,0,0
171336,-100,4,2,1,50,0,0
171616,-100,4,2,1,30,0,0
172738,-100,4,2,1,50,0,0
173298,-100,4,2,1,30,0,0
173439,-100,4,2,1,30,0,0
173579,-100,4,2,1,50,0,0
174420,-100,4,2,1,50,0,0
174981,-100,4,2,1,50,0,0
175541,-100,4,2,1,30,0,0
175822,-100,4,2,1,50,0,0
176382,-100,4,2,1,30,0,0
176663,-100,4,2,1,50,0,0
176803,-100,4,2,1,30,0,0
177224,-100,4,2,1,50,0,0
177410,-100,4,2,1,30,0,0
177504,-100,4,2,1,70,0,0
179326,-100,4,2,1,70,0,0
179467,-100,4,2,1,70,0,0
182176,-100,4,2,1,50,0,0
182270,-100,4,2,1,70,0,0
188298,-100,4,2,1,70,0,0
188439,-100,4,2,1,70,0,0
192784,-100,4,2,1,70,0,0
192925,-100,4,2,1,70,0,0
195168,-100,4,3,2,80,0,0
195238,-100,4,3,2,20,0,0
195728,-100,4,3,2,40,0,0
196289,-100,4,3,2,80,0,0
196359,-100,4,3,2,20,0,0
196850,-100,4,3,2,80,0,0
196920,-100,4,3,2,20,0,0
197411,-100,4,2,2,50,0,0
197691,-100,4,3,2,80,0,0
197971,-100,4,3,2,80,0,0
198041,-100,4,3,2,20,0,0
198532,-100,4,3,2,80,0,0
198602,-100,4,3,2,30,0,0
198813,-100,4,3,2,80,0,0
199724,-100,4,3,2,20,0,0
200214,-100,4,3,2,40,0,0
200775,-100,4,3,2,80,0,0
200845,-100,4,3,2,20,0,0
201336,-100,4,3,2,80,0,0
201406,-100,4,3,2,20,0,0
201897,-100,4,2,2,50,0,0
202177,-100,4,2,2,60,0,0
202457,-100,4,3,2,80,0,0
202527,-100,4,3,2,20,0,0
203018,-100,4,3,2,80,0,0
203088,-100,4,3,2,30,0,0
203299,-100,4,3,2,80,0,0
204210,-100,4,3,2,20,0,0
204700,-100,4,3,2,50,0,0
205261,-100,4,3,2,80,0,0
205331,-100,4,3,2,40,0,0
205822,-100,4,3,2,80,0,0
206383,-100,4,2,2,50,0,0
206663,-100,4,3,2,80,0,0
206943,-100,4,3,2,80,0,0
207013,-100,4,3,2,80,0,0
207504,-100,4,3,2,80,0,0
207574,-100,4,3,2,40,0,0
207785,-100,4,3,2,80,0,0
208696,-100,4,3,2,20,0,0
209186,-100,4,3,2,50,0,0
209747,-100,4,3,2,80,0,0
209817,-100,4,3,2,20,0,0
210308,-100,4,3,2,80,0,0
210378,-100,4,3,2,20,0,0
210869,-100,4,2,2,50,0,0
211149,-100,4,3,2,60,0,0
211429,-100,4,3,2,80,0,0
211499,-100,4,3,2,20,0,0
211990,-100,4,3,2,80,0,0
212060,-100,4,3,2,20,0,0

[Colours]
Combo1 : 132,137,124
Combo2 : 220,211,109
Combo3 : 185,185,185
Combo4 : 236,186,119

[HitObjects]
176,336,28,6,0,B|252:328|252:328|280:312|280:312|352:304,1,180,2|0,0:0|0:0,0:0:0:0:
431,173,869,2,0,B|415:205|415:205|439:305|439:305|427:385,1,180,2|0,0:0|0:0,0:0:0:0:
36,48,2270,6,0,B|140:25|99:101|204:82,1,180,2|0,0:0|0:0,0:0:0:0:
336,3,3112,2,0,P|296:35|324:183,1,180,2|0,0:0|0:0,0:0:0:0:
504,312,4513,6,0,B|462:285|415:303|415:303|408:348|352:352,1,180,2|0,0:0|0:0,0:0:0:0:
220,256,5355,2,0,B|208:300|208:300|348:272,1,180,2|0,0:0|0:0,0:0:0:0:
302,197,6756,6,0,B|257:100|342:121|300:25,1,180,2|0,0:0|0:0,0:0:0:0:
414,141,7598,1,2,0:0:0:0:
414,141,7878,2,0,P|435:134|457:132,2,45,0|0|0,3:0|3:0|3:0,0:0:0:0:
411,294,8439,2,0,B|382:290|382:290|384:283|384:283|382:290|382:290|299:276,1,90,0|2,3:0|0:3,0:0:0:0:
188,321,8999,6,0,P|183:292|187:271,1,45,4|0,3:0|0:0,0:0:0:0:
125,228,9280,2,0,P|158:202|206:201,1,90,2|8,0:2|1:2,0:0:0:0:
277,228,9700,1,0,0:0:0:0:
347,258,9841,2,0,P|383:283|409:279,1,45,8|0,3:0|0:0,0:0:0:0:
433,225,10121,2,0,B|403:131|483:151|438:51,1,180,2|8,0:0|0:0,0:0:0:0:
132,44,11242,6,0,L|141:123,1,60,4|0,3:0|0:0,0:0:0:0:
163,149,11523,2,0,P|181:119|204:100,1,45
238,54,11803,2,0,L|364:61,1,90,8|2,1:2|3:0,0:0:0:0:
402,34,12224,1,0,0:0:0:0:
402,34,12364,2,0,B|394:110|394:110|399:138|399:138|394:215,1,180,2|0,0:0|0:0,0:0:0:0:
371,363,13205,1,4,1:2:0:0:
245,276,13485,6,0,P|188:297|179:315,1,60,4|0,3:0|0:0,0:0:0:0:
216,338,13766,2,0,L|125:321,1,90,0|8,0:0|1:2,0:0:0:0:
80,261,14186,1,0,0:0:0:0:
148,225,14327,2,0,P|175:209|212:211,1,45,10|2,3:0|0:0,0:0:0:0:
261,231,14607,2,0,P|265:194|215:138,2,90,2|0|8,0:0|0:0|1:2,0:0:0:0:
324,91,15448,1,0,0:0:0:0:
470,135,15728,6,0,P|436:140|409:157,1,45,10|0,3:0|0:0,0:0:0:0:
352,166,16009,1,0,0:0:0:0:
485,239,16289,2,0,L|379:227,1,90,8|4,1:2|3:0,0:0:0:0:
252,282,16850,2,0,P|300:286|315:293,1,45,2|0,0:0|0:0,0:0:0:0:
358,337,17130,1,2,0:0:0:0:
432,355,17270,1,0,0:0:0:0:
481,296,17411,2,0,L|471:195,1,90,8|2,1:2|0:0,0:0:0:0:
440,137,17831,1,2,0:0:0:0:
383,83,17971,6,2,B|352:82|352:82|337:89|337:89|319:87|319:87|294:100,1,90,2|0,3:1|0:0,0:0:0:0:
228,131,18392,1,0,0:0:0:0:
158,98,18532,2,0,P|154:144|177:191,1,90,8|10,1:2|3:0,0:0:0:0:
54,283,19093,2,0,P|103:272|108:272,1,45
136,337,19373,2,0,P|185:348|190:348,1,45
228,288,19654,1,8,1:2:0:0:
297,318,19794,1,0,0:0:0:0:
418,152,20214,6,0,P|365:159|341:172,1,60,6|0,3:0|0:0,0:0:0:0:
324,199,20495,2,0,L|420:219,1,90,0|8,0:0|1:2,0:0:0:0:
484,240,20915,1,0,0:0:0:0:
440,304,21056,2,0,P|388:316|357:339,1,90,10|2,3:0|0:0,0:0:0:0:
297,285,21476,2,0,P|270:287|239:276,1,45,2|2,0:0|0:0,0:0:0:0:
184,248,21756,1,2,0:0:0:0:
107,236,21897,2,0,B|88:153|131:185|107:102,1,135,10|0,1:2|0:0,0:0:0:0:
68,38,22457,5,6,3:0:0:0:
193,126,22738,2,0,P|229:134|246:146,1,45,2|0,0:0|0:0,0:0:0:0:
257,211,23018,2,0,P|277:220|299:220,1,45,8|0,1:2|0:0,0:0:0:0:
359,170,23299,1,10,3:0:0:0:
427,135,23439,1,0,0:0:0:0:
464,201,23579,2,0,P|454:246|456:271,1,45,2|0,0:0|0:0,0:0:0:0:
468,319,23859,1,2,0:0:0:0:
316,304,24140,2,0,B|325:316|325:316|240:306,1,90,8|0,1:2|0:0,0:0:0:0:
108,251,24700,6,0,L|169:245,1,45,4|0,3:0|0:0,0:0:0:0:
229,236,24981,1,4,3:0:0:0:
304,103,25261,2,0,L|240:96,1,45,8|0,1:2|0:0,0:0:0:0:
190,132,25542,2,0,L|135:123,1,45,4|0,3:0|0:0,0:0:0:0:
71,104,25822,1,0,0:0:0:0:
120,46,25962,1,0,0:0:0:0:
195,58,26102,1,4,3:0:0:0:
298,171,26383,2,0,B|411:156|352:221|469:205,1,180,8|4,1:2|3:0,0:0:0:0:
245,300,27785,6,0,B|207:309|165:282|165:282|159:303|159:303|121:290|82:305,1,180,8|0,3:0|0:0,0:0:0:0:
86,303,28626,1,0,0:0:0:0:
243,41,29186,2,0,B|145:70|169:191,1,180,4|0,3:0|0:0,0:0:0:0:
15,203,30028,2,0,B|117:233|89:348,1,180,4|0,3:0|0:0,0:0:0:0:
228,277,30869,2,0,B|287:285|287:285|301:295|301:295|389:307,1,135
434,314,31429,5,4,3:0:0:0:
7,183,32270,2,0,P|110:191|189:112,1,180,8|0,3:0|0:0,0:0:0:0:
210,0,33112,2,0,P|224:52|264:88,1,90
305,229,33672,2,0,P|365:180|401:179,1,90,4|0,3:0|0:0,0:0:0:0:
444,211,34093,1,8,3:0:0:0:
252,325,34513,1,4,3:0:0:0:
241,314,34654,2,0,P|215:269|228:224,1,90
258,166,35074,1,4,3:0:0:0:
112,117,35355,2,0,P|96:167|95:188,1,45,0|4,0:0|3:0,0:0:0:0:
39,208,35635,2,0,P|55:258|56:279,1,45
130,287,35915,6,0,P|141:221|181:193,1,90,4|2,3:0|0:2,0:0:0:0:
245,73,36476,2,0,L|250:138,1,60,2|0,1:2|0:0,0:0:0:0:
235,182,36756,2,0,P|228:160|214:140,1,45,10|0,3:0|0:0,0:0:0:0:
147,106,37037,2,0,P|112:124|58:114,1,90,2|2,0:0|0:0,0:0:0:0:
191,32,37598,2,0,P|226:14|280:24,1,90,10|2,1:2|0:1,0:0:0:0:
329,73,38018,1,2,0:1:0:0:
399,43,38158,6,0,B|413:76|413:76|424:92|424:92|438:123,1,90,4|0,3:0|0:0,0:0:0:0:
381,175,38579,1,0,0:0:0:0:
407,246,38719,2,0,P|377:256|350:239,1,45,8|0,1:2|0:0,0:0:0:0:
339,324,38999,2,0,P|308:317|293:289,1,45,8|0,3:0|0:0,0:0:0:0:
275,234,39280,1,0,0:0:0:0:
165,324,39560,2,0,P|154:283|159:259,1,45
78,268,39841,2,0,P|88:226|105:208,1,45,8|0,1:2|0:0,0:0:0:0:
25,184,40121,2,0,P|55:153|78:146,1,45
102,91,40401,6,0,P|134:94|168:81,1,60,4|0,3:0|0:0,0:0:0:0:
185,41,40682,2,0,L|273:31,1,90,2|8,0:0|1:2,0:0:0:0:
337,75,41102,1,0,0:0:0:0:
405,40,41242,2,0,P|430:73|437:95,1,60,10|0,3:0|0:0,0:0:0:0:
465,132,41523,2,0,L|480:21,1,90,2|2,0:0|0:0,0:0:0:0:
381,163,42084,2,0,B|330:154|312:202|312:202,1,45,10|0,1:2|0:0,0:0:0:0:
276,216,42364,2,0,B|242:255|275:295|275:295,1,45,2|2,0:1|0:1,0:0:0:0:
284,329,42644,5,10,3:0:0:0:
137,334,42925,2,0,P|149:310|179:290,1,45,0|8,0:0|3:0,0:0:0:0:
106,245,43205,2,0,P|128:231|164:229,1,45,8|0,1:2|0:0,0:0:0:0:
127,153,43485,2,0,P|153:152|185:168,1,45,4|0,3:0|0:0,0:0:0:0:
232,204,43766,1,0,0:0:0:0:
306,70,44046,2,0,P|357:95|370:157,1,90,4|8,3:0|1:2,0:0:0:0:
443,149,44467,2,0,P|407:193|344:193,1,90,4|0,3:0|0:0,0:0:0:0:
303,222,44887,6,0,L|297:270,2,45,2|0|2,0:0|0:0|0:0,0:0:0:0:
33,285,45728,2,0,L|38:333,2,45,0|0|2,0:0|0:0|0:0,0:0:0:0:
375,59,47130,6,0,P|381:82|381:103,1,45,4|2,3:0|0:0,0:0:0:0:
453,140,47411,1,2,0:1:0:0:
459,152,47551,1,0,0:0:0:0:
386,186,47691,2,0,P|327:175|266:202,1,90,8|4,1:2|3:0,0:0:0:0:
156,123,48252,2,0,L|209:115,1,45,2|0,0:1|0:0,0:0:0:0:
275,101,48532,1,0,0:0:0:0:
165,210,48813,2,0,P|118:210|88:180,1,90,8|0,1:2|0:0,0:0:0:0:
51,330,49373,6,0,P|107:320|123:299,1,60,4|0,3:0|0:0,0:0:0:0:
150,290,49654,2,0,L|240:281,1,90,2|8,0:1|1:2,0:0:0:0:
306,243,50074,1,0,0:0:0:0:
363,294,50214,2,0,L|359:342,2,45,6|2|2,3:0|0:0|0:1,0:0:0:0:
509,248,50775,2,0,P|522:205|512:162,1,90,0|8,0:0|1:2,0:0:0:0:
455,112,51196,2,0,L|465:69,1,45,0|4,0:0|0:0,0:0:0:0:
312,62,51616,6,0,P|278:77|242:73,1,60,4|0,3:0|0:0,0:0:0:0:
220,38,51897,2,0,L|131:47,1,90,2|8,0:1|1:2,0:0:0:0:
23,156,52457,2,0,L|71:164,1,45,4|2,3:0|0:0,0:0:0:0:
96,234,52738,2,0,P|160:219|209:240,1,90,2|2,0:1|0:0,0:0:0:0:
216,292,53158,1,0,0:0:0:0:
263,352,53299,2,0,P|307:357|349:342,1,90,10|2,1:2|0:0,0:0:0:0:
433,214,53859,6,0,B|372:211|372:211|344:218|344:218|312:204|312:204|243:195,2,180,0|8|2,3:0|1:2|0:0,0:0:0:0:
452,288,55121,1,0,0:0:0:0:
423,358,55261,2,0,P|386:323|392:298,1,45,2|0,0:0|0:0,0:0:0:0:
312,322,55542,2,0,P|329:277|406:277,1,90,8|0,1:0|0:0,0:0:0:0:
215,299,56102,6,0,P|221:259|216:221,1,60,4|0,3:0|0:0,0:0:0:0:
253,199,56383,2,0,L|130:216,1,90,2|8,0:1|1:2,0:0:0:0:
41,119,56943,2,0,P|62:162|58:199,1,45,8|2,3:0|0:0,0:0:0:0:
84,231,57224,2,0,P|93:169|138:138,1,90,2|2,0:1|0:0,0:0:0:0:
242,93,57785,2,0,L|181:82,1,45,8|0,1:2|0:0,0:0:0:0:
123,69,58065,1,2,0:0:0:0:
227,180,58345,6,0,P|179:209|168:259,1,90,4|0,3:0|0:1,0:0:0:0:
147,313,58766,1,0,0:0:0:0:
93,258,58906,1,8,1:2:0:0:
10,129,59186,2,0,P|52:134|100:103,2,90,4|2|2,3:0|0:1|0:0,0:0:0:0:
144,53,60028,2,0,L|196:65,1,45,8|0,1:2|0:0,0:0:0:0:
259,82,60308,1,0,0:0:0:0:
408,48,60588,6,0,B|403:72|403:72|407:93,1,45,4|0,3:0|0:0,0:0:0:0:
337,124,60869,2,0,B|344:147|344:147|358:163,1,45
299,211,61149,2,0,B|306:234|306:234|320:250,1,45,8|0,1:2|0:0,0:0:0:0:
267,305,61430,2,0,B|285:321|285:321|305:328,1,45,8|0,3:0|0:0,0:0:0:0:
378,349,61710,2,0,B|382:310|382:310|386:301|386:301|392:261,1,90
239,249,62270,2,0,B|234:210|234:210|230:201|230:201|224:161,1,90
375,103,62831,6,0,B|322:91|316:47|316:47|288:85|230:71,1,180,2|0,0:0|0:0,0:0:0:0:
79,129,63672,2,0,B|124:107|158:127|158:127|191:169|252:152,1,180,2|0,0:0|0:0,0:0:0:0:
109,225,64513,2,0,P|119:261|120:303,1,45
117,348,64794,1,2,0:0:0:0:
117,348,64934,1,2,0:0:0:0:
187,318,65074,6,0,P|252:357|256:386,1,60,6|0,3:0|0:0,0:0:0:0:
268,382,65355,2,0,P|297:382|347:346,1,90,0|8,0:0|1:2,0:0:0:0:
401,296,65775,2,0,P|416:323|417:366,1,45,0|8,0:0|3:0,0:0:0:0:
491,362,66056,1,0,0:0:0:0:
507,287,66196,1,0,0:0:0:0:
464,140,66476,1,0,0:0:0:0:
452,215,66616,1,0,0:0:0:0:
373,201,66756,2,0,P|324:216|311:233,1,45,8|0,1:2|0:0,0:0:0:0:
268,257,67037,2,0,P|222:275|214:272,1,45
154,287,67317,6,0,P|139:237|157:200,1,60,4|0,3:0|0:0,0:0:0:0:
95,203,67598,2,0,L|197:180,1,90,2|8,0:0|1:2,0:0:0:0:
177,107,68018,1,0,0:0:0:0:
244,141,68158,2,0,P|270:152|313:153,1,45,8|0,3:0|0:0,0:0:0:0:
364,154,68439,2,0,B|398:153|398:153|411:157|411:157|459:153,1,90,2|2,0:0|0:0,0:0:0:0:
323,234,68999,2,0,B|241:230|275:281|189:270,1,135,8|2,1:2|0:1,0:0:0:0:
130,307,69560,5,4,3:0:0:0:
7,215,69841,2,0,P|18:258|13:287,1,45,0|8,0:0|3:0,0:0:0:0:
37,331,70121,1,8,1:2:0:0:
95,282,70261,1,0,0:0:0:0:
153,331,70401,2,0,P|147:372|146:402,1,45,4|0,3:0|0:0,0:0:0:0:
221,359,70682,2,0,L|315:354,1,90,0|4,0:0|3:0,0:0:0:0:
367,302,71102,1,0,0:0:0:0:
437,330,71242,1,8,1:2:0:0:
503,290,71383,2,0,P|500:267|497:245,1,45,4|0,3:0|0:0,0:0:0:0:
489,169,71663,1,0,0:0:0:0:
414,187,71803,6,0,P|362:195|325:234,1,90,4|0,3:0|0:0,0:0:0:0:
201,293,72364,2,0,P|253:301|294:330,1,60,8|0,1:2|0:0,0:0:0:0:
280,350,72644,2,0,P|271:301|283:241,1,90,6|2,3:0|0:0,0:0:0:0:
413,328,73205,1,2,0:0:0:0:
368,266,73345,1,0,0:0:0:0:
443,257,73485,2,0,P|448:217|427:168,1,90,2|2,1:2|0:1,0:0:0:0:
356,147,73906,1,2,0:1:0:0:
287,180,74046,6,0,P|238:207|186:201,1,90,4|0,3:0|0:0,0:0:0:0:
129,190,74467,1,0,0:0:0:0:
96,120,74607,2,0,L|152:108,1,45,8|0,1:2|0:0,0:0:0:0:
182,46,74887,2,0,L|236:58,1,45,4|0,3:0|0:0,0:0:0:0:
300,72,75168,1,0,0:0:0:0:
413,174,75448,2,0,L|300:188,1,90,0|8,0:0|1:2,0:0:0:0:
247,191,75869,2,0,P|259:143|266:132,1,45
296,83,76149,1,0,0:0:0:0:
296,83,76289,5,4,3:0:0:0:
429,134,76570,2,0,P|383:139|351:167,1,60
378,196,76850,2,0,L|276:188,1,90,8|10,1:2|3:0,0:0:0:0:
212,181,77270,1,2,0:0:0:0:
169,116,77411,2,0,P|144:145|137:167,1,45,2|0,0:0|0:0,0:0:0:0:
131,226,77691,1,2,0:0:0:0:
65,364,77971,2,0,P|61:304|30:258,1,90,8|2,1:2|0:1,0:0:0:0:
7,213,78392,1,2,0:1:0:0:
74,176,78532,6,0,B|109:178|109:178|132:185|132:185|174:189,1,90,4|0,3:0|0:0,0:0:0:0:
220,238,78953,2,0,P|241:248|265:245,1,45,8|8,3:0|1:2,0:0:0:0:
304,182,79233,2,0,P|285:173|256:172,1,45,0|4,0:0|3:0,0:0:0:0:
204,120,79513,1,0,0:0:0:0:
204,120,79654,1,0,0:0:0:0:
353,88,79934,6,0,P|332:98|308:95,1,45,4|0,3:0|0:0,0:0:0:0:
269,32,80214,2,0,P|288:23|317:22,1,45,8|4,1:2|3:0,0:0:0:0:
387,14,80494,1,0,0:0:0:0:
256,192,80775,12,0,82738,0:0:0:0:
58,93,83018,6,0,B|177:81|120:140|226:130,1,180,4|2,3:2|0:0,0:0:0:0:
287,326,84140,2,0,B|360:319|360:319|375:307,1,90,2|0,0:0|0:0,0:0:0:0:
491,186,84700,2,0,B|417:176|417:176|401:164,1,90,2|0,0:0|0:0,0:0:0:0:
301,53,85261,6,0,P|265:75|249:130,1,90,2|0,0:0|0:0,0:0:0:0:
214,186,85682,2,0,L|196:28,1,135,2|0,0:0|0:0,0:0:0:0:
49,85,86383,1,2,0:0:0:0:
30,236,86663,2,0,P|130:254|152:356,1,180
310,340,87504,6,0,B|319:265|319:265|316:238|316:238|328:160,1,180,2|2,0:0|0:0,0:0:0:0:
46,38,88626,2,0,B|44:33|62:85|74:92|74:92|62:151|62:151|79:206,1,180,2|0,0:0|0:0,0:0:0:0:
342,59,89747,6,0,P|297:65|257:112,1,90,2|0,0:0|0:0,0:0:0:0:
203,136,90168,2,0,L|361:154,1,135,2|0,0:0|0:0,0:0:0:0:
448,45,90869,1,2,0:0:0:0:
448,45,91149,2,0,B|433:68|433:68|458:166|458:166|444:216,1,180
295,250,91990,6,0,P|351:244|367:261,1,45,6|0,1:2|0:0,0:0:0:0:
393,289,92270,1,0,0:0:0:0:
245,331,92551,2,0,L|128:318,1,90,2|0,3:0|3:0,0:0:0:0:
30,232,93112,2,0,P|70:231|80:241,1,45,4|0,0:0|0:0,0:0:0:0:
105,163,93392,2,0,P|133:190|133:204,1,45,0|0,3:0|0:0,0:0:0:0:
192,241,93672,2,0,B|243:237|243:237|259:243|259:243|337:233,1,135,2|0,3:0|0:0,0:0:0:0:
384,184,94233,5,4,0:0:0:0:
308,50,94513,2,0,P|262:77|254:91,1,45,0|0,0:0|3:0,0:0:0:0:
207,112,94794,2,0,L|317:128,1,90,2|0,1:3|3:0,0:0:0:0:
440,74,95355,2,0,P|431:129|431:131,1,45,4|0,0:0|0:0,0:0:0:0:
458,189,95635,2,0,B|351:198|412:261|308:273,1,180,0|0,3:0|0:0,0:0:0:0:
157,249,96476,6,0,B|182:145|182:145|172:110,1,135,4|0,0:0|0:0,0:0:0:0:
122,62,97037,1,2,3:0:0:0:
23,179,97317,1,0,3:0:0:0:
20,332,97598,2,0,P|70:307|75:306,1,45,4|0,0:0|0:0,0:0:0:0:
138,337,97878,2,0,P|198:375|275:353,1,135,0|0,3:0|0:0,0:0:0:0:
314,312,98439,1,0,0:0:0:0:
450,179,98719,6,0,P|453:157|461:136,1,45,4|0,0:0|0:0,0:0:0:0:
496,67,98999,1,0,1:0:0:0:
496,67,99280,2,0,L|383:48,1,90,2|0,3:0|3:0,0:0:0:0:
287,148,99841,6,0,P|290:126|290:99,3,45,0|0|0|0,1:0|1:0|1:0|1:0,0:0:0:0:
231,56,100401,2,0,B|185:51|185:51|181:53|181:53|99:43,1,90,4|0,1:2|0:0,0:0:0:0:
53,173,100962,5,4,3:0:0:0:
44,186,101102,1,0,0:0:0:0:
122,214,101242,1,2,0:0:0:0:
131,228,101383,1,0,0:0:0:0:
168,153,101523,2,0,B|214:149|214:149|224:151|224:151|298:144,1,90,8|4,1:2|3:0,0:0:0:0:
401,143,102084,1,0,0:0:0:0:
491,258,103205,6,0,P|449:282|445:292,1,45,4|0,3:0|0:0,0:0:0:0:
419,347,103485,1,2,0:0:0:0:
419,347,103626,1,0,0:0:0:0:
359,299,103766,2,0,L|257:289,1,90,8|8,1:2|3:0,0:0:0:0:
111,329,104327,2,0,P|131:320|153:316,1,45,0|0,3:0|3:0,0:0:0:0:
203,253,104607,1,0,3:0:0:0:
207,240,104747,1,0,3:0:0:0:
128,238,104887,2,0,B|119:149,1,90,0|0,3:0|3:0,0:0:0:0:
11,39,105448,6,0,L|114:29,1,90,4|2,3:0|0:0,0:0:0:0:
176,42,105869,1,0,0:0:0:0:
127,104,106009,2,0,P|119:130|125:176,1,45,8|0,1:2|0:0,0:0:0:0:
154,215,106289,1,8,3:0:0:0:
289,143,106570,2,0,P|280:111|280:79,2,45,2|0|2,0:0|0:0|0:0,0:0:0:0:
330,207,106990,1,0,0:0:0:0:
391,161,107130,2,0,P|451:142|500:164,1,90,8|0,1:2|0:0,0:0:0:0:
490,310,107691,6,0,P|442:340|387:325,1,90,4|4,3:3|3:0,0:0:0:0:
363,276,108112,1,8,3:0:0:0:
363,276,108252,2,0,P|327:249|277:258,1,90,8|4,1:2|3:0,0:0:0:0:
228,305,108672,1,0,0:0:0:0:
151,303,108813,2,0,L|103:296,1,45,2|0,0:0|0:0,0:0:0:0:
68,230,109093,2,0,L|116:223,1,45,4|0,3:0|0:0,0:0:0:0:
182,191,109373,2,0,P|161:116|115:97,1,90,8|4,1:2|3:0,0:0:0:0:
276,32,109934,6,0,L|257:82,2,45,4|0|0,3:0|0:0|0:0,0:0:0:0:
349,77,110355,1,0,0:0:0:0:
349,76,110495,2,0,P|389:93|449:84,1,90,2|8,1:3|3:0,0:0:0:0:
492,34,110915,1,0,0:0:0:0:
510,113,111056,2,0,P|513:162|518:171,1,45
450,203,111336,1,0,0:0:0:0:
315,275,111616,2,0,B|321:284|321:284|334:388,1,90,2|0,1:3|0:0,0:0:0:0:
255,229,112177,6,0,P|226:248|172:248,1,90,4|0,3:0|0:0,0:0:0:0:
142,181,112598,1,0,0:0:0:0:
132,170,112738,2,0,P|75:160|45:173,1,90,2|4,1:3|3:0,0:0:0:0:
16,336,113299,2,0,L|4:272,1,45,2|2,0:0|0:0,0:0:0:0:
91,292,113579,1,2,0:0:0:0:
91,292,113719,1,2,0:0:0:0:
91,292,113859,2,0,P|157:305|189:291,1,90,2|0,1:3|0:0,0:0:0:0:
322,346,114420,6,0,P|312:316|314:284,1,45,4|0,3:0|0:0,0:0:0:0:
371,255,114700,2,0,P|381:225|379:193,1,45
346,143,114981,2,0,P|401:117|464:139,1,90,2|0,1:3|0:0,0:0:0:0:
276,96,115542,2,8,L|268:45,1,45,0|0,0:0|0:0,0:0:0:0:
136,126,115962,1,0,0:0:0:0:
136,126,116102,2,0,P|196:138|224:192,1,90,2|0,1:3|0:0,0:0:0:0:
174,223,116523,1,0,0:0:0:0:
201,302,116663,6,0,L|157:297,1,45,4|0,3:0|0:0,0:0:0:0:
95,342,116943,2,0,L|50:347,1,45,2|8,0:0|3:0,0:0:0:0:
3,287,117224,1,2,1:2:0:0:
104,173,117504,1,4,3:0:0:0:
10,51,117785,2,0,B|7:69|7:69|9:87|9:87|3:115,2,45,2|0|4,0:0|0:0|3:0,0:0:0:0:
73,8,118205,1,0,0:0:0:0:
138,47,118345,2,0,P|184:65|241:58,1,90,2|0,1:2|0:0,0:0:0:0:
149,186,118906,6,0,B|195:201|224:172|224:172|322:154,1,180,4|0,3:0|0:0,0:0:0:0:
434,49,119747,2,0,B|418:160|418:160|426:161|426:161|418:160|418:160|410:218,1,180,8|0,3:0|0:0,0:0:0:0:
264,253,120588,2,0,P|287:289|366:285,1,90
476,347,121149,2,0,P|465:286|503:223,1,135,4|0,3:0|0:0,0:0:0:0:
482,150,121710,1,0,0:0:0:0:
351,70,121990,1,8,3:0:0:0:
351,69,122270,2,0,B|268:76|319:119|231:120,1,135
164,93,122831,1,2,1:3:0:0:
159,106,123112,1,0,0:0:0:0:
28,259,123392,6,0,P|81:263|115:293,1,90,4|0,3:0|0:0,0:0:0:0:
179,254,123813,1,0,0:0:0:0:
179,254,123953,2,0,P|167:232|147:220,1,45,2|0,1:3|0:0,0:0:0:0:
83,184,124233,2,0,P|72:139|91:93,1,90,8|0,3:0|0:0,0:0:0:0:
133,38,124654,1,0,0:0:0:0:
174,101,124794,2,0,B|208:95|208:95|222:86|222:86|259:77,2,90,0|2|0,0:0|1:3|0:0,0:0:0:0:
189,253,125635,6,0,B|154:247|154:247|140:238|140:238|103:229,1,90,4|0,3:0|0:0,0:0:0:0:
36,190,126056,1,8,3:0:0:0:
98,146,126196,1,2,1:3:0:0:
222,57,126476,2,0,P|180:95|191:176,1,135,4|0,3:0|0:0,0:0:0:0:
222,235,127037,1,4,3:0:0:0:
295,101,127317,2,0,P|330:113|350:135,1,45,2|4,1:3|3:0,0:0:0:0:
396,165,127598,1,0,0:0:0:0:
497,123,127878,6,0,L|504:179,2,45,6|2|2,3:0|0:0|0:1,0:0:0:0:
456,57,128439,1,2,1:3:0:0:
315,117,128719,1,4,3:0:0:0:
174,56,128999,2,0,P|225:8|312:36,1,135,2|0,0:1|0:0,0:0:0:0:
352,52,129560,2,0,L|336:96,1,45
200,264,130121,5,4,3:0:0:0:
58,321,130401,2,0,L|64:275,1,45,2|0,0:1|0:0,0:0:0:0:
129,235,130682,2,0,L|123:189,1,45,2|0,1:3|0:0,0:0:0:0:
60,146,130962,1,8,3:0:0:0:
62,128,131102,1,2,0:0:0:0:
64,110,131242,1,2,0:1:0:0:
202,35,131523,2,0,L|196:81,1,45
140,133,131804,2,0,L|146:179,1,45
213,213,132084,1,0,3:0:0:0:
210,231,132224,1,0,0:0:0:0:
208,249,132364,5,4,3:0:0:0:
225,140,132644,2,0,P|266:129|288:136,1,60,2|0,0:1|0:0,0:0:0:0:
295,183,132925,2,0,L|389:194,1,90,2|8,1:3|3:0,0:0:0:0:
509,106,133485,2,0,P|473:98|450:81,1,45,2|0,0:1|0:0,0:0:0:0:
419,33,133766,1,0,0:0:0:0:
268,60,134046,2,0,P|330:79|345:178,1,135,2|0,1:3|0:0,0:0:0:0:
286,171,134607,6,0,P|319:204|323:206,1,45,4|2,3:0|0:0,0:0:0:0:
260,253,134887,1,2,0:1:0:0:
389,334,135168,2,0,B|357:330|357:330|338:321|338:321|287:314,1,90,2|4,1:3|3:0,0:0:0:0:
149,303,135728,2,0,P|142:250|142:249,1,45,2|0,0:1|0:0,0:0:0:0:
76,222,136009,2,0,P|95:193|111:180,1,45,4|0,3:0|0:0,0:0:0:0:
96,110,136289,2,0,B|177:104|149:149|221:144,1,135,2|0,1:3|0:0,0:0:0:0:
286,187,136850,5,8,3:0:0:0:
452,332,145822,6,0,B|381:324|381:324|374:318|374:318|289:308,1,135,4|0,0:1|0:0,0:0:0:0:
280,246,146383,2,0,P|255:267|249:279,1,45,12|0,1:2|0:0,0:0:0:0:
238,353,146663,1,8,3:0:0:0:
11,313,146943,2,0,P|54:307|102:251,1,90
58,209,147364,1,0,0:0:0:0:
134,213,147504,2,0,P|160:228|173:251,1,45,12|0,1:2|0:0,0:0:0:0:
161,316,147785,1,0,1:0:0:0:
232,181,148065,6,0,B|208:171|208:171|198:59,1,135,4|0,0:1|0:0,0:0:0:0:
130,26,148626,2,0,P|93:17|58:21,1,45,12|0,1:2|0:0,0:0:0:0:
20,55,148906,1,4,3:0:0:0:
98,186,149186,2,0,P|153:164|165:117,1,60
192,133,149467,2,0,P|232:125|280:145,1,90,0|12,0:0|1:2,0:0:0:0:
385,250,150028,1,0,3:0:0:0:
450,111,150308,6,0,L|371:123,1,45,8|0,3:0|0:0,0:0:0:0:
359,178,150588,2,0,L|314:172,1,45
242,200,150869,2,0,B|211:129|271:143|240:71,1,135,12|0,1:2|0:0,0:0:0:0:
184,19,151429,2,0,P|138:28|133:33,1,45
76,67,151710,2,0,P|56:109|57:116,1,45
56,181,151990,2,0,P|72:229|120:251,1,90,12|2,1:2|1:0,0:0:0:0:
215,343,152551,6,0,P|272:341|323:290,1,90,4|0,3:0|0:0,0:0:0:0:
349,266,152971,2,0,P|389:253|406:255,1,45,4|12,3:0|1:2,0:0:0:0:
489,371,153392,1,4,3:0:0:0:
483,218,153672,2,0,B|474:140|474:140|480:129|480:129|469:34,2,180,0|0|2,0:0|0:0|0:0,0:0:0:0:
48,269,159280,6,0,B|179:290|179:290|190:300|190:300|321:318,1,270,2|2,0:0|0:0,0:0:0:0:
496,99,161523,6,0,B|445:96|445:96|420:106|420:106|397:92|397:92|227:77,1,270,2|2,0:0|0:0,0:0:0:0:
261,86,163766,6,0,P|204:86|147:158,1,135,2|0,0:0|0:0,0:0:0:0:
129,212,164327,1,0,0:0:0:0:
32,93,164607,2,0,P|66:129|57:177,1,90,2|0,0:0|0:0,0:0:0:0:
226,288,166009,6,0,P|307:299|341:252,1,135,2|0,0:0|0:0,0:0:0:0:
406,230,166570,1,0,0:0:0:0:
285,128,166850,2,0,P|316:181|366:187,1,90,2|0,0:0|0:0,0:0:0:0:
497,154,168252,6,0,B|491:102|443:82|411:80|411:80|416:74|416:74|412:80|412:80|369:77|345:105,1,180,2|0,3:2|0:0,0:0:0:0:
224,131,169093,2,0,P|268:125|294:40,1,135,2|0,3:2|0:0,0:0:0:0:
232,16,169654,1,0,0:0:0:0:
151,94,169934,2,0,P|139:141|162:199,1,90,2|0,0:0|0:0,0:0:0:0:
234,317,170495,2,0,B|150:299|150:299|152:293|152:293|150:299|150:299|103:290,1,135,2|0,3:2|0:0,0:0:0:0:
40,277,171056,1,0,0:0:0:0:
99,136,171336,2,0,P|80:181|118:248,1,90,2|0,0:0|0:0,0:0:0:0:
271,325,172738,6,0,B|302:286|352:288|352:288|373:329|427:316,1,180,2|0,0:0|0:0,0:0:0:0:
480,260,173439,1,0,0:0:0:0:
412,223,173579,2,0,B|403:145|403:145|394:132|394:132|384:33,1,180,2|0,0:3|0:0,0:0:0:0:
386,46,174420,1,0,0:0:0:0:
81,73,174981,2,0,P|169:69|220:161,1,180,2|0,0:0|0:0,0:0:0:0:
358,202,175822,2,2,P|269:198|218:290,1,180,2|0,0:0|0:0,0:0:0:0:
82,335,176663,2,0,L|72:284,1,45,8|0,1:2|0:0,0:0:0:0:
292,220,177224,6,0,P|251:231|234:276,1,60,4|0,3:0|0:0,0:0:0:0:
239,294,177504,2,0,P|186:297|135:241,1,90,2|8,0:0|1:2,0:0:0:0:
119,210,177925,1,0,0:0:0:0:
45,231,178065,2,0,P|44:209|49:186,1,45,6|2,3:0|0:0,0:0:0:0:
78,116,178345,1,2,0:3:0:0:
222,65,178626,2,0,P|248:70|269:90,1,45,2|0,0:0|0:0,0:0:0:0:
244,155,178906,2,0,P|306:152|342:85,1,135,8|0,1:2|0:0,0:0:0:0:
309,25,179467,5,4,3:0:0:0:
447,89,179747,1,0,0:0:0:0:
447,89,179887,1,0,0:0:0:0:
447,89,180028,2,0,L|440:151,1,45,8|0,1:2|0:0,0:0:0:0:
388,187,180308,2,0,L|395:249,1,45,8|0,3:0|0:0,0:0:0:0:
437,293,180588,1,2,0:1:0:0:
296,341,180869,1,2,0:1:0:0:
296,341,181009,1,2,0:1:0:0:
296,341,181149,2,0,P|314:289|313:274,1,45,8|0,1:2|0:0,0:0:0:0:
240,276,181429,2,0,P|222:224|223:209,1,45,2|0,0:1|0:0,0:0:0:0:
282,186,181710,5,4,3:0:0:0:
146,103,181990,2,0,P|102:134|93:166,1,60,2|0,0:0|0:0,0:0:0:0:
84,157,182270,2,0,L|95:50,1,90,8|4,1:2|3:0,0:0:0:0:
19,20,182691,1,2,0:0:0:0:
19,20,182831,1,2,0:0:0:0:
171,35,183112,2,0,P|213:71|268:58,2,90,2|8|0,0:0|1:2|0:0,0:0:0:0:
228,177,183953,6,0,P|283:140|330:154,1,90,4|0,3:0|0:0,0:0:0:0:
350,201,184373,2,0,P|345:149|383:111,1,90,8|0,3:0|0:0,0:0:0:0:
430,77,184794,1,4,3:0:0:0:
468,224,185074,2,0,B|464:254|464:254|466:269|466:269|457:342,1,90,0|4,0:0|3:0,0:0:0:0:
389,286,185495,1,0,0:0:0:0:
393,362,185635,1,8,1:2:0:0:
324,328,185775,2,0,P|276:335|243:366,1,90,4|0,3:0|0:0,0:0:0:0:
191,307,186196,5,4,3:0:0:0:
42,269,186476,2,0,P|98:257|127:219,1,90,2|8,0:0|1:2,0:0:0:0:
175,181,186897,2,0,L|224:176,1,45,0|10,0:0|3:0,0:0:0:0:
299,177,187177,1,2,0:0:0:0:
299,177,187317,2,0,P|279:224|286:266,1,90,2|2,0:0|0:0,0:0:0:0:
437,280,187878,2,0,P|463:244|401:165,1,135,10|0,1:2|0:0,0:0:0:0:
362,128,188439,5,4,3:0:0:0:
230,50,188719,1,0,0:0:0:0:
230,50,188859,1,0,0:0:0:0:
230,50,188999,2,0,L|174:60,1,45,8|0,1:2|0:0,0:0:0:0:
141,121,189280,2,0,L|90:112,1,45,4|0,3:0|0:0,0:0:0:0:
44,57,189560,1,2,0:1:0:0:
31,216,189841,1,2,0:1:0:0:
31,216,189981,1,2,0:1:0:0:
31,216,190121,2,0,P|72:207|91:209,1,45,8|0,1:2|0:0,0:0:0:0:
95,280,190401,2,0,P|115:288|137:291,1,45
203,251,190682,5,4,3:0:0:0:
110,372,190962,2,0,P|169:346|226:357,2,90,2|8|10,0:0|1:2|3:0,0:0:0:0:
42,325,191663,1,2,0:0:0:0:
86,262,191803,2,0,P|91:214|87:205,1,45,2|0,0:3|0:0,0:0:0:0:
36,165,192084,1,2,0:0:0:0:
187,149,192364,2,0,P|125:134|98:49,1,135,8|0,1:2|0:0,0:0:0:0:
157,29,192925,5,4,3:0:0:0:
265,137,193205,2,0,B|262:199|262:198,2,45,0|0|8,0:0|0:0|1:2,0:0:0:0:
324,87,193626,1,0,0:0:0:0:
357,155,193766,2,0,P|389:156|404:148,1,45
459,102,194046,1,0,0:0:0:0:
474,254,194327,1,4,3:0:0:0:
474,254,194467,1,0,0:0:0:0:
474,254,194607,2,0,P|452:246|430:249,1,45,8|0,1:2|0:0,0:0:0:0:
402,320,194887,2,0,P|380:327|358:324,1,45
288,288,195168,6,0,L|288:257,1,22.5,4|0,0:0|0:0,0:0:0:0:
288,48,195728,1,0,0:0:0:0:
128,48,196009,1,0,0:0:0:0:
224,160,196289,6,0,L|224:129,1,22.5
96,265,196850,2,0,L|96:288,1,22.5,10|0,0:0|0:0,0:0:0:0:
368,288,197411,5,0,0:0:0:0:
208,288,197691,1,0,0:0:0:0:
320,192,197971,2,0,L|320:169,1,22.5,10|0,0:0|0:0,0:0:0:0:
448,32,198532,2,0,L|448:54,1,22.5,2|2,0:2|0:2,0:0:0:0:
448,176,198813,1,10,0:0:0:0:
80,310,199654,6,0,L|80:288,1,22.5,10|0,0:3|0:0,0:0:0:0:
336,352,200214,1,0,0:0:0:0:
336,192,200495,1,0,0:0:0:0:
208,249,200775,2,0,L|208:272,1,22.5
464,336,201336,2,0,L|464:313,1,22.5,10|0,0:0|0:0,0:0:0:0:
464,48,201897,5,0,0:0:0:0:
304,48,202177,1,0,0:0:0:0:
416,144,202457,2,0,L|416:166,1,22.5,10|0,0:0|0:0,0:0:0:0:
224,352,203018,2,0,L|224:329,1,22.5,2|0,0:2|0:0,0:0:0:0:
224,208,203299,1,10,3:0:0:0:
64,64,204140,6,0,L|64:86,1,22.5,6|0,0:3|0:0,0:0:0:0:
64,352,204700,1,0,0:0:0:0:
224,352,204981,1,0,0:0:0:0:
112,256,205261,2,0,L|112:233,1,22.5,2|0,0:2|0:0,0:0:0:0:
305,48,205822,1,10,3:0:0:0:
464,304,206383,5,0,0:0:0:0:
304,304,206663,1,0,0:0:0:0:
416,185,206943,2,0,L|416:208,1,22.5,10|0,3:0|0:0,0:0:0:0:
176,320,207504,2,0,L|176:297,1,22.5,2|0,0:2|0:0,0:0:0:0:
176,176,207785,1,10,3:0:0:0:
352,48,208626,6,0,L|352:71,1,22.5,6|0,3:0|0:0,0:0:0:0:
304,336,209186,1,0,0:0:0:0:
144,336,209467,1,0,0:0:0:0:
64,208,209747,2,0,L|64:185,1,22.5,2|0,0:2|0:0,0:0:0:0:
288,32,210308,2,0,L|288:55,1,22.5,10|0,0:0|0:0,0:0:0:0:
400,304,210869,5,0,0:0:0:0:
400,144,211149,1,0,0:0:0:0:
288,240,211429,2,0,L|288:217,1,22.5,10|0,3:0|0:0,0:0:0:0:
80,48,211990,2,0,L|80:71,1,22.5,2|0,0:2|0:0,0:0:0:0:
