osu file format v14

[General]
AudioFilename: audio.mp3
AudioLeadIn: 0
PreviewTime: 73705
Countdown: 0
SampleSet: Soft
StackLeniency: 0.4
Mode: 0
LetterboxInBreaks: 0
WidescreenStoryboard: 1

[Editor]
DistanceSpacing: 1.8
BeatDivisor: 4
GridSize: 8
TimelineZoom: 1.6

[Metadata]
Title:rat fucker
TitleUnicode:rat fucker
Artist:100 gecs
ArtistUnicode:100 gecs
Creator:Aistre
Version:muya-'s hard
Source:
Tags:alphabet venax instrumental novelty experimental calliecube obamacube smokebloke allice muya- electronic
BeatmapID:3968042
BeatmapSetID:1920917

[Difficulty]
HPDrainRate:4
CircleSize:4.5
OverallDifficulty:6.3
ApproachRate:8
SliderMultiplier:1.5
SliderTickRate:1

[Events]
//Background and Video events
0,0,"rat.jpg",0,0
Video,0,"yo mama.avi"
//Break Periods
2,7590,11021
//Storyboard Layer 0 (Background)
//Storyboard Layer 1 (Fail)
//Storyboard Layer 2 (Pass)
//Storyboard Layer 3 (Foreground)
//Storyboard Layer 4 (Overlay)
//Storyboard Sound Samples

[TimingPoints]
62,458.015267175573,4,2,0,75,1,0
11771,513.918629550322,4,2,0,75,1,0
11771,-125,4,2,0,75,0,0
15882,-100,4,2,0,75,0,0
32333,513.918629550322,4,2,0,75,1,0
32333,-142.857142857143,4,2,0,75,0,0
33360,513.918629550322,4,2,0,75,1,0
33360,-142.857142857143,4,2,0,75,0,0
34387,513.918629550322,4,2,0,75,1,0
34387,-142.857142857143,4,2,0,75,0,0
35414,513.918629550322,4,2,0,75,1,0
35414,-142.857142857143,4,2,0,75,0,0
36441,513.918629550322,4,2,0,75,1,0
36441,-111.111111111111,4,2,0,75,0,0
37468,513.918629550322,4,2,0,75,1,0
38885,466.926070038911,4,2,0,45,1,0
39819,538.116591928252,4,2,0,45,1,8
40897,547.945205479453,4,2,0,45,1,8
41990,451.127819548873,4,2,0,45,1,8
42892,451.127819548873,4,2,0,45,1,8
43641,256.410256410257,4,2,0,75,1,0
43641,-176.991150442478,4,2,0,75,0,0
43897,356.612184249629,4,2,0,75,1,8
44253,465.116279069768,4,2,0,75,1,0
45183,387.096774193549,4,2,0,75,1,0
45231,-100,4,2,0,5,0,0
45570,453.686200378073,4,2,0,75,1,8
45626,-100,4,2,0,5,0,0
46477,789.47368421053,4,2,0,50,1,8
47266,875.912408759129,4,2,0,50,1,8
48141,545.454545454547,4,2,0,75,1,0
48141,-142.857142857143,4,2,0,75,0,0
48959,-142.857142857143,4,2,0,35,0,0
49231,545.454545454547,4,2,0,75,1,0
49231,-142.857142857143,4,2,0,75,0,0
50049,-142.857142857143,4,2,0,35,0,0
50451,500.000000000001,4,2,0,75,1,8
50701,-100,4,2,0,35,0,0
51451,421.052631578948,4,2,0,75,1,8
51451,-86.9565217391304,4,2,0,75,0,0
51556,-86.9565217391304,4,2,0,35,0,0
52293,409.556313993175,4,2,0,75,1,8
52293,-142.857142857143,4,2,0,75,0,0
53923,409.556313993175,4,2,0,75,1,8
53923,-125,4,2,0,75,0,0
55587,409.556313993175,4,2,0,75,1,8
55587,-125,4,2,0,75,0,0
56420,409.556313993175,4,2,0,75,1,8
56998,512.820512820514,4,2,0,75,1,0
56998,-111.111111111111,4,2,0,75,0,0
59049,-90.9090909090908,4,2,0,75,0,0
60593,512.820512820514,4,2,0,75,1,8
61106,402.68456375839,4,2,0,60,1,8
61106,-166.666666666667,4,2,0,60,0,0
61508,333.333333333334,4,2,0,60,1,8
61841,480,4,2,0,60,1,8
61841,-100,4,2,0,60,0,0
62081,480,4,2,0,60,1,8
62486,319.148936170213,4,2,0,60,1,8
62486,-166.666666666667,4,2,0,60,0,0
62805,639.147802929428,4,2,0,60,1,8
63432,326.086956521739,4,2,0,60,1,8
63432,-166.666666666667,4,2,0,60,0,0
63758,478.08764940239,4,2,0,60,1,8
64236,478.08764940239,4,2,0,60,1,8
64391,324.324324324324,4,2,0,60,1,8
64391,-166.666666666667,4,2,0,60,0,0
65239,476.190476190477,4,2,0,40,1,8
65239,-200,4,2,0,40,0,0
67287,441.988950276244,4,2,0,75,1,0
67287,-142.857142857143,4,2,0,75,0,0
67894,-142.857142857143,4,2,0,65,0,0
67977,441.988950276244,4,2,0,75,1,8
68060,400.000000000001,4,2,0,75,1,8
68160,413.793103448277,4,2,0,50,1,8
68263,443.622920517561,4,2,0,35,1,8
68373,464.216634429401,4,2,0,25,1,8
68489,-100,4,2,0,15,0,0
69054,472.440944881891,4,2,0,75,1,0
69054,-125,4,2,0,60,0,0
69526,446.096654275094,4,2,0,60,1,8
69526,-125,4,2,0,60,0,0
70247,472.440944881891,4,2,0,60,1,8
70247,-125,4,2,0,60,0,0
70719,446.096654275094,4,2,0,60,1,8
70719,-105.374077976818,4,2,0,60,0,0
70969,-105.374077976818,4,2,0,5,0,0
71001,300,4,2,0,60,1,8
71301,467.836257309941,4,2,0,60,1,8
71768,369.230769230769,4,2,0,60,1,8
72141,333.796940194715,4,2,0,60,1,8
72453,303.79746835443,4,2,0,60,1,8
72610,303.79746835443,4,2,0,60,1,8
72887,303.79746835443,4,2,0,60,1,8
73233,303.79746835443,4,2,0,75,1,0
73233,-200,4,2,0,75,0,0
73705,303.79746835443,4,2,0,75,1,8
75129,442.80442804428,4,2,0,75,1,8
75748,554.272517321015,4,2,0,75,1,0
75748,-71.4285714285714,4,2,0,100,0,1
76302,365.853658536585,4,2,0,100,1,0
76484,-100,4,2,0,100,0,0
76576,-100,4,2,0,75,0,0
77191,181.818181818182,4,2,0,75,1,0
77191,-166.666666666667,4,2,0,75,0,0
77281,173.913043478261,4,2,0,75,1,0
77454,444.444444444444,4,2,0,5,1,8
78342,413.793103448276,4,2,0,35,1,8
79979,503.14465408805,4,2,0,75,1,0
80482,454.545454545454,4,2,0,75,1,8
80936,451.977401129943,4,2,0,75,1,8
80936,-142.857142857143,4,2,0,75,0,0
81387,451.977401129943,4,2,0,75,1,8
81838,540.54054054054,4,2,0,75,1,0
81838,-76.9230769230769,4,2,0,75,0,0
82378,652.173913043478,4,2,0,75,1,8
82378,-95.3743443013829,4,2,0,75,0,0
82689,484.848484848484,4,2,0,75,1,8
83173,515.021459227467,4,2,0,75,1,8
83688,311.284046692607,4,2,0,75,1,8
83999,640,4,2,0,75,1,0
84639,578.313253012048,4,2,0,75,1,0
84639,-142.857142857143,4,2,0,75,0,0
85795,409.556313993174,4,2,0,75,1,0
86485,332.409972299169,4,2,0,75,1,8
86995,398.671096345515,4,2,0,75,1,8
87266,285.035629453682,4,2,0,75,1,8
87266,-166.666666666667,4,2,0,75,0,0
87814,408.163265306122,4,2,0,75,1,8
88630,346.820809248555,4,2,0,75,1,8
88630,-166.666666666667,4,2,0,75,0,0
88976,259.74025974026,4,2,0,75,1,8
89235,504.201680672269,4,2,0,75,1,8
89739,722.89156626506,4,2,0,75,1,0
89739,-62.5,4,2,0,100,0,1
100853,-62.5,4,2,0,100,0,0

[Colours]
Combo1 : 159,134,106
Combo2 : 192,192,192
Combo3 : 165,166,106

[HitObjects]
256,192,4413,12,4,7390,0:0:0:0:
300,328,11771,6,0,L|282:251,1,60,0|0,1:0|0:0,0:0:0:0:
197,331,12284,2,0,L|179:254,1,60,0|0,1:0|0:0,0:0:0:0:
93,333,12798,2,0,L|75:256,1,60,0|0,1:0|0:0,0:0:0:0:
45,163,13312,1,0,1:0:0:0:
222,58,13826,6,0,L|240:135,1,60,0|0,1:0|0:0,0:0:0:0:
325,56,14339,2,0,L|343:133,1,60,0|0,1:0|0:0,0:0:0:0:
427,51,14853,2,0,L|445:128,1,60,0|0,1:0|0:0,0:0:0:0:
472,237,15367,1,0,1:0:0:0:
472,237,15882,6,0,B|401:215|427:181|333:159,1,150,0|2,1:0|1:0,0:0:0:0:
254,173,16653,1,0,0:0:0:0:
254,173,16910,1,0,1:0:0:0:
256,360,17424,1,2,1:0:0:0:
33,238,17938,6,0,B|104:216|78:182|172:160,1,150,0|2,1:0|1:0,0:0:0:0:
254,173,18709,1,0,0:0:0:0:
254,173,18966,1,0,1:0:0:0:
256,360,19480,1,2,1:0:0:0:
60,239,19993,6,0,P|33:205|43:167,1,75,0|8,1:0|1:0,0:0:0:0:
41,55,20507,1,2,1:0:0:0:
123,29,20764,1,8,1:0:0:0:
205,8,21021,2,0,P|191:84|178:173,1,150,0|2,1:0|1:0,0:0:0:0:
315,321,22049,6,0,P|342:287|332:249,1,75,0|8,1:0|1:0,0:0:0:0:
368,150,22563,1,2,1:0:0:0:
277,125,22820,1,8,1:0:0:0:
186,103,23077,2,0,P|200:179|213:268,1,150,0|2,1:0|1:0,0:0:0:0:
369,384,24105,6,0,P|407:375|459:367,1,75,0|8,1:0|1:0,0:0:0:0:
420,259,24618,2,0,P|383:265|346:273,1,75,2|8,1:0|1:0,0:0:0:0:
319,167,25132,2,0,P|356:159|393:153,1,75,0|8,1:0|1:0,0:0:0:0:
512,136,25646,1,2,1:0:0:0:
254,245,26160,6,0,P|216:236|164:228,1,75,0|8,1:0|1:0,0:0:0:0:
207,110,26673,2,0,P|244:116|281:124,1,75,2|8,1:0|1:0,0:0:0:0:
302,18,27187,2,0,P|265:10|228:4,1,75,0|8,1:0|1:0,0:0:0:0:
107,0,27701,1,2,1:0:0:0:
25,148,28216,6,0,P|52:218|82:308,1,150,0|2,1:0|1:0,0:0:0:0:
50,377,28987,1,8,1:0:0:0:
50,377,29244,2,0,P|2:354|4:313,1,75,0|8,1:0|1:0,0:0:0:0:
145,340,29758,2,0,P|184:349|240:360,1,75,2|8,1:0|1:0,0:0:0:0:
287,251,30272,6,0,P|216:236|130:219,1,150,0|2,1:0|1:0,0:0:0:0:
296,57,31299,2,0,P|336:68|346:123,1,75,0|8,1:0|1:0,0:0:0:0:
318,183,31813,1,2,1:0:0:0:
273,268,32070,1,8,1:0:0:0:
337,338,32333,6,2,B|352:339|352:339|399:324|399:324|454:312,1,104.999996795654,6|0,1:0|0:0,1:0:0:0:
187,251,33360,6,2,B|172:252|172:252|125:237|125:237|70:225,1,104.999996795654,4|0,1:0|0:0,1:0:0:0:
318,175,34387,6,2,B|333:176|333:176|380:161|380:161|435:149,1,104.999996795654,6|0,1:0|0:0,1:0:0:0:
197,73,35414,6,2,B|182:74|182:74|135:59|135:59|80:47,1,104.999996795654,6|0,1:0|0:0,1:0:0:0:
382,39,36441,6,2,B|383:44|383:44|360:108|360:108|367:142|367:142|352:232|352:232|355:241,1,202.499993820191,6|0,1:0|0:0,1:0:0:0:
353,357,37468,2,2,B|400:340|400:340|385:341|385:341|330:329|324:326|324:326|249:310|249:310|218:370|218:370|265:399,1,300,6|0,1:0|0:0,1:0:0:0:
458,384,38885,5,0,3:0:0:0:
171,280,39819,5,0,3:0:0:0:
323,211,40897,5,0,3:0:0:0:
239,86,41990,5,0,3:0:0:0:
112,369,42892,5,0,3:0:0:0:
330,177,43641,6,0,B|280:163|265:93|265:93|265:157|235:198,1,202.499993820191,4|4,0:0|0:0,0:0:0:0:
245,180,45183,5,8,3:0:0:0:
348,100,45570,1,4,3:0:0:0:
348,100,46477,6,0,P|329:171|321:280,1,150,0|0,3:0|3:0,0:0:0:0:
424,382,48141,6,2,B|448:371|455:371|455:371|482:364|482:364|459:303|456:278|456:278|453:273,1,157.499995193482,4|0,1:0|0:0,0:1:0:0:
342,112,49231,2,2,B|317:122|310:122|310:122|283:129|283:129|306:190|309:215|309:215|312:220,1,157.499995193482,6|0,1:0|0:0,0:1:0:0:
207,376,50451,6,0,L|191:330,1,37.5,2|0,0:0|0:0,0:0:0:0:
207,376,51451,6,0,L|191:330,1,43.1250008225441,2|0,0:0|0:0,0:0:0:0:
207,376,52293,6,0,L|184:311,1,52.4999983978272,2|0,0:0|0:0,0:0:0:0:
85,70,53923,6,0,P|63:95|68:134,1,60,2|2,0:0|0:0,0:0:0:0:
25,207,54332,2,0,P|44:233|84:236,1,60,2|2,0:0|0:0,0:0:0:0:
156,209,54742,1,2,0:0:0:0:
242,229,54946,1,2,0:0:0:0:
324,248,55151,1,2,0:0:0:0:
434,68,55587,6,0,P|456:93|451:132,1,60,2|2,0:0|0:0,0:0:0:0:
496,216,55996,2,0,P|476:242|436:245,1,60,2|2,0:0|0:0,0:0:0:0:
351,169,56420,1,2,0:1:0:0:
125,214,56998,6,0,B|98:204|98:204|122:111,1,101.249996910095,0|0,1:0|0:0,1:0:0:0:
185,80,57510,2,0,B|212:90|212:90|188:183,1,101.249996910095,0|0,1:0|0:0,1:0:0:0:
125,214,58023,2,0,B|98:204|98:204|122:111,1,101.249996910095,0|0,1:0|0:0,1:0:0:0:
185,80,58536,1,0,1:0:0:0:
340,359,59049,6,2,B|300:360|267:336|305:292|244:257|194:269,2,165.000005035401,4|0|0,3:0|0:0|0:0,0:1:0:0:
454,311,60593,1,0,3:0:0:0:
255,57,61106,6,0,P|266:102|278:154,1,89.9999972534181,4|8,3:0|3:0,0:0:0:0:
304,260,61841,1,8,3:0:0:0:
209,230,62081,1,8,0:0:0:0:
120,195,62321,1,8,0:0:0:0:
120,195,62486,2,0,P|111:241|95:292,1,89.9999972534181,2|2,0:1|0:1,0:0:0:0:
270,384,63284,5,2,0:1:0:0:
270,384,63432,2,0,P|255:342|247:286,1,89.9999972534181,4|8,3:0|3:0,0:0:0:0:
304,183,64236,1,8,0:0:0:0:
304,183,64391,1,2,0:1:0:0:
388,254,64715,1,2,0:1:0:0:
162,144,65239,6,0,L|149:98,8,37.5,0|0|0|0|0|0|0|0|0,3:0|3:0|3:0|3:0|3:0|3:0|3:0|3:0|3:0,0:0:0:0:
164,171,67287,1,0,0:0:0:0:
300,380,69054,6,0,P|290:338|277:295,1,80,0|0,3:0|0:0,3:1:0:0:
230,239,69526,2,0,P|220:197|204:154,1,80,0|0,3:0|0:0,3:0:0:0:
162,93,69972,1,8,0:0:0:0:
315,97,70247,6,0,P|305:138|291:187,1,80,0|0,3:0|0:0,3:0:0:0:
230,235,70719,2,0,P|220:276|206:325,1,90,0|2,3:0|0:0,3:0:0:0:
160,384,71151,1,2,0:0:0:0:
160,384,71301,1,2,0:0:0:0:
230,324,73233,6,0,B|251:322|254:333|257:351|272:348|285:343|296:354,1,75,2|8,0:1|0:0,0:0:0:0:
366,364,73705,1,2,0:0:0:0:
166,33,75748,6,0,B|163:44|163:44|189:106|189:106|185:132|185:132|191:179|191:179|200:188,1,157.499995193482,12|0,1:2|0:0,3:0:0:0:
220,257,76302,1,12,1:2:0:0:
246,332,76484,1,12,1:2:0:0:
500,36,77191,6,0,B|499:36|499:36|508:6|508:6|499:22,1,44.999998626709,2|4,1:1|3:0,0:0:0:0:
412,213,79979,5,2,0:1:0:0:
237,179,80482,1,2,0:1:0:0:
423,219,80936,2,0,L|394:110,1,104.999996795654,2|2,0:1|0:1,0:0:0:0:
146,47,81838,6,0,P|125:71|131:124,1,48.7499977684022,2|2,0:0|0:0,0:0:0:0:
90,119,82108,2,0,P|100:149|149:170,1,48.7499977684022,2|2,0:0|0:0,0:0:0:0:
134,203,82378,1,2,0:0:0:0:
236,147,82689,1,2,0:0:0:0:
391,280,83173,5,2,0:0:0:0:
379,299,83301,1,2,0:0:0:0:
359,303,83430,2,0,L|347:352,2,37.5,2|2|2,0:0|0:0|0:0,0:0:0:0:
270,195,83999,5,4,1:0:0:0:
118,337,84639,6,0,B|167:331|169:342|177:358|186:366|222:372,1,104.999996795654,12|0,0:0|0:0,0:0:0:0:
213,370,85795,6,0,P|218:353|221:333,2,25,0|0|0,1:0|1:0|1:0,0:0:0:0:
189,72,86995,6,0,P|181:98|173:134,1,50,0|2,0:0|0:0,0:0:0:0:
114,157,87266,2,0,P|68:130|73:91,1,89.9999972534181,2|2,0:0|0:0,0:0:0:0:
145,0,87814,1,2,3:0:0:0:
331,131,88630,6,0,P|321:185|316:234,1,89.9999972534181,8|4,3:0|3:0,0:0:0:0:
310,340,89235,1,8,0:0:0:0:
25,248,89739,6,0,B|30:245|30:245|46:169|46:169|56:215,1,120,6|4,1:2|1:3,0:0:0:0:
143,329,90461,2,0,B|148:326|148:326|164:250|164:250|174:296,1,120,4|4,1:2|1:3,0:0:0:0:
306,368,91184,2,0,B|313:363|313:363|275:263|275:263|274:259|274:259|298:172|298:172|303:237,1,240,6|6,1:0|1:2,0:0:0:0:
384,274,92269,1,8,1:3:0:0:
499,139,92630,6,0,B|497:132|497:132|258:87,1,240,6|6,1:2|1:2,0:0:0:0:
124,66,93714,1,8,1:3:0:0:
284,18,94076,6,0,B|300:1|300:1|268:88|268:88|234:261,1,240,6|6,1:2|1:2,0:0:0:0:
304,315,95160,2,0,B|335:302|335:302|348:263,1,60
192,288,95522,6,0,B|182:284|182:284|106:295|106:295|147:307|147:307|151:313,1,120,6|4,1:2|1:3,0:0:0:0:
90,193,96245,2,0,B|80:189|80:189|4:200|4:200|45:212|45:212|49:218,1,120,6|4,1:2|1:3,0:0:0:0:
194,180,96967,2,0,B|199:173|199:173|173:124|173:124|193:95|193:95|183:131,2,120,6|4|6,1:2|1:3|1:2,0:0:0:0:
24,383,98413,6,0,B|6:368|6:368|21:301|21:301|61:341,1,120,6|4,1:2|1:3,0:0:0:0:
199,382,99136,2,0,B|217:367|217:367|202:300|202:300|162:340,1,120,6|0,1:2|0:0,0:0:0:0:
310,202,99859,2,0,B|315:182|315:182|295:211|295:211|321:260|321:260|316:266,1,120,6|4,1:2|1:3,0:0:0:0:
424,370,100582,2,0,B|462:349|462:349|462:343|462:343|449:285,1,90,8|0,1:0|0:0,0:0:0:0:
