osu file format v14

[General]
AudioFilename: audio.mp3
AudioLeadIn: 0
PreviewTime: 1677
Countdown: 0
SampleSet: Soft
StackLeniency: 0.7
Mode: 0
LetterboxInBreaks: 0
WidescreenStoryboard: 1

[Editor]
Bookmarks: 1602,10086,19783,29480,39177,48874,58571,68268,77965,87662,97359,107056
DistanceSpacing: 1
BeatDivisor: 4
GridSize: 32
TimelineZoom: 1

[Metadata]
Title:money machine
TitleUnicode:money machine
Artist:100 gecs
ArtistUnicode:100 gecs
Creator:GIGAROBLOXIAN21
Version:normal
Source:
Tags:1000 english vocals vocalist industrial electronic hyper-pop hyperpop hip-hip hiphop pop autotune one hundred thousand dylan brady laura les osno1 xandeez nuts [poke] pokey
BeatmapID:3225884
BeatmapSetID:1573241

[Difficulty]
HPDrainRate:3
CircleSize:3
OverallDifficulty:4.5
ApproachRate:5
SliderMultiplier:0.999999999999999
SliderTickRate:1

[Events]
//Background and Video events
0,0,"FDkecMhVcAMtg5Y.jpg",0,0
//Break Periods
2,39508,47434
2,87993,95919
//Storyboard Layer 0 (Background)
//Storyboard Layer 1 (Fail)
//Storyboard Layer 2 (Pass)
//Storyboard Layer 3 (Foreground)
//Storyboard Layer 4 (Overlay)
//Storyboard Sound Samples

[TimingPoints]
10218,303.030303030303,4,2,1,60,1,0
19914,-100,4,2,1,80,0,1
28324,-100,4,2,1,70,0,1
28702,-100,4,2,1,50,0,1
29611,-100,4,2,1,80,0,1
39308,-111.111111111111,4,2,1,50,0,0
57490,-111.111111111111,4,2,1,50,0,0
68399,-111.111111111111,4,2,1,80,0,0
68702,-111.111111111111,4,2,1,40,0,0
70218,-111.111111111111,4,2,1,60,0,0
70824,-100,4,2,1,80,0,1
87793,-111.111111111111,4,2,1,40,0,0
97490,-111.111111111111,4,2,2,70,0,0
98324,-111.111111111111,4,2,1,70,0,0
98399,-111.111111111111,4,2,2,70,0,0
98854,-111.111111111111,4,2,1,70,0,0
99233,-111.111111111111,4,2,2,70,0,0
100975,-111.111111111111,4,2,1,70,0,0
101127,-111.111111111111,4,2,2,70,0,0
101505,-111.111111111111,4,2,1,70,0,0
101581,-111.111111111111,4,2,2,70,0,0
101808,-111.111111111111,4,2,1,70,0,0
101884,-111.111111111111,4,2,2,70,0,0
102187,-111.111111111111,4,2,1,70,0,0
102339,-111.111111111111,4,2,2,70,0,0
103096,-111.111111111111,4,2,1,70,0,0
103248,-111.111111111111,4,2,2,70,0,0
103930,-111.111111111111,4,2,1,70,0,0
104005,-111.111111111111,4,2,2,70,0,0
104081,-111.111111111111,4,2,1,70,0,0
104157,-111.111111111111,4,2,2,70,0,0
106808,-111.111111111111,4,2,1,70,0,0
106884,-111.111111111111,4,2,2,70,0,0
107111,-111.111111111111,4,2,1,70,0,0
107187,-111.111111111111,4,2,2,70,0,0
109536,-111.111111111111,4,2,1,70,0,0
109611,-111.111111111111,4,2,2,70,0,0
111960,-111.111111111111,4,2,1,70,0,0
112036,-111.111111111111,4,2,2,45,0,0
113778,-100,4,2,2,5,0,0

[Colours]
Combo1 : 245,250,86
Combo2 : 220,50,54
Combo3 : 85,82,226
Combo4 : 231,131,228

[HitObjects]
464,67,19914,6,0,B|429:55|429:55|401:71|401:71|355:59,1,99.9999999999999,6|2,1:2|0:0,0:0:0:0:
288,100,20521,1,10,0:2:0:0:
214,47,20824,2,0,L|152:38,1,50,2|2,1:0|0:0,0:0:0:0:
126,7,21127,1,2,0:0:0:0:
48,70,21430,1,2,0:0:0:0:
100,155,21733,2,0,L|73:271,1,99.9999999999999,10|0,0:2|0:0,0:0:0:0:
47,293,22187,1,2,0:0:0:0:
47,293,22339,6,0,P|101:273|139:306,1,99.9999999999999,2|2,1:0|0:0,0:0:0:0:
202,365,22945,1,10,0:2:0:0:
304,341,23248,2,0,L|285:280,1,50,2|2,1:0|0:0,0:0:0:0:
321,253,23551,2,0,L|340:192,1,50,2|2,0:0|0:0,0:0:0:0:
309,161,23854,1,2,1:0:0:0:
211,139,24157,1,2,0:1:0:0:
201,48,24460,2,0,L|234:-8,1,50,2|0,0:0|0:0,0:0:0:0:
269,5,24763,6,0,P|311:49|358:45,1,99.9999999999999,2|0,1:0|0:0,0:0:0:0:
428,10,25369,1,10,0:2:0:0:
481,82,25672,2,0,L|454:196,1,99.9999999999999,2|2,1:0|0:0,0:0:0:0:
392,241,26278,2,0,L|403:307,1,50,2|2,0:0|0:0,0:0:0:0:
439,312,26581,1,10,0:2:0:0:
378,378,26884,1,2,0:0:0:0:
309,320,27187,6,0,P|259:300|204:328,1,99.9999999999999,2|2,1:0|0:0,0:0:0:0:
148,372,27793,1,10,0:2:0:0:
83,308,28096,2,0,L|106:244,1,50,2|2,1:0|0:0,0:0:0:0:
75,222,28399,1,2,0:0:0:0:
425,138,29611,6,0,B|456:110|456:110|439:47,1,99.9999999999999,6|0,1:2|0:0,0:0:0:0:
362,8,30217,1,10,0:2:0:0:
305,78,30521,1,2,1:0:0:0:
228,30,30824,2,0,L|165:18,1,50,2|2,0:0|0:0,0:0:0:0:
141,54,31127,1,2,0:0:0:0:
74,115,31430,1,10,0:2:0:0:
125,188,31733,1,2,0:0:0:0:
47,233,32036,6,0,P|101:242|131:292,1,99.9999999999999,2|2,1:0|0:0,0:0:0:0:
99,361,32642,1,10,0:2:0:0:
184,382,32945,2,0,L|237:359,1,50,2|2,1:0|0:0,0:0:0:0:
260,329,33248,2,0,L|325:344,1,50,2|2,0:0|0:0,0:0:0:0:
348,318,33551,1,2,1:0:0:0:
401,245,33854,1,10,0:1:0:0:
347,172,34157,1,2,0:0:0:0:
259,193,34460,6,0,L|227:91,1,99.9999999999999,2|0,1:0|0:0,0:0:0:0:
292,27,35066,1,10,0:2:0:0:
373,65,35369,1,2,1:0:0:0:
454,26,35672,2,0,L|474:93,1,50,2|2,0:0|0:0,0:0:0:0:
507,96,35975,1,2,0:0:0:0:
446,162,36278,2,0,P|492:190|500:247,1,99.9999999999999,10|2,0:2|0:0,0:0:0:0:
459,318,36884,5,2,1:0:0:0:
377,279,37187,1,2,0:0:0:0:
315,344,37490,1,10,0:2:0:0:
234,304,37793,2,0,L|210:201,1,99.9999999999999,2|2,1:0|0:0,0:0:0:0:
232,166,38248,1,2,0:0:0:0:
232,166,38399,1,2,1:0:0:0:
168,102,38702,2,0,P|112:121|62:96,1,99.9999999999999,10|2,0:2|0:0,0:0:0:0:
20,36,39308,5,2,0:0:0:0:
485,192,49005,6,0,P|420:204|365:109,1,179.999994506836,2|10,1:0|0:2,0:0:0:0:
284,162,49914,6,0,L|231:169,1,44.999998626709,2|2,1:0|0:0,0:0:0:0:
209,135,50217,1,2,0:0:0:0:
127,176,50521,1,2,0:0:0:0:
49,131,50824,1,10,0:2:0:0:
35,287,51430,6,0,P|55:323|101:336,1,89.999997253418,2|2,1:0|0:0,0:0:0:0:
181,297,52036,1,10,0:2:0:0:
251,352,52339,1,2,1:0:0:0:
327,294,52642,2,0,P|371:289|415:327,2,89.999997253418,2|2|2,0:0|0:0|0:0,0:0:0:0:
329,118,53854,6,0,B|296:105|296:105|230:121,1,89.999997253418,2|2,1:0|0:0,0:0:0:0:
156,148,54460,1,10,0:2:0:0:
77,78,54763,1,2,1:0:0:0:
0,139,55066,2,0,L|15:233,1,89.999997253418,2|2,0:0|0:0,0:0:0:0:
94,280,55672,1,10,0:2:0:0:
184,242,55975,1,2,0:0:0:0:
243,313,56278,6,0,L|346:336,1,89.999997253418,2|2,1:0|0:0,0:0:0:0:
421,309,56884,2,0,P|443:267|432:216,1,89.999997253418,10|2,0:2|1:0,0:0:0:0:
380,151,57490,2,0,L|356:73,2,59.9999981689453,8|8|8,3:0|3:0|3:0,0:0:0:0:
322,179,58096,2,0,L|300:256,2,59.9999981689453,4|4|4,3:0|3:0|3:0,0:0:0:0:
274,146,58702,6,0,B|243:134|243:134|179:155,1,89.999997253418,6|2,1:2|0:0,0:0:0:0:
189,249,59308,1,10,0:2:0:0:
112,294,59611,1,2,1:0:0:0:
14,244,59914,2,0,L|35:141,1,89.999997253418,2|2,0:0|0:0,0:0:0:0:
0,70,60521,1,10,0:2:0:0:
174,44,61127,6,0,L|234:66,1,44.999998626709,2|2,1:0|0:0,0:0:0:0:
254,82,61430,2,0,L|308:65,1,44.999998626709,2|2,0:0|0:0,0:0:0:0:
320,29,61733,1,10,0:2:0:0:
392,82,62036,1,2,1:0:0:0:
471,40,62339,2,0,B|498:70|498:70|490:134,1,89.999997253418,2|2,0:0|0:0,0:0:0:0:
509,160,62793,1,2,0:0:0:0:
509,160,62945,1,10,0:2:0:0:
450,228,63248,2,0,L|468:281,1,44.999998626709
475,314,63551,6,0,P|434:289|379:304,1,89.999997253418,2|2,1:0|0:0,0:0:0:0:
318,343,64157,1,10,0:2:0:0:
252,281,64460,1,2,1:0:0:0:
311,213,64763,2,0,L|294:157,1,44.999998626709,2|2,0:0|0:0,0:0:0:0:
263,134,65066,2,0,L|280:78,1,44.999998626709,2|2,0:0|0:0,0:0:0:0:
266,48,65369,1,10,0:2:0:0:
175,77,65672,1,2,0:0:0:0:
94,28,65975,6,0,B|63:52|63:52|55:109,1,89.999997253418,2|2,1:0|0:0,0:0:0:0:
6,187,66581,2,0,P|10:250|41:272,1,89.999997253418,10|2,0:2|1:0,0:0:0:0:
116,299,67187,2,0,L|87:383,2,59.9999981689453,8|8|8,3:0|3:0|3:0,0:0:0:0:
172,278,67793,2,0,L|143:194,2,59.9999981689453,4|4|4,3:0|3:0|3:0,0:0:0:0:
227,301,68399,1,6,1:2:0:0:
256,192,68500,12,14,70217,0:2:0:0:
436,275,70824,6,0,L|410:165,1,99.9999999999999,6|2,1:2|0:0,0:0:0:0:
458,95,71430,1,10,0:2:0:0:
382,45,71733,2,0,L|321:29,1,50,2|2,1:0|0:0,0:0:0:0:
313,71,72036,2,0,B|279:88|279:88|210:70,1,99.9999999999999,2|2,0:0|1:0,0:0:0:0:
139,30,72642,1,2,0:1:0:0:
77,95,72945,2,0,L|90:149,1,50,2|0,0:0|0:0,0:0:0:0:
63,180,73248,6,0,P|104:172|145:220,1,99.9999999999999,2|0,1:0|0:0,0:0:0:0:
98,287,73854,1,10,0:2:0:0:
166,345,74157,2,0,L|227:326,1,50,2|0,1:0|0:0,0:0:0:0:
244,296,74460,2,0,L|308:316,1,50,2|2,0:0|0:0,0:0:0:0:
335,299,74763,1,2,0:0:0:0:
395,232,75066,1,10,0:2:0:0:
345,156,75369,1,2,0:0:0:0:
419,104,75672,6,0,B|433:80|433:80|391:10,1,99.9999999999999,2|2,1:0|0:0,0:0:0:0:
307,1,76278,1,10,0:2:0:0:
244,65,76581,2,0,L|189:50,1,50,2|2,1:0|0:0,0:0:0:0:
160,80,76884,2,0,L|100:93,1,50,2|2,0:0|0:0,0:0:0:0:
85,127,77187,1,2,0:0:0:0:
122,208,77490,2,0,P|133:264|183:285,1,99.9999999999999,2|2,0:0|0:0,0:0:0:0:
215,278,77945,1,0,0:0:0:0:
215,278,78096,5,6,1:2:0:0:
369,186,78702,1,10,0:2:0:0:
444,235,79005,1,2,1:0:0:0:
419,321,79308,2,0,L|361:338,1,50,2|2,0:0|0:0,0:0:0:0:
329,317,79611,1,2,0:0:0:0:
257,371,79914,1,10,0:2:0:0:
187,314,80217,1,2,0:0:0:0:
110,362,80521,6,0,B|73:332|73:332|58:268,1,99.9999999999999,2|2,1:0|0:0,0:0:0:0:
7,208,81127,1,10,0:2:0:0:
70,143,81430,2,0,L|137:162,1,50,2|2,1:0|0:0,0:0:0:0:
157,135,81733,2,0,L|224:116,1,50,2|2,0:0|0:0,0:0:0:0:
242,146,82036,1,2,1:0:0:0:
305,81,82339,1,10,0:1:0:0:
386,119,82642,2,0,L|404:177,1,50,2|0,0:0|0:0,0:0:0:0:
443,181,82945,6,0,P|399:225|418:276,1,99.9999999999999,2|0,1:0|0:0,0:0:0:0:
455,333,83551,1,10,0:2:0:0:
374,378,83854,1,2,1:0:0:0:
293,335,84157,2,0,L|237:352,1,50,2|2,0:0|0:0,0:0:0:0:
212,380,84460,1,2,0:0:0:0:
144,320,84763,1,10,0:2:0:0:
185,239,85066,1,2,0:0:0:0:
133,165,85369,6,0,P|107:114|126:65,1,99.9999999999999,2|2,1:0|0:0,0:0:0:0:
193,26,85975,1,10,0:2:0:0:
261,84,86278,2,0,L|321:72,1,50,2|2,1:0|0:0,0:0:0:0:
343,43,86581,2,0,L|445:59,1,99.9999999999999,2|2,0:0|1:0,0:0:0:0:
495,130,87187,1,10,0:2:0:0:
448,210,87490,2,0,L|460:270,1,50,2|0,0:0|0:0,0:0:0:0:
482,279,87793,5,2,0:0:0:0:
481,186,97490,6,2,B|416:203|416:203|397:241|397:241|313:215|313:215|329:258|329:258|317:295,1,269.999991760254,2|2,0:1|0:1,0:1:0:0:
84,337,99233,2,0,L|111:232,1,89.999997253418,2|2,0:1|0:1,0:0:0:0:
175,192,99914,2,2,B|104:149|104:149|85:64|85:64|179:13|179:13|242:92,1,359.999989013672,2|2,0:1|0:1,0:1:0:0:
281,191,102339,6,0,B|340:174|368:221|352:227|395:273|445:237,1,179.999994506836,0|2,1:0|0:1,0:0:0:0:
512,281,103248,2,0,B|458:251|471:198|487:205|489:142|428:132,1,179.999994506836,0|2,1:0|0:1,0:0:0:0:
281,191,104763,2,0,B|340:174|368:221|352:227|395:273|445:237,1,179.999994506836,0|2,1:0|0:1,0:0:0:0:
512,281,105672,2,0,B|458:251|471:198|487:205|489:142|428:132,2,179.999994506836,0|0|2,1:0|1:0|0:1,0:0:0:0:
453,348,107187,6,0,B|410:350|410:350|349:322|349:322|300:378,1,179.999994506836,0|2,1:0|0:1,0:0:0:0:
233,320,108096,2,0,B|209:309|209:309|191:231|191:231|225:189|225:189|244:157,1,179.999994506836,0|2,1:0|0:1,0:0:0:0:
19,9,109611,2,0,B|58:69|58:69|23:111|23:111|15:141|15:141|20:182,1,179.999994506836,0|2,1:0|0:1,0:0:0:0:
104,197,110521,2,0,B|122:217|122:217|169:193|169:193|198:158|198:158|263:176,2,179.999994506836,0|0|0,1:0|1:0|0:0,0:0:0:0:
59,274,112036,5,0,1:0:0:0:
