osu file format v14

[General]
AudioFilename: audio.mp3
AudioLeadIn: 0
PreviewTime: 1677
Countdown: 0
SampleSet: Soft
StackLeniency: 0.4
Mode: 0
LetterboxInBreaks: 0
WidescreenStoryboard: 1

[Editor]
Bookmarks: 1602,10086,19783,29480,39177,48874,58571,68268,77965,87662,97359,107056
DistanceSpacing: 1.8
BeatDivisor: 4
GridSize: 32
TimelineZoom: 1.7

[Metadata]
Title:money machine
TitleUnicode:money machine
Artist:100 gecs
ArtistUnicode:100 gecs
Creator:GIGAROBLOXIAN21
Version:insane
Source:
Tags:1000 english vocals vocalist industrial electronic hyper-pop hyperpop hip-hip hiphop pop autotune one hundred thousand dylan brady laura les osno1 xandeez nuts [poke] pokey
BeatmapID:3227200
BeatmapSetID:1573241

[Difficulty]
HPDrainRate:5
CircleSize:4
OverallDifficulty:8
ApproachRate:8.9
SliderMultiplier:1.6
SliderTickRate:1

[Events]
//Background and Video events
0,0,"FDkecMhVcAMtg5Y.jpg",0,0
//Break Periods
2,39508,48390
2,87993,96875
//Storyboard Layer 0 (Background)
//Storyboard Layer 1 (Fail)
//Storyboard Layer 2 (Pass)
//Storyboard Layer 3 (Foreground)
//Storyboard Layer 4 (Overlay)
//Storyboard Sound Samples

[TimingPoints]
10218,303.030303030303,4,2,1,60,1,0
19914,-100,4,2,1,80,0,1
28324,-100,4,2,1,70,0,1
28702,-100,4,2,1,50,0,1
29611,-100,4,2,1,80,0,1
39308,-133.333333333333,4,2,1,50,0,0
49005,-133.333333333333,4,2,1,40,0,0
57490,-133.333333333333,4,2,1,50,0,0
58702,-119.047619047619,4,2,1,60,0,0
68399,-1000,4,2,1,80,0,0
68702,-1000,4,2,1,40,0,0
70218,-200,4,2,1,60,0,0
70824,-100,4,2,1,80,0,1
87793,-100,4,2,1,40,0,0
97490,-100,4,2,2,70,0,0
98248,-100,4,2,2,5,0,0
98399,-100,4,2,2,70,0,0
99081,-100,4,2,2,5,0,0
99157,-100,4,2,2,70,0,0
100672,-100,4,2,2,5,0,0
100975,-100,4,2,2,70,0,0
101430,-100,4,2,2,5,0,0
101581,-100,4,2,2,70,0,0
102187,-100,4,2,2,5,0,0
102339,-100,4,2,2,70,0,0
103096,-100,4,2,2,5,0,0
103248,-100,4,2,2,70,0,0
104611,-100,4,2,2,5,0,0
104763,-100,4,2,2,70,0,0
106505,-100,4,2,2,5,0,0
106581,-100,4,2,2,70,0,0
106733,-100,4,2,2,5,0,0
106884,-100,4,2,2,70,0,0
109536,-100,4,2,2,5,0,0
109611,-100,4,2,2,70,0,0
111505,-100,4,2,2,5,0,0
111581,-100,4,2,2,70,0,0
111960,-100,4,2,2,5,0,0
112036,-100,4,2,2,45,0,0
113778,-100,4,2,2,5,0,0

[Colours]
Combo1 : 245,250,86
Combo2 : 220,50,54
Combo3 : 85,82,226
Combo4 : 231,131,228

[HitObjects]
369,312,19914,5,6,1:2:0:0:
369,312,20066,1,2,0:0:0:0:
250,241,20217,2,0,P|262:293|280:339,1,80,2|0,0:0|0:0,0:0:0:0:
346,118,20521,2,0,P|337:207|329:251,1,120,10|0,0:2|0:0,0:0:0:0:
332,106,20824,6,0,B|382:86|382:86|437:113|437:113|500:85,1,160,2|2,1:0|0:0,0:0:0:0:
478,94,21278,1,2,0:0:0:0:
512,19,21430,1,2,0:0:0:0:
335,19,21733,5,10,0:2:0:0:
335,19,22137,5,2,0:0:0:0:
204,61,22339,6,0,P|232:94|229:141,1,80,2|0,1:0|0:0,0:0:0:0:
119,226,22642,2,0,P|162:229|198:199,1,80,2|0,0:0|0:0,0:0:0:0:
111,103,22945,2,0,P|75:94|111:117,1,120,10|0,0:2|0:0,0:0:0:0:
126,113,23248,5,2,1:0:0:0:
37,202,23399,1,2,0:0:0:0:
83,293,23551,5,2,0:0:0:0:
119,226,23702,1,2,0:0:0:0:
1,301,23854,1,2,1:0:0:0:
240,293,24157,6,0,L|277:375,1,80,2|0,0:1|0:0,0:0:0:0:
305,222,24460,1,2,0:0:0:0:
305,222,24611,1,0,0:0:0:0:
510,278,24763,6,0,B|525:305|503:326|503:326|443:294|401:293,1,160,2|0,1:0|0:0,0:0:0:0:
402,293,25217,1,0,0:0:0:0:
436,135,25369,6,0,P|444:176|452:222,1,80,10|0,0:2|0:0,0:0:0:0:
334,340,25672,2,0,B|315:361|326:384|326:384|336:361|353:351,1,80,2|0,1:0|0:0,0:0:0:0:
402,293,25975,5,2,0:0:0:0:
402,293,26127,1,2,0:0:0:0:
459,226,26278,1,2,0:0:0:0:
459,226,26430,1,2,0:0:0:0:
279,82,26581,5,10,0:2:0:0:
279,82,26884,1,2,0:0:0:0:
112,228,27187,6,0,P|109:178|98:105,1,120,2|0,1:0|0:0,0:0:0:0:
29,137,27490,2,0,P|35:194|34:218,1,80,2|0,0:0|0:0,0:0:0:0:
186,203,27793,2,0,P|180:146|181:122,1,80,10|0,0:2|0:0,0:0:0:0:
88,322,28096,5,2,1:0:0:0:
172,378,28248,1,2,0:0:0:0:
238,329,28399,5,2,0:0:0:0:
241,319,28551,1,2,0:0:0:0:
229,321,28702,1,2,0:0:0:0:
307,359,29005,5,2,0:0:0:0:
372,318,29308,5,2,0:0:0:0:
325,108,29611,6,0,B|339:167|382:160|384:148|428:157|436:207,1,160,6|0,1:2|0:0,0:0:0:0:
435,204,30066,1,0,0:0:0:0:
398,80,30217,2,0,P|438:59|481:69,1,80,10|0,0:2|0:0,0:0:0:0:
268,178,30521,6,0,P|219:161|145:136,1,120,2|0,1:0|0:0,0:0:0:0:
137,137,30824,5,2,0:0:0:0:
59,174,30975,1,2,0:0:0:0:
81,68,31127,1,2,0:0:0:0:
81,68,31278,1,2,0:0:0:0:
220,76,31430,6,0,L|195:-9,1,80,10|0,0:2|0:0,0:0:0:0:
304,93,31733,1,2,0:0:0:0:
301,322,32036,6,0,L|273:236,1,80,2|0,1:0|0:0,0:0:0:0:
440,384,32339,2,0,L|468:298,1,80,2|0,0:0|0:0,0:0:0:0:
362,181,32642,2,0,B|370:171|368:146|368:146|391:246,1,120,10|0,0:2|0:0,0:0:0:0:
382,246,32945,5,2,1:0:0:0:
489,151,33096,1,2,0:0:0:0:
509,228,33248,5,2,0:0:0:0:
473,149,33399,1,2,0:0:0:0:
507,0,33551,2,0,B|489:17|489:17|425:3,1,80,2|0,1:0|0:0,0:0:0:0:
273,118,33854,5,10,0:1:0:0:
273,118,34157,1,2,0:0:0:0:
314,55,34308,1,0,0:0:0:0:
169,137,34460,6,0,B|200:172|200:172|203:206|179:249|112:231,1,160,2|0,1:0|0:0,0:0:0:0:
126,234,34914,1,0,0:0:0:0:
15,129,35066,2,0,P|55:129|84:172,1,80,10|0,0:2|0:0,0:0:0:0:
57,350,35369,6,0,P|40:296|29:228,1,120,2|0,1:0|0:0,0:0:0:0:
69,361,35672,1,2,0:0:0:0:
136,323,35824,1,2,0:0:0:0:
198,370,35975,1,2,0:0:0:0:
186,384,36127,1,2,0:0:0:0:
245,275,36278,6,0,L|215:183,1,80,10|0,0:2|0:0,0:0:0:0:
268,140,36581,1,2,0:0:0:0:
426,357,36884,6,0,B|443:296|443:296|477:279|477:279|496:204,1,160,2|2,1:0|0:0,0:0:0:0:
491,222,37339,1,0,0:0:0:0:
330,240,37490,2,0,L|415:208,1,80,10|0,0:2|0:0,0:0:0:0:
494,91,37793,6,0,B|502:73|497:46|497:46|491:71|470:79,1,80,2|2,1:0|0:0,0:0:0:0:
411,129,38096,1,2,0:0:0:0:
402,117,38248,1,2,0:0:0:0:
274,167,38399,6,0,L|298:78,1,80,2|0,1:0|0:0,0:0:0:0:
278,12,38702,2,0,P|234:30|267:41,1,80,10|0,0:2|0:0,0:0:0:0:
294,89,39005,1,2,0:0:0:0:
294,89,39157,1,0,0:0:0:0:
274,167,39308,5,2,0:0:0:0:
43,48,49005,6,0,B|70:29|70:29|50:132,1,120.000004577637,2|2,1:0|0:0,0:0:0:0:
53,114,49460,1,2,0:0:0:0:
177,145,49611,2,0,P|162:115|120:98,1,60.0000022888184,10|0,0:2|0:0,0:0:0:0:
55,202,49914,5,2,1:0:0:0:
55,202,50066,1,2,0:0:0:0:
103,265,50217,2,0,L|86:341,1,60.0000022888184,2|2,0:0|0:0,0:0:0:0:
29,377,50521,1,2,0:0:0:0:
274,380,50824,6,0,B|281:359|257:343|257:343|217:359|156:364,1,120.000004577637,10|0,0:2|0:0,0:0:0:0:
297,242,51430,6,0,P|295:206|283:161,1,60.0000022888184,2|2,1:0|0:0,0:0:0:0:
377,231,51733,2,0,P|372:201|371:172,1,60.0000022888184,2|2,0:0|0:0,0:0:0:0:
321,82,52036,1,10,0:2:0:0:
486,20,52339,6,0,B|495:33|495:33|467:117,1,90.0000034332277,2|0,1:0|0:0,0:0:0:0:
461,113,52642,1,2,0:0:0:0:
461,113,52793,1,2,0:0:0:0:
512,206,52945,1,2,0:0:0:0:
484,272,53096,1,2,0:0:0:0:
362,237,53248,5,10,0:2:0:0:
244,354,53551,6,0,L|318:344,1,60.0000022888184
195,291,53854,5,2,1:0:0:0:
195,291,54005,1,2,0:0:0:0:
248,214,54157,1,2,0:0:0:0:
208,150,54308,1,2,0:0:0:0:
109,210,54460,6,0,P|56:208|2:192,1,90.0000034332277,10|0,0:2|0:0,0:0:0:0:
0,197,54763,2,0,P|27:174|70:162,1,60.0000022888184,2|0,1:0|0:0,0:0:0:0:
69,284,55066,5,2,0:0:0:0:
69,284,55217,1,2,0:0:0:0:
0,320,55369,1,2,0:0:0:0:
39,384,55521,1,2,0:0:0:0:
165,325,55672,6,0,L|226:295,1,60.0000022888184,10|0,0:2|0:0,0:0:0:0:
226,378,55975,1,2,0:0:0:0:
388,300,56278,6,0,B|357:215|357:215|372:181,1,120.000004577637,2|2,1:0|0:0,0:0:0:0:
391,9,56884,2,0,B|422:94|422:94|407:128,1,120.000004577637,10|2,0:2|1:0,0:0:0:0:
410,121,57339,1,2,0:0:0:0:
331,104,57490,6,0,L|241:128,1,80.0000030517579,8|8,3:0|3:0,0:0:0:0:
253,124,57894,1,8,3:0:0:0:
210,201,58096,6,0,L|120:177,1,80.0000030517579,4|4,3:0|3:0,0:0:0:0:
132,180,58500,1,4,3:0:0:0:
63,299,58702,5,6,1:2:0:0:
152,367,58854,1,2,0:0:0:0:
219,302,59005,1,2,0:0:0:0:
206,294,59157,1,2,0:0:0:0:
304,365,59308,6,0,L|228:388,1,67.1999979492188,10|0,0:2|0:0,0:0:0:0:
378,270,59611,6,0,P|371:243|346:189,1,67.1999979492188,2|2,1:0|0:0,0:0:0:0:
469,270,59914,2,0,P|443:216|416:142,1,134.399995898438,2|2,0:0|0:0,0:0:0:0:
417,146,60369,1,2,0:0:0:0:
472,21,60521,6,0,B|427:40|427:40|411:66|411:66|346:87,1,134.399995898438,10|0,0:2|0:0,0:0:0:0:
145,10,61127,6,0,L|231:32,1,67.1999979492188,2|2,1:0|0:0,0:0:0:0:
75,72,61430,1,2,0:0:0:0:
75,72,61581,1,2,0:0:0:0:
199,141,61733,6,0,B|183:172|183:172|208:239,1,100.799996923828,10|0,0:2|0:0,0:0:0:0:
222,241,62036,2,0,L|214:315,1,67.1999979492188,2|0,1:0|0:0,0:0:0:0:
135,357,62339,5,2,0:0:0:0:
84,299,62490,1,2,0:0:0:0:
287,354,62642,1,2,0:0:0:0:
278,369,62793,1,2,0:0:0:0:
303,250,62945,5,10,0:2:0:0:
421,340,63248,6,0,L|399:263,1,67.1999979492188
474,178,63551,5,2,1:0:0:0:
394,98,63702,1,2,0:0:0:0:
335,163,63854,1,2,0:0:0:0:
350,176,64005,1,2,0:0:0:0:
480,99,64157,6,0,L|497:30,1,67.1999979492188,10|0,0:2|0:0,0:0:0:0:
319,62,64460,6,0,P|263:46|213:29,1,100.799996923828,2|0,1:0|0:0,0:0:0:0:
217,20,64763,1,2,0:0:0:0:
217,20,64914,1,2,0:0:0:0:
130,155,65066,2,0,L|112:229,1,67.1999979492188,2|2,0:0|0:0,0:0:0:0:
10,50,65369,6,0,P|63:36|109:31,1,100.799996923828,10|0,0:2|0:0,0:0:0:0:
121,41,65672,1,2,0:0:0:0:
206,209,65975,6,0,P|223:265|241:311,1,100.799996923828,2|0,1:0|0:0,0:0:0:0:
252,307,66278,1,2,0:0:0:0:
404,288,66581,6,0,P|377:346|356:383,1,100.799996923828,10|0,0:2|0:0,0:0:0:0:
348,378,66884,1,2,1:0:0:0:
348,378,67036,1,2,0:0:0:0:
314,252,67187,6,0,L|333:165,1,89.5999972656251,8|8,3:0|3:0,0:0:0:0:
400,132,67490,1,8,0:2:0:0:
400,132,67591,2,0,L|382:73,1,44.7999986328125,8|0,3:0|0:0,0:0:0:0:
303,26,67793,5,4,3:0:0:0:
204,53,67995,1,4,3:0:0:0:
206,65,68071,1,8,0:2:0:0:
262,115,68197,1,4,3:0:0:0:
186,169,68399,6,0,B|175:174|175:174|171:206|171:206|194:187|194:187|193:172,1,88,6|0,1:2|0:0,0:0:0:0:
154,100,70218,6,0,B|115:88|99:117|109:121|86:149|46:133,1,120,14|2,0:2|0:0,0:0:0:0:
61,248,70824,6,0,P|31:213|-6:216,1,80,6|0,1:2|0:0,0:0:0:0:
178,292,71127,2,0,P|173:246|201:221,1,80,2|0,0:0|0:0,0:0:0:0:
45,366,71430,2,0,B|61:335|61:335|178:293,1,160,10|2,0:2|1:0,0:0:0:0:
178,292,71884,5,2,0:0:0:0:
280,370,72036,1,2,0:0:0:0:
335,317,72187,1,2,0:0:0:0:
198,380,72339,1,2,1:0:0:0:
266,178,72642,6,0,L|247:91,1,80,2|0,0:1|0:0,0:0:0:0:
300,37,72945,1,2,0:0:0:0:
300,37,73096,1,0,0:0:0:0:
449,119,73248,6,0,B|482:159|452:206|432:186|412:243|466:291,1,160,2|0,1:0|0:0,0:0:0:0:
460,276,73702,1,0,0:0:0:0:
309,307,73854,2,0,P|340:268|379:275,1,80,10|0,0:2|0:0,0:0:0:0:
473,364,74157,5,2,1:0:0:0:
299,315,74460,5,2,0:0:0:0:
186,376,74611,1,2,0:0:0:0:
112,289,74763,1,2,0:0:0:0:
179,248,74914,1,2,0:0:0:0:
8,375,75066,6,0,P|36:247|37:226,1,120,10|0,0:2|0:0,0:0:0:0:
26,247,75369,1,2,0:0:0:0:
102,111,75672,6,0,L|196:136,1,80,2|0,1:0|0:0,0:0:0:0:
282,15,75975,2,0,L|188:40,1,80,2|0,0:0|0:0,0:0:0:0:
301,196,76278,2,0,B|321:225|365:223|365:223|326:211|308:163,1,120,10|0,0:2|0:0,0:0:0:0:
314,179,76581,5,2,1:0:0:0:
391,109,76733,1,2,0:0:0:0:
459,146,76884,1,2,0:0:0:0:
465,163,77036,1,2,0:0:0:0:
407,291,77187,2,0,L|435:370,1,80,2|0,0:0|0:0,0:0:0:0:
301,196,77490,6,0,B|264:186|238:208|251:213|218:240|189:227,1,120,2|0,0:0|0:0,0:0:0:0:
182,216,77793,1,2,0:0:0:0:
182,216,77945,1,0,0:0:0:0:
73,363,78096,6,0,B|48:315|48:315|78:196,1,160,6|0,1:2|0:0,0:0:0:0:
73,212,78551,1,0,0:0:0:0:
21,0,78702,6,0,P|75:21|88:60,1,80,10|0,0:2|0:0,0:0:0:0:
4,156,79005,2,0,B|-10:172|-6:196|-6:196|-1:171|21:159,1,80,2|0,1:0|0:0,0:0:0:0:
81,120,79308,5,2,0:0:0:0:
81,120,79460,1,2,0:0:0:0:
167,224,79611,1,2,0:0:0:0:
232,182,79763,1,2,0:0:0:0:
233,76,79914,6,0,L|259:-7,1,80,10|0,0:2|0:0,0:0:0:0:
169,16,80217,1,2,0:0:0:0:
374,175,80521,6,0,P|437:169|460:105,1,120,2|0,1:0|0:0,0:0:0:0:
475,124,80824,2,0,P|467:163|421:190,1,80,2|0,0:0|0:0,0:0:0:0:
367,28,81127,2,0,B|394:9|394:9|345:96,1,120,10|0,0:2|0:0,0:0:0:0:
335,88,81430,5,2,1:0:0:0:
259,49,81581,1,2,0:0:0:0:
204,194,81733,1,2,0:0:0:0:
274,161,81884,1,2,0:0:0:0:
146,91,82036,2,0,L|62:123,1,80,2|0,1:0|0:0,0:0:0:0:
32,290,82339,5,10,0:1:0:0:
32,290,82642,5,2,0:0:0:0:
2,216,82793,1,0,0:0:0:0:
175,307,82945,6,0,P|234:301|304:280,1,120,2|0,1:0|0:0,0:0:0:0:
299,267,83248,1,0,0:0:0:0:
299,267,83399,1,0,0:0:0:0:
208,379,83551,2,0,P|272:370|301:358,1,80,10|0,0:2|0:0,0:0:0:0:
218,220,83854,1,2,1:0:0:0:
218,220,84157,5,2,0:0:0:0:
135,120,84308,1,2,0:0:0:0:
315,111,84460,1,2,0:0:0:0:
301,187,84611,1,2,0:0:0:0:
222,74,84763,6,0,B|211:54|211:54|235:-15,1,80,10|0,0:2|0:0,0:0:0:0:
307,102,85066,1,2,0:0:0:0:
431,214,85369,6,0,P|455:176|439:120,1,80,2|0,1:0|0:0,0:0:0:0:
301,187,85672,2,0,P|321:226|378:240,1,80,2|0,0:0|0:0,0:0:0:0:
503,66,85975,2,0,P|444:46|384:86,1,120,10|0,0:2|0:0,0:0:0:0:
393,91,86278,5,2,1:0:0:0:
452,142,86430,1,2,0:0:0:0:
383,320,86581,1,2,0:0:0:0:
352,241,86733,1,2,0:0:0:0:
491,296,86884,2,0,L|466:386,1,80,2|0,1:0|0:0,0:0:0:0:
318,380,87187,5,10,0:2:0:0:
318,380,87490,1,2,0:0:0:0:
318,380,87793,5,2,0:0:0:0:
207,35,97490,6,2,B|163:77|163:77|89:13|89:13|123:12|123:12|232:101|232:101|227:103|227:103|202:183,1,400,2|2,0:1|0:1,0:1:0:0:
137,227,98399,2,2,B|97:192|97:192|183:239|183:239|175:246|175:246|205:364|205:364|181:347|181:347|213:300,1,360,2|2,0:1|0:1,0:1:0:0:
221,304,99233,2,0,B|277:328|277:328|315:308|315:308|382:329,1,160,2|2,0:1|0:1,0:0:0:0:
422,383,99839,6,2,B|390:343|390:343|407:283|407:283|411:277|411:277|409:195|409:195|385:227|385:227|473:172|473:172|432:61,1,440,2|2,0:1|0:1,0:1:0:0:
440,84,100975,1,2,0:1:0:0:
352,27,101127,2,2,B|288:41|288:41|267:77|267:77|192:117,1,160,2|2,0:1|0:1,0:1:0:0:
151,73,101581,5,2,0:1:0:0:
95,175,101884,2,2,B|148:228|148:228|153:227|153:227|148:228|148:228|141:325,1,160,2|2,0:1|0:0,0:0:0:0:
25,385,102339,6,0,L|-17:376,6,40,0|0|0|0|0|0|0,1:0|0:0|0:0|0:0|0:0|0:0|0:0,0:0:0:0:
100,353,102945,2,0,B|126:378|126:378|143:364|143:364|181:390,1,80,2|0,0:1|0:0,0:0:0:0:
314,374,103248,6,0,L|375:386,6,40,0|0|0|0|0|0|2,1:0|0:0|0:0|0:0|0:0|0:0|0:1,0:0:0:0:
277,297,103854,1,2,0:1:0:0:
277,297,104005,1,2,0:1:0:0:
335,235,104157,2,2,B|379:259|379:259|348:226|348:226|332:184|332:184|335:176|335:176|354:72,1,240,2|2,0:1|0:1,0:1:0:0:
459,13,104763,6,0,L|509:34,6,40,0|0|0|0|0|0|0,1:0|0:0|0:0|0:0|0:0|0:0|0:0,0:0:0:0:
362,5,105369,2,0,B|327:13|327:13|292:7|292:7|289:40,1,80,2|2,0:1|0:1,0:0:0:0:
182,95,105672,6,0,L|124:62,4,40,0|0|0|0|0,1:0|0:0|0:0|0:0|0:0,0:0:0:0:
203,171,106127,1,2,0:1:0:0:
152,259,106278,6,0,B|236:247|236:247|257:234|257:234|289:260,1,120,0|0,0:0|0:0,0:0:0:0:
272,253,106581,2,0,L|257:346,1,80,2|0,0:1|0:0,0:0:0:0:
357,242,106884,2,0,B|365:202|365:202|342:145,1,80,2|0,0:1|0:0,0:0:0:0:
136,276,107187,6,0,L|70:257,6,40,0|0|0|0|0|0|0,1:0|0:0|0:0|0:0|0:0|0:0|0:0,0:0:0:0:
179,205,107793,2,0,B|146:168|146:168|158:144|158:144|149:118,1,80,2|2,0:1|0:1,0:0:0:0:
88,17,108096,6,0,L|34:3,6,40,0|0|0|0|0|0|0,1:0|0:0|0:0|0:0|0:0|0:0|0:0,0:0:0:0:
31,76,108702,6,2,B|73:57|73:57|102:62|102:62|141:25|141:25|168:45|168:45|285:27|285:27|262:67|262:67|365:125,1,440,2|2,0:1|0:1,0:1:0:0:
367,111,109611,6,0,L|432:125,6,40,0|0|0|0|0|0|0,1:0|0:0|0:0|0:0|0:0|0:0|0:0,0:0:0:0:
310,216,110217,2,0,B|300:185|300:185|261:174|261:174|275:204,1,80,2|0,0:1|0:0,0:0:0:0:
336,336,110521,6,0,L|321:382,4,40,0|0|0|0|0,1:0|0:0|0:0|0:0|0:0,0:0:0:0:
410,299,110975,1,2,0:1:0:0:
486,211,111127,6,0,B|463:158|463:158|449:84|449:84|447:121|447:121|405:130,1,200
495,197,111581,2,2,B|501:150|501:150|478:128|478:128|489:98|489:98|500:104|500:104|477:21,1,200,2|2,0:1|0:1,0:1:0:0:
469,26,112036,5,0,1:0:0:0:
