osu file format v14

[General]
AudioFilename: audio.mp3
AudioLeadIn: 0
PreviewTime: 1677
Countdown: 0
SampleSet: Soft
StackLeniency: 0.5
Mode: 0
LetterboxInBreaks: 0
WidescreenStoryboard: 1

[Editor]
Bookmarks: 1602,10086,19783,29480,39177,48874,58571,68268,77965,87662,97359,107056
DistanceSpacing: 1
BeatDivisor: 4
GridSize: 32
TimelineZoom: 1

[Metadata]
Title:money machine
TitleUnicode:money machine
Artist:100 gecs
ArtistUnicode:100 gecs
Creator:GIGAROBLOXIAN21
Version:hard
Source:
Tags:1000 english vocals vocalist industrial electronic hyper-pop hyperpop hip-hip hiphop pop autotune one hundred thousand dylan brady laura les osno1 xandeez nuts [poke] pokey
BeatmapID:3227566
BeatmapSetID:1573241

[Difficulty]
HPDrainRate:4.5
CircleSize:3
OverallDifficulty:6.9
ApproachRate:7.7
SliderMultiplier:1.3
SliderTickRate:1

[Events]
//Background and Video events
0,0,"FDkecMhVcAMtg5Y.jpg",0,0
//Break Periods
2,39508,48210
2,87993,96695
//Storyboard Layer 0 (Background)
//Storyboard Layer 1 (Fail)
//Storyboard Layer 2 (Pass)
//Storyboard Layer 3 (Foreground)
//Storyboard Layer 4 (Overlay)
//Storyboard Sound Samples

[TimingPoints]
10218,303.030303030303,4,2,1,60,1,0
19914,-100,4,2,1,80,0,1
28324,-100,4,2,1,70,0,1
28702,-100,4,2,1,50,0,1
29611,-100,4,2,1,80,0,1
39307,-100,4,2,1,50,0,0
49005,-133.333333333333,4,2,1,40,0,0
57490,-133.333333333333,4,2,1,50,0,0
58702,-119.047619047619,4,2,1,60,0,0
68399,-263.157894736842,4,2,1,80,0,0
68702,-263.157894736842,4,2,1,40,0,0
70218,-151.515151515152,4,2,1,60,0,0
70824,-100,4,2,1,80,0,1
87792,-100,4,2,1,40,0,0
97490,-100,4,2,2,70,0,0
98172,-100,4,2,2,5,0,0
98399,-100,4,2,2,70,0,0
100975,-100,4,2,2,5,0,0
101127,-100,4,2,2,70,0,0
101430,-100,4,2,2,5,0,0
101581,-100,4,2,2,70,0,0
102187,-100,4,2,2,5,0,0
102339,-100,4,2,2,70,0,0
103096,-100,4,2,2,5,0,0
103248,-100,4,2,2,70,0,0
104611,-100,4,2,2,5,0,0
104763,-100,4,2,2,70,0,0
106505,-100,4,2,2,5,0,0
106581,-100,4,2,2,70,0,0
106884,-100,4,2,2,70,0,0
109460,-100,4,2,2,5,0,0
109611,-100,4,2,2,70,0,0
111430,-100,4,2,2,5,0,0
111581,-100,4,2,2,70,0,0
111960,-100,4,2,2,5,0,0
112036,-100,4,2,2,45,0,0
113778,-100,4,2,2,5,0,0

[Colours]
Combo1 : 245,250,86
Combo2 : 220,50,54
Combo3 : 85,82,226
Combo4 : 231,131,228

[HitObjects]
444,95,19914,6,0,L|366:108,1,65,6|2,1:2|0:0,0:0:0:0:
305,56,20217,2,0,P|340:118|295:175,1,130,2|10,0:0|0:2,0:0:0:0:
202,277,20824,1,2,0:0:0:0:
239,196,20975,1,2,1:0:0:0:
183,125,21127,6,0,L|111:149,1,65,2|2,0:0|0:0,0:0:0:0:
46,108,21430,1,2,0:0:0:0:
2,281,21733,2,0,B|31:303|31:303|134:263,1,130,10|0,0:2|0:0,0:0:0:0:
118,269,22187,1,2,0:0:0:0:
222,323,22339,6,0,L|291:343,1,65,2|0,1:0|0:0,0:0:0:0:
373,384,22642,2,0,L|442:364,1,65,2|0,0:0|0:0,0:0:0:0:
474,283,22945,1,10,0:2:0:0:
394,127,23248,1,2,1:0:0:0:
394,127,23399,1,2,0:0:0:0:
324,191,23551,6,0,L|242:206,1,65,2|2,0:0|0:0,0:0:0:0:
181,254,23854,2,0,B|212:220|212:220|196:126,1,130,2|2,1:0|0:1,0:0:0:0:
35,130,24460,2,0,L|56:57,1,65,2|0,0:0|0:0,0:0:0:0:
141,9,24763,6,0,P|93:5|54:74,1,130,2|0,1:0|0:0,0:0:0:0:
53,67,25217,1,0,0:0:0:0:
116,164,25369,2,0,L|95:241,1,65,10|0,0:2|0:0,0:0:0:0:
19,271,25672,2,0,L|35:345,1,65,2|0,1:0|0:0,0:0:0:0:
125,362,25975,5,2,0:0:0:0:
125,362,26127,1,2,0:0:0:0:
205,305,26278,2,0,L|277:330,1,65,2|2,0:0|0:0,0:0:0:0:
356,283,26581,1,10,0:2:0:0:
495,375,26884,1,2,0:0:0:0:
347,270,27187,6,0,B|381:233|381:233|357:133,1,130,2|2,1:0|0:0,0:0:0:0:
313,72,27642,1,0,0:0:0:0:
221,100,27793,2,0,L|149:82,1,65,10|0,0:2|0:0,0:0:0:0:
87,36,28096,6,0,P|121:88|77:163,1,130,2|2,1:0|0:0,0:0:0:0:
100,147,28551,1,2,0:0:0:0:
100,147,28702,1,2,0:0:0:0:
313,311,29611,6,0,B|300:266|300:266|269:244|269:244|250:179,1,130,6|0,1:2|0:0,0:0:0:0:
256,200,30066,1,0,0:0:0:0:
333,139,30217,2,0,L|350:63,1,65,10|0,0:2|0:0,0:0:0:0:
415,180,30521,2,0,L|432:256,1,65,2|0,1:0|0:0,0:0:0:0:
506,292,30824,5,2,0:0:0:0:
506,292,30975,1,2,0:0:0:0:
465,372,31127,2,0,L|395:353,1,65,2|2,0:0|0:0,0:0:0:0:
313,384,31430,1,10,0:2:0:0:
162,344,31733,1,2,0:0:0:0:
305,368,32036,6,0,B|278:329|278:329|297:231,1,130,2|2,1:0|0:0,0:0:0:0:
226,184,32642,1,10,0:2:0:0:
366,66,32945,1,2,1:0:0:0:
285,19,33096,1,2,0:0:0:0:
208,77,33248,5,2,0:0:0:0:
208,77,33399,1,2,0:0:0:0:
128,13,33551,2,0,L|49:42,1,65,2|0,1:0|0:0,0:0:0:0:
37,115,33854,1,10,0:1:0:0:
131,250,34157,2,0,L|115:334,1,65,2|0,0:0|0:0,0:0:0:0:
144,141,34460,6,0,P|193:127|250:184,1,130,2|0,1:0|0:0,0:0:0:0:
409,183,35066,2,0,L|495:160,1,65,10|0,0:2|0:0,0:0:0:0:
326,279,35369,2,0,L|247:264,1,65,2|0,1:0|0:0,0:0:0:0:
357,380,35672,5,2,0:0:0:0:
357,380,35824,1,2,0:0:0:0:
425,320,35975,1,2,0:0:0:0:
506,351,36127,1,2,0:0:0:0:
422,307,36278,2,0,B|396:211|396:211|412:177,1,130,10|2,0:2|0:0,0:0:0:0:
483,123,36884,6,0,P|408:141|375:95,1,130,2|2,1:0|0:0,0:0:0:0:
378,107,37339,1,0,0:0:0:0:
325,43,37490,2,0,L|243:26,1,65,10|0,0:2|0:0,0:0:0:0:
186,85,37793,1,2,1:0:0:0:
186,85,37945,1,2,0:0:0:0:
112,32,38096,6,0,L|38:58,1,65,2|2,0:0|0:0,0:0:0:0:
20,132,38399,1,2,1:0:0:0:
135,253,38702,2,0,L|205:230,1,65,10|0,0:2|0:0,0:0:0:0:
81,328,39005,2,0,L|11:305,1,65,2|0,0:0|0:0,0:0:0:0:
141,264,39308,5,2,0:0:0:0:
493,108,49005,6,0,B|463:67|400:88|394:128|418:136|362:185|316:148,1,195.00000743866,2|10,1:0|0:2,0:0:0:0:
332,157,49914,2,0,L|312:223,1,48.750001859665,2|2,1:0|0:0,0:0:0:0:
273,88,50217,6,0,B|198:97|198:97|181:121,1,97.50000371933,2|2,0:0|0:0,0:0:0:0:
185,114,50672,1,2,0:0:0:0:
111,78,50824,1,10,0:2:0:0:
0,274,51430,5,2,1:0:0:0:
0,274,51581,1,2,0:0:0:0:
63,203,51733,2,0,L|124:223,1,48.750001859665,2|2,0:0|0:0,0:0:0:0:
191,247,52036,2,0,P|193:294|167:335,1,97.50000371933,10|2,0:2|1:0,0:0:0:0:
298,178,52642,6,0,L|359:194,1,48.750001859665,2|2,0:0|0:0,0:0:0:0:
364,278,52945,2,0,L|421:255,1,48.750001859665,2|2,0:0|0:0,0:0:0:0:
485,318,53248,1,10,0:2:0:0:
485,318,53551,2,0,L|473:384,1,48.750001859665
461,157,53854,5,2,1:0:0:0:
461,157,54005,1,2,0:0:0:0:
357,181,54157,2,0,L|379:119,1,48.750001859665,2|2,0:0|0:0,0:0:0:0:
409,31,54460,2,0,L|303:63,1,97.50000371933,10|2,0:2|1:0,0:0:0:0:
257,183,55066,6,0,L|193:167,1,48.750001859665,2|2,0:0|0:0,0:0:0:0:
311,254,55369,1,2,0:0:0:0:
311,254,55521,1,2,0:0:0:0:
246,316,55672,2,0,L|194:330,1,48.750001859665,10|0,0:2|0:0,0:0:0:0:
129,265,55975,1,2,0:0:0:0:
0,366,56278,6,0,B|21:338|21:338|16:266,1,97.50000371933,2|2,1:0|0:0,0:0:0:0:
67,196,56884,2,0,B|46:168|46:168|51:96,1,97.50000371933,10|2,0:2|1:0,0:0:0:0:
226,71,57490,6,0,P|194:46|159:40,2,65.0000024795533,8|8|8,3:0|3:0|3:0,0:0:0:0:
247,163,58096,2,0,P|284:147|307:120,2,65.0000024795533,4|4|4,3:0|3:0|3:0,0:0:0:0:
161,140,58702,5,6,1:2:0:0:
161,140,58854,1,2,0:0:0:0:
109,216,59005,2,0,L|119:287,1,54.5999983337403,2|2,0:0|0:0,0:0:0:0:
68,336,59308,1,10,0:2:0:0:
215,272,59611,2,0,L|198:344,1,54.5999983337403,2|2,1:0|0:0,0:0:0:0:
296,223,59914,6,0,L|348:207,1,54.5999983337403,2|2,0:0|0:0,0:0:0:0:
416,260,60217,2,0,L|469:277,1,54.5999983337403,2|2,0:0|0:0,0:0:0:0:
510,355,60521,1,10,0:2:0:0:
421,134,61127,5,2,1:0:0:0:
421,134,61278,1,2,0:0:0:0:
474,62,61430,1,2,0:0:0:0:
408,5,61581,1,2,0:0:0:0:
343,76,61733,2,0,B|317:85|317:85|235:58,1,109.199996667481,10|2,0:2|1:0,0:0:0:0:
239,59,62339,6,0,L|232:129,1,54.5999983337403,2|2,0:0|0:0,0:0:0:0:
170,169,62642,1,2,0:0:0:0:
170,169,62793,1,2,0:0:0:0:
224,247,62945,2,0,P|178:269|162:328,1,109.199996667481,10|0,0:2|0:0,0:0:0:0:
161,321,63399,1,0,0:0:0:0:
65,359,63551,6,0,L|76:305,1,54.5999983337403,2|2,1:0|0:0,0:0:0:0:
16,240,63854,2,0,L|4:183,1,54.5999983337403,2|2,0:0|0:0,0:0:0:0:
67,118,64157,1,10,0:2:0:0:
202,188,64460,2,0,L|266:171,1,54.5999983337403,2|0,1:0|0:0,0:0:0:0:
315,105,64763,5,2,0:0:0:0:
315,105,64914,1,2,0:0:0:0:
387,168,65066,2,0,L|448:182,1,54.5999983337403,2|2,0:0|0:0,0:0:0:0:
324,236,65369,1,10,0:2:0:0:
324,236,65672,1,2,0:0:0:0:
424,352,65975,6,0,L|315:377,1,109.199996667481,2|2,1:0|0:0,0:0:0:0:
248,321,66581,2,0,P|207:322|167:375,1,109.199996667481,10|2,0:2|1:0,0:0:0:0:
167,372,67036,1,2,0:0:0:0:
96,318,67187,6,0,L|16:339,1,72.7999977783204,8|8,3:0|3:0,0:0:0:0:
20,323,67490,1,8,0:2:0:0:
13,308,67591,1,8,3:0:0:0:
58,229,67793,2,0,L|76:152,2,72.7999977783204,4|4|4,3:0|3:0|3:0,0:0:0:0:
179,271,68399,6,0,B|356:194|356:194|306:214|276:187,1,271.69999668335,6|0,1:2|0:0,0:0:0:0:
347,104,70218,6,0,B|379:91|413:110|406:117|439:148|473:129,1,128.699999607239,14|2,0:2|0:0,0:0:0:0:
269,33,70824,6,0,L|196:59,1,65,6|0,1:2|0:0,0:0:0:0:
133,13,71127,1,2,0:0:0:0:
133,13,71278,1,0,0:0:0:0:
76,95,71430,2,0,B|92:197|92:197|69:239,1,130,10|2,0:2|1:0,0:0:0:0:
79,220,71884,1,2,0:0:0:0:
34,303,72036,6,0,L|113:341,1,65,2|2,0:0|0:0,0:0:0:0:
160,276,72339,1,2,1:0:0:0:
312,350,72642,2,0,L|297:260,1,65,2|0,0:1|0:0,0:0:0:0:
302,286,72945,1,2,0:0:0:0:
301,286,73096,1,0,0:0:0:0:
393,242,73248,6,0,B|409:204|375:177|372:190|342:160|363:118,1,130,2|0,1:0|0:0,0:0:0:0:
480,13,73854,2,0,L|404:41,1,65,10|0,0:2|0:0,0:0:0:0:
357,108,74157,2,0,L|281:80,1,65,2|0,1:0|0:0,0:0:0:0:
223,139,74460,5,2,0:0:0:0:
223,139,74611,1,2,0:0:0:0:
143,87,74763,1,2,0:0:0:0:
179,1,74914,1,2,0:0:0:0:
260,10,75066,1,10,0:2:0:0:
220,240,75369,1,2,0:0:0:0:
33,214,75672,6,0,L|47:286,1,65,2|0,1:0|0:0,0:0:0:0:
134,321,75975,2,0,L|120:393,1,65,2|0,0:0|0:0,0:0:0:0:
210,253,76278,2,0,B|303:232|303:232|342:252,1,130,10|2,0:2|1:0,0:0:0:0:
334,248,76733,1,2,0:0:0:0:
334,248,76884,5,2,0:0:0:0:
477,357,77187,2,0,L|455:286,1,65,2|0,0:0|0:0,0:0:0:0:
506,214,77490,1,2,0:0:0:0:
397,93,77793,1,2,0:0:0:0:
397,93,77945,1,0,0:0:0:0:
331,169,78096,6,0,L|197:198,1,130,6|0,1:2|0:0,0:0:0:0:
203,196,78702,2,0,L|225:125,1,65,10|0,0:2|0:0,0:0:0:0:
152,67,79005,2,0,L|134:0,1,65,2|0,1:0|0:0,0:0:0:0:
82,133,79308,6,0,L|101:211,1,65,2|2,0:0|0:0,0:0:0:0:
45,271,79611,1,2,0:0:0:0:
45,271,79763,1,2,0:0:0:0:
105,344,79914,2,0,P|159:347|197:281,1,130,10|2,0:2|0:0,0:0:0:0:
347,351,80521,6,0,L|368:279,1,65,2|0,1:0|0:0,0:0:0:0:
438,235,80824,2,0,L|415:165,1,65,2|0,0:0|0:0,0:0:0:0:
336,141,81127,2,0,P|421:126|436:81,1,130,10|2,0:2|1:0,0:0:0:0:
435,93,81581,1,2,0:0:0:0:
375,24,81733,6,0,L|296:7,1,65,2|2,0:0|0:0,0:0:0:0:
254,87,82036,1,2,1:0:0:0:
100,16,82339,2,0,B|123:108|123:108|95:153,1,130,10|2,0:1|0:0,0:0:0:0:
104,137,82793,1,0,0:0:0:0:
55,219,82945,6,0,B|100:241|100:241|115:266|115:266|187:301,1,130,2|0,1:0|0:0,0:0:0:0:
288,371,83551,2,0,L|356:344,1,65,10|0,0:2|0:0,0:0:0:0:
427,371,83854,6,0,B|392:346|392:346|377:252,1,130,2|2,1:0|0:0,0:0:0:0:
378,260,84308,1,2,0:0:0:0:
378,260,84460,1,2,0:0:0:0:
304,204,84611,1,2,0:0:0:0:
369,139,84763,2,0,L|350:53,1,65,10|0,0:2|0:0,0:0:0:0:
263,65,85066,1,2,0:0:0:0:
171,230,85369,6,0,P|131:249|67:190,1,130,2|2,1:0|0:0,0:0:0:0:
68,202,85824,1,0,0:0:0:0:
138,142,85975,2,0,L|125:72,1,65,10|0,0:2|0:0,0:0:0:0:
188,15,86278,1,2,1:0:0:0:
188,15,86430,1,2,0:0:0:0:
263,65,86581,5,2,0:0:0:0:
342,18,86733,1,2,0:0:0:0:
428,63,86884,1,2,1:0:0:0:
345,294,87187,2,0,B|394:308|411:277|400:273|424:241|479:265,1,130,10|2,0:2|0:0,0:0:0:0:
487,139,87793,5,2,0:0:0:0:
180,336,97490,6,2,B|162:297|162:297|195:263|195:263|190:221|190:221|206:183|206:183|244:177|244:177|273:137|273:137|314:105,1,292.5,2|2,0:1|0:1,0:1:0:0:
349,50,98399,2,2,B|333:21|333:21|341:176|341:176|418:166|418:166|457:89,1,325,2|2,0:1|0:1,0:1:0:0:
444,113,99536,1,2,0:1:0:0:
495,271,99839,6,2,B|431:284|431:284|414:239|414:239|292:274|292:274|300:282|300:282|244:325|244:325|163:180,1,487.5,2|2,0:1|0:1,0:1:0:0:
224,107,101127,2,2,B|195:61|195:61|149:39|149:39|163:93,1,130,2|2,0:1|0:1,0:1:0:0:
155,62,101581,1,2,0:1:0:0:
71,219,101884,2,0,B|94:248|94:248|155:266|155:266|187:285,1,130,2|0,0:1|0:0,0:0:0:0:
267,330,102339,6,0,L|256:379,6,32.5,0|0|0|0|0|0|0,1:0|0:0|0:0|0:0|0:0|0:0|0:0,0:0:0:0:
349,296,102945,2,0,L|330:222,1,65,2|0,0:1|0:0,0:0:0:0:
389,161,103248,2,0,L|400:122,6,32.5,0|0|0|0|0|0|2,1:0|0:0|0:0|0:0|0:0|0:0|0:1,0:0:0:0:
344,231,103854,2,0,L|360:293,1,65,2|2,0:1|0:1,0:0:0:0:
438,349,104157,2,2,B|376:341|376:341|350:325|350:325|307:367|307:367|244:360,1,195,2|2,0:1|0:1,0:1:0:0:
189,304,104763,6,0,L|147:315,6,32.5,0|0|0|0|0|0|0,1:0|0:0|0:0|0:0|0:0|0:0|0:0,0:0:0:0:
244,232,105369,2,0,L|261:161,1,65,2|2,0:1|0:1,0:0:0:0:
200,94,105672,2,0,L|158:83,6,32.5,0|0|0|0|0|0|2,1:0|0:0|0:0|0:0|0:0|0:0|0:1,0:0:0:0:
276,44,106278,2,0,B|343:28|343:28|348:40|348:40|381:47,1,97.5,0|0,1:0|0:0,0:0:0:0:
370,53,106581,2,0,L|380:130,1,65,2|0,0:1|0:0,0:0:0:0:
420,193,106884,2,0,B|365:199|365:199|370:211|370:211|345:218,1,65,2|0,0:1|0:0,0:0:0:0:
327,287,107187,6,0,L|339:327,6,32.5,0|0|0|0|0|0|0,1:0|0:0|0:0|0:0|0:0|0:0|0:0,0:0:0:0:
248,236,107793,2,0,B|236:231|236:231|198:250|198:250|204:233,1,65,2|2,0:1|0:1,0:0:0:0:
142,175,108096,2,0,L|160:131,6,32.5,0|0|0|0|0|0|0,1:0|0:0|0:0|0:0|0:0|0:0|0:0,0:0:0:0:
69,241,108702,2,2,B|72:289|72:289|92:326|92:326|100:311|100:311|136:335|136:335|143:345|143:345|195:364|195:364|232:333|232:333|280:376,1,325,2|2,0:1|0:1,0:1:0:0:
368,357,109611,6,0,L|416:371,6,32.5,0|0|0|0|0|0|0,1:0|0:0|0:0|0:0|0:0|0:0|0:0,0:0:0:0:
341,266,110217,2,0,L|405:221,1,65,2|2,0:1|0:1,0:0:0:0:
441,147,110521,2,0,L|443:100,6,32.5,0|0|0|0|0|0|2,1:0|0:0|0:0|0:0|0:0|0:0|0:1,0:0:0:0:
504,213,111127,2,0,B|489:241|489:241|499:277|499:277|501:318|501:318|514:347,1,130,0|0,1:0|0:0,0:0:0:0:
436,372,111581,2,2,B|362:353|362:353|333:358|333:358|327:373|327:373|280:346,1,162.5,2|2,0:2|0:2,0:1:0:0:
285,340,112036,5,0,1:0:0:0:
