osu file format v14

[General]
AudioFilename: audio.mp3
AudioLeadIn: 0
PreviewTime: 1677
Countdown: 0
SampleSet: Soft
StackLeniency: 0.2
Mode: 0
LetterboxInBreaks: 0
WidescreenStoryboard: 0

[Editor]
Bookmarks: 1602,10086,19783,29480,39177,48874,58571,68268,77965,87662,97359,107056
DistanceSpacing: 1.8
BeatDivisor: 4
GridSize: 32
TimelineZoom: 0.9

[Metadata]
Title:money machine
TitleUnicode:money machine
Artist:100 gecs
ArtistUnicode:100 gecs
Creator:GIGAROBLOXIAN21
Version:1000 gecs
Source:
Tags:1000 english vocals vocalist industrial electronic hyper-pop hyperpop hip-hip hiphop pop autotune one hundred thousand dylan brady laura les osno1 xandeez nuts [poke] pokey
BeatmapID:3212224
BeatmapSetID:1573241

[Difficulty]
HPDrainRate:6
CircleSize:3.7
OverallDifficulty:9
ApproachRate:9.2
SliderMultiplier:1.9
SliderTickRate:1

[Events]
//Background and Video events
0,0,"FDkecMhVcAMtg5Y.jpg",0,0
//Break Periods
//Storyboard Layer 0 (Background)
//Storyboard Layer 1 (Fail)
//Storyboard Layer 2 (Pass)
//Storyboard Layer 3 (Foreground)
//Storyboard Layer 4 (Overlay)
//Storyboard Sound Samples

[TimingPoints]
10218,303.030303030303,4,2,1,60,1,0
19914,-56.1797752808989,4,2,1,80,0,1
20521,-80.6451612903226,4,2,1,80,0,1
20824,-56.1797752808989,4,2,1,80,0,1
21127,-80.6451612903226,4,2,1,80,0,1
22339,-56.1797752808989,4,2,1,80,0,1
22642,-80,4,2,1,80,0,1
23248,-56.1797752808989,4,2,1,80,0,1
23551,-80.6451612903226,4,2,1,80,0,1
24763,-56.1797752808989,4,2,1,80,0,1
25369,-80.6451612903226,4,2,1,80,0,1
25672,-56.1797752808989,4,2,1,80,0,1
25975,-80.6451612903226,4,2,1,80,0,1
27187,-56.1797752808989,4,2,1,80,0,1
27490,-80.6451612903226,4,2,1,80,0,1
28324,-80.6451612903226,4,2,1,70,0,1
28702,-80.6451612903226,4,2,1,50,0,1
29308,-400,4,2,1,50,0,1
29611,-56.1797752808989,4,2,1,80,0,1
30217,-80.6451612903226,4,2,1,80,0,1
30521,-56.1797752808989,4,2,1,80,0,1
30824,-80.6451612903226,4,2,1,80,0,1
32036,-56.1797752808989,4,2,1,80,0,1
32339,-80.6451612903226,4,2,1,80,0,1
32945,-56.1797752808989,4,2,1,80,0,1
33248,-80.6451612903226,4,2,1,80,0,1
34460,-56.1797752808989,4,2,1,80,0,1
35066,-80.6451612903226,4,2,1,80,0,1
35369,-56.1797752808989,4,2,1,80,0,1
37187,-80.6451612903226,4,2,1,80,0,1
39308,-1000,4,2,1,50,0,0
49005,-133.333333333333,4,2,1,40,0,0
57490,-133.333333333333,4,2,1,50,0,0
58702,-100,4,2,1,60,0,0
58778,-100,4,2,1,5,0,0
58854,-100,4,2,1,60,0,0
58930,-100,4,2,1,5,0,0
59005,-100,4,2,1,60,0,0
61127,-100,4,2,1,60,0,0
61202,-100,4,2,1,5,0,0
61278,-100,4,2,1,60,0,0
61354,-100,4,2,1,5,0,0
61430,-100,4,2,1,60,0,0
63551,-100,4,2,1,60,0,0
63627,-100,4,2,1,5,0,0
63702,-100,4,2,1,60,0,0
63778,-100,4,2,1,5,0,0
63854,-100,4,2,1,60,0,0
68399,-1000,4,2,1,80,0,0
68702,-1000,4,2,1,40,0,0
70218,-217.391304347826,4,2,1,60,0,0
70824,-56.1797752808989,4,2,1,80,0,1
71127,-80.6451612903226,4,2,1,80,0,1
71733,-56.1797752808989,4,2,1,80,0,1
72036,-80.6451612903226,4,2,1,80,0,1
73248,-56.1797752808989,4,2,1,80,0,1
73854,-80.6451612903226,4,2,1,80,0,1
74157,-56.1797752808989,4,2,1,80,0,1
75975,-80.6451612903226,4,2,1,80,0,1
76581,-56.1797752808989,4,2,1,80,0,1
76884,-80.6451612903226,4,2,1,80,0,1
78096,-56.1797752808989,4,2,1,80,0,1
78702,-80.6451612903226,4,2,1,80,0,1
79005,-56.1797752808989,4,2,1,80,0,1
79308,-80.6451612903226,4,2,1,80,0,1
80521,-56.1797752808989,4,2,1,80,0,1
80824,-80.6451612903226,4,2,1,80,0,1
81430,-56.1797752808989,4,2,1,80,0,1
81733,-80.6451612903226,4,2,1,80,0,1
82945,-56.1797752808989,4,2,1,80,0,1
83551,-80.6451612903226,4,2,1,80,0,1
83854,-56.1797752808989,4,2,1,80,0,1
85672,-80.6451612903226,4,2,1,80,0,1
86278,-56.1797752808989,4,2,1,80,0,1
86581,-80.6451612903226,4,2,1,80,0,1
87793,-100,4,2,1,40,0,0
97187,-100,4,2,1,5,0,0
97490,-80.6451612903226,4,2,2,70,0,0
98324,-100,4,2,1,5,0,0
98399,-222.222222222222,4,2,2,70,0,0
98854,-100,4,2,1,5,0,0
99233,-222.222222222222,4,2,2,70,0,0
100975,-100,4,2,1,5,0,0
101127,-333.333333333333,4,2,2,70,0,0
101505,-100,4,2,1,5,0,0
101581,-128.205128205128,4,2,2,70,0,0
101808,-100,4,2,1,5,0,0
101884,-128.205128205128,4,2,2,70,0,0
102187,-100,4,2,1,5,0,0
102339,-56.1797752808989,4,2,2,70,0,0
102945,-133.333333333333,4,2,2,70,0,0
103096,-100,4,2,1,5,0,0
103248,-56.1797752808989,4,2,2,70,0,0
103854,-133.333333333333,4,2,2,70,0,0
103930,-100,4,2,1,5,0,0
104005,-133.333333333333,4,2,2,70,0,0
104081,-100,4,2,1,5,0,0
104157,-133.333333333333,4,2,2,70,0,0
104763,-56.1797752808989,4,2,2,70,0,0
105369,-133.333333333333,4,2,2,70,0,0
105672,-56.1797752808989,4,2,2,70,0,0
106657,-133.333333333333,4,2,2,70,0,0
106808,-100,4,2,1,5,0,0
106884,-133.333333333333,4,2,2,70,0,0
107111,-100,4,2,1,5,0,0
107187,-56.1797752808989,4,2,2,70,0,0
107793,-133.333333333333,4,2,2,70,0,0
108096,-56.1797752808989,4,2,2,70,0,0
108702,-133.333333333333,4,2,2,70,0,0
109536,-100,4,2,1,5,0,0
109611,-56.1797752808989,4,2,2,70,0,0
110217,-133.333333333333,4,2,2,70,0,0
110521,-56.1797752808989,4,2,2,70,0,0
111581,-100,4,2,2,70,0,0
111960,-100,4,2,1,5,0,0
112036,-100,4,2,2,45,0,0
113778,-100,4,2,2,5,0,0

[Colours]
Combo1 : 245,250,86
Combo2 : 220,50,54
Combo3 : 85,82,226
Combo4 : 231,131,228

[HitObjects]
347,367,18702,6,0,L|307:239,1,126.666666666667,8|8,3:0|3:0,0:0:0:0:
428,162,19005,1,8,3:0:0:0:
428,162,19106,2,0,L|413:244,1,63.3333333333333,8|0,3:0|0:0,0:0:0:0:
212,148,19308,6,0,B|248:165|248:165|376:138,1,126.666666666667,4|4,3:0|3:0,0:0:0:0:
389,56,19586,1,0,0:0:0:0:
325,11,19712,1,4,3:0:0:0:
428,162,19914,6,0,B|452:143|452:143|500:233|500:233|438:286|392:231|395:240|346:198|300:257,1,338.200000258026,6|2,1:2|0:0,0:0:0:0:
304,257,20293,1,0,0:0:0:0:
299,265,20369,1,0,0:0:0:0:
164,152,20521,6,0,P|189:88|285:119,1,176.699992989807,10|0,0:2|0:0,0:0:0:0:
151,279,20824,6,0,B|71:358|71:358|19:275|19:275|97:272,1,253.65000019352,2|0,1:0|0:0,0:0:0:0:
159,288,21127,2,0,L|182:357,1,58.8999976632691,2|0,0:0|0:0,0:0:0:0:
61,184,21278,2,0,L|84:115,1,58.8999976632691,2|0,0:0|0:0,0:0:0:0:
212,215,21430,6,0,B|256:195|294:242|283:250|326:299|408:258,1,176.699992989807,2|0,0:0|0:0,0:0:0:0:
450,173,21733,1,10,0:2:0:0:
450,173,22137,5,2,0:0:0:0:
194,106,22339,6,0,B|172:88|172:88|209:-1|209:-1|280:65|280:65|263:103,1,253.65000019352,2|0,1:0|0:0,0:0:0:0:
164,179,22642,2,0,B|177:157|177:157|301:136|301:136|333:164,1,178.125,2|0,0:0|0:0,0:0:0:0:
256,240,22945,2,0,L|279:374,1,118.75,10|0,0:2|0:0,0:0:0:0:
87,112,23248,6,0,B|49:76|49:76|29:155|29:155|73:205|73:205|53:291,1,253.65000019352,2|0,1:0|0:0,0:0:0:0:
14,327,23551,2,0,L|39:404,1,58.8999976632691,2|0,0:0|0:0,0:0:0:0:
150,236,23702,2,0,L|169:153,1,58.8999976632691,2|0,0:0|0:0,0:0:0:0:
276,357,23854,6,0,B|346:371|358:317|348:312|397:247|474:289,1,176.699992989807,2|0,1:0|0:0,0:0:0:0:
505,361,24157,1,2,0:1:0:0:
367,196,24460,6,0,L|406:153,1,58.8999976632691,2|0,0:0|0:0,0:0:0:0:
501,225,24611,2,0,L|484:169,1,58.8999976632691
421,276,24763,6,0,B|458:107|458:107|416:29|416:29|337:102,1,338.200000258026,2|0,1:0|0:0,0:0:0:0:
349,80,25142,1,0,0:0:0:0:
340,79,25217,1,0,0:0:0:0:
208,245,25369,6,0,P|281:183|262:107,1,176.699992989807,10|0,0:2|0:0,0:0:0:0:
24,347,25672,6,0,B|-14:381|-14:381|14:319|14:319|160:291,1,253.65000019352,2|0,1:0|0:0,0:0:0:0:
222,326,25975,1,2,0:0:0:0:
82,192,26127,1,2,0:0:0:0:
185,222,26278,1,2,0:0:0:0:
192,210,26430,1,2,0:0:0:0:
71,45,26581,5,10,0:2:0:0:
71,45,26884,1,2,0:0:0:0:
360,181,27187,6,0,B|419:192|419:192|464:150|464:150|438:95|438:95|366:80,1,253.65000019352,2|0,1:0|0:0,0:0:0:0:
278,77,27490,2,0,B|426:24|426:24|447:-4,1,176.699992989807,2|0,0:0|0:0,0:0:0:0:
193,17,27793,2,0,L|144:137,1,117.799995326538,10|0,0:2|0:0,0:0:0:0:
317,320,28096,6,0,L|300:241,1,58.8999976632691,2|0,1:0|0:0,0:0:0:0:
353,192,28248,1,2,0:0:0:0:
476,250,28399,5,2,0:0:0:0:
476,250,28551,5,2,0:0:0:0:
476,250,28702,5,2,0:0:0:0:
476,250,29005,1,2,0:0:0:0:
476,250,29308,2,0,L|470:289,1,35.625,2|0,0:0|0:0,0:0:0:0:
211,132,29611,6,0,B|162:68|162:68|264:123|264:123|274:134|274:134|447:154,1,338.200000258026,6|0,1:2|0:0,0:0:0:0:
419,138,30066,1,0,0:0:0:0:
234,313,30217,6,0,P|279:234|368:245,1,176.699992989807,10|0,0:2|0:0,0:0:0:0:
86,62,30521,6,0,B|58:102|58:102|124:243|124:243|77:315,1,253.65000019352,2|0,1:0|0:0,0:0:0:0:
56,355,30824,2,0,L|-19:333,1,58.8999976632691,2|0,0:0|0:0,0:0:0:0:
207,232,30975,2,0,L|282:210,1,58.8999976632691,2|0,0:0|0:0,0:0:0:0:
64,177,31127,1,2,0:0:0:0:
56,186,31278,1,2,0:0:0:0:
177,340,31430,5,10,0:2:0:0:
188,357,31733,1,2,0:0:0:0:
418,107,32036,6,0,B|450:98|450:98|397:33|397:33|338:193,1,253.65000019352,2|0,1:0|0:0,0:0:0:0:
414,226,32339,2,0,B|444:355|444:355|441:314|475:289,1,176.699992989807,2|0,0:0|0:0,0:0:0:0:
350,162,32642,2,0,L|231:117,1,117.799995326538,10|0,0:2|0:0,0:0:0:0:
42,337,32945,6,0,B|70:265|70:265|134:244|134:244|109:116,1,253.65000019352,2|0,1:0|0:0,0:0:0:0:
37,82,33248,2,0,L|54:8,1,58.8999976632691,2|0,0:0|0:0,0:0:0:0:
208,193,33399,2,0,L|224:272,1,58.8999976632691,2|0,0:0|0:0,0:0:0:0:
151,59,33551,6,0,B|211:41|236:85|223:92|270:138|358:90,1,176.699992989807,2|0,1:0|0:0,0:0:0:0:
380,10,33854,1,10,0:1:0:0:
498,173,34157,6,0,L|477:228,1,58.8999976632691,2|0,0:0|0:0,0:0:0:0:
354,199,34308,2,0,L|391:244,1,58.8999976632691
461,89,34460,6,0,B|414:137|414:137|449:341|449:341|372:411,1,338.200000258026,2|0,1:0|0:0,0:0:0:0:
381,373,34914,1,0,0:0:0:0:
201,246,35066,6,0,P|257:181|347:223,1,176.699992989807,10|0,0:2|0:0,0:0:0:0:
22,336,35369,2,0,B|41:383|41:383|68:289|68:289|56:278|56:278|29:172,1,253.65000019352,2|0,1:0|0:0,0:0:0:0:
12,108,35672,1,2,0:0:0:0:
202,14,35824,1,2,0:0:0:0:
107,80,35975,1,2,0:0:0:0:
111,70,36127,1,2,0:0:0:0:
238,235,36278,5,10,0:2:0:0:
238,235,36581,1,2,0:0:0:0:
395,34,36884,6,0,B|397:11|397:11|468:33|468:33|463:92|411:87|418:90|371:94|378:148,1,253.65000019352,2|0,1:0|0:0,0:0:0:0:
433,218,37187,2,0,B|316:140|316:140|274:139,1,176.699992989807,2|0,0:0|0:0,0:0:0:0:
387,343,37490,2,0,L|517:298,1,117.799995326538,10|0,0:2|0:0,0:0:0:0:
305,279,37793,6,0,L|227:249,1,58.8999976632691,2|0,1:0|0:0,0:0:0:0:
98,374,37945,2,0,L|152:352,1,58.8999976632691,2|0,0:0|0:0,0:0:0:0:
204,183,38096,5,2,0:0:0:0:
152,116,38248,1,2,0:0:0:0:
8,211,38399,6,0,B|56:189|93:227|84:237|109:290|189:252,1,176.699992989807,2|0,1:0|0:0,0:0:0:0:
308,121,38702,5,10,0:2:0:0:
184,8,38854,1,0,0:0:0:0:
145,103,39005,5,2,0:0:0:0:
224,95,39157,1,0,0:0:0:0:
256,192,39308,5,2,0:0:0:0:
256,192,40217,1,2,0:0:0:0:
256,192,41732,5,2,0:0:0:0:
256,192,42641,1,2,0:0:0:0:
256,192,44157,5,2,0:0:0:0:
256,192,45066,1,2,0:0:0:0:
256,192,46581,5,2,0:0:0:0:
256,192,47490,1,2,0:0:0:0:
133,71,49005,6,0,B|184:64|184:64|220:85|220:85|279:79,1,142.500005435944,2|2,1:0|0:0,0:0:0:0:
327,27,49460,1,2,0:0:0:0:
387,135,49611,6,0,L|374:219,1,71.2500027179719,10|0,0:2|0:0,0:0:0:0:
414,337,49914,2,0,B|401:317|401:317|272:273,1,142.500005435944,2|2,1:0|0:0,0:0:0:0:
288,278,50521,5,2,0:0:0:0:
233,333,50672,1,2,0:0:0:0:
174,169,50824,2,0,B|136:185|141:229|155:228|146:270|89:291,1,142.500005435944,10|0,0:2|0:0,0:0:0:0:
192,83,51430,6,0,B|229:99|224:143|210:142|219:184|276:205,1,142.500005435944,2|2,1:0|0:0,0:0:0:0:
302,128,51884,1,2,0:0:0:0:
439,203,52036,6,0,L|526:178,1,71.2500027179719,10|0,0:2|0:0,0:0:0:0:
404,77,52339,2,0,B|311:46|311:46|286:17,1,106.875004076958,2|0,1:0|0:0,0:0:0:0:
299,17,52642,2,0,L|227:37,1,71.2500027179719,2|2,0:0|0:0,0:0:0:0:
178,108,52945,2,0,L|106:88,1,71.2500027179719,2|2,0:0|0:0,0:0:0:0:
12,15,53248,5,10,0:2:0:0:
220,208,53551,2,0,L|199:292,1,71.2500027179719
324,360,53854,6,0,B|338:363|338:363|312:312|312:312|247:346,1,142.500005435944,2|2,1:0|0:0,0:0:0:0:
190,291,54308,1,2,0:0:0:0:
75,349,54460,2,0,L|40:273,1,71.2500027179719,10|0,0:2|0:0,0:0:0:0:
84,217,54763,1,2,1:0:0:0:
295,53,55066,5,2,0:0:0:0:
329,126,55217,1,2,0:0:0:0:
258,200,55369,1,2,0:0:0:0:
247,122,55521,1,2,0:0:0:0:
351,213,55672,6,0,L|438:234,1,71.2500027179719,10|0,0:2|0:0,0:0:0:0:
233,114,55975,2,0,L|146:135,1,71.2500027179719,2|0,0:0|0:0,0:0:0:0:
241,346,56278,6,0,B|267:308|267:308|246:203,2,142.500005435944,2|2|10,1:0|0:0|0:2,0:0:0:0:
177,292,57187,2,0,L|87:311,1,71.2500027179719,2|2,1:0|0:0,0:0:0:0:
25,242,57490,6,0,L|38:184,1,47.5000018119813,8|0,3:0|0:0,0:0:0:0:
105,156,57692,2,0,L|90:90,1,47.5000018119813,8|0,3:0|0:0,0:0:0:0:
37,55,57894,2,0,L|52:-8,1,47.5000018119813,8|0,3:0|0:0,0:0:0:0:
39,14,58096,6,0,L|27:60,1,47.5000018119813,4|0,3:0|0:0,0:0:0:0:
104,116,58298,2,0,L|114:162,1,47.5000018119813,4|0,3:0|0:0,0:0:0:0:
27,203,58500,2,0,L|16:249,1,47.5000018119813,4|0,3:0|0:0,0:0:0:0:
138,376,58702,6,0,L|199:365,1,47.5,6|0,1:2|0:0,0:0:0:0:
261,352,58854,2,0,L|322:341,1,47.5,2|0,0:0|0:0,0:0:0:0:
387,325,59005,1,2,0:0:0:0:
400,322,59157,1,2,0:0:0:0:
363,131,59308,6,0,P|311:154|298:211,1,95,10|0,0:2|0:0,0:0:0:0:
499,267,59611,2,0,B|508:222|484:194|479:201|436:182|453:112,1,142.5,2|0,1:0|0:0,0:0:0:0:
478,69,59914,5,2,0:0:0:0:
489,63,60066,1,2,0:0:0:0:
480,60,60217,1,2,0:0:0:0:
486,71,60369,1,2,0:0:0:0:
250,8,60521,6,0,B|222:-2|222:-2|170:52|170:52|204:128|272:107|263:100|332:57|375:152,1,332.5,10|0,0:2|0:0,0:0:0:0:
380,241,61127,6,0,L|319:252,1,47.5,2|0,1:0|0:0,0:0:0:0:
257,265,61279,2,0,L|196:276,1,47.5,2|0,0:0|0:0,0:0:0:0:
131,292,61430,1,2,0:0:0:0:
118,295,61582,1,2,0:0:0:0:
66,121,61733,6,0,B|54:190|54:190|15:224,1,95,10|0,0:2|0:0,0:0:0:0:
40,13,62036,2,0,P|101:12|167:77,1,142.5,2|0,1:0|0:0,0:0:0:0:
165,145,62339,5,2,0:0:0:0:
157,154,62490,1,2,0:0:0:0:
299,102,62642,1,2,0:0:0:0:
290,94,62793,1,2,0:0:0:0:
266,236,62945,6,0,B|240:369|240:369|247:334|284:320,1,190,10|0,0:2|0:0,0:0:0:0:
336,282,63399,1,0,0:0:0:0:
106,214,63551,6,0,L|152:205,1,47.5,2|0,1:0|0:0,0:0:0:0:
229,190,63703,2,0,L|275:181,1,47.5,2|0,0:0|0:0,0:0:0:0:
354,162,63854,1,2,0:0:0:0:
367,159,64006,1,2,0:0:0:0:
241,28,64157,6,0,B|313:76|313:76|343:61,1,95,10|0,0:2|0:0,0:0:0:0:
499,35,64460,2,0,B|467:67|467:67|512:184,1,142.5,2|0,1:0|0:0,0:0:0:0:
454,231,64763,5,2,0:0:0:0:
444,239,64915,1,2,0:0:0:0:
453,239,65066,1,2,0:0:0:0:
444,230,65218,1,2,0:0:0:0:
252,310,65369,6,0,B|220:309|220:309|191:253|191:253|254:273|254:273|263:304,1,190,10|2,0:2|0:0,0:0:0:0:
263,302,65975,6,0,B|237:255|264:202|280:217|319:181|295:107,1,190,2|2,1:0|0:0,0:0:0:0:
41,30,66581,6,0,L|78:118,1,95,10|0,0:2|0:0,0:0:0:0:
164,154,66884,2,0,B|132:143|132:143|29:183,1,142.5,2|0,1:0|0:0,0:0:0:0:
118,259,67187,6,0,L|90:382,1,126.666666666667,8|8,3:0|3:0,0:0:0:0:
215,313,67490,1,8,0:2:0:0:
215,313,67591,2,0,L|123:342,1,63.3333333333333,8|0,3:0|0:0,0:0:0:0:
325,349,67793,6,0,B|309:309|309:309|344:207,1,126.666666666667,4|4,3:0|3:0,0:0:0:0:
442,219,68071,1,8,0:2:0:0:
479,289,68197,1,4,3:0:0:0:
501,109,68399,6,0,B|479:31|479:31|476:48|468:57,1,109.25,6|0,1:2|0:0,0:0:0:0:
479,200,70218,6,0,B|432:220|408:181|417:180|383:139|339:161,1,152.94999486557,14|0,0:2|0:0,0:0:0:0:
132,241,70824,6,0,B|93:224|93:224|146:172|146:172|208:323,1,253.65000019352,6|0,1:2|0:0,0:0:0:0:
153,366,71127,2,0,L|182:298,1,58.8999976632691,2|0,0:0|0:0,0:0:0:0:
239,171,71278,1,0,0:0:0:0:
6,255,71430,6,0,L|42:369,1,117.799995326538,10|0,0:2|0:0,0:0:0:0:
275,345,71733,6,0,B|411:309|411:309|444:237|444:237|390:287,1,253.65000019352,2|0,1:0|0:0,0:0:0:0:
338,242,72036,2,0,L|256:224,1,58.8999976632691,2|0,0:0|0:0,0:0:0:0:
455,384,72187,2,0,L|537:366,1,58.8999976632691,2|0,0:0|0:0,0:0:0:0:
390,161,72339,6,0,B|367:113|400:79|415:90|448:52|415:-11,1,176.699992989807,2|0,1:0|0:0,0:0:0:0:
304,50,72642,1,2,0:1:0:0:
65,92,72945,6,0,L|135:123,1,58.8999976632691,2|0,0:0|0:0,0:0:0:0:
189,155,73097,2,0,L|259:186,1,58.8999976632691
170,23,73248,6,0,B|186:66|186:66|147:123|147:123|141:280|141:280|58:340,1,338.200000258026,2|0,1:0|0:0,0:0:0:0:
72,313,73702,1,0,0:0:0:0:
321,384,73854,6,0,P|237:317|176:386,1,176.699992989807,10|0,0:2|0:0,0:0:0:0:
489,221,74157,6,0,B|521:185|521:185|414:226|414:226|300:203,1,253.65000019352,2|0,1:0|0:0,0:0:0:0:
287,279,74460,1,2,0:0:0:0:
353,106,74611,1,2,0:0:0:0:
247,178,74763,1,2,0:0:0:0:
233,172,74914,1,2,0:0:0:0:
411,308,75066,5,10,0:2:0:0:
411,308,75369,1,2,0:0:0:0:
106,99,75672,6,0,B|84:81|84:81|121:-8|121:-8|192:58|192:58|175:96,1,253.65000019352,2|0,1:0|0:0,0:0:0:0:
134,199,75975,2,0,B|16:162|16:162|53:179|62:207,1,176.699992989807,2|0,0:0|0:0,0:0:0:0:
250,279,76278,2,0,L|217:158,1,117.799995326538,10|0,0:2|0:0,0:0:0:0:
51,305,76581,6,0,B|141:322|141:322|175:371|175:371|314:390,1,253.65000019352,2|0,1:0|0:0,0:0:0:0:
348,327,76884,2,0,L|430:354,1,58.8999976632691,2|0,0:0|0:0,0:0:0:0:
274,146,77036,2,0,L|192:173,1,58.8999976632691,2|0,0:0|0:0,0:0:0:0:
512,191,77187,6,0,B|461:161|429:211|437:216|395:265|329:213,1,176.699992989807,2|0,0:0|0:0,0:0:0:0:
282,128,77490,1,2,0:0:0:0:
163,285,77793,5,2,0:0:0:0:
211,348,77945,1,0,0:0:0:0:
419,112,78096,6,0,B|470:57|470:57|356:121|356:121|206:86,1,338.200000258026,6|0,1:2|0:0,0:0:0:0:
218,73,78551,1,0,0:0:0:0:
73,285,78702,6,0,P|150:238|124:147,1,176.699992989807,10|0,0:2|0:0,0:0:0:0:
447,296,79005,6,0,B|487:297|487:297|451:366|451:366|353:255,1,253.65000019352,2|0,1:0|0:0,0:0:0:0:
305,193,79308,2,0,L|369:177,1,58.8999976632691,2|0,0:0|0:0,0:0:0:0:
210,371,79460,2,0,L|146:355,1,58.8999976632691,2|0,0:0|0:0,0:0:0:0:
362,265,79611,1,2,0:0:0:0:
375,260,79763,1,2,0:0:0:0:
191,110,79914,5,10,0:2:0:0:
191,110,80217,1,2,0:0:0:0:
443,18,80521,6,0,B|467:63|467:63|412:197|412:197|447:258,1,253.65000019352,2|0,1:0|0:0,0:0:0:0:
357,83,80824,2,0,L|518:169,1,176.699992989807,2|0,0:0|0:0,0:0:0:0:
440,247,81127,2,0,L|313:296,1,117.799995326538,10|0,0:2|0:0,0:0:0:0:
78,79,81430,6,0,B|160:110|160:110|196:170|196:170|318:217,1,253.65000019352,2|0,1:0|0:0,0:0:0:0:
361,144,81733,2,0,L|334:66,1,58.8999976632691,2|0,0:0|0:0,0:0:0:0:
133,238,81884,2,0,L|106:316,1,58.8999976632691,2|0,0:0|0:0,0:0:0:0:
227,10,82036,6,0,B|169:-11|136:36|149:43|126:97|41:74,1,176.699992989807,2|0,1:0|0:0,0:0:0:0:
0,0,82339,1,10,0:1:0:0:
8,185,82642,6,0,L|90:164,1,58.8999976632691,2|0,0:0|0:0,0:0:0:0:
143,145,82793,2,0,L|225:124,1,58.8999976632691
389,331,82945,6,0,B|356:232|356:232|432:106|432:106|409:160|409:160|423:230,1,338.200000258026,2|0,1:0|0:0,0:0:0:0:
429,201,83399,1,0,0:0:0:0:
204,328,83551,6,0,P|290:248|342:268,1,176.699992989807,10|0,0:2|0:0,0:0:0:0:
67,54,83854,6,0,B|15:34|15:34|60:82|60:82|195:47,1,253.65000019352,2|0,1:0|0:0,0:0:0:0:
262,4,84157,1,2,0:0:0:0:
425,123,84308,1,2,0:0:0:0:
332,72,84460,1,2,0:0:0:0:
348,66,84611,1,2,0:0:0:0:
333,261,84763,5,10,0:2:0:0:
333,261,85066,1,2,0:0:0:0:
10,375,85369,6,0,B|45:299|45:299|119:280|119:280|167:175,1,253.65000019352,2|0,1:0|0:0,0:0:0:0:
121,98,85672,2,0,B|196:209|196:209|259:230,1,176.699992989807,2|0,0:0|0:0,0:0:0:0:
224,46,85975,2,0,L|94:1,1,117.799995326538,10|0,0:2|0:0,0:0:0:0:
404,140,86278,6,0,L|492:117,1,84.5500000645065,2|0,1:0|0:0,0:0:0:0:
319,243,86430,2,0,L|233:222,1,84.5500000645065,2|0,0:0|0:0,0:0:0:0:
421,373,86581,1,2,0:0:0:0:
461,294,86733,1,2,0:0:0:0:
169,311,86884,6,0,B|220:326|252:289|240:284|265:231|328:245,1,176.699992989807,2|0,1:0|0:0,0:0:0:0:
332,381,87187,5,10,0:2:0:0:
162,234,87339,1,0,0:0:0:0:
319,127,87490,5,2,0:0:0:0:
401,153,87642,1,0,0:0:0:0:
256,192,87793,5,2,0:0:0:0:
256,192,88702,1,2,0:0:0:0:
256,192,90217,5,2,0:0:0:0:
256,192,91126,1,2,0:0:0:0:
256,192,92642,5,2,0:0:0:0:
256,192,93551,1,2,0:0:0:0:
256,192,95066,5,2,0:0:0:0:
256,192,95975,1,2,0:0:0:0:
460,99,97490,6,2,B|373:80|373:80|356:87|356:87|237:110|237:110|161:41|161:41|287:1|287:1|229:219,1,647.899974295961,2|2,0:1|0:1,0:1:0:0:
307,240,98399,6,2,B|321:290|321:290|306:319|306:319|321:380,1,128.249996086121,2|2,0:1|0:1,1:0:0:0:
316,361,99233,2,0,L|401:384,1,85.4999973907472,2|2,0:1|0:1,0:0:0:0:
233,306,99839,6,2,B|173:327|173:327|126:325|126:325|29:257|29:257|110:298,1,320.624990215302,2|2,0:1|0:1,0:1:0:0:
160,233,101127,2,2,L|176:160,1,71.2499978256226,2|2,0:1|0:1,0:1:0:0:
162,138,101581,6,0,B|174:94|174:94|139:52|139:52|136:77,1,111.150003731232,2|0,0:1|0:0,0:0:0:0:
247,139,101884,2,0,B|294:130|294:130|315:106|315:106|293:87|293:87|334:169,1,185.25000621872,2|0,0:1|0:0,0:0:0:0:
367,275,102339,6,0,P|367:293|360:269,7,84.5500000645065,0|0|0|0|0|0|0|0,1:0|0:0|0:0|0:0|0:0|0:0|0:0|0:0,0:0:0:0:
366,261,102945,2,0,L|332:351,1,71.2500027179719,2|0,0:1|0:0,0:0:0:0:
512,120,103248,6,0,P|512:102|505:126,7,84.5500000645065,0|0|0|0|0|0|0|2,1:0|0:0|0:0|0:0|0:0|0:0|0:0|0:1,0:0:0:0:
507,143,103854,2,0,L|497:204,1,35.625001358986,2|0,0:1|0:0,0:0:0:0:
493,213,104005,2,0,L|470:167,1,35.625001358986,2|0,0:1|0:0,0:0:0:0:
342,285,104157,6,2,B|418:266|418:266|423:311|423:311|507:361,1,213.750008153916,2|2,0:1|0:1,0:1:0:0:
212,250,104763,6,0,B|201:253|201:253|187:223|187:223|216:221|216:221|221:239,7,84.5500000645065,0|0|0|0|0|0|0|0,1:0|0:0|0:0|0:0|0:0|0:0|0:0|0:0,0:0:0:0:
233,251,105369,2,0,L|261:342,1,71.2500027179719,2|2,0:1|0:1,0:0:0:0:
94,200,105672,6,0,B|104:203|104:203|118:173|118:173|89:171|89:171|84:189,6,84.5500000645065,0|0|0|0|0|0|2,1:0|0:0|0:0|0:0|0:0|0:0|0:1,0:0:0:0:
14,246,106278,6,0,B|3:249|3:249|-10:219|-10:219|18:217|18:217|23:235,4,84.5500000645065,0|0|0|0|0,1:0|0:0|0:0|0:0|0:0,0:0:0:0:
28,244,106657,2,0,L|12:155,1,71.2500027179719,2|0,0:1|0:0,0:0:0:0:
0,152,106884,2,0,B|39:130|39:130|64:148|64:148|117:150,1,106.875004076958,2|0,0:1|0:0,0:0:0:0:
199,64,107187,6,0,P|208:55|198:73,7,84.5500000645065,0|0|0|0|0|0|0|0,1:0|0:0|0:0|0:0|0:0|0:0|0:0|0:0,0:0:0:0:
186,82,107793,2,0,L|171:169,1,71.2500027179719,2|2,0:1|0:1,0:0:0:0:
279,295,108096,6,0,P|288:304|278:286,7,84.5500000645065,0|0|0|0|0|0|0|0,1:0|0:0|0:0|0:0|0:0|0:0|0:0|0:0,0:0:0:0:
267,284,108702,2,2,B|273:192|273:192|334:209|334:209|366:161|366:161|316:55|316:55|317:117,1,391.875014948845,2|2,0:1|0:1,0:1:0:0:
432,262,109611,6,0,B|436:274|436:274|465:272|465:272|451:242|451:242|441:245,7,84.5500000645065,0|0|0|0|0|0|0|0,1:0|0:0|0:0|0:0|0:0|0:0|0:0|0:0,0:0:0:0:
420,251,110217,2,0,L|443:338,1,71.2500027179719,2|2,0:1|0:1,0:0:0:0:
269,370,110521,6,0,B|265:381|265:381|236:379|236:379|250:349|250:349|260:352,6,84.5500000645065,0|0|0|0|0|0|2,1:0|0:0|0:0|0:0|0:0|0:0|0:1,0:0:0:0:
178,312,111127,6,0,B|174:300|174:300|145:302|145:302|159:332|159:332|169:329,5,84.5500000645065,0|0|0|0|0|0,1:0|0:0|0:0|0:0|0:0|0:0,0:0:0:0:
192,329,111581,2,2,B|172:253|172:253|194:197|194:197|141:151|141:151|118:197,1,237.5,2|2,0:1|0:1,0:1:0:0:
109,146,112036,5,0,1:0:0:0:
