osu file format v14

[General]
AudioFilename: audio.mp3
AudioLeadIn: 0
PreviewTime: 25249
Countdown: 0
SampleSet: Soft
StackLeniency: 0.7
Mode: 3
LetterboxInBreaks: 0
SpecialStyle: 0
WidescreenStoryboard: 1

[Editor]
DistanceSpacing: 1
BeatDivisor: 5
GridSize: 4
TimelineZoom: 1.799999

[Metadata]
Title:757 (dive to the heart remix)
TitleUnicode:757 (ང།སཇ ཎ༳ ཎལཇ ལཇཅཁ༒ remix)
Artist:100 gecs
ArtistUnicode:100 gecs
Creator:Mich_
Version:extra
Source:
Tags:laura les dylan brady chordjack cj stamina speedjack rawstyle hardcore pop electronic english bootleg nxc
BeatmapID:4390695
BeatmapSetID:2080593

[Difficulty]
HPDrainRate:8
CircleSize:4
OverallDifficulty:8
ApproachRate:5
SliderMultiplier:1.4
SliderTickRate:1

[Events]
//Background and Video events
0,0,"11815855 (1).jpeg",0,0
//Break Periods
//Storyboard Layer 0 (Background)
//Storyboard Layer 1 (Fail)
//Storyboard Layer 2 (Pass)
//Storyboard Layer 3 (Foreground)
//Storyboard Layer 4 (Overlay)
//Storyboard Sound Samples

[TimingPoints]
3926,333.333333333333,4,2,1,65,1,0
57259,342.857142857143,4,2,1,65,1,0
57259,-97.0873786407767,4,2,1,65,0,0
60001,363.636363636364,4,2,1,65,1,0
60001,-91.743119266055,4,2,1,65,0,0
62910,375,4,2,1,65,1,0
62910,-88.495575221239,4,2,1,65,0,0

[HitObjects]
320,192,3925,5,0,0:0:0:0:
448,192,3925,1,0,0:0:0:0:
64,192,3925,1,0,0:0:0:0:
192,192,4092,1,0,0:0:0:0:
320,192,4092,1,0,0:0:0:0:
448,192,4259,1,0,0:0:0:0:
64,192,4259,1,0,0:0:0:0:
192,192,4259,1,0,0:0:0:0:
192,192,4425,1,0,0:0:0:0:
320,192,4425,1,0,0:0:0:0:
64,192,4592,1,0,0:0:0:0:
448,192,4759,1,0,0:0:0:0:
192,192,4925,1,0,0:0:0:0:
448,192,5092,1,0,0:0:0:0:
192,192,5259,1,0,0:0:0:0:
64,192,5259,1,0,0:0:0:0:
320,192,5259,1,0,0:0:0:0:
64,192,5425,1,0,0:0:0:0:
448,192,5425,1,0,0:0:0:0:
192,192,5592,1,0,0:0:0:0:
320,192,5592,1,0,0:0:0:0:
448,192,5592,1,0,0:0:0:0:
64,192,5759,1,0,0:0:0:0:
448,192,5759,1,0,0:0:0:0:
192,192,5925,1,0,0:0:0:0:
320,192,6092,1,0,0:0:0:0:
64,192,6259,1,0,0:0:0:0:
192,192,6425,1,0,0:0:0:0:
320,192,6592,1,0,0:0:0:0:
448,192,6592,1,0,0:0:0:0:
64,192,6592,1,0,0:0:0:0:
192,192,6759,1,0,0:0:0:0:
320,192,6759,1,0,0:0:0:0:
192,192,6925,1,0,0:0:0:0:
64,192,6925,1,0,0:0:0:0:
448,192,6925,1,0,0:0:0:0:
192,192,7092,1,0,0:0:0:0:
320,192,7092,1,0,0:0:0:0:
448,192,7259,1,0,0:0:0:0:
64,192,7425,1,0,0:0:0:0:
320,192,7592,1,0,0:0:0:0:
64,192,7759,1,0,0:0:0:0:
192,192,7925,1,0,0:0:0:0:
320,192,7925,1,0,0:0:0:0:
448,192,7925,1,0,0:0:0:0:
64,192,8092,1,0,0:0:0:0:
448,192,8092,1,0,0:0:0:0:
320,192,8259,1,0,0:0:0:0:
192,192,8259,1,0,0:0:0:0:
64,192,8259,1,0,0:0:0:0:
64,192,8425,1,0,0:0:0:0:
448,192,8425,1,0,0:0:0:0:
320,192,8592,1,0,0:0:0:0:
192,192,8759,1,0,0:0:0:0:
448,192,8925,1,0,0:0:0:0:
64,192,9092,1,0,0:0:0:0:
192,192,9259,1,0,0:0:0:0:
320,192,9259,1,0,0:0:0:0:
448,192,9259,1,0,0:0:0:0:
64,192,9425,1,0,0:0:0:0:
448,192,9592,1,0,0:0:0:0:
192,192,9759,1,0,0:0:0:0:
320,192,9925,1,0,0:0:0:0:
448,192,9925,1,0,0:0:0:0:
64,192,10092,1,0,0:0:0:0:
192,192,10259,1,0,0:0:0:0:
320,192,10259,1,0,0:0:0:0:
448,192,10259,1,0,0:0:0:0:
64,192,10425,1,0,0:0:0:0:
192,192,10592,1,0,0:0:0:0:
320,192,10592,1,0,0:0:0:0:
448,192,10592,1,0,0:0:0:0:
64,192,10759,1,0,0:0:0:0:
448,192,10925,1,0,0:0:0:0:
320,192,11092,1,0,0:0:0:0:
192,192,11259,1,0,0:0:0:0:
64,192,11259,1,0,0:0:0:0:
320,192,11425,1,0,0:0:0:0:
448,192,11592,1,0,0:0:0:0:
64,192,11759,1,0,0:0:0:0:
192,192,11925,1,0,0:0:0:0:
320,192,11925,1,0,0:0:0:0:
448,192,11925,1,0,0:0:0:0:
64,192,12092,1,0,0:0:0:0:
448,192,12259,1,0,0:0:0:0:
192,192,12425,1,0,0:0:0:0:
448,192,12592,1,0,0:0:0:0:
64,192,12592,1,0,0:0:0:0:
320,192,12759,1,0,0:0:0:0:
192,192,12925,1,0,0:0:0:0:
64,192,12925,1,0,0:0:0:0:
448,192,12925,1,0,0:0:0:0:
320,192,13092,1,0,0:0:0:0:
192,192,13259,1,0,0:0:0:0:
64,192,13259,1,0,0:0:0:0:
448,192,13259,1,0,0:0:0:0:
320,192,13425,1,0,0:0:0:0:
64,192,13592,1,0,0:0:0:0:
448,192,13759,1,0,0:0:0:0:
192,192,13925,1,0,0:0:0:0:
64,192,13925,1,0,0:0:0:0:
320,192,14092,1,0,0:0:0:0:
192,192,14259,1,0,0:0:0:0:
448,192,14425,1,0,0:0:0:0:
192,192,14592,1,0,0:0:0:0:
64,192,14592,1,0,0:0:0:0:
320,192,14759,1,0,0:0:0:0:
192,192,14925,1,0,0:0:0:0:
448,192,15092,1,0,0:0:0:0:
192,192,15259,1,0,0:0:0:0:
64,192,15259,1,0,0:0:0:0:
320,192,15425,1,0,0:0:0:0:
192,192,15592,1,0,0:0:0:0:
448,192,15759,1,0,0:0:0:0:
192,192,15925,1,0,0:0:0:0:
64,192,15925,1,0,0:0:0:0:
320,192,16092,1,0,0:0:0:0:
192,192,16259,1,0,0:0:0:0:
448,192,16425,1,0,0:0:0:0:
192,192,16592,1,0,0:0:0:0:
64,192,16592,1,0,0:0:0:0:
320,192,16759,1,0,0:0:0:0:
192,192,16925,1,0,0:0:0:0:
448,192,17092,1,0,0:0:0:0:
192,192,17259,1,0,0:0:0:0:
64,192,17259,1,0,0:0:0:0:
320,192,17425,1,0,0:0:0:0:
192,192,17592,1,0,0:0:0:0:
448,192,17759,1,0,0:0:0:0:
192,192,17925,1,0,0:0:0:0:
64,192,17925,1,0,0:0:0:0:
320,192,18092,1,0,0:0:0:0:
192,192,18259,1,0,0:0:0:0:
448,192,18425,1,0,0:0:0:0:
192,192,18592,1,0,0:0:0:0:
64,192,18592,1,0,0:0:0:0:
320,192,18759,1,0,0:0:0:0:
192,192,18925,1,0,0:0:0:0:
448,192,19092,1,0,0:0:0:0:
192,192,19259,1,0,0:0:0:0:
64,192,19259,1,0,0:0:0:0:
320,192,19425,1,0,0:0:0:0:
192,192,19592,1,0,0:0:0:0:
448,192,19759,1,0,0:0:0:0:
192,192,19925,1,0,0:0:0:0:
64,192,19925,1,0,0:0:0:0:
320,192,19925,1,0,0:0:0:0:
192,192,20092,1,0,0:0:0:0:
320,192,20259,1,0,0:0:0:0:
448,192,20259,1,0,0:0:0:0:
64,192,20259,1,0,0:0:0:0:
64,192,20425,1,0,0:0:0:0:
192,192,20592,1,0,0:0:0:0:
448,192,20592,1,0,0:0:0:0:
320,192,20592,1,0,0:0:0:0:
192,192,20759,1,0,0:0:0:0:
320,192,20925,1,0,0:0:0:0:
448,192,20925,1,0,0:0:0:0:
64,192,20925,1,0,0:0:0:0:
64,192,21092,1,0,0:0:0:0:
192,192,21259,1,0,0:0:0:0:
448,192,21259,1,0,0:0:0:0:
320,192,21259,1,0,0:0:0:0:
448,192,21425,1,0,0:0:0:0:
320,192,21592,1,0,0:0:0:0:
192,192,21592,1,0,0:0:0:0:
64,192,21592,1,0,0:0:0:0:
320,192,21759,1,0,0:0:0:0:
192,192,21925,1,0,0:0:0:0:
64,192,21925,1,0,0:0:0:0:
448,192,21925,1,0,0:0:0:0:
448,192,22092,1,0,0:0:0:0:
64,192,22259,1,0,0:0:0:0:
192,192,22259,1,0,0:0:0:0:
320,192,22259,1,0,0:0:0:0:
320,192,22425,1,0,0:0:0:0:
448,192,22592,1,0,0:0:0:0:
192,192,22592,1,0,0:0:0:0:
64,192,22592,1,0,0:0:0:0:
192,192,22759,1,0,0:0:0:0:
64,192,22759,1,0,0:0:0:0:
64,192,22925,1,0,0:0:0:0:
320,192,22925,1,0,0:0:0:0:
448,192,22925,1,0,0:0:0:0:
320,192,23092,1,0,0:0:0:0:
192,192,23092,1,0,0:0:0:0:
320,192,23259,1,0,0:0:0:0:
448,192,23259,1,0,0:0:0:0:
64,192,23259,1,0,0:0:0:0:
448,192,23425,1,0,0:0:0:0:
320,192,23425,1,0,0:0:0:0:
192,192,23592,1,0,0:0:0:0:
448,192,23592,1,0,0:0:0:0:
64,192,23592,1,0,0:0:0:0:
320,192,23759,1,0,0:0:0:0:
192,192,23759,1,0,0:0:0:0:
448,192,23925,1,0,0:0:0:0:
192,192,23925,1,0,0:0:0:0:
64,192,23925,1,0,0:0:0:0:
192,192,24092,1,0,0:0:0:0:
64,192,24092,1,0,0:0:0:0:
64,192,24259,1,0,0:0:0:0:
320,192,24259,1,0,0:0:0:0:
448,192,24259,1,0,0:0:0:0:
192,192,24425,1,0,0:0:0:0:
320,192,24425,1,0,0:0:0:0:
448,192,24592,1,0,0:0:0:0:
64,192,24592,1,0,0:0:0:0:
320,192,24759,1,0,0:0:0:0:
192,192,25092,1,0,0:0:0:0:
64,192,25092,1,0,0:0:0:0:
320,192,25175,1,0,0:0:0:0:
448,192,25259,1,0,0:0:0:0:
64,192,25259,1,0,0:0:0:0:
192,192,25259,1,0,0:0:0:0:
64,192,25342,1,0,0:0:0:0:
448,192,25425,1,0,0:0:0:0:
448,192,25509,1,0,0:0:0:0:
192,192,25592,1,0,0:0:0:0:
320,192,25592,1,0,0:0:0:0:
64,192,25592,1,0,0:0:0:0:
192,192,25675,1,0,0:0:0:0:
320,192,25759,1,0,0:0:0:0:
320,192,25842,1,0,0:0:0:0:
64,192,25925,1,0,0:0:0:0:
192,192,25925,1,0,0:0:0:0:
448,192,25925,1,0,0:0:0:0:
64,192,26009,1,0,0:0:0:0:
320,192,26092,1,0,0:0:0:0:
320,192,26175,1,0,0:0:0:0:
64,192,26259,1,0,0:0:0:0:
448,192,26259,1,0,0:0:0:0:
192,192,26259,1,0,0:0:0:0:
192,192,26342,1,0,0:0:0:0:
448,192,26425,1,0,0:0:0:0:
448,192,26509,1,0,0:0:0:0:
192,192,26592,1,0,0:0:0:0:
320,192,26592,1,0,0:0:0:0:
64,192,26592,1,0,0:0:0:0:
320,192,26675,1,0,0:0:0:0:
64,192,26759,1,0,0:0:0:0:
64,192,26842,1,0,0:0:0:0:
192,192,26925,1,0,0:0:0:0:
320,192,26925,1,0,0:0:0:0:
448,192,26925,1,0,0:0:0:0:
320,192,27009,1,0,0:0:0:0:
448,192,27092,1,0,0:0:0:0:
448,192,27175,1,0,0:0:0:0:
320,192,27259,1,0,0:0:0:0:
192,192,27259,1,0,0:0:0:0:
64,192,27259,1,0,0:0:0:0:
192,192,27342,1,0,0:0:0:0:
320,192,27425,1,0,0:0:0:0:
320,192,27509,1,0,0:0:0:0:
192,192,27592,1,0,0:0:0:0:
448,192,27592,1,0,0:0:0:0:
64,192,27592,1,0,0:0:0:0:
448,192,27675,1,0,0:0:0:0:
64,192,27759,1,0,0:0:0:0:
64,192,27842,1,0,0:0:0:0:
192,192,27925,1,0,0:0:0:0:
448,192,27925,1,0,0:0:0:0:
64,192,27925,1,0,0:0:0:0:
320,192,27925,1,0,0:0:0:0:
448,192,28009,1,0,0:0:0:0:
192,192,28092,1,0,0:0:0:0:
64,192,28092,1,0,0:0:0:0:
320,192,28175,1,0,0:0:0:0:
448,192,28259,1,0,0:0:0:0:
192,192,28259,1,0,0:0:0:0:
64,192,28259,1,0,0:0:0:0:
320,192,28259,1,0,0:0:0:0:
64,192,28342,1,0,0:0:0:0:
320,192,28425,1,0,0:0:0:0:
448,192,28425,1,0,0:0:0:0:
192,192,28509,1,0,0:0:0:0:
192,192,28592,1,0,0:0:0:0:
64,192,28592,1,0,0:0:0:0:
448,192,28592,1,0,0:0:0:0:
320,192,28592,1,0,0:0:0:0:
448,192,28675,1,0,0:0:0:0:
192,192,28759,1,0,0:0:0:0:
64,192,28759,1,0,0:0:0:0:
320,192,28842,1,0,0:0:0:0:
64,192,28925,1,0,0:0:0:0:
448,192,28925,1,0,0:0:0:0:
320,192,28925,1,0,0:0:0:0:
64,192,29009,1,0,0:0:0:0:
320,192,29092,1,0,0:0:0:0:
320,192,29175,1,0,0:0:0:0:
448,192,29259,1,0,0:0:0:0:
64,192,29259,1,0,0:0:0:0:
192,192,29259,1,0,0:0:0:0:
448,192,29342,1,0,0:0:0:0:
192,192,29425,1,0,0:0:0:0:
192,192,29509,1,0,0:0:0:0:
64,192,29592,1,0,0:0:0:0:
448,192,29592,1,0,0:0:0:0:
320,192,29592,1,0,0:0:0:0:
320,192,29675,1,0,0:0:0:0:
64,192,29759,1,0,0:0:0:0:
64,192,29842,1,0,0:0:0:0:
320,192,29925,1,0,0:0:0:0:
192,192,29925,1,0,0:0:0:0:
448,192,29925,1,0,0:0:0:0:
448,192,30009,1,0,0:0:0:0:
192,192,30092,1,0,0:0:0:0:
192,192,30175,1,0,0:0:0:0:
320,192,30259,1,0,0:0:0:0:
448,192,30259,1,0,0:0:0:0:
64,192,30259,1,0,0:0:0:0:
64,192,30342,1,0,0:0:0:0:
320,192,30425,1,0,0:0:0:0:
320,192,30509,1,0,0:0:0:0:
64,192,30592,1,0,0:0:0:0:
448,192,30592,1,0,0:0:0:0:
192,192,30592,1,0,0:0:0:0:
448,192,30675,1,0,0:0:0:0:
64,192,30759,1,0,0:0:0:0:
64,192,30842,1,0,0:0:0:0:
320,192,30925,1,0,0:0:0:0:
192,192,30925,1,0,0:0:0:0:
448,192,30925,1,0,0:0:0:0:
320,192,31009,1,0,0:0:0:0:
192,192,31092,1,0,0:0:0:0:
192,192,31175,1,0,0:0:0:0:
448,192,31259,1,0,0:0:0:0:
320,192,31259,1,0,0:0:0:0:
64,192,31259,1,0,0:0:0:0:
448,192,31342,1,0,0:0:0:0:
192,192,31425,1,0,0:0:0:0:
192,192,31509,1,0,0:0:0:0:
448,192,31592,1,0,0:0:0:0:
64,192,31592,1,0,0:0:0:0:
320,192,31592,1,0,0:0:0:0:
320,192,31675,1,0,0:0:0:0:
64,192,31759,1,0,0:0:0:0:
64,192,31842,1,0,0:0:0:0:
320,192,31925,1,0,0:0:0:0:
192,192,31925,1,0,0:0:0:0:
448,192,31925,1,0,0:0:0:0:
192,192,32009,1,0,0:0:0:0:
448,192,32092,1,0,0:0:0:0:
448,192,32175,1,0,0:0:0:0:
320,192,32259,1,0,0:0:0:0:
192,192,32259,1,0,0:0:0:0:
64,192,32259,1,0,0:0:0:0:
192,192,32342,1,0,0:0:0:0:
64,192,32425,1,0,0:0:0:0:
64,192,32509,1,0,0:0:0:0:
192,192,32592,1,0,0:0:0:0:
320,192,32592,1,0,0:0:0:0:
448,192,32592,1,0,0:0:0:0:
320,192,32675,1,0,0:0:0:0:
192,192,32759,1,0,0:0:0:0:
192,192,32842,1,0,0:0:0:0:
448,192,32925,1,0,0:0:0:0:
320,192,32925,1,0,0:0:0:0:
64,192,32925,1,0,0:0:0:0:
64,192,33009,1,0,0:0:0:0:
448,192,33092,1,0,0:0:0:0:
448,192,33175,1,0,0:0:0:0:
320,192,33259,1,0,0:0:0:0:
64,192,33259,1,0,0:0:0:0:
448,192,33259,1,0,0:0:0:0:
192,192,33259,1,0,0:0:0:0:
64,192,33342,1,0,0:0:0:0:
448,192,33425,1,0,0:0:0:0:
320,192,33425,1,0,0:0:0:0:
192,192,33509,1,0,0:0:0:0:
64,192,33592,1,0,0:0:0:0:
320,192,33592,1,0,0:0:0:0:
448,192,33592,1,0,0:0:0:0:
192,192,33592,1,0,0:0:0:0:
448,192,33675,1,0,0:0:0:0:
64,192,33759,1,0,0:0:0:0:
192,192,33759,1,0,0:0:0:0:
320,192,33842,1,0,0:0:0:0:
320,192,33925,1,0,0:0:0:0:
448,192,33925,1,0,0:0:0:0:
64,192,33925,1,0,0:0:0:0:
192,192,33925,1,0,0:0:0:0:
64,192,34009,1,0,0:0:0:0:
448,192,34092,1,0,0:0:0:0:
320,192,34092,1,0,0:0:0:0:
192,192,34175,1,0,0:0:0:0:
448,192,34259,1,0,0:0:0:0:
64,192,34259,1,0,0:0:0:0:
192,192,34259,1,0,0:0:0:0:
448,192,34342,1,0,0:0:0:0:
192,192,34425,1,0,0:0:0:0:
192,192,34509,1,0,0:0:0:0:
64,192,34592,1,0,0:0:0:0:
448,192,34592,1,0,0:0:0:0:
320,192,34592,1,0,0:0:0:0:
64,192,34675,1,0,0:0:0:0:
320,192,34759,1,0,0:0:0:0:
320,192,34842,1,0,0:0:0:0:
448,192,34925,1,0,0:0:0:0:
64,192,34925,1,0,0:0:0:0:
192,192,34925,1,0,0:0:0:0:
192,192,35009,1,0,0:0:0:0:
448,192,35092,1,0,0:0:0:0:
448,192,35175,1,0,0:0:0:0:
192,192,35259,1,0,0:0:0:0:
320,192,35259,1,0,0:0:0:0:
64,192,35259,1,0,0:0:0:0:
448,192,35425,1,0,0:0:0:0:
192,192,35592,1,0,0:0:0:0:
320,192,35759,1,0,0:0:0:0:
64,192,35759,1,0,0:0:0:0:
192,192,35842,1,0,0:0:0:0:
64,192,35925,1,0,0:0:0:0:
448,192,35925,1,0,0:0:0:0:
320,192,35925,1,0,0:0:0:0:
448,192,36009,1,0,0:0:0:0:
64,192,36092,1,0,0:0:0:0:
64,192,36175,1,0,0:0:0:0:
320,192,36259,1,0,0:0:0:0:
192,192,36259,1,0,0:0:0:0:
448,192,36259,1,0,0:0:0:0:
320,192,36342,1,0,0:0:0:0:
192,192,36425,1,0,0:0:0:0:
192,192,36509,1,0,0:0:0:0:
448,192,36592,1,0,0:0:0:0:
320,192,36592,1,0,0:0:0:0:
64,192,36592,1,0,0:0:0:0:
448,192,36675,1,0,0:0:0:0:
192,192,36759,1,0,0:0:0:0:
192,192,36842,1,0,0:0:0:0:
448,192,36925,1,0,0:0:0:0:
64,192,36925,1,0,0:0:0:0:
320,192,36925,1,0,0:0:0:0:
320,192,37009,1,0,0:0:0:0:
64,192,37092,1,0,0:0:0:0:
64,192,37175,1,0,0:0:0:0:
320,192,37259,1,0,0:0:0:0:
192,192,37259,1,0,0:0:0:0:
448,192,37259,1,0,0:0:0:0:
192,192,37342,1,0,0:0:0:0:
448,192,37425,1,0,0:0:0:0:
448,192,37509,1,0,0:0:0:0:
320,192,37592,1,0,0:0:0:0:
192,192,37592,1,0,0:0:0:0:
64,192,37592,1,0,0:0:0:0:
192,192,37675,1,0,0:0:0:0:
64,192,37759,1,0,0:0:0:0:
64,192,37842,1,0,0:0:0:0:
192,192,37925,1,0,0:0:0:0:
320,192,37925,1,0,0:0:0:0:
448,192,37925,1,0,0:0:0:0:
320,192,38009,1,0,0:0:0:0:
448,192,38092,1,0,0:0:0:0:
192,192,38092,1,0,0:0:0:0:
192,192,38175,1,0,0:0:0:0:
448,192,38259,1,0,0:0:0:0:
320,192,38259,1,0,0:0:0:0:
64,192,38259,1,0,0:0:0:0:
64,192,38342,1,0,0:0:0:0:
448,192,38425,1,0,0:0:0:0:
192,192,38425,1,0,0:0:0:0:
448,192,38509,1,0,0:0:0:0:
320,192,38592,1,0,0:0:0:0:
64,192,38592,1,0,0:0:0:0:
448,192,38592,1,0,0:0:0:0:
192,192,38592,1,0,0:0:0:0:
64,192,38675,1,0,0:0:0:0:
448,192,38759,1,0,0:0:0:0:
320,192,38759,1,0,0:0:0:0:
192,192,38842,1,0,0:0:0:0:
64,192,38925,1,0,0:0:0:0:
320,192,38925,1,0,0:0:0:0:
448,192,38925,1,0,0:0:0:0:
192,192,38925,1,0,0:0:0:0:
448,192,39009,1,0,0:0:0:0:
64,192,39092,1,0,0:0:0:0:
192,192,39092,1,0,0:0:0:0:
320,192,39175,1,0,0:0:0:0:
448,192,39259,1,0,0:0:0:0:
64,192,39259,1,0,0:0:0:0:
192,192,39259,1,0,0:0:0:0:
320,192,39259,1,0,0:0:0:0:
64,192,39342,1,0,0:0:0:0:
448,192,39425,1,0,0:0:0:0:
320,192,39425,1,0,0:0:0:0:
192,192,39509,1,0,0:0:0:0:
448,192,39592,1,0,0:0:0:0:
64,192,39592,1,0,0:0:0:0:
192,192,39592,1,0,0:0:0:0:
448,192,39675,1,0,0:0:0:0:
192,192,39759,1,0,0:0:0:0:
192,192,39842,1,0,0:0:0:0:
64,192,39925,1,0,0:0:0:0:
448,192,39925,1,0,0:0:0:0:
320,192,39925,1,0,0:0:0:0:
64,192,40009,1,0,0:0:0:0:
320,192,40092,1,0,0:0:0:0:
320,192,40175,1,0,0:0:0:0:
448,192,40259,1,0,0:0:0:0:
64,192,40259,1,0,0:0:0:0:
192,192,40259,1,0,0:0:0:0:
192,192,40342,1,0,0:0:0:0:
448,192,40425,1,0,0:0:0:0:
448,192,40509,1,0,0:0:0:0:
192,192,40592,1,0,0:0:0:0:
320,192,40592,1,0,0:0:0:0:
64,192,40592,1,0,0:0:0:0:
64,192,40675,1,0,0:0:0:0:
320,192,40759,1,0,0:0:0:0:
320,192,40842,1,0,0:0:0:0:
192,192,40925,1,0,0:0:0:0:
64,192,40925,1,0,0:0:0:0:
448,192,40925,1,0,0:0:0:0:
448,192,41009,1,0,0:0:0:0:
192,192,41092,1,0,0:0:0:0:
192,192,41175,1,0,0:0:0:0:
448,192,41259,1,0,0:0:0:0:
64,192,41259,1,0,0:0:0:0:
320,192,41259,1,0,0:0:0:0:
64,192,41342,1,0,0:0:0:0:
448,192,41425,1,0,0:0:0:0:
448,192,41509,1,0,0:0:0:0:
192,192,41592,1,0,0:0:0:0:
320,192,41592,1,0,0:0:0:0:
64,192,41592,1,0,0:0:0:0:
192,192,41675,1,0,0:0:0:0:
320,192,41759,1,0,0:0:0:0:
320,192,41842,1,0,0:0:0:0:
64,192,41925,1,0,0:0:0:0:
192,192,41925,1,0,0:0:0:0:
448,192,41925,1,0,0:0:0:0:
64,192,42009,1,0,0:0:0:0:
320,192,42092,1,0,0:0:0:0:
320,192,42175,1,0,0:0:0:0:
64,192,42259,1,0,0:0:0:0:
448,192,42259,1,0,0:0:0:0:
192,192,42259,1,0,0:0:0:0:
192,192,42342,1,0,0:0:0:0:
448,192,42425,1,0,0:0:0:0:
448,192,42509,1,0,0:0:0:0:
192,192,42592,1,0,0:0:0:0:
320,192,42592,1,0,0:0:0:0:
64,192,42592,1,0,0:0:0:0:
320,192,42675,1,0,0:0:0:0:
64,192,42759,1,0,0:0:0:0:
64,192,42842,1,0,0:0:0:0:
192,192,42925,1,0,0:0:0:0:
320,192,42925,1,0,0:0:0:0:
448,192,42925,1,0,0:0:0:0:
320,192,43009,1,0,0:0:0:0:
448,192,43092,1,0,0:0:0:0:
448,192,43175,1,0,0:0:0:0:
320,192,43259,1,0,0:0:0:0:
192,192,43259,1,0,0:0:0:0:
64,192,43259,1,0,0:0:0:0:
192,192,43342,1,0,0:0:0:0:
64,192,43425,1,0,0:0:0:0:
320,192,43425,1,0,0:0:0:0:
320,192,43509,1,0,0:0:0:0:
64,192,43592,1,0,0:0:0:0:
192,192,43592,1,0,0:0:0:0:
448,192,43592,1,0,0:0:0:0:
448,192,43675,1,0,0:0:0:0:
64,192,43759,1,0,0:0:0:0:
320,192,43759,1,0,0:0:0:0:
64,192,43842,1,0,0:0:0:0:
192,192,43925,1,0,0:0:0:0:
448,192,43925,1,0,0:0:0:0:
64,192,43925,1,0,0:0:0:0:
320,192,43925,1,0,0:0:0:0:
448,192,44009,1,0,0:0:0:0:
64,192,44092,1,0,0:0:0:0:
192,192,44092,1,0,0:0:0:0:
320,192,44175,1,0,0:0:0:0:
448,192,44259,1,0,0:0:0:0:
192,192,44259,1,0,0:0:0:0:
64,192,44259,1,0,0:0:0:0:
320,192,44259,1,0,0:0:0:0:
64,192,44342,1,0,0:0:0:0:
448,192,44425,1,0,0:0:0:0:
320,192,44425,1,0,0:0:0:0:
192,192,44509,1,0,0:0:0:0:
192,192,44592,1,0,0:0:0:0:
64,192,44592,1,0,0:0:0:0:
448,192,44592,1,0,0:0:0:0:
320,192,44592,1,0,0:0:0:0:
448,192,44675,1,0,0:0:0:0:
64,192,44759,1,0,0:0:0:0:
192,192,44759,1,0,0:0:0:0:
320,192,44842,1,0,0:0:0:0:
64,192,44925,1,0,0:0:0:0:
448,192,44925,1,0,0:0:0:0:
320,192,44925,1,0,0:0:0:0:
64,192,45009,1,0,0:0:0:0:
320,192,45092,1,0,0:0:0:0:
320,192,45175,1,0,0:0:0:0:
448,192,45259,1,0,0:0:0:0:
64,192,45259,1,0,0:0:0:0:
192,192,45259,1,0,0:0:0:0:
448,192,45342,1,0,0:0:0:0:
192,192,45425,1,0,0:0:0:0:
192,192,45509,1,0,0:0:0:0:
64,192,45592,1,0,0:0:0:0:
448,192,45592,1,0,0:0:0:0:
320,192,45592,1,0,0:0:0:0:
320,192,45675,1,0,0:0:0:0:
64,192,45759,1,0,0:0:0:0:
192,192,45759,1,0,0:0:0:0:
64,192,45842,1,0,0:0:0:0:
320,192,45925,1,0,0:0:0:0:
192,192,45925,1,0,0:0:0:0:
448,192,45925,1,0,0:0:0:0:
64,192,46092,1,0,0:0:0:0:
320,192,46259,1,0,0:0:0:0:
192,192,46425,1,0,0:0:0:0:
320,192,46509,1,0,0:0:0:0:
64,192,46592,1,0,0:0:0:0:
448,192,46640,1,0,0:0:0:0:
192,192,46687,1,0,0:0:0:0:
320,192,46735,1,0,0:0:0:0:
64,192,46792,1,0,0:0:0:0:
192,192,46859,1,0,0:0:0:0:
320,192,46925,1,0,0:0:0:0:
448,192,46992,1,0,0:0:0:0:
64,192,47925,1,0,0:0:0:0:
320,192,48009,1,0,0:0:0:0:
192,192,48092,1,0,0:0:0:0:
448,192,48175,1,0,0:0:0:0:
192,192,48259,1,0,0:0:0:0:
320,192,48342,1,0,0:0:0:0:
64,192,48425,1,0,0:0:0:0:
448,192,48592,1,0,0:0:0:0:
64,192,48759,1,0,0:0:0:0:
320,192,48925,1,0,0:0:0:0:
192,192,49092,1,0,0:0:0:0:
448,192,49259,1,0,0:0:0:0:
192,192,49425,1,0,0:0:0:0:
320,192,49592,1,0,0:0:0:0:
64,192,49759,1,0,0:0:0:0:
448,192,49842,1,0,0:0:0:0:
320,192,49925,1,0,0:0:0:0:
192,192,50009,1,0,0:0:0:0:
320,192,50175,1,0,0:0:0:0:
448,192,50259,1,0,0:0:0:0:
192,192,50342,1,0,0:0:0:0:
64,192,50425,1,0,0:0:0:0:
320,192,50509,1,0,0:0:0:0:
192,192,50592,1,0,0:0:0:0:
448,192,50675,1,0,0:0:0:0:
64,192,50842,1,0,0:0:0:0:
320,192,50925,1,0,0:0:0:0:
192,192,51064,1,0,0:0:0:0:
320,192,51287,1,0,0:0:0:0:
192,192,51509,1,0,0:0:0:0:
320,192,51731,1,0,0:0:0:0:
192,192,51925,1,0,0:0:0:0:
64,192,51925,1,0,0:0:0:0:
448,192,51925,1,0,0:0:0:0:
320,192,52092,1,0,0:0:0:0:
192,192,52092,1,0,0:0:0:0:
64,192,52259,1,0,0:0:0:0:
448,192,52259,1,0,0:0:0:0:
320,192,52259,1,0,0:0:0:0:
192,192,52425,1,0,0:0:0:0:
320,192,52425,1,0,0:0:0:0:
64,192,52592,1,0,0:0:0:0:
448,192,52759,1,0,0:0:0:0:
192,192,52925,1,0,0:0:0:0:
448,192,53092,1,0,0:0:0:0:
192,192,53259,1,0,0:0:0:0:
64,192,53259,1,0,0:0:0:0:
320,192,53259,1,0,0:0:0:0:
64,192,53425,1,0,0:0:0:0:
448,192,53425,1,0,0:0:0:0:
192,192,53592,1,0,0:0:0:0:
320,192,53592,1,0,0:0:0:0:
448,192,53592,1,0,0:0:0:0:
320,192,53759,1,0,0:0:0:0:
448,192,53759,1,0,0:0:0:0:
192,192,53925,1,0,0:0:0:0:
448,192,54092,1,0,0:0:0:0:
64,192,54259,1,0,0:0:0:0:
320,192,54425,1,0,0:0:0:0:
192,192,54592,1,0,0:0:0:0:
64,192,54592,1,0,0:0:0:0:
448,192,54592,1,0,0:0:0:0:
192,192,54759,1,0,0:0:0:0:
320,192,54759,1,0,0:0:0:0:
320,192,54925,1,0,0:0:0:0:
448,192,54925,1,0,0:0:0:0:
64,192,54925,1,0,0:0:0:0:
192,192,55092,1,0,0:0:0:0:
320,192,55092,1,0,0:0:0:0:
448,192,55259,1,0,0:0:0:0:
64,192,55425,1,0,0:0:0:0:
320,192,55592,1,0,0:0:0:0:
64,192,55759,1,0,0:0:0:0:
192,192,55925,1,0,0:0:0:0:
320,192,55925,1,0,0:0:0:0:
448,192,55925,1,0,0:0:0:0:
64,192,56092,1,0,0:0:0:0:
448,192,56092,1,0,0:0:0:0:
64,192,56259,1,0,0:0:0:0:
192,192,56259,1,0,0:0:0:0:
320,192,56259,1,0,0:0:0:0:
192,192,56425,1,0,0:0:0:0:
64,192,56425,1,0,0:0:0:0:
448,192,56592,1,0,0:0:0:0:
192,192,56759,1,0,0:0:0:0:
448,192,56925,1,0,0:0:0:0:
192,192,57092,1,0,0:0:0:0:
320,192,57259,1,0,0:0:0:0:
448,192,57259,1,0,0:0:0:0:
64,192,57259,1,0,0:0:0:0:
192,192,57430,1,0,0:0:0:0:
64,192,57601,1,0,0:0:0:0:
320,192,57773,1,0,0:0:0:0:
192,192,57944,1,0,0:0:0:0:
64,192,57944,1,0,0:0:0:0:
448,192,58116,1,0,0:0:0:0:
320,192,58287,1,0,0:0:0:0:
192,192,58287,1,0,0:0:0:0:
64,192,58287,1,0,0:0:0:0:
448,192,58459,1,0,0:0:0:0:
320,192,58630,1,0,0:0:0:0:
192,192,58630,1,0,0:0:0:0:
64,192,58630,1,0,0:0:0:0:
448,192,58801,1,0,0:0:0:0:
320,192,58973,1,0,0:0:0:0:
64,192,59144,1,0,0:0:0:0:
192,192,59316,1,0,0:0:0:0:
448,192,59316,1,0,0:0:0:0:
64,192,59487,1,0,0:0:0:0:
320,192,59659,1,0,0:0:0:0:
192,192,59830,1,0,0:0:0:0:
320,192,60001,1,0,0:0:0:0:
448,192,60001,1,0,0:0:0:0:
64,192,60001,1,0,0:0:0:0:
192,192,60182,1,0,0:0:0:0:
448,192,60364,1,0,0:0:0:0:
64,192,60546,1,0,0:0:0:0:
320,192,60728,1,0,0:0:0:0:
448,192,60728,1,0,0:0:0:0:
192,192,60910,1,0,0:0:0:0:
64,192,61091,1,0,0:0:0:0:
320,192,61091,1,0,0:0:0:0:
448,192,61091,1,0,0:0:0:0:
192,192,61273,1,0,0:0:0:0:
320,192,61455,1,0,0:0:0:0:
448,192,61455,1,0,0:0:0:0:
64,192,61455,1,0,0:0:0:0:
192,192,61637,5,0,0:0:0:0:
64,192,61819,1,0,0:0:0:0:
448,192,62001,1,0,0:0:0:0:
320,192,62182,1,0,0:0:0:0:
192,192,62182,1,0,0:0:0:0:
64,192,62728,5,0,0:0:0:0:
192,192,62728,1,0,0:0:0:0:
320,192,62819,1,0,0:0:0:0:
192,192,62910,1,0,0:0:0:0:
448,192,62910,1,0,0:0:0:0:
64,192,62910,1,0,0:0:0:0:
320,192,63003,1,0,0:0:0:0:
192,192,63003,1,0,0:0:0:0:
64,192,63097,1,0,0:0:0:0:
448,192,63097,1,0,0:0:0:0:
192,192,63191,1,0,0:0:0:0:
448,192,63191,1,0,0:0:0:0:
320,192,63285,1,0,0:0:0:0:
64,192,63285,1,0,0:0:0:0:
64,192,63378,1,0,0:0:0:0:
448,192,63378,1,0,0:0:0:0:
192,192,63472,1,0,0:0:0:0:
320,192,63472,1,0,0:0:0:0:
448,192,63566,1,0,0:0:0:0:
320,192,63566,1,0,0:0:0:0:
64,192,63660,1,0,0:0:0:0:
192,192,63660,1,0,0:0:0:0:
448,192,63753,1,0,0:0:0:0:
64,192,63753,1,0,0:0:0:0:
320,192,63847,1,0,0:0:0:0:
192,192,63847,1,0,0:0:0:0:
320,192,63941,1,0,0:0:0:0:
64,192,63941,1,0,0:0:0:0:
192,192,64035,1,0,0:0:0:0:
448,192,64035,1,0,0:0:0:0:
320,192,64128,1,0,0:0:0:0:
192,192,64128,1,0,0:0:0:0:
64,192,64222,1,0,0:0:0:0:
448,192,64222,1,0,0:0:0:0:
320,192,64316,1,0,0:0:0:0:
64,192,64316,1,0,0:0:0:0:
192,192,64410,1,0,0:0:0:0:
448,192,64410,1,0,0:0:0:0:
320,192,64503,1,0,0:0:0:0:
448,192,64503,1,0,0:0:0:0:
64,192,64597,1,0,0:0:0:0:
192,192,64597,1,0,0:0:0:0:
64,192,64691,1,0,0:0:0:0:
448,192,64691,1,0,0:0:0:0:
320,192,64785,1,0,0:0:0:0:
192,192,64785,1,0,0:0:0:0:
64,192,64878,1,0,0:0:0:0:
320,192,64878,1,0,0:0:0:0:
192,192,64972,1,0,0:0:0:0:
448,192,64972,1,0,0:0:0:0:
320,192,65066,1,0,0:0:0:0:
192,192,65066,1,0,0:0:0:0:
64,192,65160,1,0,0:0:0:0:
448,192,65160,1,0,0:0:0:0:
192,192,65253,1,0,0:0:0:0:
448,192,65253,1,0,0:0:0:0:
64,192,65347,1,0,0:0:0:0:
320,192,65347,1,0,0:0:0:0:
64,192,65441,1,0,0:0:0:0:
448,192,65441,1,0,0:0:0:0:
320,192,65535,1,0,0:0:0:0:
192,192,65535,1,0,0:0:0:0:
448,192,65628,1,0,0:0:0:0:
192,192,65628,1,0,0:0:0:0:
64,192,65722,1,0,0:0:0:0:
320,192,65722,1,0,0:0:0:0:
448,192,65816,1,0,0:0:0:0:
320,192,65816,1,0,0:0:0:0:
64,192,65910,1,0,0:0:0:0:
192,192,65910,1,0,0:0:0:0:
448,192,65910,1,0,0:0:0:0:
192,192,66003,1,0,0:0:0:0:
64,192,66003,1,0,0:0:0:0:
320,192,66097,1,0,0:0:0:0:
448,192,66097,1,0,0:0:0:0:
192,192,66191,1,0,0:0:0:0:
64,192,66191,1,0,0:0:0:0:
64,192,66285,1,0,0:0:0:0:
320,192,66285,1,0,0:0:0:0:
448,192,66285,1,0,0:0:0:0:
448,192,66378,1,0,0:0:0:0:
320,192,66378,1,0,0:0:0:0:
192,192,66472,1,0,0:0:0:0:
64,192,66472,1,0,0:0:0:0:
448,192,66566,1,0,0:0:0:0:
320,192,66566,1,0,0:0:0:0:
64,192,66660,1,0,0:0:0:0:
448,192,66660,1,0,0:0:0:0:
192,192,66660,1,0,0:0:0:0:
192,192,66753,1,0,0:0:0:0:
64,192,66753,1,0,0:0:0:0:
448,192,66847,1,0,0:0:0:0:
320,192,66847,1,0,0:0:0:0:
64,192,66941,1,0,0:0:0:0:
192,192,66941,1,0,0:0:0:0:
320,192,67035,1,0,0:0:0:0:
64,192,67035,1,0,0:0:0:0:
448,192,67035,1,0,0:0:0:0:
448,192,67128,1,0,0:0:0:0:
192,192,67128,1,0,0:0:0:0:
320,192,67222,1,0,0:0:0:0:
64,192,67222,1,0,0:0:0:0:
448,192,67316,1,0,0:0:0:0:
320,192,67316,1,0,0:0:0:0:
64,192,67410,1,0,0:0:0:0:
192,192,67410,1,0,0:0:0:0:
192,192,67503,1,0,0:0:0:0:
320,192,67503,1,0,0:0:0:0:
64,192,67597,1,0,0:0:0:0:
448,192,67597,1,0,0:0:0:0:
64,192,67691,1,0,0:0:0:0:
320,192,67691,1,0,0:0:0:0:
192,192,67785,1,0,0:0:0:0:
448,192,67785,1,0,0:0:0:0:
64,192,67878,1,0,0:0:0:0:
448,192,67878,1,0,0:0:0:0:
192,192,67972,1,0,0:0:0:0:
320,192,67972,1,0,0:0:0:0:
192,192,68066,1,0,0:0:0:0:
448,192,68066,1,0,0:0:0:0:
64,192,68160,1,0,0:0:0:0:
320,192,68160,1,0,0:0:0:0:
192,192,68253,1,0,0:0:0:0:
320,192,68253,1,0,0:0:0:0:
64,192,68347,1,0,0:0:0:0:
448,192,68347,1,0,0:0:0:0:
192,192,68441,1,0,0:0:0:0:
64,192,68441,1,0,0:0:0:0:
320,192,68535,1,0,0:0:0:0:
448,192,68535,1,0,0:0:0:0:
448,192,68628,1,0,0:0:0:0:
64,192,68628,1,0,0:0:0:0:
192,192,68722,1,0,0:0:0:0:
320,192,68722,1,0,0:0:0:0:
192,192,68816,1,0,0:0:0:0:
64,192,68816,1,0,0:0:0:0:
320,192,68910,1,0,0:0:0:0:
64,192,68910,1,0,0:0:0:0:
448,192,68910,1,0,0:0:0:0:
192,192,69003,1,0,0:0:0:0:
320,192,69003,1,0,0:0:0:0:
448,192,69097,1,0,0:0:0:0:
64,192,69097,1,0,0:0:0:0:
320,192,69191,1,0,0:0:0:0:
64,192,69191,1,0,0:0:0:0:
192,192,69285,1,0,0:0:0:0:
448,192,69285,1,0,0:0:0:0:
448,192,69378,1,0,0:0:0:0:
64,192,69378,1,0,0:0:0:0:
320,192,69472,1,0,0:0:0:0:
192,192,69472,1,0,0:0:0:0:
64,192,69566,1,0,0:0:0:0:
192,192,69566,1,0,0:0:0:0:
448,192,69660,1,0,0:0:0:0:
320,192,69660,1,0,0:0:0:0:
64,192,69753,1,0,0:0:0:0:
448,192,69753,1,0,0:0:0:0:
192,192,69847,1,0,0:0:0:0:
320,192,69847,1,0,0:0:0:0:
192,192,69941,1,0,0:0:0:0:
448,192,69941,1,0,0:0:0:0:
320,192,70035,1,0,0:0:0:0:
64,192,70035,1,0,0:0:0:0:
192,192,70128,1,0,0:0:0:0:
320,192,70128,1,0,0:0:0:0:
448,192,70222,1,0,0:0:0:0:
64,192,70222,1,0,0:0:0:0:
192,192,70316,1,0,0:0:0:0:
448,192,70316,1,0,0:0:0:0:
320,192,70410,1,0,0:0:0:0:
64,192,70410,1,0,0:0:0:0:
192,192,70503,1,0,0:0:0:0:
64,192,70503,1,0,0:0:0:0:
448,192,70597,1,0,0:0:0:0:
320,192,70597,1,0,0:0:0:0:
448,192,70691,1,0,0:0:0:0:
64,192,70691,1,0,0:0:0:0:
192,192,70785,1,0,0:0:0:0:
320,192,70785,1,0,0:0:0:0:
448,192,70878,1,0,0:0:0:0:
192,192,70878,1,0,0:0:0:0:
320,192,70972,1,0,0:0:0:0:
64,192,70972,1,0,0:0:0:0:
192,192,71066,1,0,0:0:0:0:
320,192,71066,1,0,0:0:0:0:
448,192,71160,1,0,0:0:0:0:
64,192,71160,1,0,0:0:0:0:
320,192,71253,1,0,0:0:0:0:
64,192,71253,1,0,0:0:0:0:
448,192,71347,1,0,0:0:0:0:
192,192,71347,1,0,0:0:0:0:
448,192,71441,1,0,0:0:0:0:
320,192,71441,1,0,0:0:0:0:
192,192,71535,1,0,0:0:0:0:
64,192,71535,1,0,0:0:0:0:
448,192,71628,1,0,0:0:0:0:
64,192,71628,1,0,0:0:0:0:
448,192,71722,1,0,0:0:0:0:
320,192,71722,1,0,0:0:0:0:
64,192,71816,1,0,0:0:0:0:
320,192,71816,1,0,0:0:0:0:
192,192,71910,1,0,0:0:0:0:
448,192,71910,1,0,0:0:0:0:
64,192,71910,1,0,0:0:0:0:
192,192,72003,1,0,0:0:0:0:
64,192,72003,1,0,0:0:0:0:
448,192,72097,1,0,0:0:0:0:
320,192,72097,1,0,0:0:0:0:
64,192,72191,1,0,0:0:0:0:
192,192,72191,1,0,0:0:0:0:
320,192,72285,1,0,0:0:0:0:
448,192,72285,1,0,0:0:0:0:
64,192,72285,1,0,0:0:0:0:
448,192,72378,1,0,0:0:0:0:
320,192,72378,1,0,0:0:0:0:
192,192,72472,1,0,0:0:0:0:
64,192,72472,1,0,0:0:0:0:
320,192,72566,1,0,0:0:0:0:
448,192,72566,1,0,0:0:0:0:
64,192,72660,1,0,0:0:0:0:
192,192,72660,1,0,0:0:0:0:
448,192,72660,1,0,0:0:0:0:
192,192,72753,1,0,0:0:0:0:
64,192,72753,1,0,0:0:0:0:
448,192,72847,1,0,0:0:0:0:
320,192,72847,1,0,0:0:0:0:
64,192,72941,1,0,0:0:0:0:
192,192,72941,1,0,0:0:0:0:
320,192,73035,1,0,0:0:0:0:
448,192,73035,1,0,0:0:0:0:
64,192,73035,1,0,0:0:0:0:
448,192,73128,1,0,0:0:0:0:
192,192,73128,1,0,0:0:0:0:
320,192,73222,1,0,0:0:0:0:
64,192,73222,1,0,0:0:0:0:
320,192,73316,1,0,0:0:0:0:
192,192,73316,1,0,0:0:0:0:
448,192,73410,1,0,0:0:0:0:
64,192,73410,1,0,0:0:0:0:
192,192,73503,1,0,0:0:0:0:
448,192,73503,1,0,0:0:0:0:
64,192,73597,1,0,0:0:0:0:
320,192,73597,1,0,0:0:0:0:
448,192,73691,1,0,0:0:0:0:
64,192,73691,1,0,0:0:0:0:
320,192,73785,1,0,0:0:0:0:
192,192,73785,1,0,0:0:0:0:
448,192,73878,1,0,0:0:0:0:
192,192,73878,1,0,0:0:0:0:
320,192,73972,1,0,0:0:0:0:
64,192,73972,1,0,0:0:0:0:
320,192,74066,1,0,0:0:0:0:
192,192,74066,1,0,0:0:0:0:
448,192,74160,1,0,0:0:0:0:
64,192,74160,1,0,0:0:0:0:
192,192,74347,1,0,0:0:0:0:
320,192,74535,1,0,0:0:0:0:
192,192,74722,1,0,0:0:0:0:
64,192,74722,1,0,0:0:0:0:
320,192,74816,1,0,0:0:0:0:
192,192,74910,1,0,0:0:0:0:
448,192,74910,1,0,0:0:0:0:
64,192,74910,1,0,0:0:0:0:
320,192,75003,1,0,0:0:0:0:
192,192,75003,1,0,0:0:0:0:
64,192,75097,1,0,0:0:0:0:
448,192,75097,1,0,0:0:0:0:
192,192,75191,1,0,0:0:0:0:
448,192,75191,1,0,0:0:0:0:
320,192,75285,1,0,0:0:0:0:
64,192,75285,1,0,0:0:0:0:
64,192,75378,1,0,0:0:0:0:
448,192,75378,1,0,0:0:0:0:
192,192,75472,1,0,0:0:0:0:
320,192,75472,1,0,0:0:0:0:
448,192,75566,1,0,0:0:0:0:
320,192,75566,1,0,0:0:0:0:
64,192,75660,1,0,0:0:0:0:
192,192,75660,1,0,0:0:0:0:
448,192,75753,1,0,0:0:0:0:
64,192,75753,1,0,0:0:0:0:
320,192,75847,1,0,0:0:0:0:
192,192,75847,1,0,0:0:0:0:
320,192,75941,1,0,0:0:0:0:
64,192,75941,1,0,0:0:0:0:
192,192,76035,1,0,0:0:0:0:
448,192,76035,1,0,0:0:0:0:
320,192,76128,1,0,0:0:0:0:
192,192,76128,1,0,0:0:0:0:
64,192,76222,1,0,0:0:0:0:
448,192,76222,1,0,0:0:0:0:
320,192,76316,1,0,0:0:0:0:
64,192,76316,1,0,0:0:0:0:
192,192,76410,1,0,0:0:0:0:
448,192,76410,1,0,0:0:0:0:
320,192,76410,1,0,0:0:0:0:
448,192,76503,1,0,0:0:0:0:
64,192,76503,1,0,0:0:0:0:
192,192,76597,1,0,0:0:0:0:
320,192,76597,1,0,0:0:0:0:
64,192,76691,1,0,0:0:0:0:
448,192,76691,1,0,0:0:0:0:
320,192,76785,1,0,0:0:0:0:
64,192,76785,1,0,0:0:0:0:
320,192,76878,1,0,0:0:0:0:
448,192,76878,1,0,0:0:0:0:
192,192,76972,1,0,0:0:0:0:
64,192,76972,1,0,0:0:0:0:
448,192,77066,1,0,0:0:0:0:
192,192,77066,1,0,0:0:0:0:
64,192,77160,1,0,0:0:0:0:
320,192,77160,1,0,0:0:0:0:
320,192,77253,1,0,0:0:0:0:
448,192,77253,1,0,0:0:0:0:
64,192,77347,1,0,0:0:0:0:
448,192,77347,1,0,0:0:0:0:
192,192,77347,1,0,0:0:0:0:
192,192,77441,1,0,0:0:0:0:
320,192,77441,1,0,0:0:0:0:
448,192,77535,1,0,0:0:0:0:
64,192,77535,1,0,0:0:0:0:
192,192,77628,1,0,0:0:0:0:
448,192,77628,1,0,0:0:0:0:
64,192,77722,1,0,0:0:0:0:
192,192,77722,1,0,0:0:0:0:
320,192,77722,1,0,0:0:0:0:
320,192,77816,1,0,0:0:0:0:
448,192,77816,1,0,0:0:0:0:
64,192,77910,1,0,0:0:0:0:
192,192,77910,1,0,0:0:0:0:
448,192,77910,1,0,0:0:0:0:
192,192,78003,1,0,0:0:0:0:
64,192,78003,1,0,0:0:0:0:
448,192,78097,1,0,0:0:0:0:
320,192,78097,1,0,0:0:0:0:
192,192,78191,1,0,0:0:0:0:
64,192,78191,1,0,0:0:0:0:
448,192,78285,1,0,0:0:0:0:
320,192,78285,1,0,0:0:0:0:
64,192,78285,1,0,0:0:0:0:
320,192,78378,1,0,0:0:0:0:
448,192,78378,1,0,0:0:0:0:
192,192,78472,1,0,0:0:0:0:
64,192,78472,1,0,0:0:0:0:
448,192,78566,1,0,0:0:0:0:
320,192,78566,1,0,0:0:0:0:
448,192,78660,1,0,0:0:0:0:
64,192,78660,1,0,0:0:0:0:
192,192,78660,1,0,0:0:0:0:
192,192,78753,1,0,0:0:0:0:
64,192,78753,1,0,0:0:0:0:
448,192,78847,1,0,0:0:0:0:
320,192,78847,1,0,0:0:0:0:
192,192,78941,1,0,0:0:0:0:
64,192,78941,1,0,0:0:0:0:
320,192,79035,1,0,0:0:0:0:
64,192,79035,1,0,0:0:0:0:
448,192,79035,1,0,0:0:0:0:
448,192,79128,1,0,0:0:0:0:
192,192,79128,1,0,0:0:0:0:
320,192,79222,1,0,0:0:0:0:
64,192,79222,1,0,0:0:0:0:
448,192,79316,1,0,0:0:0:0:
64,192,79316,1,0,0:0:0:0:
448,192,79410,1,0,0:0:0:0:
320,192,79410,1,0,0:0:0:0:
192,192,79410,1,0,0:0:0:0:
64,192,79503,1,0,0:0:0:0:
320,192,79503,1,0,0:0:0:0:
192,192,79597,1,0,0:0:0:0:
448,192,79597,1,0,0:0:0:0:
192,192,79691,1,0,0:0:0:0:
320,192,79691,1,0,0:0:0:0:
64,192,79785,1,0,0:0:0:0:
448,192,79785,1,0,0:0:0:0:
320,192,79878,1,0,0:0:0:0:
448,192,79878,1,0,0:0:0:0:
192,192,79972,1,0,0:0:0:0:
64,192,79972,1,0,0:0:0:0:
320,192,80066,1,0,0:0:0:0:
448,192,80066,1,0,0:0:0:0:
64,192,80160,1,0,0:0:0:0:
320,192,80160,1,0,0:0:0:0:
192,192,80160,1,0,0:0:0:0:
64,192,80253,1,0,0:0:0:0:
448,192,80253,1,0,0:0:0:0:
192,192,80347,1,0,0:0:0:0:
320,192,80347,1,0,0:0:0:0:
192,192,80441,1,0,0:0:0:0:
64,192,80441,1,0,0:0:0:0:
320,192,80535,1,0,0:0:0:0:
448,192,80535,1,0,0:0:0:0:
448,192,80628,1,0,0:0:0:0:
64,192,80628,1,0,0:0:0:0:
192,192,80722,1,0,0:0:0:0:
320,192,80722,1,0,0:0:0:0:
192,192,80816,1,0,0:0:0:0:
64,192,80816,1,0,0:0:0:0:
320,192,80910,1,0,0:0:0:0:
64,192,80910,1,0,0:0:0:0:
448,192,80910,1,0,0:0:0:0:
192,192,81003,1,0,0:0:0:0:
320,192,81003,1,0,0:0:0:0:
448,192,81097,1,0,0:0:0:0:
64,192,81097,1,0,0:0:0:0:
320,192,81191,1,0,0:0:0:0:
64,192,81191,1,0,0:0:0:0:
192,192,81285,1,0,0:0:0:0:
448,192,81285,1,0,0:0:0:0:
448,192,81378,1,0,0:0:0:0:
64,192,81378,1,0,0:0:0:0:
320,192,81472,1,0,0:0:0:0:
192,192,81472,1,0,0:0:0:0:
64,192,81566,1,0,0:0:0:0:
192,192,81566,1,0,0:0:0:0:
448,192,81660,1,0,0:0:0:0:
320,192,81660,1,0,0:0:0:0:
64,192,81753,1,0,0:0:0:0:
448,192,81753,1,0,0:0:0:0:
192,192,81847,1,0,0:0:0:0:
320,192,81847,1,0,0:0:0:0:
192,192,81941,1,0,0:0:0:0:
448,192,81941,1,0,0:0:0:0:
320,192,82035,1,0,0:0:0:0:
64,192,82035,1,0,0:0:0:0:
192,192,82128,1,0,0:0:0:0:
320,192,82128,1,0,0:0:0:0:
448,192,82222,1,0,0:0:0:0:
64,192,82222,1,0,0:0:0:0:
192,192,82316,1,0,0:0:0:0:
448,192,82316,1,0,0:0:0:0:
320,192,82410,1,0,0:0:0:0:
64,192,82410,1,0,0:0:0:0:
192,192,82410,1,0,0:0:0:0:
64,192,82503,1,0,0:0:0:0:
448,192,82503,1,0,0:0:0:0:
320,192,82597,1,0,0:0:0:0:
192,192,82597,1,0,0:0:0:0:
320,192,82691,1,0,0:0:0:0:
64,192,82691,1,0,0:0:0:0:
192,192,82785,1,0,0:0:0:0:
448,192,82785,1,0,0:0:0:0:
192,192,82878,1,0,0:0:0:0:
64,192,82878,1,0,0:0:0:0:
320,192,82972,1,0,0:0:0:0:
448,192,82972,1,0,0:0:0:0:
64,192,83066,1,0,0:0:0:0:
320,192,83066,1,0,0:0:0:0:
448,192,83160,1,0,0:0:0:0:
192,192,83160,1,0,0:0:0:0:
192,192,83253,1,0,0:0:0:0:
64,192,83253,1,0,0:0:0:0:
448,192,83347,1,0,0:0:0:0:
64,192,83347,1,0,0:0:0:0:
320,192,83347,1,0,0:0:0:0:
320,192,83441,1,0,0:0:0:0:
192,192,83441,1,0,0:0:0:0:
64,192,83535,1,0,0:0:0:0:
448,192,83535,1,0,0:0:0:0:
320,192,83628,1,0,0:0:0:0:
64,192,83628,1,0,0:0:0:0:
448,192,83722,1,0,0:0:0:0:
320,192,83722,1,0,0:0:0:0:
192,192,83722,1,0,0:0:0:0:
192,192,83816,1,0,0:0:0:0:
64,192,83816,1,0,0:0:0:0:
448,192,83910,1,0,0:0:0:0:
64,192,83910,1,0,0:0:0:0:
320,192,83910,1,0,0:0:0:0:
320,192,84003,1,0,0:0:0:0:
448,192,84003,1,0,0:0:0:0:
192,192,84097,1,0,0:0:0:0:
64,192,84097,1,0,0:0:0:0:
320,192,84191,1,0,0:0:0:0:
448,192,84191,1,0,0:0:0:0:
192,192,84285,1,0,0:0:0:0:
64,192,84285,1,0,0:0:0:0:
448,192,84285,1,0,0:0:0:0:
64,192,84378,1,0,0:0:0:0:
192,192,84378,1,0,0:0:0:0:
320,192,84472,1,0,0:0:0:0:
448,192,84472,1,0,0:0:0:0:
192,192,84566,1,0,0:0:0:0:
64,192,84566,1,0,0:0:0:0:
448,192,84660,1,0,0:0:0:0:
320,192,84660,1,0,0:0:0:0:
64,192,84660,1,0,0:0:0:0:
320,192,84753,1,0,0:0:0:0:
448,192,84753,1,0,0:0:0:0:
64,192,84847,1,0,0:0:0:0:
192,192,84847,1,0,0:0:0:0:
448,192,84941,1,0,0:0:0:0:
320,192,84941,1,0,0:0:0:0:
192,192,85035,1,0,0:0:0:0:
320,192,85035,1,0,0:0:0:0:
64,192,85035,1,0,0:0:0:0:
448,192,85128,1,0,0:0:0:0:
64,192,85128,1,0,0:0:0:0:
320,192,85222,1,0,0:0:0:0:
192,192,85222,1,0,0:0:0:0:
64,192,85316,1,0,0:0:0:0:
192,192,85316,1,0,0:0:0:0:
320,192,85410,1,0,0:0:0:0:
448,192,85410,1,0,0:0:0:0:
64,192,85410,1,0,0:0:0:0:
320,192,85503,1,0,0:0:0:0:
192,192,85503,1,0,0:0:0:0:
448,192,85597,1,0,0:0:0:0:
64,192,85597,1,0,0:0:0:0:
448,192,85691,1,0,0:0:0:0:
192,192,85691,1,0,0:0:0:0:
320,192,85785,1,0,0:0:0:0:
64,192,85785,1,0,0:0:0:0:
448,192,85878,1,0,0:0:0:0:
64,192,85878,1,0,0:0:0:0:
320,192,85972,1,0,0:0:0:0:
192,192,85972,1,0,0:0:0:0:
64,192,86066,1,0,0:0:0:0:
448,192,86066,1,0,0:0:0:0:
192,192,86160,1,0,0:0:0:0:
448,192,86160,1,0,0:0:0:0:
64,192,86347,1,0,0:0:0:0:
320,192,86535,1,0,0:0:0:0:
192,192,86722,1,0,0:0:0:0:
448,192,86816,1,0,0:0:0:0:
64,192,86910,1,0,0:0:0:0:
320,192,87060,1,0,0:0:0:0:
192,192,87135,1,0,0:0:0:0:
64,192,87210,1,0,0:0:0:0:
320,192,87285,1,0,0:0:0:0:
448,192,87360,1,0,0:0:0:0:
192,192,87435,1,0,0:0:0:0:
64,192,87510,1,0,0:0:0:0:
320,192,88410,1,0,0:0:0:0:
448,192,88503,1,0,0:0:0:0:
64,192,88597,1,0,0:0:0:0:
320,192,88691,1,0,0:0:0:0:
192,192,88785,1,0,0:0:0:0:
64,192,88878,1,0,0:0:0:0:
192,192,88972,1,0,0:0:0:0:
448,192,89160,1,0,0:0:0:0:
320,192,89347,1,0,0:0:0:0:
448,192,89535,1,0,0:0:0:0:
64,192,89722,1,0,0:0:0:0:
192,192,89910,1,0,0:0:0:0:
64,192,90097,1,0,0:0:0:0:
448,192,90285,1,0,0:0:0:0:
320,192,90472,1,0,0:0:0:0:
448,192,90566,1,0,0:0:0:0:
192,192,90660,1,0,0:0:0:0:
320,192,90753,1,0,0:0:0:0:
64,192,90941,1,0,0:0:0:0:
448,192,91035,1,0,0:0:0:0:
192,192,91128,1,0,0:0:0:0:
448,192,91222,1,0,0:0:0:0:
64,192,91316,1,0,0:0:0:0:
320,192,91410,1,0,0:0:0:0:
192,192,91503,1,0,0:0:0:0:
64,192,91597,1,0,0:0:0:0:
448,192,91691,1,0,0:0:0:0:
192,192,91785,1,0,0:0:0:0:
320,192,91941,1,0,0:0:0:0:
192,192,92191,1,0,0:0:0:0:
320,192,92441,1,0,0:0:0:0:
192,192,92691,1,0,0:0:0:0:
320,192,92910,1,0,0:0:0:0:
64,192,93003,1,0,0:0:0:0:
448,192,93097,1,0,0:0:0:0:
192,192,93191,1,0,0:0:0:0:
320,192,93285,1,0,0:0:0:0:
64,192,93378,1,0,0:0:0:0:
448,192,93472,1,0,0:0:0:0:
192,192,93566,1,0,0:0:0:0:
64,192,93660,1,0,0:0:0:0:
320,192,93753,1,0,0:0:0:0:
192,192,93847,1,0,0:0:0:0:
448,192,93941,1,0,0:0:0:0:
64,192,94035,1,0,0:0:0:0:
320,192,94128,1,0,0:0:0:0:
192,192,94222,1,0,0:0:0:0:
448,192,94316,1,0,0:0:0:0:
64,192,94410,1,0,0:0:0:0:
320,192,94503,1,0,0:0:0:0:
448,192,94597,1,0,0:0:0:0:
192,192,94691,1,0,0:0:0:0:
320,192,94785,1,0,0:0:0:0:
64,192,94878,1,0,0:0:0:0:
192,192,94972,1,0,0:0:0:0:
448,192,95160,1,0,0:0:0:0:
320,192,95253,1,0,0:0:0:0:
64,192,95347,1,0,0:0:0:0:
448,192,95535,1,0,0:0:0:0:
192,192,95722,1,0,0:0:0:0:
320,192,95910,1,0,0:0:0:0:
192,192,96097,1,0,0:0:0:0:
64,192,96285,1,0,0:0:0:0:
320,192,96378,1,0,0:0:0:0:
448,192,96472,1,0,0:0:0:0:
64,192,96566,1,0,0:0:0:0:
320,192,96660,1,0,0:0:0:0:
192,192,96753,1,0,0:0:0:0:
448,192,96847,1,0,0:0:0:0:
64,192,96941,1,0,0:0:0:0:
320,192,97035,1,0,0:0:0:0:
192,192,97128,1,0,0:0:0:0:
64,192,97222,1,0,0:0:0:0:
448,192,97316,1,0,0:0:0:0:
320,192,97410,1,0,0:0:0:0:
192,192,97503,1,0,0:0:0:0:
448,192,97597,1,0,0:0:0:0:
64,192,97691,1,0,0:0:0:0:
192,192,97785,1,0,0:0:0:0:
320,192,97878,1,0,0:0:0:0:
64,192,98160,1,0,0:0:0:0:
192,192,98206,1,0,0:0:0:0:
448,192,98410,1,0,0:0:0:0:
320,192,98441,1,0,0:0:0:0:
192,192,98769,1,0,0:0:0:0:
320,192,98792,1,0,0:0:0:0:
448,192,98847,1,0,0:0:0:0:
64,192,98910,1,0,0:0:0:0:
192,192,98972,1,0,0:0:0:0:
320,192,99035,1,0,0:0:0:0:
448,192,99097,1,0,0:0:0:0:
64,192,99160,1,0,0:0:0:0:
192,192,99222,1,0,0:0:0:0:
320,192,99285,1,0,0:0:0:0:
