osu file format v14

[General]
AudioFilename: audio.mp3
AudioLeadIn: 0
PreviewTime: 540953
Countdown: 0
SampleSet: Normal
StackLeniency: 0.2
Mode: 1
LetterboxInBreaks: 0
WidescreenStoryboard: 0

[Editor]
Bookmarks: 141564,256109,396360,478209,600046,774715,918475,1062458,1189151
DistanceSpacing: 0.1
BeatDivisor: 8
GridSize: 32
TimelineZoom: 2.700001

[Metadata]
Title:1000 gecs
TitleUnicode:1000 gecs
Artist:100 gecs
ArtistUnicode:100 gecs
Creator:Genjuro
Version:gecathon
Source:
Tags:electronic english bubblegum bass deconstructed club emo rap vocal trance alternative r&B electropop trap experimental 745 sticky money machine 800db cloud I Need Help Immediately stupid horse xXXi_wud_nvrstøp_ÜXXx ringtone gecgecgec hand crushed by a mallet gec 2 Ü
BeatmapID:2158325
BeatmapSetID:1032172

[Difficulty]
HPDrainRate:4.9
CircleSize:2
OverallDifficulty:5.2
ApproachRate:9
SliderMultiplier:1.4
SliderTickRate:1

[Events]
//Background and Video events
0,0,"tree.jpg",0,0
//Break Periods
2,311744,318005
2,352867,356387
2,389956,395760
2,600046,611833
2,916937,917875
2,963219,968765
2,1055495,1061858
//Storyboard Layer 0 (Background)
//Storyboard Layer 1 (Fail)
//Storyboard Layer 2 (Pass)
//Storyboard Layer 3 (Foreground)
//Storyboard Layer 4 (Overlay)
//Storyboard Sound Samples

[TimingPoints]
178,800,4,1,0,20,1,0
178,-125,4,1,0,20,0,0
5778,-111.111111111111,4,1,0,40,0,0
6578,800,4,1,0,40,1,0
6578,-111.111111111111,4,1,0,40,0,0
17778,-105.263157894737,4,1,0,40,0,0
19378,-100,4,1,0,40,0,0
34178,-111.111111111111,4,1,0,40,0,0
57778,-105.263157894737,4,1,0,40,0,1
62578,-105.263157894737,4,1,0,40,0,0
64178,-105.263157894737,4,1,0,40,0,1
68978,-100,4,1,0,40,0,0
70578,-95.2380952380954,4,1,0,40,0,0
83378,-66.6666666666667,4,1,0,60,0,0
99378,400,4,1,0,40,1,0
105778,-100,4,1,0,40,0,0
106178,-97.7819150392497,4,1,0,40,0,0
106578,-95.660001396636,4,1,0,40,0,0
106978,-93.6283124526592,4,1,0,40,0,0
107378,-91.681129364824,4,1,0,50,0,0
107778,-89.8132064931356,4,1,0,50,0,0
108178,-88.0199558843981,4,1,0,50,0,0
108578,-86.2969131594163,4,1,0,50,0,0
108978,-84.64003439771,4,1,0,60,0,0
109378,-83.0455114316299,4,1,0,60,0,0
109778,-81.510022064763,4,1,0,60,0,0
110178,-80.030283459261,4,1,0,60,0,0
110578,-66.6666666666667,4,1,0,100,0,0
110978,-61.5630109729911,4,1,0,100,0,0
111378,-57.1851741717442,4,1,0,100,0,0
111578,-55.2217401364308,4,1,0,100,0,0
111778,-53.388658220225,4,1,0,100,0,0
111878,-52.5170089462725,4,1,0,100,0,0
111978,-51.6733643959151,4,1,0,100,0,0
112078,-50.8563962852454,4,1,0,100,0,0
112178,-50.0648590248667,4,1,0,100,0,1
112678,-76.9230769230769,4,1,0,100,0,1
112745,-75.0750750750751,4,1,0,100,0,1
112812,-73.3137829912023,4,1,0,100,0,1
112878,-71.6332378223496,4,1,0,100,0,1
112978,-58.8235294117647,4,1,0,100,0,1
113478,-76.9230769230769,4,1,0,100,0,1
113544,-75.0750750750751,4,1,0,100,0,1
113611,-73.3137829912023,4,1,0,100,0,1
113678,-71.6332378223496,4,1,0,100,0,1
113778,-58.8235294117647,4,1,0,100,0,1
114078,-71.4285714285714,4,1,0,100,0,1
114211,-69.4444444444444,4,1,0,100,0,1
114344,-67.5675675675676,4,1,0,100,0,1
114411,-66.6666666666667,4,1,0,100,0,1
114578,-62.5,4,1,0,100,0,1
114778,-66.5760788154251,4,1,0,100,0,1
114978,-62.5,4,1,0,100,0,1
115044,-64,4,1,0,100,0,1
115111,-65.5737704918033,4,1,0,100,0,1
115178,-67.2268907563025,4,1,0,100,0,1
115244,-68.9655172413793,4,1,0,100,0,1
115378,-58.8235294117647,4,1,0,100,0,1
115878,-76.9230769230769,4,1,0,100,0,1
115944,-75.0750750750751,4,1,0,100,0,1
116011,-73.3137829912023,4,1,0,100,0,1
116078,-71.6332378223496,4,1,0,100,0,1
116178,-58.8235294117647,4,1,0,100,0,1
116678,-76.9230769230769,4,1,0,100,0,1
116744,-75.0750750750751,4,1,0,100,0,1
116811,-73.3137829912023,4,1,0,100,0,1
116878,-71.6332378223496,4,1,0,100,0,1
116978,-58.8235294117647,4,1,0,100,0,1
117478,-76.9230769230769,4,1,0,100,0,1
117544,-75.0750750750751,4,1,0,100,0,1
117611,-73.3137829912023,4,1,0,100,0,1
117678,-71.6332378223496,4,1,0,100,0,1
117778,-62.65664160401,4,1,0,100,0,0
117978,-64.5161290322581,4,1,0,100,0,0
118178,-66.8449197860962,4,1,0,100,0,0
118378,-68.9655172413793,4,1,0,100,0,0
118578,-58.9622641509434,4,1,0,100,0,1
118978,-55.5555555555556,4,1,0,100,0,1
119028,-54.7945205479452,4,1,0,100,0,1
119078,-54.1666621527782,4,1,0,100,0,1
119378,-58.8235294117647,4,1,0,100,0,1
119778,-62.5,4,1,0,100,0,1
119828,-63.1399231208296,4,1,0,100,0,1
119878,-63.7930858501832,4,1,0,100,0,1
119928,-64.4599449125311,4,1,0,100,0,1
119978,-65.1408508046524,4,1,0,100,0,1
120028,-65.8362954179914,4,1,0,100,0,1
120078,-66.5467494242043,4,1,0,100,0,1
120178,-58.7301484756884,4,1,0,100,0,1
120678,-76.9230769230769,4,1,0,100,0,1
120744,-75.0750750750751,4,1,0,100,0,1
120811,-73.3137829912023,4,1,0,100,0,1
120878,-71.6332378223496,4,1,0,100,0,1
120978,-58.8235294117647,4,1,0,100,0,1
121378,-33.3333333333333,4,1,0,100,0,1
121778,-58.8235294117647,4,1,0,100,0,1
122178,-66.6666666666667,4,1,0,100,0,1
122578,-58.8235294117647,4,1,0,100,0,1
122844,-66.6666666666667,4,1,0,100,0,1
123378,-58.8235294117647,4,1,0,100,0,1
123878,-76.9230769230769,4,1,0,100,0,1
123944,-75.0750750750751,4,1,0,100,0,1
124011,-73.3137829912023,4,1,0,100,0,1
124078,-71.6332378223496,4,1,0,100,0,1
124178,-58.8235294117647,4,1,0,100,0,1
124378,-64.8246525560685,4,1,0,100,0,1
124578,-66.6666666666667,4,1,0,100,0,1
124628,-68.1003608638122,4,1,0,100,0,1
124678,-69.5970746957564,4,1,0,100,0,1
124728,-71.1610566847629,4,1,0,100,0,0
124978,-58.8235294117647,4,1,0,100,0,1
125178,-64.8246525560685,4,1,0,100,0,1
125478,-76.9230769230769,4,1,0,100,0,1
125544,-75.0750750750751,4,1,0,100,0,1
125611,-73.3137829912023,4,1,0,100,0,1
125678,-71.6332378223496,4,1,0,100,0,1
125778,-58.8235294117647,4,1,0,100,0,1
125978,-64.8246525560685,4,1,0,100,0,1
126278,-76.9230769230769,4,1,0,100,0,1
126344,-75.0750750750751,4,1,0,100,0,1
126411,-73.3137829912023,4,1,0,100,0,1
126478,-71.6332378223496,4,1,0,100,0,1
126578,-58.8235294117647,4,1,0,100,0,1
126778,-64.8246525560685,4,1,0,100,0,1
127078,-76.9230769230769,4,1,0,100,0,1
127144,-75.0750750750751,4,1,0,100,0,1
127211,-73.3137829912023,4,1,0,100,0,1
127278,-71.6332378223496,4,1,0,100,0,1
127378,-58.8235294117647,4,1,0,100,0,1
127778,-66.6666666666667,4,1,0,100,0,1
127978,-71.4285714285714,4,1,0,100,0,1
128178,-58.8235294117647,4,1,0,100,0,1
128378,-64.8246525560685,4,1,0,100,0,1
128678,-76.9230769230769,4,1,0,100,0,1
128744,-75.0750750750751,4,1,0,100,0,1
128811,-73.3137829912023,4,1,0,100,0,1
128878,-71.6332378223496,4,1,0,100,0,1
128978,-58.8235294117647,4,1,0,100,0,1
129178,-64.8246525560685,4,1,0,100,0,1
129478,-76.9230769230769,4,1,0,100,0,1
129544,-75.0750750750751,4,1,0,100,0,1
129611,-73.3137829912023,4,1,0,100,0,1
129678,-71.6332378223496,4,1,0,100,0,1
129778,-58.8235294117647,4,1,0,100,0,1
129978,-64.8246525560685,4,1,0,100,0,1
130278,-76.9230769230769,4,1,0,100,0,1
130344,-75.0750750750751,4,1,0,100,0,1
130411,-73.3137829912023,4,1,0,100,0,1
130478,-71.6332378223496,4,1,0,100,0,1
130578,-62.65664160401,4,1,0,100,0,0
130778,-64.5161290322581,4,1,0,100,0,0
130978,-66.8449197860962,4,1,0,100,0,0
131178,-68.9655172413793,4,1,0,100,0,0
131378,-58.9622641509434,4,1,0,100,0,1
131778,-33.3333333333333,4,1,0,100,0,1
132178,-58.8235294117647,4,1,0,100,0,1
132578,-50,4,1,0,100,0,1
132978,-58.8235294117647,4,1,0,100,0,1
133378,-76.9230769230769,4,1,0,100,0,1
133428,-75.7575757575758,4,1,0,100,0,1
133578,-72.463768115942,4,1,0,100,0,1
133628,-71.4285714285714,4,1,0,100,0,1
133778,-58.8235294117647,4,1,0,100,0,1
133978,-62.111801242236,4,1,0,100,0,1
134178,-65.7894736842105,4,1,0,100,0,1
134244,-67.1140939597315,4,1,0,100,0,1
134311,-68.4931506849315,4,1,0,100,0,1
134378,-69.9300699300699,4,1,0,100,0,1
134444,-71.4285714285714,4,1,0,100,0,1
134578,-58.8235294117647,4,1,0,100,0,1
134978,-83.3333333333333,4,1,0,100,0,1
135378,-58.8235294117647,4,1,0,100,0,1
135778,-76.9230769230769,4,1,0,100,0,1
136178,-58.8235294117647,4,1,0,100,0,1
136578,-71.4285714285714,4,1,0,100,0,1
136644,-70.3125109863298,4,1,0,100,0,1
136711,-69.2307905325509,4,1,0,100,0,1
136778,-68.1818026859539,4,1,0,100,0,1
136978,-58.8235294117647,4,1,0,100,0,1
137378,400,4,1,0,100,1,9
137378,-83.3333333333333,4,1,0,100,0,8
137578,342.857142857143,4,1,0,100,1,0
137578,-99.5807083147331,4,1,0,100,0,8
137920,-104.658468021306,4,1,0,100,0,8
138263,-110.281896281452,4,1,0,100,0,8
138606,-116.543945891643,4,1,0,100,0,8
138949,352.941176470588,4,1,0,100,1,0
138949,-120.029668509828,4,1,0,100,0,8
139301,387.096774193548,4,1,0,100,1,8
139301,-116.449244657609,4,1,0,100,0,8
139688,545.454545454546,4,1,0,100,1,8
139688,-88.2974564713607,4,1,0,100,0,8
140233,665.557404326123,4,1,0,40,1,8
140233,-76.8616989192832,4,1,0,40,0,8
141564,631.578947368421,4,1,0,40,1,0
141564,-95.9595959595959,4,1,0,40,0,8
149142,618.556701030928,4,1,0,40,1,0
151580,606.060606060606,4,1,0,40,1,0
160064,-100,4,1,0,50,0,0
161276,-100,4,1,0,60,0,1
169458,-100,4,1,0,60,0,0
170973,-100,4,1,0,60,0,1
180670,-100,4,1,0,40,0,0
198852,-100,4,1,0,50,0,0
200064,-100,4,1,0,60,0,0
200670,-125,4,1,0,60,0,0
212186,-100,4,1,0,60,0,1
229155,-100,4,1,0,40,0,0
238852,-25,4,1,0,80,0,1
243701,-50,4,1,0,80,0,1
244307,-66.6666666666667,4,1,0,80,0,1
244610,-50,4,1,0,80,0,1
245140,-40,4,1,0,80,0,1
246125,-44.4444444444445,4,1,0,80,0,1
246731,-57.1428571428571,4,1,0,80,0,1
247034,-50,4,1,0,80,0,1
247413,-66.6666666666667,4,1,0,80,0,1
247640,-50,4,1,0,80,0,1
248019,-40,4,1,0,80,0,1
248549,-44.4444444444445,4,1,0,80,0,1
249155,-40,4,1,0,80,0,1
249458,-50,4,1,0,80,0,1
250216,-40,4,1,0,80,0,1
250973,-44.4444444444445,4,1,0,80,0,1
251580,-66.6666666666667,4,1,0,80,0,1
251883,-50,4,1,0,80,0,1
252337,-57.1428571428571,4,1,0,80,0,1
252489,-44.4444444444445,4,1,0,80,0,1
252943,-50,4,1,0,80,0,1
253398,606.060606060606,5,1,0,60,1,0
253398,-40,5,1,0,60,0,0
256109,424.929178470255,4,1,0,40,1,8
256109,-100.857142857143,4,1,0,40,0,8
256958,454.545454545455,4,1,0,40,1,0
256958,-94.2857142857142,4,1,0,40,0,0
257867,333.333333333333,4,1,0,40,1,8
257867,-128.571428571429,4,1,0,40,0,8
258200,441.176470588235,4,1,0,40,1,8
258200,-97.1428571428572,4,1,0,40,0,8
258641,441.176470588235,4,1,0,40,1,0
258641,-97.1428571428572,4,1,0,40,0,0
259964,393.44262295082,4,1,0,40,1,8
259964,-108.571428571429,4,1,0,40,0,8
260357,424.929178470255,4,1,0,40,1,0
260357,-100.857142857143,4,1,0,40,0,0
263756,454.545454545455,4,1,0,40,1,0
263756,-94.2857142857142,4,1,0,40,0,0
265119,413.793103448276,4,1,0,40,1,8
265119,-103.571428571429,4,1,0,40,0,8
265532,413.793103448276,4,1,0,40,1,0
265532,-103.571428571429,4,1,0,40,0,0
266774,422.535211267606,4,1,0,40,1,8
266774,-101.428571428571,4,1,0,40,0,8
267196,424.929178470255,4,1,0,40,1,0
267196,-91.6169218790557,4,1,0,40,0,0
268895,424.929178470255,4,1,0,40,1,8
268948,424.929178470255,5,1,0,40,1,0
268948,-83.9277223014744,5,1,0,40,0,0
270674,427.960057061341,4,1,0,60,1,0
270674,-200,4,1,0,60,0,0
276665,-100,4,1,0,60,0,0
277521,-200,4,1,0,60,0,0
280089,-100,4,1,0,60,0,0
280731,-200,4,1,0,60,0,0
283512,-100,4,1,0,60,0,0
283726,-103.399464183977,4,1,0,60,0,0
283887,-106.10462340286,4,1,0,60,0,0
284021,-108.46951681169,4,1,0,60,0,0
284154,-110.9422323796,4,1,0,60,0,0
284368,-66.6666666666667,4,1,0,70,0,0
285224,-100,4,1,0,70,0,0
297635,-33.3333333333333,4,1,0,80,0,0
298063,-50,4,1,0,80,0,1
300631,-50,4,1,0,80,0,0
301273,-66.6666666666667,4,1,0,80,0,0
301487,-50,4,1,0,80,0,1
304482,-50,4,1,0,80,0,0
304910,-50,4,1,0,80,0,1
307906,-50,4,1,0,80,0,0
308334,-50,4,1,0,80,0,1
310902,-66.6666666666667,4,1,0,80,0,0
311758,-100,4,1,0,20,0,0
313470,-142.857142857143,4,1,0,20,0,0
322029,-166.666666666667,4,1,0,20,0,0
323741,-142.857142857143,4,1,0,30,0,0
323883,-137.499948437519,4,1,0,30,0,0
324026,-132.530200319398,4,1,0,30,0,0
324169,-127.907006490002,4,1,0,40,0,0
324311,-123.595491730844,4,1,0,40,0,0
324454,-119.56516540645,4,1,0,40,0,0
324596,-115.789522437694,4,1,0,50,0,0
324739,-112.244909412746,4,1,0,50,0,0
324882,-108.9108695226,4,1,0,50,0,0
325024,-105.769179918663,4,1,0,60,0,0
325167,-102.803767141243,4,1,0,60,0,0
325310,-100,4,1,0,60,0,0
325452,-80,4,1,0,70,0,0
326308,-100,4,1,0,70,0,0
339147,-33.3333333333333,4,1,0,70,0,0
339575,-125,4,1,0,70,0,0
342571,-66.6666666666667,4,1,0,70,0,1
352842,427.960057061341,4,1,0,80,1,9
352867,1030.04291845494,4,1,0,80,1,0
352867,-41.5477888730385,4,1,0,40,0,0
356987,-125,4,1,0,40,0,0
361107,1030.04291845494,4,1,0,60,1,1
385828,-100,4,1,0,60,0,0
387888,-100,4,1,0,40,0,0
389948,1030.04291845494,7,1,0,40,1,0
396360,352.941176470588,7,1,0,20,1,0
396360,-283.333333333333,7,1,0,20,0,8
398830,352.941176470588,7,1,0,20,1,8
398830,-283.333333333333,7,1,0,20,0,8
400062,352.941176470588,4,1,0,20,1,0
400062,-283.333333333333,4,1,0,20,0,8
400414,349.854227405248,4,1,0,20,1,8
400414,-285.833333333333,4,1,0,20,0,8
400763,344.827586206897,4,1,0,20,1,8
400763,-290,4,1,0,20,0,8
400935,344.827586206897,4,1,0,20,1,8
400935,-290,4,1,0,20,0,8
401279,327.868852459016,4,1,0,20,1,8
401279,-305,4,1,0,20,0,8
401606,320,4,1,0,20,1,8
401606,-312.5,4,1,0,20,0,8
401766,344.827586206897,4,1,0,20,1,8
401766,-290,4,1,0,20,0,8
402110,324.324324324324,4,1,0,20,1,8
402110,-308.333333333333,4,1,0,20,0,8
403082,304.568527918782,4,1,0,20,1,8
403082,-328.333333333333,4,1,0,20,0,8
404300,401.33779264214,4,1,0,20,1,8
404300,-25,4,1,0,20,0,8
405905,500,4,1,0,20,1,0
405905,-200,4,1,0,20,0,8
407905,324.324324324324,4,1,0,20,1,0
407905,-308.333333333333,4,1,0,20,0,8
408705,500,4,1,0,20,1,8
408705,-200,4,1,0,20,0,8
409205,317.460317460317,4,1,0,20,1,8
409205,-315,4,1,0,20,0,8
409522,371.517027863777,4,1,0,20,1,8
409522,-269.166666666667,4,1,0,20,0,8
411008,320.855614973262,4,1,0,20,1,0
411008,-311.666666666667,4,1,0,20,0,8
412291,902.255639097744,4,1,0,20,1,8
412291,-111.666666666667,4,1,0,20,0,8
415900,638.297872340426,4,1,0,20,1,0
415900,-156.666666666667,4,1,0,20,0,8
416219,566.839867737364,4,1,0,20,1,8
416219,-176.416666666667,4,1,0,20,0,8
418486,500,4,1,0,40,1,0
418486,-200,4,1,0,40,0,8
418986,625,4,1,0,40,1,8
418986,-160,4,1,0,40,0,8
419611,638.297872340426,4,1,0,40,1,8
419611,-156.666666666667,4,1,0,40,0,8
420249,689.655172413793,4,1,0,40,1,8
420249,-145,4,1,0,40,0,8
420938,566.037735849057,4,1,0,40,1,0
420938,-176.666666666667,4,1,0,40,0,8
421504,652.173913043478,4,1,0,40,1,8
421504,-153.333333333333,4,1,0,40,0,8
422156,645.161290322581,4,1,0,40,1,8
422156,-155,4,1,0,40,0,8
422801,625,4,1,0,40,1,8
422801,-160,4,1,0,40,0,8
423426,588.235294117647,4,1,0,40,1,0
423426,-170,4,1,0,40,0,8
424014,625,4,1,0,40,1,8
424014,-160,4,1,0,40,0,8
424639,631.578947368421,4,1,0,40,1,8
424639,-158.333333333333,4,1,0,40,0,8
424954,571.428571428571,4,1,0,40,1,8
424954,-175,4,1,0,40,0,8
425239,361.44578313253,4,1,0,40,1,8
425239,-276.666666666667,4,1,0,40,0,8
425419,320.855614973262,4,1,0,40,1,8
425419,-311.666666666667,4,1,0,40,0,8
425739,517.241379310345,4,1,0,40,1,8
425739,-193.333333333333,4,1,0,40,0,8
427807,368.098159509202,4,1,0,40,1,0
427807,-271.666666666667,4,1,0,40,0,0
427991,315.789473684211,4,1,0,40,1,8
427991,-316.666666666667,4,1,0,40,0,0
428306,307.692307692308,4,1,0,40,1,8
428306,-325,4,1,0,40,0,0
428613,322.58064516129,4,1,0,40,1,8
428613,-310,4,1,0,40,0,0
428774,314.13612565445,4,1,0,40,1,8
428774,-318.333333333333,4,1,0,40,0,0
429088,628.272251308901,4,1,0,40,1,8
429088,-159.166666666667,4,1,0,40,0,0
429716,504.201680672269,4,1,0,40,1,0
429716,-198.333333333333,4,1,0,40,0,0
430220,500,4,1,0,40,1,8
430220,-200,4,1,0,40,0,0
430720,517.241379310345,4,1,0,40,1,8
430720,-193.333333333333,4,1,0,40,0,0
431237,560.747663551402,4,1,0,40,1,0
431237,-178.333333333333,4,1,0,40,0,0
431517,571.428571428571,4,1,0,40,1,8
431517,-175,4,1,0,40,0,0
431802,283.018867924528,4,1,0,40,1,8
431802,-353.333333333333,4,1,0,40,0,0
431943,397.350993377483,4,1,0,40,1,8
431943,-251.666666666667,4,1,0,40,0,0
432737,324.324324324324,4,1,0,40,1,0
432737,-308.333333333333,4,1,0,40,0,0
432899,521.739130434783,4,1,0,40,1,8
432899,-191.666666666667,4,1,0,40,0,0
433159,504.201680672269,4,1,0,40,1,8
433159,-198.333333333333,4,1,0,40,0,0
433411,324.324324324324,4,1,0,40,1,8
433411,-308.333333333333,4,1,0,40,0,0
433573,576.923076923077,4,1,0,40,1,8
433573,-173.333333333333,4,1,0,40,0,0
433861,572.519083969466,4,1,0,40,1,8
433861,-174.666666666667,4,1,0,40,0,0
436151,333.333333333333,4,1,0,40,1,8
436151,-300,4,1,0,40,0,0
436234,307.692307692308,4,1,0,40,1,0
436234,-325,4,1,0,40,0,0
436541,446.096654275093,4,1,0,40,1,8
436541,-224.166666666667,4,1,0,40,0,0
438325,545.454545454546,4,1,0,40,1,8
438325,-183.333333333333,4,1,0,40,0,0
438461,342.857142857143,4,1,0,40,1,0
438461,-291.666666666667,4,1,0,40,0,0
439146,327.868852459016,4,1,0,40,1,8
439146,-305,4,1,0,40,0,0
439801,277.777777777778,4,1,0,40,1,8
439801,-360,4,1,0,40,0,0
440356,408.163265306122,4,1,0,40,1,8
440356,-245,4,1,0,40,0,0
441172,352.941176470588,4,1,0,40,1,0
441172,-283.333333333333,4,1,0,40,0,0
441524,320.855614973262,4,1,0,40,1,8
441524,-311.666666666667,4,1,0,40,0,0
441844,359.281437125748,4,1,0,40,1,8
441844,-278.333333333333,4,1,0,40,0,0
443281,357.142857142857,4,1,0,40,1,0
443281,-280,4,1,0,40,0,0
443370,324.324324324324,4,1,0,40,1,8
443370,-308.333333333333,4,1,0,40,0,0
443694,306.122448979592,4,1,0,40,1,8
443694,-326.666666666667,4,1,0,40,0,0
444000,342.857142857143,4,1,0,40,1,8
444000,-291.666666666667,4,1,0,40,0,0
444342,375,4,1,0,40,1,8
444342,-266.666666666667,4,1,0,40,0,0
445092,412.371134020619,4,1,0,40,1,8
445092,-242.5,4,1,0,40,0,0
445916,304.568527918782,4,1,0,40,1,8
445916,-328.333333333333,4,1,0,40,0,0
446220,1000,4,1,0,40,1,0
453618,638.297872340426,4,1,0,40,1,0
453618,-156.666666666667,4,1,0,40,0,0
458724,333.333333333333,4,1,0,40,1,0
458724,-300,4,1,0,40,0,0
460057,484.261501210654,4,1,0,40,1,8
460057,-206.666666666667,4,1,0,40,0,0
461025,1000,4,1,0,40,1,0
477025,1000,4,1,0,40,1,8
478209,714.285714285714,4,1,0,40,1,0
481066,-66.6666666666667,4,1,0,40,0,0
483209,-50,4,1,0,50,0,0
483923,357.142857142857,4,1,0,60,1,0
495351,-100,4,1,0,80,0,0
506780,714.285714285714,4,1,0,80,1,1
506780,-50,4,1,0,80,0,1
507494,-66.6666666666667,4,1,0,40,0,1
529637,357.142857142857,4,1,0,40,1,0
529637,-133.333333333333,4,1,0,40,0,0
535351,-125,4,1,0,40,0,0
538208,-111.111111111111,4,1,0,40,0,0
541065,-100,4,1,0,60,0,0
543922,-100,4,1,0,80,0,0
563922,357.142857142857,4,1,0,60,1,8
563923,714.285714285714,4,1,0,60,1,1
563923,-50,4,1,0,60,0,1
564637,-66.6666666666667,4,1,0,40,0,1
573565,-66.6666666666667,4,1,0,40,0,0
575351,357.142857142857,4,1,0,80,1,1
586779,357.142857142857,4,1,0,80,1,9
586780,714.285714285714,4,1,0,80,1,1
586780,-50,4,1,0,80,0,0
587494,-66.6666666666667,4,1,0,40,0,0
598208,714.285714285714,4,1,0,40,1,8
600046,387.096774193548,4,1,0,20,1,0
600046,-133.333333333333,4,1,0,20,0,0
624820,-125,4,1,0,30,0,0
637207,-117.647058823529,4,1,0,40,0,0
646497,-117.647058823529,4,1,0,40,0,0
646884,-115.950767304203,4,1,0,40,0,0
647271,-114.302696400608,4,1,0,40,0,0
647658,-112.700691756846,4,1,0,40,0,0
647949,-111.111111111111,4,1,0,50,0,0
648142,-109.58904109589,4,1,0,50,0,0
648239,-108.108108108108,4,1,0,50,0,0
648336,-106.666666666667,4,1,0,50,0,0
648433,-105.263157894737,4,1,0,50,0,0
648529,-103.896103896104,4,1,0,50,0,0
648626,-102.564102564103,4,1,0,50,0,0
648723,-101.26582278481,4,1,0,50,0,0
648820,-100,4,1,0,60,0,0
648884,-97.0873786407767,4,1,0,60,0,0
648949,-94.3396226415094,4,1,0,60,0,0
649013,-91.743119266055,4,1,0,60,0,0
649078,-89.2857142857143,4,1,0,60,0,0
649142,-86.9565217391304,4,1,0,60,0,0
649594,-62.5,4,1,0,80,0,0
649723,-65.2174054820447,4,1,0,80,0,0
649787,-66.6666666666667,4,1,0,80,0,0
649852,-68.1818026859539,4,1,0,80,0,0
649981,-71.4285714285714,4,1,0,80,0,0
650175,-76.9230769230769,4,1,0,80,0,0
650239,-75.9493478609246,4,1,0,80,0,0
650304,-75.0000187500047,4,1,0,80,0,0
650368,-74.0740740740741,4,1,0,80,0,0
650562,-72.7272727272727,4,1,0,80,0,0
650658,-70.1754385964912,4,1,0,80,0,0
650852,-72.7272727272727,4,1,0,80,0,0
650948,-70.1754385964912,4,1,0,80,0,0
651142,-62.5,4,1,0,80,0,0
651271,-65.2174054820447,4,1,0,80,0,0
651336,-66.6666666666667,4,1,0,80,0,0
651400,-68.1818026859539,4,1,0,80,0,0
651465,-69.7674580854554,4,1,0,80,0,0
651529,-71.4285714285714,4,1,0,80,0,0
651723,-72.7272727272727,4,1,0,80,0,0
651916,-74.0740740740741,4,1,0,80,0,0
652013,-72.7630456864611,4,1,0,80,0,0
652110,-71.4975665803214,4,1,0,80,0,0
652207,-70.2754022739715,4,1,0,80,0,0
652400,-72.7272727272727,4,1,0,80,0,0
652496,-70.1754385964912,4,1,0,80,0,0
652691,-62.5,4,1,0,80,0,0
652787,-64.5161290322581,4,1,0,80,0,0
652836,-65.5737704918033,4,1,0,80,0,0
652884,-66.6666666666667,4,1,0,80,0,0
652933,-67.7966101694915,4,1,0,80,0,0
652981,-68.9655172413793,4,1,0,80,0,0
653078,-71.4285714285714,4,1,0,80,0,0
653271,-76.9230769230769,4,1,0,80,0,0
653336,-75.9493478609246,4,1,0,80,0,0
653400,-75.0000187500047,4,1,0,80,0,0
653465,-74.0740740740741,4,1,0,80,0,0
653658,-71.4285714285714,4,1,0,80,0,0
653755,-72.7003075223008,4,1,0,80,0,0
653852,-74.0181492501961,4,1,0,80,0,0
653949,-75.3845933491189,4,1,0,80,0,0
654046,-76.8024970027826,4,1,0,80,0,0
654239,-62.5,4,1,0,80,0,0
654368,-65.2174054820447,4,1,0,80,0,0
654433,-66.6666666666667,4,1,0,80,0,0
654497,-68.1818026859539,4,1,0,80,0,0
654626,-71.4285714285714,4,1,0,80,0,0
654820,-74.0740740740741,4,1,0,80,0,0
655013,-76.9230769230769,4,1,0,80,0,0
655159,-79.2079207920792,4,1,0,80,0,0
655400,-83.3333333333333,4,1,0,80,0,0
655787,-58.8235294117647,4,1,0,80,0,0
655916,-61.1735285013587,4,1,0,80,0,0
655981,-62.420375009129,4,1,0,80,0,0
656046,-63.719105791557,4,1,0,80,0,0
656175,-66.4857368148811,4,1,0,80,0,0
656368,-71.4285714285714,4,1,0,80,0,0
656433,-70.6214689265537,4,1,0,80,0,0
656497,-69.8324022346369,4,1,0,80,0,0
656562,-69.060773480663,4,1,0,80,0,0
656755,-67.7966101694915,4,1,0,80,0,0
656852,-65.5737704918033,4,1,0,80,0,0
657046,-67.7966101694915,4,1,0,80,0,0
657142,-65.5737704918033,4,1,0,80,0,0
657336,-58.8235294117647,4,1,0,80,0,0
657465,-61.2245022907148,4,1,0,80,0,0
657529,-62.5,4,1,0,80,0,0
657594,-63.8297736532396,4,1,0,80,0,0
657658,-65.2174054820447,4,1,0,80,0,0
657723,-66.6666666666667,4,1,0,80,0,0
657916,-67.7966101694915,4,1,0,80,0,0
658110,-68.9655172413793,4,1,0,80,0,0
658207,-67.7966101694915,4,1,0,80,0,0
658304,-66.6666666666667,4,1,0,80,0,0
658400,-65.5737704918033,4,1,0,80,0,0
658594,-67.7966101694915,4,1,0,80,0,0
658691,-65.5737704918033,4,1,0,80,0,0
658884,-58.8235294117647,4,1,0,80,0,0
659013,-61.2245022907148,4,1,0,80,0,0
659078,-62.5,4,1,0,80,0,0
659142,-63.8297736532396,4,1,0,80,0,0
659271,-66.6666666666667,4,1,0,80,0,0
659465,-71.4285714285714,4,1,0,80,0,0
659529,-70.6214689265537,4,1,0,80,0,0
659594,-69.8324022346369,4,1,0,80,0,0
659658,-69.060773480663,4,1,0,80,0,0
659852,-66.6666666666667,4,1,0,80,0,0
659949,-67.7966101694915,4,1,0,80,0,0
660045,-68.9655172413793,4,1,0,80,0,0
660142,-70.1754385964912,4,1,0,80,0,0
660239,-71.4285714285714,4,1,0,80,0,0
660433,-58.8235294117647,4,1,0,80,0,0
660562,-61.2245022907148,4,1,0,80,0,0
660626,-62.5,4,1,0,80,0,0
660691,-63.8297736532396,4,1,0,80,0,0
660755,-65.2174054820447,4,1,0,80,0,0
660820,-66.6666666666667,4,1,0,80,0,0
661207,-74.0740740740741,4,1,0,80,0,0
661594,-83.3333333333333,4,1,0,80,0,0
661981,-58.8235294117647,4,1,0,80,0,1
662175,-61.3875803103019,4,1,0,80,0,1
662271,-62.7552963901271,4,1,0,80,0,1
662368,-64.1853467420802,4,1,0,80,0,1
662562,-67.2503096876761,4,1,0,80,0,1
662755,-70.6226659208913,4,1,0,80,0,1
662949,-74.3511007680469,4,1,0,80,0,1
663046,-76.366949300746,4,1,0,80,0,1
663239,-80.7453115234864,4,1,0,80,0,1
663336,-83.1283526703736,4,1,0,80,0,1
663529,-58.8235294117647,4,1,0,80,0,1
663723,-61.3875803103019,4,1,0,80,0,1
663820,-62.7552963901271,4,1,0,80,0,1
663916,-64.1853467420802,4,1,0,80,0,1
664110,-67.2503096876761,4,1,0,80,0,1
664304,-70.6226659208913,4,1,0,80,0,1
664400,-72.4389394070003,4,1,0,80,0,1
664497,-74.3511007680469,4,1,0,80,0,1
664594,-76.366949300746,4,1,0,80,0,1
664787,-80.7453115234864,4,1,0,80,0,1
664884,-83.1283526703736,4,1,0,80,0,1
665078,-58.8235294117647,4,1,0,80,0,1
665271,-61.3875803103019,4,1,0,80,0,1
665368,-62.7552963901271,4,1,0,80,0,1
665465,-64.1853467420802,4,1,0,80,0,1
665658,-67.2503096876761,4,1,0,80,0,1
665852,-70.6226659208913,4,1,0,80,0,1
665949,-72.4389394070003,4,1,0,80,0,1
666046,-74.3511007680469,4,1,0,80,0,1
666142,-76.366949300746,4,1,0,80,0,1
666239,-78.49515370921,4,1,0,80,0,1
666433,-83.1283526703736,4,1,0,80,0,1
666626,-66.6666666666667,4,1,0,70,0,0
666691,-67.6864304274872,4,1,0,70,0,0
666755,-68.7378763570575,4,1,0,70,0,0
666884,-70.9418595989657,4,1,0,70,0,0
667013,-73.2919136298773,4,1,0,60,0,0
667142,-75.8030001311392,4,1,0,60,0,0
667271,-78.4922579161404,4,1,0,60,0,0
667400,-81.3792811605337,4,1,0,50,0,0
667529,-84.486860603439,4,1,0,50,0,0
667658,-87.841197170108,4,1,0,50,0,0
667787,-91.4728965807431,4,1,0,40,0,0
667916,-95.4177532363316,4,1,0,40,0,0
668046,-99.7182958143245,4,1,0,40,0,0
668175,-58.8235294117647,4,1,0,80,0,1
668368,-61.4035249307522,4,1,0,80,0,1
668465,-62.7802746888139,4,1,0,80,0,1
668562,-64.2201775944791,4,1,0,80,0,1
668658,-65.7276810156767,4,1,0,80,0,1
668755,-67.3077052514818,4,1,0,80,0,1
668949,-70.7070564228169,4,1,0,80,0,1
669142,-74.4680930285205,4,1,0,80,0,1
669239,-76.5027238794837,4,1,0,80,0,1
669433,-80.9248742022831,4,1,0,80,0,1
669529,-83.3333333333333,4,1,0,80,0,1
669723,-58.8235294117647,4,1,0,80,0,1
669916,-61.3875803103019,4,1,0,80,0,1
670013,-62.7552963901271,4,1,0,80,0,1
670110,-64.1853467420802,4,1,0,80,0,1
670207,-65.6820921059978,4,1,0,80,0,1
670304,-67.2503096876761,4,1,0,80,0,1
670497,-70.6226659208913,4,1,0,80,0,1
670594,-72.4389394070003,4,1,0,80,0,1
670691,-74.3511007680469,4,1,0,80,0,1
670787,-76.366949300746,4,1,0,80,0,1
670981,-80.7453115234864,4,1,0,80,0,1
671078,-83.1283526703736,4,1,0,80,0,1
671271,-58.8235294117647,4,1,0,80,0,1
671465,-61.3875803103019,4,1,0,80,0,1
671562,-62.7552963901271,4,1,0,80,0,1
671658,-64.1853467420802,4,1,0,80,0,1
671852,-67.2503096876761,4,1,0,80,0,1
671949,-68.8952440924051,4,1,0,80,0,1
672045,-70.6226659208913,4,1,0,80,0,1
672142,-72.4389394070003,4,1,0,80,0,1
672239,-74.3511007680469,4,1,0,80,0,1
672336,-76.366949300746,4,1,0,80,0,1
672433,-78.49515370921,4,1,0,80,0,1
672529,-80.7453115234864,4,1,0,80,0,1
672626,-83.3333333333333,4,1,0,80,0,1
672820,-79.6622321357444,4,1,0,80,0,1
672949,-77.3894375800013,4,1,0,80,0,1
673013,-76.3009890897216,4,1,0,80,0,1
673207,-73.2118553421593,4,1,0,80,0,1
673336,-71.2877780668893,4,1,0,80,0,1
673400,-70.3631724784302,4,1,0,80,0,1
673594,-67.7278262483254,4,1,0,80,0,1
673691,-66.4828637094646,4,1,0,80,0,1
673787,-65.2828018334022,4,1,0,80,0,1
673884,-64.1252956977698,4,1,0,80,0,1
673981,-63.0081211167307,4,1,0,80,0,1
674045,-62.2847284074418,4,1,0,80,0,1
674110,-61.5777576213251,4,1,0,80,0,1
674175,-60.8866558369602,4,1,0,80,0,1
674239,-60.2108946797051,4,1,0,80,0,1
674304,-59.5499335124992,4,1,0,80,0,1
674368,-58.9033607901532,4,1,0,80,0,0
674755,-100,4,1,0,40,0,0
685207,-95.2380952380952,4,1,0,60,0,0
685594,-90.9090909090909,4,1,0,60,0,0
685981,-86.9565217391304,4,1,0,60,0,0
686368,-66.6666666666667,4,1,0,60,0,0
686755,-90.9090909090908,4,1,0,40,0,0
696045,-90.0041401904488,4,1,0,50,0,0
696142,-89.5583875907898,4,1,0,50,0,0
696239,-89.1170284818023,4,1,0,50,0,0
696336,-88.6799982264,4,1,0,50,0,0
696433,-88.2472334492314,4,1,0,50,0,0
696626,-87.3942529539258,4,1,0,50,0,0
696820,-86.5576040855189,4,1,0,50,0,0
697013,-85.73689575851,4,1,0,50,0,0
697207,-84.9315324451194,4,1,0,50,0,0
697400,-84.1411585732689,4,1,0,50,0,0
697594,-83.3333333333333,4,1,0,60,0,0
697691,-82.4742268041237,4,1,0,60,0,0
697787,-81.6326530612245,4,1,0,60,0,0
697884,-80.8080808080808,4,1,0,60,0,0
697981,-80,4,1,0,60,0,0
698078,-79.2079207920792,4,1,0,60,0,0
698175,-78.4313725490196,4,1,0,60,0,0
698271,-77.6699029126214,4,1,0,60,0,0
698368,-76.9230769230769,4,1,0,60,0,0
698465,-76.1904761904762,4,1,0,60,0,0
698562,-75.4716981132076,4,1,0,60,0,0
698658,-74.7663551401869,4,1,0,60,0,0
698755,-74.0740740740741,4,1,0,60,0,0
698852,-73.394495412844,4,1,0,60,0,0
698949,-72.7272727272727,4,1,0,60,0,0
699045,-72.0720720720721,4,1,0,60,0,0
699142,-66.6666666666667,4,1,0,60,0,0
700691,-142.857142857143,4,1,0,20,0,0
723916,-100,4,1,0,40,0,0
727013,387.096774193548,4,1,0,60,1,0
727013,-76.9230769230769,4,1,0,60,0,0
727142,-78.6516588814633,4,1,0,60,0,0
727206,-79.5454455061994,4,1,0,60,0,0
727271,-80.459779363193,4,1,0,60,0,0
727400,-82.3529217993125,4,1,0,60,0,0
727593,-85.3658224271381,4,1,0,60,0,0
727690,-86.9565217391304,4,1,0,60,0,0
727787,-88.6076285851754,4,1,0,60,0,0
728077,-93.9597063195419,4,1,0,60,0,0
728367,-100,4,1,0,60,0,0
728561,-76.9230769230769,4,1,0,60,0,0
728690,-78.9473476454348,4,1,0,60,0,0
728754,-80,4,1,0,60,0,0
728819,-81.0811029948927,4,1,0,60,0,0
728948,-83.3333333333333,4,1,0,60,0,0
729142,-86.9565217391304,4,1,0,60,0,0
729238,-88.8888888888889,4,1,0,60,0,0
729335,-90.9090909090909,4,1,0,60,0,0
729722,-100,4,1,0,60,0,0
730109,-76.9230769230769,4,1,0,60,0,0
730238,-78.6412057898801,4,1,0,60,0,0
730303,-79.5294402081763,4,1,0,60,0,0
730367,-80.4379039490989,4,1,0,60,0,0
730496,-82.31855139106,4,1,0,60,0,0
730690,-85.3104746760121,4,1,0,60,0,0
730787,-86.8894279895177,4,1,0,60,0,0
730883,-88.5280093768868,4,1,0,60,0,0
731174,-93.8367990391112,4,1,0,60,0,0
731464,-99.8228145042549,4,1,0,60,0,0
731658,-76.9230769230769,4,1,0,60,0,0
731787,-80,4,1,0,60,0,0
731851,-81.6326530612245,4,1,0,60,0,0
731916,-83.3333333333333,4,1,0,60,0,0
732045,-86.9565217391304,4,1,0,60,0,0
732432,-100,4,1,0,60,0,0
733206,-58.8235294117647,4,1,0,80,0,1
733335,-60.5084037096492,4,1,0,80,0,1
733400,-61.3875803103019,4,1,0,80,0,1
733464,-62.2926821671624,4,1,0,80,0,1
733529,-63.2248331970838,4,1,0,80,0,1
733593,-64.1853467420802,4,1,0,80,0,1
733787,-67.2503096876761,4,1,0,80,0,1
733883,-68.8952440924051,4,1,0,80,0,1
733980,-70.6226659208913,4,1,0,80,0,1
734174,-74.3511007680469,4,1,0,80,0,1
734271,-76.366949300746,4,1,0,80,0,1
734464,-80.7453115234864,4,1,0,80,0,1
734561,-83.1283526703736,4,1,0,80,0,1
734754,-58.8235294117647,4,1,0,80,0,1
734883,-60.5084037096492,4,1,0,80,0,1
734948,-61.3875803103019,4,1,0,80,0,1
735013,-62.2926821671624,4,1,0,80,0,1
735077,-63.2248331970838,4,1,0,80,0,1
735142,-64.1853467420802,4,1,0,80,0,1
735335,-67.2503096876761,4,1,0,80,0,1
735529,-70.6226659208913,4,1,0,80,0,1
735625,-72.4389394070003,4,1,0,80,0,1
735722,-74.3511007680469,4,1,0,80,0,1
735819,-76.366949300746,4,1,0,80,0,1
736013,-80.7453115234864,4,1,0,80,0,1
736109,-83.1283526703736,4,1,0,80,0,1
736303,-58.8235294117647,4,1,0,80,0,1
736432,-60.5084037096492,4,1,0,80,0,1
736496,-61.3875803103019,4,1,0,80,0,1
736561,-62.2926821671624,4,1,0,80,0,1
736625,-63.2248331970838,4,1,0,80,0,1
736690,-64.1853467420802,4,1,0,80,0,1
736883,-67.2503096876761,4,1,0,80,0,1
736980,-68.8952440924051,4,1,0,80,0,1
737077,-70.6226659208913,4,1,0,80,0,1
737174,-72.4389394070003,4,1,0,80,0,1
737271,-74.3511007680469,4,1,0,80,0,1
737367,-76.366949300746,4,1,0,80,0,1
737561,-80.7453115234864,4,1,0,80,0,1
737658,-83.1283526703736,4,1,0,80,0,1
737851,-66.6666666666667,4,1,0,70,0,1
737980,-67.8941475923717,4,1,0,70,0,1
738109,-69.167629825912,4,1,0,70,0,1
738238,-70.4898480520835,4,1,0,60,0,1
738367,-71.8636028817305,4,1,0,60,0,1
738496,-73.2919136298773,4,1,0,60,0,1
738625,-74.7782078355597,4,1,0,50,0,1
738754,-76.3260312219263,4,1,0,50,0,1
738883,-77.9392245514793,4,1,0,50,0,1
739013,-79.6221451479857,4,1,0,40,0,1
739142,-81.3792811605337,4,1,0,40,0,1
739271,-83.2157910285056,4,1,0,40,0,1
739400,-58.8235294117647,4,1,0,80,0,1
739529,-61.2245022907148,4,1,0,80,0,1
739593,-62.5,4,1,0,80,0,1
739658,-63.8297736532396,4,1,0,80,0,1
739722,-65.2174054820447,4,1,0,80,0,1
739787,-66.6666666666667,4,1,0,80,0,1
739980,-71.4285714285714,4,1,0,80,0,1
740174,-76.9230769230769,4,1,0,80,0,1
740271,-74.0740740740741,4,1,0,80,0,1
740367,-71.4285714285714,4,1,0,80,0,1
740464,-68.9655172413793,4,1,0,80,0,1
740561,-66.6666666666667,4,1,0,80,0,1
740658,-64.5161290322581,4,1,0,80,0,1
740754,-62.5,4,1,0,80,0,1
740948,-58.8235294117647,4,1,0,80,0,1
741077,-61.2245022907148,4,1,0,80,0,1
741142,-62.5,4,1,0,80,0,1
741206,-63.8297736532396,4,1,0,80,0,1
741271,-65.2174054820447,4,1,0,80,0,1
741335,-66.6666666666667,4,1,0,80,0,1
741529,-71.4285714285714,4,1,0,80,0,1
741722,-76.9230769230769,4,1,0,80,0,1
741819,-74.0740740740741,4,1,0,80,0,1
741916,-71.4285714285714,4,1,0,80,0,1
742013,-68.9655172413793,4,1,0,80,0,1
742109,-66.6666666666667,4,1,0,80,0,1
742206,-64.5161290322581,4,1,0,80,0,1
742303,-62.5,4,1,0,80,0,1
742496,-58.8235294117647,4,1,0,80,0,1
742625,-61.1987238842096,4,1,0,80,0,1
742690,-62.4597524969847,4,1,0,80,0,1
742754,-63.7738426482471,4,1,0,80,0,1
742819,-65.1443729593525,4,1,0,80,0,1
742883,-66.5751480298416,4,1,0,80,0,1
743077,-71.2711131763896,4,1,0,80,0,1
743271,-76.9230769230769,4,1,0,80,0,1
743367,-74.0740740740741,4,1,0,80,0,1
743464,-71.4285714285714,4,1,0,80,0,1
743561,-68.9655172413793,4,1,0,80,0,1
743658,-66.6666666666667,4,1,0,80,0,1
743754,-64.5161290322581,4,1,0,80,0,1
743851,-62.5,4,1,0,80,0,1
744045,-58.8235294117647,4,1,0,80,0,0
745593,-66.6666666666667,4,1,0,60,0,1
757980,-66.6666666666667,4,1,0,60,0,0
759529,-100,4,1,0,60,0,0
771916,387.096774193548,8,1,0,20,1,8
774715,555.555555555556,4,1,0,20,1,0
774715,-142.857142857143,4,1,0,20,0,0
783603,-142.857142857143,4,1,0,30,0,0
792492,-111.111111111111,4,1,0,40,0,0
819992,-142.857142857143,4,1,0,20,0,0
828048,-111.111111111111,4,1,0,60,0,1
836937,-111.111111111111,4,1,0,60,0,0
838048,-142.857142857143,4,1,0,20,0,0
845826,-125,4,1,0,30,0,0
854715,-111.111111111111,4,1,0,40,0,0
871798,-121.212121212121,4,1,0,40,0,0
871937,-125,4,1,0,40,0,0
872215,-133.333333333333,4,1,0,40,0,0
872492,-142.857142857143,4,1,0,40,0,1
881381,-125,4,1,0,40,0,1
890270,-142.857142857143,4,1,0,20,0,0
899159,-111.111111111111,4,1,0,60,0,1
907215,-111.111111111111,4,1,0,40,0,0
908048,-100,4,1,0,60,0,1
916381,-100,4,1,0,60,0,0
918475,474.308300395257,4,1,0,40,1,0
918475,-126.5,4,1,0,40,0,0
920372,882.352941176471,4,1,0,40,1,8
920372,-68,4,1,0,40,0,0
921033,937.5,4,1,0,40,1,8
921033,-64,4,1,0,40,0,8
921267,912.54752851711,4,1,0,40,1,0
921267,-65.75,4,1,0,40,0,8
922179,869.565217391304,4,1,0,40,1,8
922179,-69,4,1,0,40,0,8
922613,1297.2972972973,4,1,0,40,1,8
922613,-46.25,4,1,0,40,0,8
923910,902.255639097744,4,1,0,40,1,8
923910,-66.5,4,1,0,40,0,8
924812,1112.14087117702,4,1,0,40,1,0
924812,-53.95,4,1,0,40,0,8
927036,337.078651685393,4,1,0,40,1,8
927036,-178,4,1,0,40,0,8
927204,468.75,4,1,0,40,1,0
927204,-128,4,1,0,40,0,8
927672,483.870967741935,4,1,0,40,1,8
927672,-124,4,1,0,40,0,8
928155,419.58041958042,4,1,0,40,1,8
928155,-143,4,1,0,40,0,8
928994,324.324324324324,4,1,0,40,1,8
928994,-185,4,1,0,40,0,8
929156,508.474576271186,4,1,0,40,1,0
929156,-118,4,1,0,40,0,8
929664,530.973451327434,4,1,0,40,1,8
929664,-113,4,1,0,40,0,8
930194,512.820512820513,4,1,0,40,1,8
930194,-117,4,1,0,40,0,8
930706,563.380281690141,4,1,0,40,1,8
930706,-106.5,4,1,0,40,0,8
931269,851.063829787234,4,1,0,40,1,0
931269,-70.5,4,1,0,40,0,8
932120,937.5,4,1,0,40,1,8
932120,-64,4,1,0,40,0,8
933057,1090.90909090909,4,1,0,40,1,8
933057,-55,4,1,0,40,0,8
934147,1071.42857142857,4,1,0,40,1,8
934147,-56,4,1,0,40,0,8
934414,1276.59574468085,4,1,0,40,1,8
934414,-47,4,1,0,40,0,8
934733,1224.48979591837,4,1,0,40,1,8
934733,-49,4,1,0,40,0,8
935345,1090.90909090909,4,1,0,40,1,8
935345,-55,4,1,0,40,0,8
935890,869.565217391304,4,1,0,40,1,0
935890,-69,4,1,0,40,0,8
936759,916.030534351145,4,1,0,40,1,8
936759,-65.5,4,1,0,40,0,8
937675,882.352941176471,4,1,0,40,1,8
937675,-68,4,1,0,40,0,8
937785,1250,4,1,0,40,1,8
937785,-48,4,1,0,40,0,8
937941,1100.91743119266,4,1,0,40,1,8
937941,-54.5,4,1,0,40,0,8
938216,1250,4,1,0,40,1,8
938216,-48,4,1,0,40,0,8
938841,1304.34782608696,4,1,0,40,1,8
938841,-46,4,1,0,40,0,8
941449,750,4,1,0,80,1,0
941449,-80,4,1,0,80,0,8
941824,612.244897959184,4,1,0,80,1,8
941824,-98,4,1,0,80,0,8
942130,500,4,1,0,80,1,8
942130,-120,4,1,0,80,0,8
943130,545.454545454546,4,1,0,80,1,8
943130,-110,4,1,0,80,0,8
943402,618.556701030928,4,1,0,80,1,8
943402,-97,4,1,0,80,0,8
943711,659.340659340659,4,1,0,80,1,8
943711,-91,4,1,0,80,0,8
944040,659.340659340659,4,1,0,80,1,0
944040,-91,4,1,0,80,0,8
944370,606.060606060606,4,1,0,80,1,8
944370,-99,4,1,0,80,0,8
944673,895.522388059701,4,1,0,80,1,8
944673,-67,4,1,0,80,0,8
945568,571.428571428571,4,1,0,80,1,8
945568,-105,4,1,0,80,0,8
945710,731.707317073171,4,1,0,80,1,8
945710,-82,4,1,0,80,0,8
945892,612.244897959184,4,1,0,80,1,8
945892,-98,4,1,0,80,0,8
946504,379.746835443038,4,1,0,40,1,0
946504,-158,4,1,0,40,0,8
946883,352.941176470588,4,1,0,40,1,8
946883,-170,4,1,0,40,0,8
947235,315.789473684211,4,1,0,40,1,8
947235,-190,4,1,0,40,0,8
947392,400,4,1,0,40,1,8
947392,-150,4,1,0,40,0,8
947592,333.333333333333,4,1,0,40,1,8
947592,-180,4,1,0,40,0,8
948258,303.030303030303,4,1,0,40,1,8
948258,-198,4,1,0,40,0,8
948409,410.958904109589,4,1,0,40,1,8
948409,-146,4,1,0,40,0,8
948614,370.37037037037,4,1,0,40,1,8
948614,-162,4,1,0,40,0,8
948799,359.281437125748,4,1,0,40,1,8
948799,-167,4,1,0,40,0,8
948978,545.454545454546,4,1,0,40,1,8
948978,-110,4,1,0,40,0,8
949250,405.405405405405,4,1,0,40,1,0
949250,-148,4,1,0,40,0,8
949655,372.670807453416,4,1,0,40,1,8
949655,-161,4,1,0,40,0,8
950027,352.941176470588,4,1,0,40,1,8
950027,-170,4,1,0,40,0,8
950379,312.5,4,1,0,40,1,8
950379,-192,4,1,0,40,0,8
950691,382.165605095541,4,1,0,40,1,8
950691,-157,4,1,0,40,0,8
950882,504.201680672269,4,1,0,40,1,8
950882,-119,4,1,0,40,0,8
951008,375,4,1,0,40,1,8
951008,-160,4,1,0,40,0,8
951195,333.333333333333,4,1,0,40,1,8
951195,-180,4,1,0,40,0,8
951361,324.324324324324,4,1,0,40,1,8
951361,-185,4,1,0,40,0,8
951523,400,4,1,0,40,1,8
951523,-150,4,1,0,40,0,8
951723,344.827586206897,4,1,0,40,1,8
951723,-174,4,1,0,40,0,8
951895,335.195530726257,4,1,0,40,1,8
951895,-179,4,1,0,40,0,8
952062,375,4,1,0,40,1,8
952062,-160,4,1,0,40,0,8
952155,357.142857142857,4,1,0,40,1,8
952155,-168,4,1,0,40,0,8
952512,279.06976744186,4,1,0,40,1,8
952512,-215,4,1,0,40,0,8
952651,312.01248049922,4,1,0,40,1,0
952651,-192.3,4,1,0,40,0,8
953899,333.333333333333,4,1,0,40,1,8
953899,-180,4,1,0,40,0,8
955232,431.654676258993,4,1,0,40,1,8
955232,-139,4,1,0,40,0,8
956095,387.096774193548,4,1,0,40,1,0
956095,-155,4,1,0,40,0,8
956482,555.555555555556,4,1,0,40,1,8
956482,-108,4,1,0,40,0,8
958704,461.538461538462,4,1,0,40,1,8
958704,-130,4,1,0,40,0,8
959627,638.297872340426,4,1,0,40,1,0
959627,-94,4,1,0,40,0,8
962180,419.58041958042,4,1,0,40,1,8
962180,-143,4,1,0,40,0,8
963019,1586.67195557319,4,1,0,40,1,0
963019,-37.815,4,1,0,40,0,8
969365,279.06976744186,4,1,0,40,1,8
969365,-238.888888888889,4,1,0,40,0,8
969434,375,4,1,0,40,1,8
969434,-177.777777777778,4,1,0,40,0,8
969527,535.714285714286,4,1,0,40,1,8
969527,-124.444444444444,4,1,0,40,0,8
969960,512.820512820513,4,1,0,40,1,1
973966,545.454545454546,4,1,0,40,1,0
973966,-94.017094017094,4,1,0,40,0,8
974511,666.666666666667,4,1,0,40,1,8
974511,-76.9230769230769,4,1,0,40,0,8
975177,545.454545454546,4,1,0,40,1,8
975177,-94.017094017094,4,1,0,40,0,8
975722,600,4,1,0,40,1,8
975722,-85.4700854700855,4,1,0,40,0,8
976322,545.454545454546,4,1,0,40,1,8
976322,-94.017094017094,4,1,0,40,0,8
976867,800,4,1,0,40,1,8
976867,-64.1025641025641,4,1,0,40,0,8
977667,571.428571428571,4,1,0,40,1,0
977667,-89.7435897435898,4,1,0,40,0,8
978238,461.538461538462,4,1,0,40,1,8
978238,-111.111111111111,4,1,0,40,0,8
978699,521.739130434783,4,1,0,40,1,8
978699,-98.2905982905983,4,1,0,40,0,8
980785,521.739130434783,4,1,0,40,1,0
982350,521.739130434783,4,1,0,40,1,8
982375,272.727272727273,4,1,0,80,1,1
984556,267.857142857143,4,1,0,60,1,0
984556,-129.032258064516,4,1,0,60,0,0
986698,272.727272727273,5,1,0,80,1,1
987516,-100,5,1,0,80,0,0
987908,272.727272727273,4,1,0,80,1,1
988998,267.857142857143,4,1,0,60,1,0
988998,-129.032258064516,4,1,0,60,0,0
991140,540.540540540541,4,1,0,80,1,0
991140,-63.9400921658986,4,1,0,80,0,0
991680,-100,4,1,0,20,0,0
995464,540.540540540541,6,1,0,20,1,8
995464,-133.333333333333,6,1,0,20,0,8
997626,-200,6,1,0,20,0,8
998675,705.882352941176,4,1,0,40,1,8
999380,940.438871473354,4,1,0,40,1,0
999380,-184.927536231884,4,1,0,40,0,0
1001264,794.701986754967,4,1,0,40,1,8
1001264,-220.289855072464,4,1,0,40,0,8
1002853,869.565217391304,4,1,0,40,1,0
1002853,-200,4,1,0,40,0,0
1006331,833.333333333333,4,1,0,40,1,0
1006331,-208.695652173913,4,1,0,40,0,0
1007997,960,4,1,0,40,1,8
1007997,-182.608695652174,4,1,0,40,0,8
1009917,813.559322033898,4,1,0,40,1,0
1009917,-213.768115942029,4,1,0,40,0,0
1011544,919.540229885057,4,1,0,40,1,8
1011544,-189.130434782609,4,1,0,40,0,8
1013383,952.380952380952,4,1,0,40,1,0
1013383,-182.608695652174,4,1,0,40,0,0
1015287,810.810810810811,4,1,0,40,1,8
1015287,-214.492753623188,4,1,0,40,0,8
1016908,810.810810810811,4,1,0,40,1,0
1016908,-214.492753623188,4,1,0,40,0,0
1018529,902.255639097744,4,1,0,40,1,8
1018529,-192.753623188406,4,1,0,40,0,8
1020333,839.160839160839,4,1,0,40,1,0
1020333,-207.246376811594,4,1,0,40,0,0
1022011,902.255639097744,4,1,0,40,1,8
1022011,-192.753623188406,4,1,0,40,0,8
1023815,869.565217391304,4,1,0,40,1,0
1023815,-200,4,1,0,40,0,0
1025554,916.030534351145,4,1,0,40,1,8
1025554,-189.855072463768,4,1,0,40,0,8
1027386,952.380952380952,4,1,0,40,1,1
1027386,-182.608695652174,4,1,0,40,0,1
1029290,789.473684210526,4,1,0,40,1,9
1029290,-220.289855072464,4,1,0,40,0,9
1030868,869.565217391304,4,1,0,40,1,1
1030868,-200,4,1,0,40,0,1
1041299,869.565217391304,4,1,0,40,1,9
1041389,952.380952380952,4,1,0,40,1,1
1041389,-182.608695652174,4,1,0,40,0,1
1043293,784.313725490196,4,1,0,40,1,9
1043293,-221.739130434783,4,1,0,40,0,9
1044861,869.565217391304,4,1,0,40,1,1
1044861,-200,4,1,0,40,0,1
1055295,-200,4,1,0,40,0,0
1058774,869.565217391304,5,1,0,20,1,8
1062458,355.029585798817,4,1,0,40,1,0
1062458,-142.857142857143,4,1,0,40,0,0
1068138,-142.857142857143,4,1,0,30,0,0
1068671,-144.796380090498,4,1,0,30,0,0
1068848,-145.454545454545,4,1,0,30,0,0
1069558,-148.148148148148,4,1,0,30,0,0
1070268,-150.943396226415,4,1,0,30,0,0
1070978,-153.846153846154,4,1,0,20,0,0
1071511,-158.415841584158,4,1,0,20,0,0
1071688,-160,4,1,0,20,0,0
1072398,-166.666666666667,4,1,0,20,0,0
1073818,-142.857142857143,4,1,0,20,0,0
1079499,-142.857142857143,4,1,0,30,0,0
1085179,-133.333333333333,4,1,0,40,0,0
1085534,-132.479283552035,4,1,0,40,0,0
1086244,-130.80342077106,4,1,0,40,0,0
1086600,-129.981204717798,4,1,0,40,0,0
1086777,-129.573960816834,4,1,0,40,0,0
1086955,-129.169427663183,4,1,0,40,0,0
1087310,-128.367562543886,4,1,0,40,0,0
1087487,-127.970515593207,4,1,0,40,0,0
1087665,-127.575754483012,4,1,0,40,0,0
1088020,-126.793493972237,4,1,0,40,0,0
1088375,-126.020927035143,4,1,0,40,0,0
1088730,-125.257560859517,4,1,0,40,0,0
1088907,-124.879491290904,4,1,0,40,0,0
1089085,-124.503542125773,4,1,0,40,0,0
1089262,-124.12984975323,4,1,0,40,0,0
1089617,-123.389306835891,4,1,0,40,0,0
1089795,-123.022263338996,4,1,0,40,0,0
1089972,-122.657397038315,4,1,0,40,0,0
1090150,-122.29483817947,4,1,0,40,0,0
1090327,-121.934267674982,4,1,0,40,0,0
1090505,-121.575817111067,4,1,0,40,0,0
1090860,-120.865347542264,4,1,0,50,0,0
1091215,-120.162989078386,4,1,0,50,0,0
1091570,-119.468889106588,4,1,0,50,0,0
1091747,-119.124766515458,4,1,0,50,0,0
1091925,-118.782620677203,4,1,0,50,0,0
1092102,-118.442574894201,4,1,0,50,0,0
1092280,-118.104331003922,4,1,0,50,0,0
1092635,-117.433605975022,4,1,0,50,0,0
1092990,-116.770592493986,4,1,0,50,0,0
1093168,-116.441817517041,4,1,0,50,0,0
1093345,-116.114888715491,4,1,0,50,0,0
1093700,-115.46664111005,4,1,0,50,0,0
1094055,-114.825459560196,4,1,0,50,0,0
1094233,-114.507662852798,4,1,0,50,0,0
1094410,-114.1914899934,4,1,0,50,0,0
1094588,-113.877058327829,4,1,0,50,0,0
1094765,-113.564482480975,4,1,0,50,0,0
1095120,-112.944195402494,4,1,0,50,0,0
1095475,-112.330773689437,4,1,0,50,0,0
1095830,-111.723854383597,4,1,0,50,0,0
1096008,-111.422847477721,4,1,0,50,0,0
1096185,-111.123581646385,4,1,0,50,0,0
1096540,-100,4,1,0,60,0,0
1096718,-98.7654320987654,4,1,0,60,0,0
1096895,-97.5609756097561,4,1,0,60,0,0
1097073,-96.3855421686747,4,1,0,60,0,0
1097250,-95.2380952380952,4,1,0,60,0,0
1097428,-94.1176470588235,4,1,0,60,0,0
1097605,-93.0232558139535,4,1,0,60,0,0
1097783,-91.9540229885058,4,1,0,60,0,0
1097960,-90.9090909090909,4,1,0,60,0,0
1098315,-100,4,1,0,60,0,0
1098493,-98.3717507810717,4,1,0,60,0,0
1098671,-96.7957696376837,4,1,0,60,0,0
1098848,-95.2693980403085,4,1,0,60,0,0
1099026,-93.7904178081742,4,1,0,60,0,0
1099203,-92.3566555438468,4,1,0,60,0,0
1099381,-90.9661514950287,4,1,0,60,0,0
1099736,-100,4,1,0,60,0,0
1099913,-98.5915215235151,4,1,0,60,0,0
1100091,-97.2222627314984,4,1,0,60,0,0
1100268,-95.8904240945786,4,1,0,60,0,0
1100446,-94.594581811543,4,1,0,60,0,0
1100623,-93.3332960000149,4,1,0,60,0,0
1100801,-92.1052873961283,4,1,0,60,0,0
1100978,-90.9090909090909,4,1,0,60,0,0
1101156,-89.7435667324188,4,1,0,60,0,0
1101333,-88.6076285851754,4,1,0,60,0,0
1101511,-87.5000109375014,4,1,0,60,0,0
1101688,-86.4197424173157,4,1,0,60,0,0
1101866,-85.3658224271381,4,1,0,60,0,0
1102043,-84.3373697198481,4,1,0,60,0,0
1102221,-83.3333333333333,4,1,0,60,0,0
1102576,-100,4,1,0,60,0,0
1102753,-97.5609756097561,4,1,0,60,0,0
1102931,-95.2380952380952,4,1,0,60,0,0
1103108,-93.0232558139535,4,1,0,60,0,0
1103286,-90.9090909090909,4,1,0,60,0,0
1103463,-88.8888888888889,4,1,0,60,0,0
1103641,-86.9565217391304,4,1,0,60,0,0
1103996,-100,4,1,0,60,0,0
1104173,-97.5609756097561,4,1,0,60,0,0
1104351,-95.2380952380952,4,1,0,60,0,0
1104529,-93.0232558139535,4,1,0,60,0,0
1104706,-90.9090909090909,4,1,0,60,0,0
1104884,-88.8888888888889,4,1,0,60,0,0
1105061,-86.9565217391304,4,1,0,60,0,0
1105416,-100,4,1,0,60,0,0
1105594,-98.2456278239478,4,1,0,60,0,0
1105771,-96.5517507728968,4,1,0,60,0,0
1105949,-94.9152928468988,4,1,0,60,0,0
1106126,-93.3332960000149,4,1,0,60,0,0
1106304,-91.8032546089824,4,1,0,60,0,0
1106481,-90.3225689906363,4,1,0,60,0,0
1106659,-88.8888888888889,4,1,0,60,0,0
1106836,-87.5000109375014,4,1,0,60,0,0
1107014,-86.153867360952,4,1,0,60,0,0
1107191,-84.8485157024906,4,1,0,60,0,0
1107369,-83.5820596123966,4,1,0,60,0,0
1107546,-82.3529217993125,4,1,0,60,0,0
1107724,-81.1594108800683,4,1,0,60,0,0
1107901,-80,4,1,0,60,0,0
1108256,-100,4,1,0,60,0,0
1113582,-86.9565217391304,4,1,0,60,0,0
1114114,-84.2105263157895,4,1,0,60,0,0
1114647,-81.6326530612245,4,1,0,60,0,0
1115002,-80,4,1,0,60,0,0
1115534,-77.6699029126214,4,1,0,60,0,0
1116067,-75.4716981132076,4,1,0,60,0,0
1116422,-74.0740740740741,4,1,0,60,0,0
1116777,-71.4285714285714,4,1,0,60,0,0
1117132,-68.9655172413793,4,1,0,60,0,0
1117487,-66.6666666666667,4,1,0,60,0,0
1117842,-62.5,4,1,0,60,0,0
1118020,-60.6060606060606,4,1,0,60,0,0
1118197,-58.8235294117647,4,1,0,60,0,0
1118375,-57.1428571428571,4,1,0,60,0,0
1118552,-55.5555555555556,4,1,0,60,0,0
1118730,-54.054054054054,4,1,0,60,0,0
1118907,-52.6315789473684,4,1,0,60,0,0
1119085,-51.2820512820513,4,1,0,60,0,0
1119262,710.059171597633,4,1,0,80,1,1
1119262,-25,4,1,0,60,0,1
1119972,-50,4,1,0,60,0,1
1123522,-50,4,1,0,60,0,0
1124942,-55.5555555555556,4,1,0,60,0,1
1129912,-45.4545454545455,4,1,0,60,0,0
1130622,-62.5,4,1,0,60,0,1
1135593,-62.5,4,1,0,60,0,0
1136303,-71.4285714285714,4,1,0,60,0,1
1140918,-71.4285714285714,4,1,0,60,0,0
1141983,-100,4,1,0,60,0,1
1146954,-105.263157894737,4,1,0,60,0,1
1147664,-125,4,1,0,40,0,0
1151924,-111.111111111111,4,1,0,50,0,0
1152634,-100,4,1,0,60,0,0
1153344,-90.9090909090909,4,1,0,60,0,1
1159025,-90.9090909090909,4,1,0,60,0,0
1160090,-90.9090909090909,4,1,0,60,0,1
1163640,-100,4,1,0,60,0,0
1164705,-142.857142857143,4,1,0,20,0,0
1170386,-117.647058823529,4,1,0,40,0,0
1176066,-100,4,1,0,60,0,1
1186007,-100,4,1,0,60,0,0
1187427,710.059171597633,4,1,0,40,1,8
1189151,705.882352941176,4,1,0,20,1,0
1206092,352.941176470588,4,1,0,50,1,0
1217739,-125,4,1,0,30,0,0
1223033,-111.111111111111,4,1,0,40,0,0
1225856,-100,4,1,0,40,0,0
1227268,-100,4,1,0,50,0,0
1227444,-97.5733507664387,4,1,0,50,0,0
1227621,-95.261593097726,4,1,0,50,0,0
1227797,-93.0569294377221,4,1,0,65,0,0
1227974,-90.9519209955233,4,1,0,65,0,0
1228062,-89.9347703110934,4,1,0,65,0,0
1228150,-88.9401183970856,4,1,0,65,0,0
1228239,-87.9671495476729,4,1,0,65,0,0
1228327,-87.0153138250801,4,1,0,65,0,0
1228386,-86.3921182742656,4,1,0,65,0,0
1228444,-85.7777857837045,4,1,0,65,0,0
1228503,-85.1721286133211,4,1,0,65,0,0
1228562,-84.5749642882213,4,1,0,65,0,0
1228621,-83.9860448787829,4,1,0,65,0,0
1228680,-83.3333333333333,4,1,0,80,0,1
1229033,-100,4,1,0,80,0,1
1238562,-100,4,1,0,80,0,0
1239974,-83.3333333333333,4,1,0,80,0,1
1240327,-100,4,1,0,80,0,1
1251268,-100,4,1,0,80,0,0
1251621,-142.857142857143,4,1,0,20,0,0
1256915,-125,4,1,0,40,0,0
1258327,-117.647058823529,4,1,0,40,0,0
1259739,-111.111111111111,4,1,0,40,0,0
1261150,-105.263157894737,4,1,0,40,0,0
1262562,-105.263157894737,4,1,0,20,0,0
1262915,-125,4,1,0,20,0,0
1273856,-111.111111111111,4,1,0,30,0,0
1278444,-125,4,1,0,30,0,0
1278974,-142.857142857143,4,1,0,30,0,0
1279503,-111.111111111111,4,1,0,30,0,0
1285150,-83.3333333333333,4,1,0,80,0,1
1285503,-100,4,1,0,80,0,1
1295033,-100,4,1,0,80,0,0
1296444,-125,4,1,0,30,0,0
1306680,-142.857142857143,4,1,0,30,0,0
1307739,-125,4,1,0,30,0,0
1309150,-142.857142857143,4,1,0,30,0,0
1319033,-83.3333333333333,4,1,0,80,0,1
1319386,-100,4,1,0,80,0,1
1328915,-100,4,1,0,80,0,0
1330327,-125,4,1,0,60,0,1
1330680,-121.673003802281,4,1,0,60,0,1
1331033,-118.518518518519,4,1,0,60,0,1
1331738,342.857142857143,4,1,0,60,1,1
1331738,-115.990057995029,4,1,0,60,0,1
1332080,-113.199919142915,4,1,0,60,0,1
1332423,-110.540860639558,4,1,0,60,0,1
1332766,-108.003857280617,4,1,0,60,0,1
1333109,333.333333333333,4,1,0,60,1,1
1333109,-108.597285067873,4,1,0,60,0,1
1333442,-106.214272542873,4,1,0,60,0,1
1333775,-103.933597979069,4,1,0,60,0,1
1334109,-101.748807631161,4,1,0,60,0,1
1334442,324.324324324324,4,1,0,60,1,1
1334442,-102.42214532872,4,1,0,60,0,1
1334766,-100.355992541109,4,1,0,60,0,1
1335090,-98.3715520106347,4,1,0,60,0,1
1335414,-96.4640703926999,4,1,0,60,0,1
1335739,315.789473684211,4,1,0,60,1,1
1335739,-97.1867007672634,4,1,0,60,0,1
1336054,-95.3725490196078,4,1,0,60,0,1
1336370,-93.6248845087773,4,1,0,60,0,1
1336686,-91.9401179494934,4,1,0,60,0,1
1337002,300,4,1,0,60,1,1
1337002,-95.0683303624479,4,1,0,60,0,1
1337302,-93.4170194132243,4,1,0,60,0,1
1337602,-91.8220946915351,4,1,0,60,0,1
1337902,-90.280716603188,4,1,0,60,0,1
1338202,285.714285714286,4,1,0,60,1,1
1338202,-93.2297447280799,4,1,0,60,0,1
1338487,-91.7155725399208,4,1,0,60,0,1
1338773,-90.2497985495568,4,1,0,60,0,1
1339059,-88.8301387970918,4,1,0,60,0,1
1339344,279.06976744186,4,1,0,60,1,1
1339344,-89.5366996356064,4,1,0,60,0,1
1339623,-88.1712161988978,4,1,0,60,0,1
1339902,-86.8467558697298,4,1,0,60,0,1
1340181,-85.5614973262032,4,1,0,60,0,1
1340460,272.727272727273,4,1,0,60,1,0
1340460,-86.2068965517241,4,1,0,60,0,0
1340732,-87.9765137898787,4,1,0,60,0,0
1341005,-89.8203861737683,4,1,0,60,0,0
1341278,-91.743119266055,4,1,0,60,0,0
1341448,-92.9871854359751,4,1,0,60,0,0
1341550,-93.7499707031342,4,1,0,60,0,0
1341823,-95.8466759893533,4,1,0,60,0,0
1342096,-98.0392156862745,4,1,0,60,0,0
1342266,-99.4612185789578,4,1,0,60,0,0
1342369,-100.334414603875,4,1,0,60,0,0
1342539,-101.824387551765,4,1,0,60,0,0
1342641,260.869565217391,4,1,0,60,1,0
1342641,-107.409750358258,4,1,0,60,0,0
1342901,-110.047846889952,4,1,0,60,0,0
1343162,-112.818795258118,4,1,0,60,0,0
1343423,-115.733018217484,4,1,0,60,0,0
1343586,-117.632016366194,4,1,0,60,0,0
1343684,272.727272727273,4,1,0,60,1,0
1343684,-113.636363636364,4,1,0,60,0,0
1343854,-115.551231371697,4,1,0,60,0,0
1343956,-116.731472088921,4,1,0,60,0,0
1344127,-118.753139536127,4,1,0,60,0,0
1344229,-120.000048000019,4,1,0,60,0,0
1344502,-123.456790123457,4,1,0,60,0,0
1344672,-125.720219708656,4,1,0,60,0,0
1344774,266.666666666667,4,1,0,60,1,0
1344774,-130.00764907226,4,1,0,60,0,0
1345040,-133.981797292567,4,1,0,60,0,0
1345307,-138.206388206388,4,1,0,60,0,0
1345574,-142.70606470331,4,1,0,60,0,0
1345740,-145.670422546519,4,1,0,60,0,0
1345840,260.869565217391,4,1,0,60,1,0
1345840,-150.78678578036,4,1,0,60,0,0
1346100,-156.037991858887,4,1,0,60,0,0
1346361,-161.668145344443,4,1,0,60,0,0
1346524,-165.398301402592,4,1,0,60,0,0
1346622,-167.720070244082,4,1,0,60,0,0
1346785,-161.290322580645,4,1,0,60,0,0
1346883,230.769230769231,4,1,0,60,1,0
1346883,-180.18018018018,4,1,0,60,0,0
1347113,-166.666666666667,4,1,0,60,0,0
1347344,-153.846153846154,4,1,0,60,0,0
1347575,-142.857142857143,4,1,0,60,0,0
1347806,246.913580246914,4,1,0,60,1,0
1348793,222.222222222222,4,1,0,60,1,1
1348793,-125,4,1,0,60,0,1
1349015,-124.423917263072,4,1,0,60,0,1
1349237,-123.853273503945,4,1,0,60,0,1
1349459,-123.287688121601,4,1,0,60,0,1
1349598,-122.936812936887,4,1,0,60,0,1
1349681,-122.727244834717,4,1,0,60,0,1
1349904,-122.171873835549,4,1,0,60,0,1
1350126,-121.621654492339,4,1,0,60,0,1
1350265,-121.280185122075,4,1,0,60,0,1
1350348,-121.076222325002,4,1,0,60,0,1
1350487,-120.737804576204,4,1,0,60,0,1
1350570,-120.535660475152,4,1,0,60,0,1
1350793,-120.000048000019,4,1,0,60,0,1
1351015,-119.469031834913,4,1,0,60,0,1
1351237,-118.942694599169,4,1,0,60,0,1
1351459,-118.421114958482,4,1,0,60,0,1
1351598,-118.097357099245,4,1,0,60,0,1
1351681,-117.903950725581,4,1,0,60,0,1
1351820,-117.583010665955,4,1,0,60,0,1
1351904,-117.391283931951,4,1,0,60,0,1
1352043,-117.073125044634,4,1,0,60,0,1
1352265,-116.567778334713,4,1,0,60,0,1
1352348,-116.379345459285,4,1,0,60,0,1
1352570,-115.879823352797,4,1,0,60,0,1
1352793,-115.384571005934,4,1,0,60,0,1
1353015,-114.893665912198,4,1,0,60,0,1
1353154,-114.588883732389,4,1,0,60,0,1
1353237,214.285714285714,4,1,0,60,1,1
1353237,-118.644077851193,4,1,0,60,0,1
1353451,-118.143430005883,4,1,0,60,0,1
1353665,-117.647123084563,4,1,0,60,0,1
1353799,-117.338960239358,4,1,0,60,0,1
1353879,-117.154836224861,4,1,0,60,0,1
1354013,-116.849243609807,4,1,0,60,0,1
1354094,-116.666652083335,4,1,0,60,0,1
1354308,-116.182519584742,4,1,0,60,0,1
1354522,-115.702517587609,4,1,0,60,0,1
1354737,-115.22633744856,4,1,0,60,0,1
1354951,200,4,1,0,60,1,0
1355751,197.82393669634,4,1,0,60,1,1
1355751,-111.111111111111,4,1,0,60,0,1
1362081,-99.9999999999999,4,1,0,60,0,1
1367620,-105.263157894737,4,1,0,60,0,0
1367818,-111.111111111111,4,1,0,60,0,0
1368016,-117.647058823529,4,1,0,60,0,0
1368213,-125,4,1,0,60,0,0
1368411,-111.111111111111,4,1,0,60,0,1
1374742,-99.9999999999999,4,1,0,60,0,1
1381072,-111.111111111111,4,1,0,60,0,0

[HitObjects]
256,192,5778,5,8,0:0:0:0:
256,192,6178,1,8,0:0:0:0:
256,192,6578,1,0,0:0:0:0:
256,192,7378,1,8,0:0:0:0:
256,192,8578,1,0,0:0:0:0:
256,192,8978,1,8,0:0:0:0:
256,192,9778,1,0,0:0:0:0:
256,192,10578,1,8,0:0:0:0:
256,192,11378,1,0,0:0:0:0:
256,192,12978,1,0,0:0:0:0:
256,192,13778,1,8,0:0:0:0:
256,192,14978,1,0,0:0:0:0:
256,192,15378,1,8,0:0:0:0:
256,192,16178,1,0,0:0:0:0:
256,192,16978,1,8,0:0:0:0:
256,192,17778,8,0,18978,0:0:0:0:
256,192,19378,5,4,0:0:0:0:
256,192,19978,1,0,0:0:0:0:
256,192,20178,1,8,0:0:0:0:
256,192,20578,1,0,0:0:0:0:
256,192,20778,1,0,0:0:0:0:
256,192,21178,1,8,0:0:0:0:
256,192,21378,1,0,0:0:0:0:
256,192,21778,1,8,0:0:0:0:
256,192,22578,1,0,0:0:0:0:
256,192,23178,1,0,0:0:0:0:
256,192,23378,1,8,0:0:0:0:
256,192,23778,1,0,0:0:0:0:
256,192,23978,1,0,0:0:0:0:
256,192,24378,1,8,0:0:0:0:
256,192,24578,1,0,0:0:0:0:
256,192,24778,1,0,0:0:0:0:
256,192,24978,1,8,0:0:0:0:
256,192,25778,1,4,0:0:0:0:
256,192,26378,1,0,0:0:0:0:
256,192,26578,1,8,0:0:0:0:
256,192,26978,1,0,0:0:0:0:
256,192,27178,1,0,0:0:0:0:
256,192,27578,1,8,0:0:0:0:
256,192,27778,1,0,0:0:0:0:
256,192,28978,1,0,0:0:0:0:
256,192,29578,1,0,0:0:0:0:
256,192,29778,1,8,0:0:0:0:
256,192,30178,1,0,0:0:0:0:
256,192,30378,1,0,0:0:0:0:
256,192,30778,1,8,0:0:0:0:
256,192,30978,1,0,0:0:0:0:
256,192,31178,1,0,0:0:0:0:
256,192,31378,1,8,0:0:0:0:
256,192,31778,1,8,0:0:0:0:
256,192,32178,1,0,0:0:0:0:
256,192,34178,1,0,0:0:0:0:
256,192,34578,1,8,0:0:0:0:
256,192,35378,1,0,0:0:0:0:
256,192,36178,1,8,0:0:0:0:
256,192,37378,1,0,0:0:0:0:
256,192,37778,1,8,0:0:0:0:
256,192,38178,1,8,0:0:0:0:
256,192,38578,1,0,0:0:0:0:
256,192,39378,1,8,0:0:0:0:
256,192,40578,1,0,0:0:0:0:
256,192,40978,1,8,0:0:0:0:
256,192,41778,1,0,0:0:0:0:
256,192,42578,1,8,0:0:0:0:
256,192,43778,1,0,0:0:0:0:
256,192,44044,1,0,0:0:0:0:
256,192,44178,1,8,0:0:0:0:
256,192,44978,1,0,0:0:0:0:
256,192,48178,1,0,0:0:0:0:
256,192,48978,1,8,0:0:0:0:
256,192,50578,1,8,0:0:0:0:
256,192,50978,1,0,0:0:0:0:
256,192,51378,1,0,0:0:0:0:
256,192,52178,1,8,0:0:0:0:
256,192,53778,1,8,0:0:0:0:
256,192,54578,1,0,0:0:0:0:
256,192,55378,1,8,0:0:0:0:
256,192,56978,1,8,0:0:0:0:
256,192,57378,1,8,0:0:0:0:
256,192,57778,1,4,0:0:0:0:
256,192,57978,1,8,0:0:0:0:
256,192,58178,1,8,0:0:0:0:
256,192,58378,1,0,0:0:0:0:
256,192,58478,1,0,0:0:0:0:
256,192,58578,1,8,0:0:0:0:
256,192,58778,1,0,0:0:0:0:
256,192,58978,1,8,0:0:0:0:
256,192,59378,1,0,0:0:0:0:
256,192,59478,1,8,0:0:0:0:
256,192,59578,1,0,0:0:0:0:
256,192,59778,1,8,0:0:0:0:
256,192,60178,1,8,0:0:0:0:
256,192,60978,1,0,0:0:0:0:
256,192,61178,1,8,0:0:0:0:
256,192,61278,1,8,0:0:0:0:
256,192,61378,1,0,0:0:0:0:
256,192,61578,1,0,0:0:0:0:
256,192,61778,1,8,0:0:0:0:
256,192,61978,1,0,0:0:0:0:
256,192,62178,1,8,0:0:0:0:
256,192,62578,1,0,0:0:0:0:
256,192,63978,1,0,0:0:0:0:
256,192,64028,1,0,0:0:0:0:
256,192,64078,1,0,0:0:0:0:
256,192,64128,1,0,0:0:0:0:
256,192,64178,1,12,0:0:0:0:
256,192,64578,1,0,0:0:0:0:
256,192,64778,1,0,0:0:0:0:
256,192,64978,1,8,0:0:0:0:
256,192,65378,1,0,0:0:0:0:
256,192,65778,1,8,0:0:0:0:
256,192,65978,1,0,0:0:0:0:
256,192,66178,1,8,0:0:0:0:
256,192,66278,1,8,0:0:0:0:
256,192,66378,1,0,0:0:0:0:
256,192,66478,1,0,0:0:0:0:
256,192,66578,1,8,0:0:0:0:
256,192,67378,1,0,0:0:0:0:
256,192,67578,1,8,0:0:0:0:
256,192,67778,1,8,0:0:0:0:
256,192,67978,1,0,0:0:0:0:
256,192,68078,1,0,0:0:0:0:
256,192,68178,1,8,0:0:0:0:
256,192,68378,1,8,0:0:0:0:
256,192,68478,1,8,0:0:0:0:
256,192,68578,1,0,0:0:0:0:
256,192,68778,1,8,0:0:0:0:
256,192,68978,8,0,70178,0:0:0:0:
256,192,70578,5,4,0:0:0:0:
256,192,71178,1,0,0:0:0:0:
256,192,71378,1,8,0:0:0:0:
256,192,71778,1,0,0:0:0:0:
256,192,71978,1,0,0:0:0:0:
256,192,72378,1,8,0:0:0:0:
256,192,72578,1,0,0:0:0:0:
256,192,72778,1,0,0:0:0:0:
256,192,72978,1,8,0:0:0:0:
256,192,73778,1,0,0:0:0:0:
256,192,74378,1,0,0:0:0:0:
256,192,74578,1,8,0:0:0:0:
256,192,74778,1,0,0:0:0:0:
256,192,74978,1,0,0:0:0:0:
256,192,75178,1,8,0:0:0:0:
256,192,75578,1,8,0:0:0:0:
256,192,75778,1,0,0:0:0:0:
256,192,75978,1,0,0:0:0:0:
256,192,76178,1,8,0:0:0:0:
256,192,76978,1,4,0:0:0:0:
256,192,77578,1,0,0:0:0:0:
256,192,77778,1,8,0:0:0:0:
256,192,78178,1,0,0:0:0:0:
256,192,78378,1,0,0:0:0:0:
256,192,78778,1,8,0:0:0:0:
256,192,78978,1,0,0:0:0:0:
256,192,79178,1,0,0:0:0:0:
256,192,79378,1,8,0:0:0:0:
256,192,80178,1,0,0:0:0:0:
256,192,80778,1,0,0:0:0:0:
256,192,80978,1,8,0:0:0:0:
256,192,81178,1,8,0:0:0:0:
256,192,81378,1,0,0:0:0:0:
256,192,81578,1,8,0:0:0:0:
256,192,81978,1,8,0:0:0:0:
256,192,82178,1,0,0:0:0:0:
256,192,82378,1,0,0:0:0:0:
256,192,82578,1,8,0:0:0:0:
256,192,82978,1,8,0:0:0:0:
256,192,83378,1,4,0:0:0:0:
256,192,84178,1,0,0:0:0:0:
256,192,84378,1,8,0:0:0:0:
256,192,84578,1,8,0:0:0:0:
256,192,84978,1,0,0:0:0:0:
256,192,86178,1,8,0:0:0:0:
256,192,86378,1,8,0:0:0:0:
256,192,86578,1,0,0:0:0:0:
256,192,86711,1,0,0:0:0:0:
256,192,86844,1,0,0:0:0:0:
256,192,86978,1,8,0:0:0:0:
256,192,87111,1,8,0:0:0:0:
256,192,87244,1,0,0:0:0:0:
256,192,87378,1,8,0:0:0:0:
256,192,87778,1,8,0:0:0:0:
256,192,88178,1,0,0:0:0:0:
256,192,88578,1,0,0:0:0:0:
256,192,88878,1,8,0:0:0:0:
256,192,88978,1,0,0:0:0:0:
256,192,89153,1,0,0:0:0:0:
256,192,89428,1,8,0:0:0:0:
256,192,89703,1,8,0:0:0:0:
256,192,89778,1,0,0:0:0:0:
256,192,90178,1,0,0:0:0:0:
256,192,90378,1,8,0:0:0:0:
256,192,90578,1,0,0:0:0:0:
256,192,90644,1,8,0:0:0:0:
256,192,90978,1,8,0:0:0:0:
256,192,91228,1,8,0:0:0:0:
256,192,91378,1,0,0:0:0:0:
256,192,92578,1,8,0:0:0:0:
256,192,92778,1,8,0:0:0:0:
256,192,92978,1,0,0:0:0:0:
256,192,93378,1,0,0:0:0:0:
256,192,93578,1,8,0:0:0:0:
256,192,93778,1,8,0:0:0:0:
256,192,93978,1,0,0:0:0:0:
256,192,94178,1,8,0:0:0:0:
256,192,94578,1,0,0:0:0:0:
256,192,94978,1,8,0:0:0:0:
256,192,95178,1,8,0:0:0:0:
256,192,95378,1,0,0:0:0:0:
256,192,95778,1,8,0:0:0:0:
256,192,95911,1,8,0:0:0:0:
256,192,96044,1,8,0:0:0:0:
256,192,96178,1,4,0:0:0:0:
256,192,99378,1,0,0:0:0:0:
256,192,99678,1,8,0:0:0:0:
256,192,99778,1,0,0:0:0:0:
256,192,99978,1,0,0:0:0:0:
256,192,100178,1,8,0:0:0:0:
256,192,100378,1,8,0:0:0:0:
256,192,100578,1,8,0:0:0:0:
256,192,100978,1,0,0:0:0:0:
256,192,101278,1,0,0:0:0:0:
256,192,101378,1,0,0:0:0:0:
256,192,101578,1,8,0:0:0:0:
256,192,101978,1,8,0:0:0:0:
256,192,102178,1,0,0:0:0:0:
256,192,102578,1,0,0:0:0:0:
256,192,102878,1,8,0:0:0:0:
256,192,102978,1,0,0:0:0:0:
256,192,103178,1,0,0:0:0:0:
256,192,103378,1,8,0:0:0:0:
256,192,103578,1,8,0:0:0:0:
256,192,103778,1,0,0:0:0:0:
256,192,104178,1,0,0:0:0:0:
256,192,104378,1,0,0:0:0:0:
256,192,104478,1,8,0:0:0:0:
256,192,104578,1,8,0:0:0:0:
256,192,104778,1,0,0:0:0:0:
256,192,104978,1,8,0:0:0:0:
256,192,105178,1,8,0:0:0:0:
256,192,105278,1,8,0:0:0:0:
256,192,105378,1,0,0:0:0:0:
256,192,105578,1,8,0:0:0:0:
256,192,105778,1,0,0:0:0:0:
256,192,106178,1,8,0:0:0:0:
256,192,106578,1,0,0:0:0:0:
256,192,106978,1,8,0:0:0:0:
256,192,107378,1,0,0:0:0:0:
256,192,107778,1,8,0:0:0:0:
256,192,108178,1,0,0:0:0:0:
256,192,108578,1,8,0:0:0:0:
256,192,108978,1,0,0:0:0:0:
256,192,109378,1,8,0:0:0:0:
256,192,109778,1,0,0:0:0:0:
256,192,110178,1,8,0:0:0:0:
256,192,110578,1,12,0:0:0:0:
256,192,110978,1,12,0:0:0:0:
256,192,111378,1,12,0:0:0:0:
256,192,111578,1,12,0:0:0:0:
256,192,111778,1,12,0:0:0:0:
256,192,111878,1,12,0:0:0:0:
256,192,111978,1,12,0:0:0:0:
256,192,112078,1,12,0:0:0:0:
256,192,112178,1,4,0:0:0:0:
256,192,112678,1,0,0:0:0:0:
256,192,112745,1,0,0:0:0:0:
256,192,112812,1,8,0:0:0:0:
256,192,112878,1,0,0:0:0:0:
256,192,112978,1,12,0:0:0:0:
256,192,113478,1,8,0:0:0:0:
256,192,113544,1,8,0:0:0:0:
256,192,113611,1,0,0:0:0:0:
256,192,113678,1,8,0:0:0:0:
256,192,113778,1,4,0:0:0:0:
256,192,114078,1,0,0:0:0:0:
256,192,114211,1,8,0:0:0:0:
256,192,114344,1,0,0:0:0:0:
256,192,114411,1,8,0:0:0:0:
256,192,114578,1,4,0:0:0:0:
256,192,114778,1,0,0:0:0:0:
256,192,114828,1,0,0:0:0:0:
256,192,114878,1,0,0:0:0:0:
256,192,114978,1,8,0:0:0:0:
256,192,115044,1,8,0:0:0:0:
256,192,115111,1,8,0:0:0:0:
256,192,115178,1,8,0:0:0:0:
256,192,115244,1,8,0:0:0:0:
256,192,115378,1,4,0:0:0:0:
256,192,115878,1,0,0:0:0:0:
256,192,115945,1,8,0:0:0:0:
256,192,116012,1,8,0:0:0:0:
256,192,116078,1,0,0:0:0:0:
256,192,116178,1,12,0:0:0:0:
256,192,116678,1,8,0:0:0:0:
256,192,116745,1,0,0:0:0:0:
256,192,116812,1,0,0:0:0:0:
256,192,116878,1,8,0:0:0:0:
256,192,116978,1,4,0:0:0:0:
256,192,117478,1,8,0:0:0:0:
256,192,117544,1,8,0:0:0:0:
256,192,117611,1,8,0:0:0:0:
256,192,117678,1,8,0:0:0:0:
256,192,117778,1,0,0:0:0:0:
256,192,117978,1,0,0:0:0:0:
256,192,118178,1,8,0:0:0:0:
256,192,118378,1,0,0:0:0:0:
256,192,118578,1,4,0:0:0:0:
256,192,118978,1,0,0:0:0:0:
256,192,119028,1,0,0:0:0:0:
256,192,119078,1,8,0:0:0:0:
256,192,119378,1,12,0:0:0:0:
256,192,119778,1,8,0:0:0:0:
256,192,119828,1,8,0:0:0:0:
256,192,119878,1,8,0:0:0:0:
256,192,119928,1,8,0:0:0:0:
256,192,119978,1,8,0:0:0:0:
256,192,120028,1,8,0:0:0:0:
256,192,120078,1,8,0:0:0:0:
256,192,120178,1,4,0:0:0:0:
256,192,120678,1,0,0:0:0:0:
256,192,120744,1,0,0:0:0:0:
256,192,120811,1,8,0:0:0:0:
256,192,120878,1,0,0:0:0:0:
256,192,120978,1,12,0:0:0:0:
256,192,121378,8,0,121578,0:0:0:0:
256,192,121778,5,4,0:0:0:0:
256,192,122178,1,8,0:0:0:0:
256,192,122444,1,8,0:0:0:0:
256,192,122578,1,4,0:0:0:0:
256,192,122844,1,0,0:0:0:0:
256,192,122978,1,8,0:0:0:0:
256,192,123111,1,0,0:0:0:0:
256,192,123378,1,4,0:0:0:0:
256,192,123878,1,8,0:0:0:0:
256,192,123944,1,0,0:0:0:0:
256,192,124011,1,0,0:0:0:0:
256,192,124078,1,8,0:0:0:0:
256,192,124178,1,4,0:0:0:0:
256,192,124378,1,8,0:0:0:0:
256,192,124578,1,0,0:0:0:0:
256,192,124628,1,8,0:0:0:0:
256,192,124678,1,8,0:0:0:0:
256,192,124728,1,0,0:0:0:0:
256,192,124978,1,4,0:0:0:0:
256,192,125178,1,8,0:0:0:0:
256,192,125478,1,0,0:0:0:0:
256,192,125545,1,0,0:0:0:0:
256,192,125611,1,8,0:0:0:0:
256,192,125678,1,0,0:0:0:0:
256,192,125778,1,12,0:0:0:0:
256,192,125978,1,0,0:0:0:0:
256,192,126278,1,8,0:0:0:0:
256,192,126345,1,8,0:0:0:0:
256,192,126412,1,0,0:0:0:0:
256,192,126478,1,8,0:0:0:0:
256,192,126578,1,4,0:0:0:0:
256,192,126778,1,8,0:0:0:0:
256,192,127078,1,0,0:0:0:0:
256,192,127145,1,0,0:0:0:0:
256,192,127212,1,0,0:0:0:0:
256,192,127278,1,8,0:0:0:0:
256,192,127378,1,4,0:0:0:0:
256,192,127778,1,8,0:0:0:0:
256,192,127978,1,8,0:0:0:0:
256,192,128178,1,4,0:0:0:0:
256,192,128378,1,8,0:0:0:0:
256,192,128678,1,0,0:0:0:0:
256,192,128745,1,8,0:0:0:0:
256,192,128811,1,8,0:0:0:0:
256,192,128878,1,0,0:0:0:0:
256,192,128978,1,12,0:0:0:0:
256,192,129178,1,0,0:0:0:0:
256,192,129478,1,8,0:0:0:0:
256,192,129544,1,0,0:0:0:0:
256,192,129611,1,0,0:0:0:0:
256,192,129678,1,8,0:0:0:0:
256,192,129778,1,4,0:0:0:0:
256,192,129978,1,8,0:0:0:0:
256,192,130278,1,8,0:0:0:0:
256,192,130345,1,8,0:0:0:0:
256,192,130412,1,8,0:0:0:0:
256,192,130478,1,8,0:0:0:0:
256,192,130578,1,0,0:0:0:0:
256,192,130778,1,0,0:0:0:0:
256,192,130978,1,8,0:0:0:0:
256,192,131178,1,0,0:0:0:0:
256,192,131378,1,4,0:0:0:0:
256,192,131778,8,0,131978,0:0:0:0:
256,192,132178,5,12,0:0:0:0:
256,192,132578,2,4,L|352:192,2,70
256,192,132978,1,4,0:0:0:0:
256,192,133378,1,8,0:0:0:0:
256,192,133428,1,8,0:0:0:0:
256,192,133578,1,8,0:0:0:0:
256,192,133628,1,8,0:0:0:0:
256,192,133778,1,4,0:0:0:0:
256,192,133978,1,0,0:0:0:0:
256,192,134178,1,8,0:0:0:0:
256,192,134244,1,8,0:0:0:0:
256,192,134311,1,8,0:0:0:0:
256,192,134378,1,8,0:0:0:0:
256,192,134444,1,8,0:0:0:0:
256,192,134578,1,4,0:0:0:0:
256,192,134978,1,0,0:0:0:0:
256,192,135044,1,8,0:0:0:0:
256,192,135378,1,12,0:0:0:0:
256,192,135778,1,8,0:0:0:0:
256,192,135828,1,0,0:0:0:0:
256,192,136178,1,4,0:0:0:0:
256,192,136578,1,0,0:0:0:0:
256,192,136644,1,0,0:0:0:0:
256,192,136711,1,8,0:0:0:0:
256,192,136778,1,8,0:0:0:0:
256,192,136828,1,0,0:0:0:0:
256,192,136878,1,0,0:0:0:0:
256,192,136978,1,12,0:0:0:0:
256,192,137378,1,0,0:0:0:0:
256,192,137578,1,8,0:0:0:0:
256,192,137920,1,8,0:0:0:0:
256,192,138263,1,8,0:0:0:0:
256,192,138606,1,8,0:0:0:0:
256,192,138949,1,8,0:0:0:0:
256,192,139301,1,8,0:0:0:0:
256,192,139688,1,8,0:0:0:0:
256,192,140233,1,8,0:0:0:0:
256,192,141564,1,0,0:0:0:0:
256,192,142511,1,8,0:0:0:0:
256,192,144090,1,8,0:0:0:0:
256,192,145037,1,0,0:0:0:0:
256,192,145985,1,0,0:0:0:0:
256,192,146300,1,8,0:0:0:0:
256,192,146616,1,0,0:0:0:0:
256,192,147564,1,8,0:0:0:0:
256,192,149142,1,8,0:0:0:0:
256,192,150069,1,0,0:0:0:0:
256,192,151580,2,0,L|320:192,2,35
256,192,152186,1,8,0:0:0:0:
256,192,152489,2,0,L|320:192,2,35
256,192,153398,1,8,0:0:0:0:
256,192,154004,2,0,L|320:192,2,35
256,192,154610,1,8,0:0:0:0:
256,192,154913,2,0,L|320:192,2,35
256,192,155822,1,8,0:0:0:0:
256,192,156125,1,8,0:0:0:0:
256,192,156276,1,8,0:0:0:0:
256,192,156428,2,0,L|320:192,1,35
256,192,156731,1,0,0:0:0:0:
256,192,157034,1,8,0:0:0:0:
256,192,157337,2,0,L|320:192,2,35
256,192,158246,1,8,0:0:0:0:
256,192,158852,2,0,L|320:192,2,35
256,192,159458,1,8,0:0:0:0:
256,192,159761,2,0,L|320:192,1,35
256,192,160064,1,8,0:0:0:0:
256,192,160266,1,0,0:0:0:0:
256,192,160367,1,8,0:0:0:0:
256,192,160468,1,8,0:0:0:0:
256,192,160670,1,0,0:0:0:0:
256,192,160872,1,8,0:0:0:0:
256,192,160936,1,0,0:0:0:0:
256,192,161087,1,0,0:0:0:0:
256,192,161276,1,4,0:0:0:0:
256,192,161883,1,8,0:0:0:0:
256,192,162186,1,4,0:0:0:0:
256,192,163095,1,8,0:0:0:0:
256,192,163701,1,4,0:0:0:0:
256,192,164307,1,8,0:0:0:0:
256,192,164610,1,4,0:0:0:0:
256,192,165216,1,0,0:0:0:0:
256,192,165519,1,8,0:0:0:0:
256,192,166125,1,4,0:0:0:0:
256,192,166731,1,8,0:0:0:0:
256,192,167034,1,4,0:0:0:0:
256,192,167943,1,8,0:0:0:0:
256,192,168549,1,4,0:0:0:0:
256,192,169155,1,8,0:0:0:0:
256,192,169458,1,4,0:0:0:0:
256,192,170973,1,4,0:0:0:0:
256,192,171276,1,8,0:0:0:0:
256,192,171428,1,8,0:0:0:0:
256,192,171580,1,0,0:0:0:0:
256,192,171655,1,8,0:0:0:0:
256,192,171731,1,8,0:0:0:0:
256,192,171883,1,4,0:0:0:0:
256,192,172186,1,8,0:0:0:0:
256,192,172337,1,0,0:0:0:0:
256,192,172489,1,8,0:0:0:0:
256,192,172640,1,8,0:0:0:0:
256,192,172792,1,0,0:0:0:0:
256,192,172867,1,8,0:0:0:0:
256,192,172943,1,0,0:0:0:0:
256,192,173095,1,8,0:0:0:0:
256,192,173246,1,8,0:0:0:0:
256,192,173398,1,4,0:0:0:0:
256,192,173852,1,0,0:0:0:0:
256,192,174004,1,8,0:0:0:0:
256,192,174307,1,4,0:0:0:0:
256,192,174610,1,8,0:0:0:0:
256,192,174761,1,8,0:0:0:0:
256,192,174913,1,4,0:0:0:0:
256,192,175216,1,8,0:0:0:0:
256,192,175292,1,8,0:0:0:0:
256,192,175367,1,8,0:0:0:0:
256,192,175595,1,8,0:0:0:0:
256,192,175708,1,0,0:0:0:0:
256,192,175822,1,4,0:0:0:0:
256,192,176125,1,0,0:0:0:0:
256,192,176276,1,0,0:0:0:0:
256,192,176428,1,8,0:0:0:0:
256,192,176504,1,8,0:0:0:0:
256,192,176580,1,0,0:0:0:0:
256,192,176731,1,4,0:0:0:0:
256,192,177034,1,8,0:0:0:0:
256,192,177186,1,8,0:0:0:0:
256,192,177337,1,0,0:0:0:0:
256,192,177489,1,8,0:0:0:0:
256,192,177640,1,0,0:0:0:0:
256,192,177716,1,0,0:0:0:0:
256,192,177792,1,0,0:0:0:0:
256,192,177943,1,8,0:0:0:0:
256,192,178246,1,4,0:0:0:0:
256,192,178549,1,8,0:0:0:0:
256,192,178701,1,0,0:0:0:0:
256,192,178852,1,8,0:0:0:0:
256,192,178928,1,8,0:0:0:0:
256,192,179004,1,8,0:0:0:0:
256,192,179155,1,4,0:0:0:0:
256,192,179458,1,8,0:0:0:0:
256,192,179610,1,8,0:0:0:0:
256,192,179761,1,4,0:0:0:0:
256,192,179913,1,0,0:0:0:0:
256,192,180064,1,8,0:0:0:0:
256,192,180367,1,0,0:0:0:0:
256,192,180519,1,8,0:0:0:0:
256,192,180670,1,0,0:0:0:0:
256,192,181580,1,8,0:0:0:0:
256,192,183095,1,8,0:0:0:0:
256,192,184004,1,0,0:0:0:0:
256,192,184913,1,0,0:0:0:0:
256,192,185115,1,8,0:0:0:0:
256,192,185317,1,0,0:0:0:0:
256,192,185519,1,0,0:0:0:0:
256,192,186428,1,8,0:0:0:0:
256,192,187943,1,8,0:0:0:0:
256,192,188852,1,0,0:0:0:0:
256,192,190367,2,0,L|320:192,2,35
256,192,190973,1,8,0:0:0:0:
256,192,191276,2,0,L|320:192,2,35
256,192,192186,1,8,0:0:0:0:
256,192,192792,2,0,L|320:192,2,35
256,192,193398,1,8,0:0:0:0:
256,192,193701,2,0,L|320:192,2,35
256,192,194610,1,8,0:0:0:0:
256,192,194913,1,8,0:0:0:0:
256,192,195064,1,8,0:0:0:0:
256,192,195216,2,0,L|320:192,1,35
256,192,195519,1,0,0:0:0:0:
256,192,195822,1,8,0:0:0:0:
256,192,196125,2,0,L|320:192,2,35
256,192,197034,1,8,0:0:0:0:
256,192,197640,2,0,L|320:192,2,35
256,192,198246,1,8,0:0:0:0:
256,192,198549,2,0,L|320:192,1,35
256,192,198852,1,0,0:0:0:0:
256,192,199054,1,8,0:0:0:0:
256,192,199256,1,8,0:0:0:0:
256,192,199458,1,0,0:0:0:0:
256,192,199660,1,0,0:0:0:0:
256,192,199862,1,8,0:0:0:0:
256,192,200064,1,4,0:0:0:0:
256,192,200670,1,8,0:0:0:0:
256,192,200973,1,4,0:0:0:0:
256,192,201883,1,8,0:0:0:0:
256,192,202489,1,4,0:0:0:0:
256,192,203095,1,8,0:0:0:0:
256,192,203398,1,4,0:0:0:0:
256,192,204004,1,0,0:0:0:0:
256,192,204307,1,8,0:0:0:0:
256,192,204913,1,4,0:0:0:0:
256,192,205519,1,8,0:0:0:0:
256,192,205822,1,4,0:0:0:0:
256,192,206731,1,8,0:0:0:0:
256,192,207337,1,4,0:0:0:0:
256,192,207943,1,8,0:0:0:0:
256,192,208246,1,4,0:0:0:0:
256,192,208549,1,8,0:0:0:0:
256,192,208751,1,0,0:0:0:0:
256,192,208852,1,8,0:0:0:0:
256,192,208953,1,0,0:0:0:0:
256,192,209155,1,8,0:0:0:0:
256,192,209357,1,0,0:0:0:0:
256,192,209420,1,8,0:0:0:0:
256,192,209559,1,0,0:0:0:0:
256,192,209761,1,4,0:0:0:0:
256,192,211580,1,8,0:0:0:0:
256,192,212186,1,4,0:0:0:0:
256,192,212489,1,8,0:0:0:0:
256,192,212640,1,0,0:0:0:0:
256,192,212792,1,8,0:0:0:0:
256,192,212867,1,0,0:0:0:0:
256,192,212943,1,0,0:0:0:0:
256,192,213095,1,4,0:0:0:0:
256,192,213398,1,0,0:0:0:0:
256,192,213549,1,8,0:0:0:0:
256,192,213701,1,4,0:0:0:0:
256,192,213852,1,0,0:0:0:0:
256,192,214004,1,8,0:0:0:0:
256,192,214080,1,8,0:0:0:0:
256,192,214155,1,8,0:0:0:0:
256,192,214383,1,8,0:0:0:0:
256,192,214496,1,0,0:0:0:0:
256,192,214610,1,4,0:0:0:0:
256,192,214913,1,0,0:0:0:0:
256,192,215064,1,0,0:0:0:0:
256,192,215216,1,8,0:0:0:0:
256,192,215292,1,8,0:0:0:0:
256,192,215368,1,0,0:0:0:0:
256,192,215519,1,4,0:0:0:0:
256,192,215822,1,8,0:0:0:0:
256,192,215974,1,8,0:0:0:0:
256,192,216125,1,0,0:0:0:0:
256,192,216277,1,8,0:0:0:0:
256,192,216428,1,0,0:0:0:0:
256,192,216504,1,0,0:0:0:0:
256,192,216580,1,0,0:0:0:0:
256,192,216731,1,8,0:0:0:0:
256,192,217034,1,4,0:0:0:0:
256,192,217337,1,8,0:0:0:0:
256,192,217489,1,0,0:0:0:0:
256,192,217640,1,8,0:0:0:0:
256,192,217716,1,8,0:0:0:0:
256,192,217792,1,8,0:0:0:0:
256,192,217943,1,4,0:0:0:0:
256,192,218246,1,8,0:0:0:0:
256,192,218398,1,8,0:0:0:0:
256,192,218549,1,4,0:0:0:0:
256,192,218701,1,0,0:0:0:0:
256,192,218852,1,8,0:0:0:0:
256,192,219155,1,0,0:0:0:0:
256,192,219307,1,8,0:0:0:0:
256,192,219458,1,4,0:0:0:0:
256,192,219761,1,8,0:0:0:0:
256,192,219913,1,0,0:0:0:0:
256,192,220064,1,8,0:0:0:0:
256,192,220140,1,0,0:0:0:0:
256,192,220216,1,8,0:0:0:0:
256,192,220367,1,4,0:0:0:0:
256,192,220670,1,0,0:0:0:0:
256,192,220822,1,8,0:0:0:0:
256,192,220973,1,0,0:0:0:0:
256,192,221125,1,0,0:0:0:0:
256,192,221276,1,8,0:0:0:0:
256,192,221352,1,8,0:0:0:0:
256,192,221428,1,0,0:0:0:0:
256,192,221580,1,8,0:0:0:0:
256,192,221883,1,4,0:0:0:0:
256,192,222337,1,0,0:0:0:0:
256,192,222489,1,8,0:0:0:0:
256,192,222792,1,4,0:0:0:0:
256,192,223095,1,8,0:0:0:0:
256,192,223246,1,8,0:0:0:0:
256,192,223398,1,0,0:0:0:0:
256,192,223701,1,8,0:0:0:0:
256,192,224080,1,0,0:0:0:0:
256,192,224193,1,8,0:0:0:0:
256,192,224307,1,4,0:0:0:0:
256,192,224610,1,8,0:0:0:0:
256,192,224761,1,8,0:0:0:0:
256,192,224913,1,0,0:0:0:0:
256,192,224989,1,8,0:0:0:0:
256,192,225064,1,8,0:0:0:0:
256,192,225216,1,4,0:0:0:0:
256,192,225519,1,0,0:0:0:0:
256,192,225670,1,8,0:0:0:0:
256,192,225822,1,8,0:0:0:0:
256,192,225973,1,0,0:0:0:0:
256,192,226125,1,8,0:0:0:0:
256,192,226201,1,0,0:0:0:0:
256,192,226276,1,0,0:0:0:0:
256,192,226428,1,0,0:0:0:0:
256,192,226580,1,8,0:0:0:0:
256,192,226731,1,4,0:0:0:0:
256,192,227034,1,0,0:0:0:0:
256,192,227186,1,0,0:0:0:0:
256,192,227337,1,8,0:0:0:0:
256,192,227413,1,0,0:0:0:0:
256,192,227489,1,8,0:0:0:0:
256,192,227640,1,4,0:0:0:0:
256,192,227943,1,8,0:0:0:0:
256,192,228095,1,8,0:0:0:0:
256,192,228246,1,0,0:0:0:0:
256,192,228549,1,8,0:0:0:0:
256,192,228625,1,8,0:0:0:0:
256,192,228701,1,8,0:0:0:0:
256,192,228852,1,0,0:0:0:0:
256,192,229004,1,8,0:0:0:0:
256,192,229155,1,0,0:0:0:0:
256,192,230064,1,8,0:0:0:0:
256,192,231580,1,8,0:0:0:0:
256,192,232489,1,0,0:0:0:0:
256,192,233436,1,0,0:0:0:0:
256,192,233625,1,0,0:0:0:0:
256,192,233852,1,8,0:0:0:0:
256,192,234004,1,0,0:0:0:0:
256,192,234913,1,8,0:0:0:0:
256,192,236428,1,8,0:0:0:0:
256,192,237337,1,0,0:0:0:0:
256,192,238852,6,4,L|416:192,28,140
256,192,243701,5,4,0:0:0:0:
256,192,244307,8,0,244458,0:0:0:0:
256,192,244610,5,4,0:0:0:0:
256,192,245140,2,4,B|448:192|448:192|448:64|448:64|256:64,1,481.25
256,192,246125,1,4,0:0:0:0:
256,192,246731,8,0,246883,0:0:0:0:
256,192,247034,5,4,0:0:0:0:
256,192,247413,8,0,247489,0:0:0:0:
256,192,247640,5,4,0:0:0:0:
256,192,248019,2,4,B|448:192|448:192|448:256,1,218.75
256,192,248549,1,4,0:0:0:0:
256,192,249155,8,0,249307,0:0:0:0:
256,192,249458,5,4,0:0:0:0:
256,192,250216,2,4,L|352:192,4,87.5
256,192,250973,1,4,0:0:0:0:
256,192,251580,8,0,251731,0:0:0:0:
256,192,251883,5,4,0:0:0:0:
256,192,252337,8,0,252413,0:0:0:0:
256,192,252489,5,4,0:0:0:0:
256,192,252943,8,0,253170,0:0:0:0:
256,192,253398,5,8,0:0:0:0:
256,192,256958,1,0,0:0:0:0:
256,192,257185,1,8,0:0:0:0:
256,192,257412,1,0,0:0:0:0:
256,192,257639,1,8,0:0:0:0:
256,192,258033,1,0,0:0:0:0:
256,192,258200,1,8,0:0:0:0:
256,192,259964,1,8,0:0:0:0:
256,192,260357,1,0,0:0:0:0:
256,192,263756,1,0,0:0:0:0:
256,192,263983,1,0,0:0:0:0:
256,192,264210,1,8,0:0:0:0:
256,192,264437,1,8,0:0:0:0:
256,192,264892,1,0,0:0:0:0:
256,192,265119,1,8,0:0:0:0:
256,192,267196,8,0,268683,0:0:0:0:
256,192,268948,8,0,269585,0:0:0:0:
256,192,270674,5,4,0:0:0:0:
256,192,271529,1,12,0:0:0:0:
256,192,271957,1,12,0:0:0:0:
256,192,272385,1,4,0:0:0:0:
256,192,274097,1,4,0:0:0:0:
256,192,274739,1,4,0:0:0:0:
256,192,274953,1,12,0:0:0:0:
256,192,275381,1,12,0:0:0:0:
256,192,275809,1,4,0:0:0:0:
256,192,276665,1,8,0:0:0:0:
256,192,277521,1,4,0:0:0:0:
256,192,278377,1,12,0:0:0:0:
256,192,278805,1,12,0:0:0:0:
256,192,279233,1,4,0:0:0:0:
256,192,280089,1,8,0:0:0:0:
256,192,280731,1,4,0:0:0:0:
256,192,280945,1,12,0:0:0:0:
256,192,281586,1,12,0:0:0:0:
256,192,281800,1,12,0:0:0:0:
256,192,282228,1,12,0:0:0:0:
256,192,282656,1,4,0:0:0:0:
256,192,283512,1,8,0:0:0:0:
256,192,283726,1,0,0:0:0:0:
256,192,283887,1,0,0:0:0:0:
256,192,284021,1,8,0:0:0:0:
256,192,284154,1,8,0:0:0:0:
256,192,284368,1,4,0:0:0:0:
256,192,284582,1,4,0:0:0:0:
256,192,284796,1,4,0:0:0:0:
256,192,285224,1,8,0:0:0:0:
256,192,285652,1,4,0:0:0:0:
256,192,286508,1,0,0:0:0:0:
256,192,286936,1,8,0:0:0:0:
256,192,287792,1,4,0:0:0:0:
256,192,288434,1,0,0:0:0:0:
256,192,288648,1,8,0:0:0:0:
256,192,289076,1,4,0:0:0:0:
256,192,289932,1,0,0:0:0:0:
256,192,290360,1,8,0:0:0:0:
256,192,290574,1,0,0:0:0:0:
256,192,290788,1,8,0:0:0:0:
256,192,291216,1,4,0:0:0:0:
256,192,292072,1,8,0:0:0:0:
256,192,292499,1,4,0:0:0:0:
256,192,293355,1,0,0:0:0:0:
256,192,293783,1,8,0:0:0:0:
256,192,293997,1,0,0:0:0:0:
256,192,294639,1,4,0:0:0:0:
256,192,295281,1,0,0:0:0:0:
256,192,295495,1,8,0:0:0:0:
256,192,295923,1,4,0:0:0:0:
256,192,296779,1,0,0:0:0:0:
256,192,297207,1,8,0:0:0:0:
256,192,297635,8,0,297849,0:0:0:0:
256,192,298063,5,4,0:0:0:0:
256,192,298491,1,0,0:0:0:0:
256,192,298919,1,8,0:0:0:0:
256,192,299347,1,4,0:0:0:0:
256,192,299775,1,0,0:0:0:0:
256,192,300203,1,8,0:0:0:0:
256,192,300345,1,0,0:0:0:0:
256,192,300488,1,0,0:0:0:0:
256,192,300631,1,8,0:0:0:0:
256,192,301273,1,8,0:0:0:0:
256,192,301487,1,4,0:0:0:0:
256,192,301915,1,0,0:0:0:0:
256,192,302129,1,0,0:0:0:0:
256,192,302343,1,8,0:0:0:0:
256,192,302771,1,4,0:0:0:0:
256,192,303198,1,0,0:0:0:0:
256,192,303626,1,0,0:0:0:0:
256,192,303769,1,0,0:0:0:0:
256,192,303912,1,0,0:0:0:0:
256,192,304054,1,8,0:0:0:0:
256,192,304268,1,4,0:0:0:0:
256,192,304482,1,8,0:0:0:0:
256,192,304910,1,4,0:0:0:0:
256,192,305338,1,0,0:0:0:0:
256,192,305766,1,8,0:0:0:0:
256,192,306194,1,4,0:0:0:0:
256,192,306622,1,0,0:0:0:0:
256,192,307050,1,0,0:0:0:0:
256,192,307193,1,8,0:0:0:0:
256,192,307335,1,8,0:0:0:0:
256,192,307478,1,8,0:0:0:0:
256,192,307692,1,4,0:0:0:0:
256,192,307906,1,8,0:0:0:0:
256,192,308334,1,4,0:0:0:0:
256,192,308762,1,8,0:0:0:0:
256,192,308976,1,8,0:0:0:0:
256,192,309190,1,4,0:0:0:0:
256,192,309618,1,12,0:0:0:0:
256,192,310046,1,4,0:0:0:0:
256,192,310902,8,0,311544,0:0:0:0:
256,192,318605,5,0,0:0:0:0:
256,192,319889,1,0,0:0:0:0:
256,192,322029,8,0,323313,0:0:0:0:
256,192,323741,5,0,0:0:0:0:
256,192,323883,1,0,0:0:0:0:
256,192,324026,1,0,0:0:0:0:
256,192,324169,1,8,0:0:0:0:
256,192,324311,1,0,0:0:0:0:
256,192,324454,1,0,0:0:0:0:
256,192,324596,1,8,0:0:0:0:
256,192,324739,1,8,0:0:0:0:
256,192,324882,1,0,0:0:0:0:
256,192,325024,1,8,0:0:0:0:
256,192,325167,1,8,0:0:0:0:
256,192,325310,1,8,0:0:0:0:
256,192,325452,1,4,0:0:0:0:
256,192,326308,1,8,0:0:0:0:
256,192,326736,1,4,0:0:0:0:
256,192,327592,1,0,0:0:0:0:
256,192,328876,1,4,0:0:0:0:
256,192,329518,1,0,0:0:0:0:
256,192,329732,1,8,0:0:0:0:
256,192,330160,1,4,0:0:0:0:
256,192,330588,1,8,0:0:0:0:
256,192,331016,1,0,0:0:0:0:
256,192,331444,1,8,0:0:0:0:
256,192,331658,1,0,0:0:0:0:
256,192,331872,1,8,0:0:0:0:
256,192,332300,1,4,0:0:0:0:
256,192,333156,1,8,0:0:0:0:
256,192,333584,1,4,0:0:0:0:
256,192,334440,1,0,0:0:0:0:
256,192,334868,1,8,0:0:0:0:
256,192,335081,1,0,0:0:0:0:
256,192,335723,1,4,0:0:0:0:
256,192,336365,1,0,0:0:0:0:
256,192,336579,1,8,0:1:0:0:
256,192,337007,1,4,0:0:0:0:
256,192,337863,1,0,0:0:0:0:
256,192,338291,1,8,0:0:0:0:
256,192,338505,1,0,0:0:0:0:
256,192,339147,12,0,339254,0:0:0:0:
256,192,342571,5,4,0:0:0:0:
256,192,343213,1,0,0:0:0:0:
256,192,343427,1,8,0:0:0:0:
256,192,343855,1,4,0:0:0:0:
256,192,344283,1,8,0:0:0:0:
256,192,344497,1,0,0:0:0:0:
256,192,344711,1,4,0:0:0:0:
256,192,345139,1,8,0:0:0:0:
256,192,345353,1,4,0:0:0:0:
256,192,345994,1,4,0:0:0:0:
256,192,346422,1,8,0:0:0:0:
256,192,346636,1,8,0:0:0:0:
256,192,346850,1,0,0:0:0:0:
256,192,347064,1,8,0:0:0:0:
256,192,347278,1,4,0:0:0:0:
256,192,347706,1,0,0:0:0:0:
256,192,347920,1,8,0:0:0:0:
256,192,348134,1,4,0:0:0:0:
256,192,348562,1,8,0:0:0:0:
256,192,348776,1,4,0:0:0:0:
256,192,349418,1,4,0:0:0:0:
256,192,350060,1,0,0:0:0:0:
256,192,350274,1,8,0:0:0:0:
256,192,350702,1,4,0:0:0:0:
256,192,351130,1,8,0:0:0:0:
256,192,351344,1,8,0:0:0:0:
256,192,351558,1,4,0:0:0:0:
256,192,351986,1,8,0:0:0:0:
256,192,356987,12,0,359562,0:0:0:0:
256,192,360077,5,12,0:0:0:0:
256,192,361107,1,4,0:0:0:0:
256,192,362137,1,8,0:0:0:0:
256,192,363167,1,4,0:0:0:0:
256,192,363682,1,0,0:0:0:0:
256,192,364197,1,8,0:0:0:0:
256,192,365227,1,4,0:0:0:0:
256,192,366257,1,8,0:0:0:0:
256,192,366772,1,8,0:0:0:0:
256,192,367287,1,4,0:0:0:0:
256,192,367802,1,0,0:0:0:0:
256,192,368317,1,8,0:0:0:0:
256,192,369347,1,4,0:0:0:0:
256,192,370377,1,8,0:0:0:0:
256,192,371407,1,4,0:0:0:0:
256,192,371922,1,0,0:0:0:0:
256,192,372437,1,8,0:0:0:0:
256,192,373467,1,4,0:0:0:0:
256,192,374497,1,8,0:0:0:0:
256,192,375012,1,8,0:0:0:0:
256,192,375527,1,4,0:0:0:0:
256,192,376042,1,0,0:0:0:0:
256,192,376557,1,8,0:0:0:0:
256,192,377072,1,0,0:0:0:0:
256,192,377330,1,8,0:0:0:0:
256,192,377587,1,4,0:0:0:0:
256,192,378617,1,8,0:0:0:0:
256,192,379132,1,4,0:0:0:0:
256,192,379647,1,4,0:0:0:0:
256,192,380162,1,0,0:0:0:0:
256,192,380677,1,8,0:0:0:0:
256,192,381707,1,4,0:0:0:0:
256,192,382737,1,8,0:0:0:0:
256,192,383252,1,4,0:0:0:0:
256,192,383767,1,4,0:0:0:0:
256,192,384282,1,0,0:0:0:0:
256,192,384797,1,8,0:0:0:0:
256,192,385828,1,12,0:0:0:0:
256,192,387888,1,0,0:0:0:0:
256,192,396360,5,8,0:0:0:0:
256,192,396712,1,8,0:0:0:0:
256,192,396889,1,0,0:0:0:0:
256,192,397065,1,8,0:0:0:0:
256,192,397992,1,8,0:0:0:0:
256,192,398323,1,8,0:0:0:0:
256,192,400062,1,0,0:0:0:0:
256,192,400414,1,8,0:0:0:0:
256,192,400763,1,0,0:0:0:0:
256,192,400935,1,8,0:0:0:0:
256,192,401279,1,8,0:0:0:0:
256,192,401606,1,0,0:0:0:0:
256,192,401766,1,8,0:0:0:0:
256,192,402110,1,8,0:0:0:0:
256,192,402434,1,8,0:0:0:0:
256,192,402596,1,0,0:0:0:0:
256,192,402758,1,8,0:0:0:0:
256,192,403082,1,0,0:0:0:0:
256,192,404300,8,0,405504,0:0:0:0:
256,192,405905,5,0,0:0:0:0:
256,192,406405,1,8,0:0:0:0:
256,192,407905,1,0,0:0:0:0:
256,192,408705,1,8,0:0:0:0:
256,192,409205,1,8,0:0:0:0:
256,192,409363,1,8,0:0:0:0:
256,192,409522,1,8,0:0:0:0:
256,192,411008,1,0,0:0:0:0:
256,192,412291,8,0,415448,0:0:0:0:
256,192,415900,5,8,0:0:0:0:
256,192,416059,1,0,0:0:0:0:
256,192,416219,1,8,0:0:0:0:
256,192,418486,1,0,0:0:0:0:
256,192,418652,1,0,0:0:0:0:
256,192,418819,1,0,0:0:0:0:
256,192,418986,1,8,0:0:0:0:
256,192,419298,1,0,0:0:0:0:
256,192,419611,1,8,0:0:0:0:
256,192,419930,1,8,0:0:0:0:
256,192,420249,1,0,0:0:0:0:
256,192,420938,1,8,0:0:0:0:
256,192,421173,1,0,0:0:0:0:
256,192,421327,1,8,0:0:0:0:
256,192,421504,1,4,0:0:0:0:
256,192,421830,1,0,0:0:0:0:
256,192,422156,1,8,0:0:0:0:
256,192,422478,1,8,0:0:0:0:
256,192,422801,1,0,0:0:0:0:
256,192,423426,1,8,0:0:0:0:
256,192,423671,1,0,0:0:0:0:
256,192,423830,1,8,0:0:0:0:
256,192,424014,1,0,0:0:0:0:
256,192,424326,1,8,0:0:0:0:
256,192,424639,1,0,0:0:0:0:
256,192,424954,1,8,0:0:0:0:
256,192,425239,1,8,0:0:0:0:
256,192,425419,1,0,0:0:0:0:
256,192,425739,1,8,0:0:0:0:
256,192,427807,1,0,0:0:0:0:
256,192,427991,1,0,0:0:0:0:
256,192,428306,1,8,0:0:0:0:
256,192,428613,1,8,0:0:0:0:
256,192,428774,1,0,0:0:0:0:
256,192,429088,1,8,0:0:0:0:
256,192,429716,1,12,0:0:0:0:
256,192,430220,1,0,0:0:0:0:
256,192,430345,1,0,0:0:0:0:
256,192,430470,1,8,0:0:0:0:
256,192,430595,1,8,0:0:0:0:
256,192,430720,1,0,0:0:0:0:
256,192,431237,1,0,0:0:0:0:
256,192,431517,1,8,0:0:0:0:
256,192,431802,1,8,0:0:0:0:
256,192,431943,1,0,0:0:0:0:
256,192,432737,1,0,0:0:0:0:
256,192,432899,1,0,0:0:0:0:
256,192,433159,1,8,0:0:0:0:
256,192,433411,1,0,0:0:0:0:
256,192,433573,1,8,0:0:0:0:
256,192,433861,1,0,0:0:0:0:
256,192,434004,8,0,436007,0:0:0:0:
256,192,436234,5,0,0:0:0:0:
256,192,436387,1,0,0:0:0:0:
256,192,436541,1,8,0:0:0:0:
256,192,438325,1,0,0:0:0:0:
256,192,438393,1,0,0:0:0:0:
256,192,438461,1,12,0:0:0:0:
256,192,439146,1,12,0:0:0:0:
256,192,439801,1,4,0:0:0:0:
256,192,440356,1,12,0:0:0:0:
256,192,441172,1,4,0:0:0:0:
256,192,441524,1,8,0:0:0:0:
256,192,441844,8,0,442921,0:0:0:0:
256,192,443281,5,0,0:0:0:0:
256,192,443370,1,8,0:0:0:0:
256,192,443694,1,0,0:0:0:0:
256,192,444000,1,8,0:0:0:0:
256,192,444342,1,0,0:0:0:0:
256,192,445092,8,0,445916,0:0:0:0:
256,192,446220,5,0,0:0:0:0:
256,192,447220,1,8,0:0:0:0:
256,192,448470,1,8,0:0:0:0:
256,192,448595,1,8,0:0:0:0:
256,192,448720,1,0,0:0:0:0:
256,192,448970,1,0,0:0:0:0:
256,192,449220,1,8,0:0:0:0:
256,192,449470,1,0,0:0:0:0:
256,192,450220,1,0,0:0:0:0:
256,192,450970,1,0,0:0:0:0:
256,192,451220,1,8,0:0:0:0:
256,192,451470,1,0,0:0:0:0:
256,192,452720,1,0,0:0:0:0:
256,192,453220,1,8,0:0:0:0:
256,192,453618,1,8,0:0:0:0:
256,192,453937,1,8,0:0:0:0:
256,192,454256,1,8,0:0:0:0:
256,192,454575,1,8,0:0:0:0:
256,192,454894,1,0,0:0:0:0:
256,192,456171,1,0,0:0:0:0:
256,192,456490,1,0,0:0:0:0:
256,192,456809,1,0,0:0:0:0:
256,192,457128,1,0,0:0:0:0:
256,192,457447,1,8,0:0:0:0:
256,192,458724,1,0,0:0:0:0:
256,192,459036,1,0,0:0:0:0:
256,192,459203,1,8,0:0:0:0:
256,192,459494,1,8,0:0:0:0:
256,192,459724,1,0,0:0:0:0:
256,192,460057,8,0,460783,0:0:0:0:
256,192,461025,5,4,0:0:0:0:
256,192,462025,1,8,0:0:0:0:
256,192,463525,1,0,0:0:0:0:
256,192,463712,1,0,0:0:0:0:
256,192,464025,1,8,0:0:0:0:
256,192,464212,1,0,0:0:0:0:
256,192,465025,1,0,0:0:0:0:
256,192,466025,1,8,0:0:0:0:
256,192,466212,1,0,0:0:0:0:
256,192,467525,1,0,0:0:0:0:
256,192,468025,1,8,0:0:0:0:
256,192,469025,1,0,0:0:0:0:
256,192,470025,1,8,0:0:0:0:
256,192,471525,1,0,0:0:0:0:
256,192,471712,1,0,0:0:0:0:
256,192,472025,1,8,0:0:0:0:
256,192,472212,1,0,0:0:0:0:
256,192,473025,1,0,0:0:0:0:
256,192,474025,1,8,0:0:0:0:
256,192,474212,1,0,0:0:0:0:
256,192,475525,1,0,0:0:0:0:
256,192,476025,1,8,0:0:0:0:
256,192,478209,8,0,482851,0:0:0:0:
256,192,483209,5,0,0:0:0:0:
256,192,483387,1,8,0:0:0:0:
256,192,483476,1,8,0:0:0:0:
256,192,483566,1,0,0:0:0:0:
256,192,483744,1,8,0:0:0:0:
256,192,483923,1,4,0:0:0:0:
256,192,484101,1,8,0:0:0:0:
256,192,484458,1,0,0:0:0:0:
256,192,484815,1,0,0:0:0:0:
256,192,485173,1,0,0:0:0:0:
256,192,485530,1,8,0:0:0:0:
256,192,485887,1,8,0:0:0:0:
256,192,486244,1,8,0:0:0:0:
256,192,486423,1,0,0:0:0:0:
256,192,486601,1,8,0:0:0:0:
256,192,486958,1,8,0:0:0:0:
256,192,487315,1,0,0:0:0:0:
256,192,487673,1,8,0:0:0:0:
256,192,488030,1,8,0:0:0:0:
256,192,488387,1,8,0:0:0:0:
256,192,488565,1,0,0:0:0:0:
256,192,488744,1,8,0:0:0:0:
256,192,489101,1,0,0:0:0:0:
256,192,489280,1,8,0:0:0:0:
256,192,489458,1,8,0:0:0:0:
256,192,489637,1,0,0:0:0:0:
256,192,489815,1,8,0:0:0:0:
256,192,490173,1,0,0:0:0:0:
256,192,490530,1,8,0:0:0:0:
256,192,490887,1,8,0:0:0:0:
256,192,491244,1,0,0:0:0:0:
256,192,491601,1,0,0:0:0:0:
256,192,491958,1,8,0:0:0:0:
256,192,492137,1,0,0:0:0:0:
256,192,492315,1,0,0:0:0:0:
256,192,492673,1,8,0:0:0:0:
256,192,493030,1,0,0:0:0:0:
256,192,493387,1,8,0:0:0:0:
256,192,493744,1,0,0:0:0:0:
256,192,494101,1,8,0:0:0:0:
256,192,494280,1,0,0:0:0:0:
256,192,494458,1,8,0:0:0:0:
256,192,494815,1,0,0:0:0:0:
256,192,494994,1,8,0:0:0:0:
256,192,495173,1,8,0:0:0:0:
256,192,495351,1,0,0:0:0:0:
256,192,495708,1,0,0:0:0:0:
256,192,495798,1,0,0:0:0:0:
256,192,495887,1,8,0:0:0:0:
256,192,496065,1,0,0:0:0:0:
256,192,496244,1,8,0:0:0:0:
256,192,496423,1,0,0:0:0:0:
256,192,496512,1,0,0:0:0:0:
256,192,496601,1,8,0:0:0:0:
256,192,496780,1,0,0:0:0:0:
256,192,496958,1,8,0:0:0:0:
256,192,497048,1,8,0:0:0:0:
256,192,497137,1,0,0:0:0:0:
256,192,497226,1,0,0:0:0:0:
256,192,497315,1,8,0:0:0:0:
256,192,497494,1,0,0:0:0:0:
256,192,497673,1,8,0:0:0:0:
256,192,497851,1,0,0:0:0:0:
256,192,497940,1,8,0:0:0:0:
256,192,498030,1,8,0:0:0:0:
256,192,498208,1,0,0:0:0:0:
256,192,498387,1,8,0:0:0:0:
256,192,498565,1,8,0:0:0:0:
256,192,498655,1,0,0:0:0:0:
256,192,498744,1,8,0:0:0:0:
256,192,498923,1,0,0:0:0:0:
256,192,499101,1,8,0:0:0:0:
256,192,499280,1,8,0:0:0:0:
256,192,499369,1,0,0:0:0:0:
256,192,499458,1,8,0:0:0:0:
256,192,499637,1,0,0:0:0:0:
256,192,499815,1,8,0:0:0:0:
256,192,499994,1,0,0:0:0:0:
256,192,500083,1,8,0:0:0:0:
256,192,500173,1,0,0:0:0:0:
256,192,500351,1,0,0:0:0:0:
256,192,500530,1,8,0:0:0:0:
256,192,500708,1,0,0:0:0:0:
256,192,500798,1,0,0:0:0:0:
256,192,500887,1,8,0:0:0:0:
256,192,500976,1,8,0:0:0:0:
256,192,501065,1,0,0:0:0:0:
256,192,501244,1,8,0:0:0:0:
256,192,501423,1,0,0:0:0:0:
256,192,501601,1,8,0:0:0:0:
256,192,501780,1,0,0:0:0:0:
256,192,501958,1,8,0:0:0:0:
256,192,502137,1,0,0:0:0:0:
256,192,502315,1,8,0:0:0:0:
256,192,502494,1,0,0:0:0:0:
256,192,502673,1,8,0:0:0:0:
256,192,502851,1,0,0:0:0:0:
256,192,502940,1,0,0:0:0:0:
256,192,503030,1,8,0:0:0:0:
256,192,503119,1,8,0:0:0:0:
256,192,503208,1,0,0:0:0:0:
256,192,503387,1,8,0:0:0:0:
256,192,503565,1,8,0:0:0:0:
256,192,503655,1,0,0:0:0:0:
256,192,503744,1,8,0:0:0:0:
256,192,503923,1,0,0:0:0:0:
256,192,504012,1,0,0:0:0:0:
256,192,504101,1,8,0:0:0:0:
256,192,504280,1,8,0:0:0:0:
256,192,504369,1,8,0:0:0:0:
256,192,504458,1,0,0:0:0:0:
256,192,504637,1,0,0:0:0:0:
256,192,504726,1,0,0:0:0:0:
256,192,504815,1,8,0:0:0:0:
256,192,504994,1,8,0:0:0:0:
256,192,505083,1,8,0:0:0:0:
256,192,505173,1,0,0:0:0:0:
256,192,505351,1,8,0:0:0:0:
256,192,505440,1,0,0:0:0:0:
256,192,505530,1,0,0:0:0:0:
256,192,505619,1,0,0:0:0:0:
256,192,505708,1,8,0:0:0:0:
256,192,505798,1,8,0:0:0:0:
256,192,505887,1,0,0:0:0:0:
256,192,505976,1,0,0:0:0:0:
256,192,506065,1,8,0:0:0:0:
256,192,506155,1,0,0:0:0:0:
256,192,506244,1,8,0:0:0:0:
256,192,506333,1,0,0:0:0:0:
256,192,506423,1,8,0:0:0:0:
256,192,506512,1,8,0:0:0:0:
256,192,506601,1,8,0:0:0:0:
256,192,506690,1,8,0:0:0:0:
256,192,506780,1,0,0:0:0:0:
256,192,507494,1,8,0:0:0:0:
256,192,508565,1,4,0:0:0:0:
256,192,508922,1,8,0:0:0:0:
256,192,509280,1,4,0:0:0:0:
256,192,509637,1,0,0:0:0:0:
256,192,510351,1,8,0:0:0:0:
256,192,511422,1,4,0:0:0:0:
256,192,511780,1,8,0:0:0:0:
256,192,512137,1,12,0:0:0:0:
256,192,512494,1,0,0:0:0:0:
256,192,513208,1,8,0:0:0:0:
256,192,514280,1,4,0:0:0:0:
256,192,514637,1,8,0:0:0:0:
256,192,515351,1,0,0:0:0:0:
256,192,516065,1,8,0:0:0:0:
256,192,517137,1,4,0:0:0:0:
256,192,517494,1,8,0:0:0:0:
256,192,517851,1,12,0:0:0:0:
256,192,518208,1,0,0:0:0:0:
256,192,518922,1,8,0:0:0:0:
256,192,519994,1,4,0:0:0:0:
256,192,520351,1,8,0:0:0:0:
256,192,521065,1,0,0:0:0:0:
256,192,521780,1,8,0:0:0:0:
256,192,522851,1,4,0:0:0:0:
256,192,523208,1,8,0:0:0:0:
256,192,523565,1,12,0:0:0:0:
256,192,523922,1,0,0:0:0:0:
256,192,524637,1,8,0:0:0:0:
256,192,525708,1,4,0:0:0:0:
256,192,526065,1,8,0:0:0:0:
256,192,526780,1,0,0:0:0:0:
256,192,527494,1,8,0:0:0:0:
256,192,528565,1,4,0:0:0:0:
256,192,528922,1,8,0:0:0:0:
256,192,529280,1,12,0:0:0:0:
256,192,529637,1,0,0:0:0:0:
256,192,531065,1,0,0:0:0:0:
256,192,532494,1,0,0:0:0:0:
256,192,533922,1,0,0:0:0:0:
256,192,535351,1,0,0:0:0:0:
256,192,535708,1,0,0:0:0:0:
256,192,536065,1,0,0:0:0:0:
256,192,536422,1,0,0:0:0:0:
256,192,536779,1,0,0:0:0:0:
256,192,537137,1,0,0:0:0:0:
256,192,537494,1,0,0:0:0:0:
256,192,537851,1,0,0:0:0:0:
256,192,538208,1,8,0:0:0:0:
256,192,538387,1,0,0:0:0:0:
256,192,538565,1,8,0:0:0:0:
256,192,538744,1,0,0:0:0:0:
256,192,538922,1,8,0:0:0:0:
256,192,539101,1,0,0:0:0:0:
256,192,539279,1,8,0:0:0:0:
256,192,539458,1,0,0:0:0:0:
256,192,539637,1,8,0:0:0:0:
256,192,539815,1,0,0:0:0:0:
256,192,539994,1,8,0:0:0:0:
256,192,540172,1,0,0:0:0:0:
256,192,540351,1,8,0:0:0:0:
256,192,540529,1,0,0:0:0:0:
256,192,540619,1,0,0:0:0:0:
256,192,540708,1,8,0:0:0:0:
256,192,540887,1,8,0:0:0:0:
256,192,541065,1,4,0:0:0:0:
256,192,543029,1,8,0:0:0:0:
256,192,543387,1,8,0:0:0:0:
256,192,543744,1,8,0:0:0:0:
256,192,543922,1,0,0:0:0:0:
256,192,544101,1,8,0:0:0:0:
256,192,544279,1,0,0:0:0:0:
256,192,544369,1,0,0:0:0:0:
256,192,544458,1,8,0:0:0:0:
256,192,544637,1,0,0:0:0:0:
256,192,544815,1,8,0:0:0:0:
256,192,544994,1,0,0:0:0:0:
256,192,545083,1,0,0:0:0:0:
256,192,545172,1,8,0:0:0:0:
256,192,545351,1,0,0:0:0:0:
256,192,545529,1,8,0:0:0:0:
256,192,545708,1,0,0:0:0:0:
256,192,545797,1,8,0:0:0:0:
256,192,545887,1,8,0:0:0:0:
256,192,546065,1,0,0:0:0:0:
256,192,546244,1,8,0:0:0:0:
256,192,546333,1,8,0:0:0:0:
256,192,546422,1,0,0:0:0:0:
256,192,546512,1,0,0:0:0:0:
256,192,546601,1,8,0:0:0:0:
256,192,546779,1,0,0:0:0:0:
256,192,546958,1,8,0:0:0:0:
256,192,547047,1,8,0:0:0:0:
256,192,547137,1,0,0:0:0:0:
256,192,547315,1,8,0:0:0:0:
256,192,547404,1,8,0:0:0:0:
256,192,547494,1,0,0:0:0:0:
256,192,547672,1,8,0:0:0:0:
256,192,547762,1,0,0:0:0:0:
256,192,547851,1,8,0:0:0:0:
256,192,548029,1,8,0:0:0:0:
256,192,548119,1,8,0:0:0:0:
256,192,548208,1,0,0:0:0:0:
256,192,548387,1,8,0:0:0:0:
256,192,548565,1,0,0:0:0:0:
256,192,548654,1,0,0:0:0:0:
256,192,548744,1,0,0:0:0:0:
256,192,548922,1,8,0:0:0:0:
256,192,549101,1,0,0:0:0:0:
256,192,549279,1,0,0:0:0:0:
256,192,549369,1,0,0:0:0:0:
256,192,549458,1,8,0:0:0:0:
256,192,549637,1,0,0:0:0:0:
256,192,549815,1,8,0:0:0:0:
256,192,549904,1,8,0:0:0:0:
256,192,549994,1,0,0:0:0:0:
256,192,550083,1,0,0:0:0:0:
256,192,550172,1,8,0:0:0:0:
256,192,550351,1,0,0:0:0:0:
256,192,550529,1,8,0:0:0:0:
256,192,550619,1,0,0:0:0:0:
256,192,550708,1,8,0:0:0:0:
256,192,550797,1,0,0:0:0:0:
256,192,550887,1,8,0:0:0:0:
256,192,551065,1,0,0:0:0:0:
256,192,551244,1,8,0:0:0:0:
256,192,551422,1,0,0:0:0:0:
256,192,551512,1,0,0:0:0:0:
256,192,551601,1,0,0:0:0:0:
256,192,551779,1,8,0:0:0:0:
256,192,551958,1,0,0:0:0:0:
256,192,552137,1,8,0:0:0:0:
256,192,552494,1,0,0:0:0:0:
256,192,552672,1,8,0:0:0:0:
256,192,552851,1,0,0:0:0:0:
256,192,552941,1,0,0:0:0:0:
256,192,553030,1,8,0:0:0:0:
256,192,553209,1,0,0:0:0:0:
256,192,553387,1,8,0:0:0:0:
256,192,553566,1,0,0:0:0:0:
256,192,553655,1,0,0:0:0:0:
256,192,553744,1,8,0:0:0:0:
256,192,553923,1,0,0:0:0:0:
256,192,554101,1,8,0:0:0:0:
256,192,554190,1,8,0:0:0:0:
256,192,554280,1,0,0:0:0:0:
256,192,554369,1,0,0:0:0:0:
256,192,554459,1,8,0:0:0:0:
256,192,554637,1,0,0:0:0:0:
256,192,554816,1,8,0:0:0:0:
256,192,554994,1,0,0:0:0:0:
256,192,555084,1,0,0:0:0:0:
256,192,555173,1,8,0:0:0:0:
256,192,555351,1,0,0:0:0:0:
256,192,555529,1,8,0:0:0:0:
256,192,555708,1,0,0:0:0:0:
256,192,555797,1,8,0:0:0:0:
256,192,555887,1,8,0:0:0:0:
256,192,556065,1,0,0:0:0:0:
256,192,556244,1,8,0:0:0:0:
256,192,556422,1,0,0:0:0:0:
256,192,556512,1,8,0:0:0:0:
256,192,556601,1,8,0:0:0:0:
256,192,556779,1,0,0:0:0:0:
256,192,556958,1,8,0:0:0:0:
256,192,557137,1,0,0:0:0:0:
256,192,557226,1,8,0:0:0:0:
256,192,557315,1,0,0:0:0:0:
256,192,557494,1,8,0:0:0:0:
256,192,557672,1,0,0:0:0:0:
256,192,557851,1,8,0:0:0:0:
256,192,557940,1,8,0:0:0:0:
256,192,558029,1,8,0:0:0:0:
256,192,558119,1,8,0:0:0:0:
256,192,558208,1,0,0:0:0:0:
256,192,558387,1,8,0:0:0:0:
256,192,558565,1,0,0:0:0:0:
256,192,558744,1,8,0:0:0:0:
256,192,558922,1,0,0:0:0:0:
256,192,559101,1,8,0:0:0:0:
256,192,559279,1,0,0:0:0:0:
256,192,559458,1,8,0:0:0:0:
256,192,559637,1,0,0:0:0:0:
256,192,559815,1,8,0:0:0:0:
256,192,559994,1,0,0:0:0:0:
256,192,560083,1,0,0:0:0:0:
256,192,560172,1,8,0:0:0:0:
256,192,560262,1,8,0:0:0:0:
256,192,560351,1,0,0:0:0:0:
256,192,560529,1,8,0:0:0:0:
256,192,560708,1,0,0:0:0:0:
256,192,560797,1,0,0:0:0:0:
256,192,560887,1,8,0:0:0:0:
256,192,561065,1,0,0:0:0:0:
256,192,561244,1,8,0:0:0:0:
256,192,561333,1,0,0:0:0:0:
256,192,561422,1,8,0:0:0:0:
256,192,561512,1,8,0:0:0:0:
256,192,561601,1,0,0:0:0:0:
256,192,561779,1,8,0:0:0:0:
256,192,561869,1,8,0:0:0:0:
256,192,561958,1,0,0:0:0:0:
256,192,562047,1,8,0:0:0:0:
256,192,562137,1,0,0:0:0:0:
256,192,562226,1,0,0:0:0:0:
256,192,562315,1,8,0:0:0:0:
256,192,562494,1,0,0:0:0:0:
256,192,562583,1,8,0:0:0:0:
256,192,562672,1,0,0:0:0:0:
256,192,562762,1,0,0:0:0:0:
256,192,562851,1,8,0:0:0:0:
256,192,562940,1,0,0:0:0:0:
256,192,563029,1,8,0:0:0:0:
256,192,563119,1,0,0:0:0:0:
256,192,563208,1,8,0:0:0:0:
256,192,563297,1,8,0:0:0:0:
256,192,563387,1,0,0:0:0:0:
256,192,563476,1,0,0:0:0:0:
256,192,563565,1,8,0:0:0:0:
256,192,563654,1,8,0:0:0:0:
256,192,563744,1,8,0:0:0:0:
256,192,563833,1,8,0:0:0:0:
256,192,563923,1,0,0:0:0:0:
256,192,564637,1,8,0:0:0:0:
256,192,565708,1,4,0:0:0:0:
256,192,566065,1,8,0:0:0:0:
256,192,566423,1,4,0:0:0:0:
256,192,566780,1,0,0:0:0:0:
256,192,567494,1,8,0:0:0:0:
256,192,568565,1,4,0:0:0:0:
256,192,568923,1,8,0:0:0:0:
256,192,569280,1,12,0:0:0:0:
256,192,569637,1,0,0:0:0:0:
256,192,570351,1,8,0:0:0:0:
256,192,571423,1,4,0:0:0:0:
256,192,571780,1,8,0:0:0:0:
256,192,572494,1,0,0:0:0:0:
256,192,573208,1,8,0:0:0:0:
256,192,575351,1,0,0:0:0:0:
256,192,575529,1,8,0:0:0:0:
256,192,575708,1,0,0:0:0:0:
256,192,575797,1,0,0:0:0:0:
256,192,575886,1,8,0:0:0:0:
256,192,576065,1,0,0:0:0:0:
256,192,576243,1,8,0:0:0:0:
256,192,576422,1,0,0:0:0:0:
256,192,576511,1,0,0:0:0:0:
256,192,576601,1,8,0:0:0:0:
256,192,576779,1,0,0:0:0:0:
256,192,576958,1,8,0:0:0:0:
256,192,577047,1,8,0:0:0:0:
256,192,577136,1,0,0:0:0:0:
256,192,577226,1,0,0:0:0:0:
256,192,577315,1,8,0:0:0:0:
256,192,577493,1,0,0:0:0:0:
256,192,577672,1,8,0:0:0:0:
256,192,577851,1,0,0:0:0:0:
256,192,577940,1,8,0:0:0:0:
256,192,578029,1,8,0:0:0:0:
256,192,578208,1,0,0:0:0:0:
256,192,578386,1,8,0:0:0:0:
256,192,578565,1,8,0:0:0:0:
256,192,578654,1,0,0:0:0:0:
256,192,578743,1,8,0:0:0:0:
256,192,578922,1,0,0:0:0:0:
256,192,579101,1,8,0:0:0:0:
256,192,579279,1,8,0:0:0:0:
256,192,579368,1,0,0:0:0:0:
256,192,579458,1,8,0:0:0:0:
256,192,579636,1,0,0:0:0:0:
256,192,579815,1,8,0:0:0:0:
256,192,579993,1,0,0:0:0:0:
256,192,580083,1,8,0:0:0:0:
256,192,580172,1,0,0:0:0:0:
256,192,580351,1,0,0:0:0:0:
256,192,580529,1,8,0:0:0:0:
256,192,580708,1,0,0:0:0:0:
256,192,580797,1,0,0:0:0:0:
256,192,580886,1,8,0:0:0:0:
256,192,580976,1,8,0:0:0:0:
256,192,581065,1,0,0:0:0:0:
256,192,581243,1,8,0:0:0:0:
256,192,581422,1,0,0:0:0:0:
256,192,581601,1,8,0:0:0:0:
256,192,581779,1,0,0:0:0:0:
256,192,581958,1,8,0:0:0:0:
256,192,582136,1,0,0:0:0:0:
256,192,582315,1,8,0:0:0:0:
256,192,582493,1,0,0:0:0:0:
256,192,582672,1,8,0:0:0:0:
256,192,582851,1,0,0:0:0:0:
256,192,582940,1,0,0:0:0:0:
256,192,583029,1,8,0:0:0:0:
256,192,583118,1,8,0:0:0:0:
256,192,583208,1,0,0:0:0:0:
256,192,583387,1,8,0:0:0:0:
256,192,583565,1,8,0:0:0:0:
256,192,583654,1,0,0:0:0:0:
256,192,583744,1,0,0:0:0:0:
256,192,583923,1,8,0:0:0:0:
256,192,584011,1,0,0:0:0:0:
256,192,584101,1,0,0:0:0:0:
256,192,584190,1,0,0:0:0:0:
256,192,584279,1,8,0:0:0:0:
256,192,584368,1,8,0:0:0:0:
256,192,584458,1,0,0:0:0:0:
256,192,584547,1,0,0:0:0:0:
256,192,584636,1,8,0:0:0:0:
256,192,584726,1,0,0:0:0:0:
256,192,584815,1,0,0:0:0:0:
256,192,584904,1,0,0:0:0:0:
256,192,584993,1,8,0:0:0:0:
256,192,585083,1,0,0:0:0:0:
256,192,585172,1,8,0:0:0:0:
256,192,585261,1,0,0:0:0:0:
256,192,585351,1,8,0:0:0:0:
256,192,585440,1,8,0:0:0:0:
256,192,585529,1,8,0:0:0:0:
256,192,585618,1,0,0:0:0:0:
256,192,585708,1,8,0:0:0:0:
256,192,585797,1,8,0:0:0:0:
256,192,585886,1,0,0:0:0:0:
256,192,585976,1,0,0:0:0:0:
256,192,586065,1,8,0:0:0:0:
256,192,586154,1,0,0:0:0:0:
256,192,586243,1,8,0:0:0:0:
256,192,586333,1,0,0:0:0:0:
256,192,586422,1,8,0:0:0:0:
256,192,586511,1,8,0:0:0:0:
256,192,586601,1,8,0:0:0:0:
256,192,586690,1,8,0:0:0:0:
256,192,586780,1,0,0:0:0:0:
256,192,587494,1,8,0:0:0:0:
256,192,588565,1,4,0:0:0:0:
256,192,588922,1,8,0:0:0:0:
256,192,589280,1,4,0:0:0:0:
256,192,589637,1,0,0:0:0:0:
256,192,590351,1,8,0:0:0:0:
256,192,592494,1,0,0:0:0:0:
256,192,593208,1,8,0:0:0:0:
256,192,594280,1,4,0:0:0:0:
256,192,594637,1,8,0:0:0:0:
256,192,595351,1,0,0:0:0:0:
256,192,596065,1,8,0:0:0:0:
256,192,612433,5,12,0:0:0:0:
256,192,615529,1,0,0:0:0:0:
256,192,618626,1,8,0:0:0:0:
256,192,621723,1,0,0:0:0:0:
256,192,624820,1,4,0:0:0:0:
256,192,625207,1,8,0:0:0:0:
256,192,625981,1,8,0:0:0:0:
256,192,626755,1,8,0:0:0:0:
256,192,627529,1,8,0:0:0:0:
256,192,627916,1,0,0:0:0:0:
256,192,628304,1,8,0:0:0:0:
256,192,629078,1,8,0:0:0:0:
256,192,629852,1,8,0:0:0:0:
256,192,630626,1,8,0:0:0:0:
256,192,631013,1,0,0:0:0:0:
256,192,631400,1,8,0:0:0:0:
256,192,632175,1,8,0:0:0:0:
256,192,632949,1,8,0:0:0:0:
256,192,633723,1,8,0:0:0:0:
256,192,634110,1,0,0:0:0:0:
256,192,634497,1,8,0:0:0:0:
256,192,635271,1,8,0:0:0:0:
256,192,636046,1,8,0:0:0:0:
256,192,636820,1,8,0:0:0:0:
256,192,637207,1,4,0:0:0:0:
256,192,637594,1,8,0:0:0:0:
256,192,638175,1,0,0:0:0:0:
256,192,638368,1,8,0:0:0:0:
256,192,638755,1,0,0:0:0:0:
256,192,639142,1,8,0:0:0:0:
256,192,639336,1,0,0:0:0:0:
256,192,639723,1,0,0:0:0:0:
256,192,639916,1,8,0:0:0:0:
256,192,640304,1,0,0:0:0:0:
256,192,640691,1,8,0:0:0:0:
256,192,641271,1,0,0:0:0:0:
256,192,641465,1,8,0:0:0:0:
256,192,641852,1,0,0:0:0:0:
256,192,642239,1,8,0:0:0:0:
256,192,642433,1,0,0:0:0:0:
256,192,642626,1,0,0:0:0:0:
256,192,642820,1,0,0:0:0:0:
256,192,643013,1,8,0:0:0:0:
256,192,643400,1,0,0:0:0:0:
256,192,643787,1,8,0:0:0:0:
256,192,644368,1,0,0:0:0:0:
256,192,644562,1,8,0:0:0:0:
256,192,644949,1,0,0:0:0:0:
256,192,645336,1,8,0:0:0:0:
256,192,645529,1,8,0:0:0:0:
256,192,645723,1,0,0:0:0:0:
256,192,645916,1,0,0:0:0:0:
256,192,646110,1,8,0:0:0:0:
256,192,646497,1,0,0:0:0:0:
256,192,646884,1,0,0:0:0:0:
256,192,647271,1,0,0:0:0:0:
256,192,647658,1,0,0:0:0:0:
256,192,648046,1,8,0:0:0:0:
256,192,648142,1,0,0:0:0:0:
256,192,648239,1,0,0:0:0:0:
256,192,648336,1,0,0:0:0:0:
256,192,648433,1,8,0:0:0:0:
256,192,648529,1,8,0:0:0:0:
256,192,648626,1,0,0:0:0:0:
256,192,648723,1,0,0:0:0:0:
256,192,648820,1,8,0:0:0:0:
256,192,648884,1,8,0:0:0:0:
256,192,648949,1,8,0:0:0:0:
256,192,649013,1,8,0:0:0:0:
256,192,649078,1,8,0:0:0:0:
256,192,649142,1,8,0:0:0:0:
256,192,649594,1,4,0:0:0:0:
256,192,649723,1,8,0:0:0:0:
256,192,649787,1,0,0:0:0:0:
256,192,649852,1,8,0:0:0:0:
256,192,649981,1,0,0:0:0:0:
256,192,650175,1,0,0:0:0:0:
256,192,650239,1,0,0:0:0:0:
256,192,650304,1,8,0:0:0:0:
256,192,650368,1,0,0:0:0:0:
256,192,650562,1,0,0:0:0:0:
256,192,650658,1,8,0:0:0:0:
256,192,650852,1,8,0:0:0:0:
256,192,650949,1,0,0:0:0:0:
256,192,651142,1,0,0:0:0:0:
256,192,651271,1,8,0:0:0:0:
256,192,651336,1,0,0:0:0:0:
256,192,651400,1,8,0:0:0:0:
256,192,651465,1,8,0:0:0:0:
256,192,651529,1,0,0:0:0:0:
256,192,651723,1,0,0:0:0:0:
256,192,651916,1,8,0:0:0:0:
256,192,652013,1,0,0:0:0:0:
256,192,652110,1,0,0:0:0:0:
256,192,652207,1,8,0:0:0:0:
256,192,652400,1,8,0:0:0:0:
256,192,652497,1,0,0:0:0:0:
256,192,652691,1,0,0:0:0:0:
256,192,652787,1,8,0:0:0:0:
256,192,652836,1,8,0:0:0:0:
256,192,652884,1,8,0:0:0:0:
256,192,652933,1,8,0:0:0:0:
256,192,652981,1,8,0:0:0:0:
256,192,653078,1,0,0:0:0:0:
256,192,653271,1,0,0:0:0:0:
256,192,653336,1,8,0:0:0:0:
256,192,653400,1,8,0:0:0:0:
256,192,653465,1,0,0:0:0:0:
256,192,653658,1,8,0:0:0:0:
256,192,653755,1,0,0:0:0:0:
256,192,653852,1,8,0:0:0:0:
256,192,653949,1,8,0:0:0:0:
256,192,654046,1,0,0:0:0:0:
256,192,654239,1,0,0:0:0:0:
256,192,654368,1,8,0:0:0:0:
256,192,654433,1,8,0:0:0:0:
256,192,654497,1,8,0:0:0:0:
256,192,654626,1,0,0:0:0:0:
256,192,654820,1,0,0:0:0:0:
256,192,654884,1,8,0:0:0:0:
256,192,655013,1,0,0:0:0:0:
256,192,655159,1,0,0:0:0:0:
256,192,655207,1,8,0:0:0:0:
256,192,655400,1,0,0:0:0:0:
256,192,655787,1,12,0:0:0:0:
256,192,655916,1,0,0:0:0:0:
256,192,655981,1,8,0:0:0:0:
256,192,656046,1,0,0:0:0:0:
256,192,656175,1,8,0:0:0:0:
256,192,656368,1,8,0:0:0:0:
256,192,656433,1,8,0:0:0:0:
256,192,656497,1,0,0:0:0:0:
256,192,656562,1,8,0:0:0:0:
256,192,656755,1,8,0:0:0:0:
256,192,656852,1,0,0:0:0:0:
256,192,657046,1,0,0:0:0:0:
256,192,657142,1,8,0:0:0:0:
256,192,657336,1,0,0:0:0:0:
256,192,657465,1,8,0:0:0:0:
256,192,657529,1,8,0:0:0:0:
256,192,657594,1,0,0:0:0:0:
256,192,657658,1,0,0:0:0:0:
256,192,657723,1,8,0:0:0:0:
256,192,657916,1,8,0:0:0:0:
256,192,658110,1,8,0:0:0:0:
256,192,658207,1,0,0:0:0:0:
256,192,658304,1,0,0:0:0:0:
256,192,658400,1,8,0:0:0:0:
256,192,658594,1,8,0:0:0:0:
256,192,658691,1,0,0:0:0:0:
256,192,658884,1,8,0:0:0:0:
256,192,659013,1,0,0:0:0:0:
256,192,659078,1,0,0:0:0:0:
256,192,659142,1,0,0:0:0:0:
256,192,659271,1,8,0:0:0:0:
256,192,659465,1,8,0:0:0:0:
256,192,659529,1,0,0:0:0:0:
256,192,659594,1,0,0:0:0:0:
256,192,659658,1,8,0:0:0:0:
256,192,659852,1,0,0:0:0:0:
256,192,659949,1,8,0:0:0:0:
256,192,660045,1,0,0:0:0:0:
256,192,660142,1,0,0:0:0:0:
256,192,660239,1,8,0:0:0:0:
256,192,660433,1,0,0:0:0:0:
256,192,660562,1,8,0:0:0:0:
256,192,660626,1,8,0:0:0:0:
256,192,660691,1,8,0:0:0:0:
256,192,660755,1,8,0:0:0:0:
256,192,660820,1,0,0:0:0:0:
256,192,661207,1,8,0:0:0:0:
256,192,661594,1,0,0:0:0:0:
256,192,661981,1,4,0:0:0:0:
256,192,662175,1,8,0:0:0:0:
256,192,662271,1,8,0:0:0:0:
256,192,662368,1,0,0:0:0:0:
256,192,662562,1,8,0:0:0:0:
256,192,662755,1,0,0:0:0:0:
256,192,662949,1,8,0:0:0:0:
256,192,663046,1,0,0:0:0:0:
256,192,663239,1,0,0:0:0:0:
256,192,663336,1,8,0:0:0:0:
256,192,663529,1,4,0:0:0:0:
256,192,663723,1,8,0:0:0:0:
256,192,663820,1,0,0:0:0:0:
256,192,663916,1,0,0:0:0:0:
256,192,664110,1,8,0:0:0:0:
256,192,664304,1,0,0:0:0:0:
256,192,664400,1,8,0:0:0:0:
256,192,664497,1,8,0:0:0:0:
256,192,664594,1,0,0:0:0:0:
256,192,664787,1,0,0:0:0:0:
256,192,664884,1,8,0:0:0:0:
256,192,665078,1,4,0:0:0:0:
256,192,665271,1,8,0:0:0:0:
256,192,665368,1,8,0:0:0:0:
256,192,665465,1,0,0:0:0:0:
256,192,665658,1,8,0:0:0:0:
256,192,665852,1,0,0:0:0:0:
256,192,665949,1,8,0:0:0:0:
256,192,666046,1,8,0:0:0:0:
256,192,666142,1,0,0:0:0:0:
256,192,666239,1,8,0:0:0:0:
256,192,666433,1,0,0:0:0:0:
256,192,666626,1,8,0:0:0:0:
256,192,666691,1,8,0:0:0:0:
256,192,666755,1,8,0:0:0:0:
256,192,666884,1,0,0:0:0:0:
256,192,667013,1,8,0:0:0:0:
256,192,667142,1,8,0:0:0:0:
256,192,667271,1,0,0:0:0:0:
256,192,667400,1,8,0:0:0:0:
256,192,667529,1,0,0:0:0:0:
256,192,667658,1,0,0:0:0:0:
256,192,667787,1,8,0:0:0:0:
256,192,667916,1,8,0:0:0:0:
256,192,668046,1,8,0:0:0:0:
256,192,668175,1,4,0:0:0:0:
256,192,668368,1,8,0:0:0:0:
256,192,668465,1,8,0:0:0:0:
256,192,668562,1,0,0:0:0:0:
256,192,668658,1,0,0:0:0:0:
256,192,668755,1,8,0:0:0:0:
256,192,668949,1,0,0:0:0:0:
256,192,669142,1,8,0:0:0:0:
256,192,669239,1,0,0:0:0:0:
256,192,669433,1,0,0:0:0:0:
256,192,669529,1,8,0:0:0:0:
256,192,669723,1,12,0:0:0:0:
256,192,669916,1,0,0:0:0:0:
256,192,670013,1,8,0:0:0:0:
256,192,670110,1,0,0:0:0:0:
256,192,670207,1,0,0:0:0:0:
256,192,670304,1,8,0:0:0:0:
256,192,670497,1,0,0:0:0:0:
256,192,670594,1,8,0:0:0:0:
256,192,670691,1,8,0:0:0:0:
256,192,670787,1,0,0:0:0:0:
256,192,670981,1,0,0:0:0:0:
256,192,671078,1,8,0:0:0:0:
256,192,671271,1,4,0:0:0:0:
256,192,671465,1,8,0:0:0:0:
256,192,671562,1,0,0:0:0:0:
256,192,671658,1,8,0:0:0:0:
256,192,671852,1,0,0:0:0:0:
256,192,671949,1,8,0:0:0:0:
256,192,672045,1,0,0:0:0:0:
256,192,672142,1,8,0:0:0:0:
256,192,672239,1,8,0:0:0:0:
256,192,672336,1,0,0:0:0:0:
256,192,672433,1,0,0:0:0:0:
256,192,672529,1,8,0:0:0:0:
256,192,672626,1,0,0:0:0:0:
256,192,672820,1,8,0:0:0:0:
256,192,672949,1,0,0:0:0:0:
256,192,673013,1,8,0:0:0:0:
256,192,673207,1,8,0:0:0:0:
256,192,673336,1,0,0:0:0:0:
256,192,673400,1,8,0:0:0:0:
256,192,673594,1,8,0:0:0:0:
256,192,673691,1,0,0:0:0:0:
256,192,673787,1,8,0:0:0:0:
256,192,673884,1,0,0:0:0:0:
256,192,673981,1,8,0:0:0:0:
256,192,674045,1,8,0:0:0:0:
256,192,674110,1,8,0:0:0:0:
256,192,674175,1,8,0:0:0:0:
256,192,674239,1,8,0:0:0:0:
256,192,674304,1,8,0:0:0:0:
256,192,674368,1,0,0:0:0:0:
256,192,675142,1,0,0:0:0:0:
256,192,675336,1,0,0:0:0:0:
256,192,675529,1,8,0:0:0:0:
256,192,675916,1,8,0:0:0:0:
256,192,676304,1,8,0:0:0:0:
256,192,676497,1,0,0:0:0:0:
256,192,676884,1,0,0:0:0:0:
256,192,677271,1,8,0:0:0:0:
256,192,677658,1,8,0:0:0:0:
256,192,677755,1,8,0:0:0:0:
256,192,677852,1,8,0:0:0:0:
256,192,678045,1,8,0:0:0:0:
256,192,678239,1,0,0:0:0:0:
256,192,678433,1,0,0:0:0:0:
256,192,678626,1,8,0:0:0:0:
256,192,679013,1,0,0:0:0:0:
256,192,679400,1,8,0:0:0:0:
256,192,679594,1,0,0:0:0:0:
256,192,679981,1,0,0:0:0:0:
256,192,680368,1,8,0:0:0:0:
256,192,680562,1,0,0:0:0:0:
256,192,680658,1,8,0:0:0:0:
256,192,680755,1,0,0:0:0:0:
256,192,680949,1,8,0:0:0:0:
256,192,681142,1,8,0:0:0:0:
256,192,681336,1,0,0:0:0:0:
256,192,681529,1,8,0:0:0:0:
256,192,681723,1,0,0:0:0:0:
256,192,682110,1,8,0:0:0:0:
256,192,682497,1,8,0:0:0:0:
256,192,682691,1,0,0:0:0:0:
256,192,683078,1,0,0:0:0:0:
256,192,683465,1,8,0:0:0:0:
256,192,683658,1,0,0:0:0:0:
256,192,683755,1,8,0:0:0:0:
256,192,683852,1,8,0:0:0:0:
256,192,683949,1,0,0:0:0:0:
256,192,684045,1,8,0:0:0:0:
256,192,684239,1,8,0:0:0:0:
256,192,684433,1,0,0:0:0:0:
256,192,684626,1,8,0:0:0:0:
256,192,684820,1,0,0:0:0:0:
256,192,685013,1,0,0:0:0:0:
256,192,685207,1,12,0:0:0:0:
256,192,685594,1,12,0:0:0:0:
256,192,685981,1,12,0:0:0:0:
256,192,686368,1,12,0:0:0:0:
256,192,686755,1,0,0:0:0:0:
256,192,687142,1,8,0:0:0:0:
256,192,687529,1,0,0:0:0:0:
256,192,687723,1,0,0:0:0:0:
256,192,687916,1,8,0:0:0:0:
256,192,688303,1,8,0:0:0:0:
256,192,688691,1,8,0:0:0:0:
256,192,688884,1,0,0:0:0:0:
256,192,689271,1,0,0:0:0:0:
256,192,689658,1,8,0:0:0:0:
256,192,690045,1,8,0:0:0:0:
256,192,690142,1,8,0:0:0:0:
256,192,690239,1,8,0:0:0:0:
256,192,690432,1,8,0:0:0:0:
256,192,690626,1,0,0:0:0:0:
256,192,690820,1,0,0:0:0:0:
256,192,691013,1,8,0:0:0:0:
256,192,691400,1,0,0:0:0:0:
256,192,691787,1,8,0:0:0:0:
256,192,691981,1,0,0:0:0:0:
256,192,692368,1,0,0:0:0:0:
256,192,692755,1,8,0:0:0:0:
256,192,692949,1,0,0:0:0:0:
256,192,693045,1,8,0:0:0:0:
256,192,693142,1,0,0:0:0:0:
256,192,693336,1,8,0:0:0:0:
256,192,693529,1,8,0:0:0:0:
256,192,693723,1,0,0:0:0:0:
256,192,693916,1,8,0:0:0:0:
256,192,694110,1,0,0:0:0:0:
256,192,694497,1,8,0:0:0:0:
256,192,694884,1,8,0:0:0:0:
256,192,695078,1,0,0:0:0:0:
256,192,695465,1,0,0:0:0:0:
256,192,695852,1,8,0:0:0:0:
256,192,696045,1,0,0:0:0:0:
256,192,696142,1,8,0:0:0:0:
256,192,696239,1,8,0:0:0:0:
256,192,696336,1,0,0:0:0:0:
256,192,696433,1,8,0:0:0:0:
256,192,696626,1,8,0:0:0:0:
256,192,696820,1,0,0:0:0:0:
256,192,697013,1,8,0:0:0:0:
256,192,697207,1,0,0:0:0:0:
256,192,697400,1,0,0:0:0:0:
256,192,697594,1,8,0:0:0:0:
256,192,697691,1,0,0:0:0:0:
256,192,697787,1,0,0:0:0:0:
256,192,697884,1,0,0:0:0:0:
256,192,697981,1,8,0:0:0:0:
256,192,698078,1,8,0:0:0:0:
256,192,698175,1,0,0:0:0:0:
256,192,698271,1,0,0:0:0:0:
256,192,698368,1,8,0:0:0:0:
256,192,698465,1,8,0:0:0:0:
256,192,698562,1,8,0:0:0:0:
256,192,698658,1,0,0:0:0:0:
256,192,698755,1,8,0:0:0:0:
256,192,698852,1,8,0:0:0:0:
256,192,698949,1,8,0:0:0:0:
256,192,699045,1,8,0:0:0:0:
256,192,699142,1,4,0:0:0:0:
256,192,700691,1,0,0:0:0:0:
256,192,702239,1,0,0:0:0:0:
256,192,703787,1,0,0:0:0:0:
256,192,705336,1,8,0:0:0:0:
256,192,706884,1,8,0:0:0:0:
256,192,708433,1,8,0:0:0:0:
256,192,709981,1,0,0:0:0:0:
256,192,711529,1,0,0:0:0:0:
256,192,711916,1,8,0:0:0:0:
256,192,712304,1,0,0:0:0:0:
256,192,712497,1,8,0:0:0:0:
256,192,712691,1,0,0:0:0:0:
256,192,713078,1,8,0:0:0:0:
256,192,713465,1,8,0:0:0:0:
256,192,713852,1,0,0:0:0:0:
256,192,714045,1,8,0:0:0:0:
256,192,714239,1,8,0:0:0:0:
256,192,714626,1,0,0:0:0:0:
256,192,715013,1,8,0:0:0:0:
256,192,715400,1,0,0:0:0:0:
256,192,715594,1,8,0:0:0:0:
256,192,715787,1,0,0:0:0:0:
256,192,716175,1,8,0:0:0:0:
256,192,716562,1,8,0:0:0:0:
256,192,716949,1,0,0:0:0:0:
256,192,717142,1,8,0:0:0:0:
256,192,717336,1,0,0:0:0:0:
256,192,717529,1,0,0:0:0:0:
256,192,717723,1,8,0:0:0:0:
256,192,718110,1,0,0:0:0:0:
256,192,718497,1,8,0:0:0:0:
256,192,718691,1,0,0:0:0:0:
256,192,718884,1,8,0:0:0:0:
256,192,719078,1,8,0:0:0:0:
256,192,719271,1,0,0:0:0:0:
256,192,719658,1,8,0:0:0:0:
256,192,720045,1,0,0:0:0:0:
256,192,720239,1,0,0:0:0:0:
256,192,720433,1,8,0:0:0:0:
256,192,720626,1,8,0:0:0:0:
256,192,720820,1,0,0:0:0:0:
256,192,721594,1,0,0:0:0:0:
256,192,721787,1,8,0:0:0:0:
256,192,721981,1,0,0:0:0:0:
256,192,722175,1,0,0:0:0:0:
256,192,722368,1,8,0:0:0:0:
256,192,722562,1,0,0:0:0:0:
256,192,722755,1,8,0:0:0:0:
256,192,722949,1,8,0:0:0:0:
256,192,723142,1,0,0:0:0:0:
256,192,723336,1,8,0:0:0:0:
256,192,723529,1,0,0:0:0:0:
256,192,723916,8,0,726626,0:0:0:0:
256,192,727013,5,4,0:0:0:0:
256,192,727142,1,8,0:0:0:0:
256,192,727206,1,0,0:0:0:0:
256,192,727271,1,8,0:0:0:0:
256,192,727400,1,0,0:0:0:0:
256,192,727593,1,8,0:0:0:0:
256,192,727690,1,8,0:0:0:0:
256,192,727787,1,0,0:0:0:0:
256,192,728077,1,8,0:0:0:0:
256,192,728367,1,8,0:0:0:0:
256,192,728561,1,4,0:0:0:0:
256,192,728690,1,8,0:0:0:0:
256,192,728754,1,8,0:0:0:0:
256,192,728819,1,8,0:0:0:0:
256,192,728948,1,0,0:0:0:0:
256,192,729142,1,0,0:0:0:0:
256,192,729238,1,0,0:0:0:0:
256,192,729335,1,8,0:0:0:0:
256,192,729722,1,0,0:0:0:0:
256,192,730109,1,12,0:0:0:0:
256,192,730238,1,0,0:0:0:0:
256,192,730303,1,0,0:0:0:0:
256,192,730367,1,8,0:0:0:0:
256,192,730496,1,0,0:0:0:0:
256,192,730690,1,8,0:0:0:0:
256,192,730787,1,8,0:0:0:0:
256,192,730883,1,0,0:0:0:0:
256,192,731174,1,8,0:0:0:0:
256,192,731464,1,0,0:0:0:0:
256,192,731658,1,12,0:0:0:0:
256,192,731787,1,0,0:0:0:0:
256,192,731851,1,8,0:0:0:0:
256,192,731916,1,8,0:0:0:0:
256,192,732045,1,0,0:0:0:0:
256,192,732432,1,8,0:0:0:0:
256,192,733206,1,12,0:0:0:0:
256,192,733335,1,0,0:0:0:0:
256,192,733400,1,8,0:0:0:0:
256,192,733464,1,8,0:0:0:0:
256,192,733529,1,8,0:0:0:0:
256,192,733593,1,0,0:0:0:0:
256,192,733787,1,0,0:0:0:0:
256,192,733883,1,8,0:0:0:0:
256,192,733980,1,0,0:0:0:0:
256,192,734174,1,0,0:0:0:0:
256,192,734271,1,8,0:0:0:0:
256,192,734464,1,8,0:0:0:0:
256,192,734561,1,0,0:0:0:0:
256,192,734754,1,4,0:0:0:0:
256,192,734883,1,8,0:0:0:0:
256,192,734948,1,8,0:0:0:0:
256,192,735013,1,8,0:0:0:0:
256,192,735077,1,8,0:0:0:0:
256,192,735142,1,0,0:0:0:0:
256,192,735335,1,0,0:0:0:0:
256,192,735529,1,8,0:0:0:0:
256,192,735625,1,0,0:0:0:0:
256,192,735722,1,0,0:0:0:0:
256,192,735819,1,8,0:0:0:0:
256,192,736013,1,8,0:0:0:0:
256,192,736109,1,0,0:0:0:0:
256,192,736303,1,4,0:0:0:0:
256,192,736432,1,8,0:0:0:0:
256,192,736496,1,0,0:0:0:0:
256,192,736561,1,8,0:0:0:0:
256,192,736625,1,8,0:0:0:0:
256,192,736690,1,0,0:0:0:0:
256,192,736883,1,8,0:0:0:0:
256,192,736980,1,0,0:0:0:0:
256,192,737077,1,8,0:0:0:0:
256,192,737174,1,8,0:0:0:0:
256,192,737271,1,0,0:0:0:0:
256,192,737367,1,8,0:0:0:0:
256,192,737561,1,8,0:0:0:0:
256,192,737658,1,0,0:0:0:0:
256,192,737851,1,0,0:0:0:0:
256,192,737980,1,0,0:0:0:0:
256,192,738109,1,8,0:0:0:0:
256,192,738238,1,0,0:0:0:0:
256,192,738367,1,8,0:0:0:0:
256,192,738496,1,8,0:0:0:0:
256,192,738625,1,0,0:0:0:0:
256,192,738754,1,0,0:0:0:0:
256,192,738883,1,8,0:0:0:0:
256,192,739013,1,0,0:0:0:0:
256,192,739142,1,8,0:0:0:0:
256,192,739271,1,8,0:0:0:0:
256,192,739400,1,4,0:0:0:0:
256,192,739529,1,8,0:0:0:0:
256,192,739593,1,8,0:0:0:0:
256,192,739658,1,0,0:0:0:0:
256,192,739722,1,8,0:0:0:0:
256,192,739787,1,0,0:0:0:0:
256,192,739980,1,0,0:0:0:0:
256,192,740174,1,8,0:0:0:0:
256,192,740271,1,0,0:0:0:0:
256,192,740367,1,0,0:0:0:0:
256,192,740464,1,8,0:0:0:0:
256,192,740561,1,0,0:0:0:0:
256,192,740658,1,0,0:0:0:0:
256,192,740754,1,8,0:0:0:0:
256,192,740948,1,4,0:0:0:0:
256,192,741077,1,8,0:0:0:0:
256,192,741142,1,8,0:0:0:0:
256,192,741206,1,8,0:0:0:0:
256,192,741271,1,0,0:0:0:0:
256,192,741335,1,0,0:0:0:0:
256,192,741529,1,0,0:0:0:0:
256,192,741722,1,0,0:0:0:0:
256,192,741819,1,8,0:0:0:0:
256,192,741916,1,8,0:0:0:0:
256,192,742013,1,0,0:0:0:0:
256,192,742109,1,8,0:0:0:0:
256,192,742206,1,8,0:0:0:0:
256,192,742303,1,0,0:0:0:0:
256,192,742496,1,12,0:0:0:0:
256,192,742625,1,0,0:0:0:0:
256,192,742690,1,0,0:0:0:0:
256,192,742754,1,0,0:0:0:0:
256,192,742819,1,0,0:0:0:0:
256,192,742883,1,8,0:0:0:0:
256,192,743077,1,0,0:0:0:0:
256,192,743271,1,8,0:0:0:0:
256,192,743367,1,8,0:0:0:0:
256,192,743464,1,0,0:0:0:0:
256,192,743561,1,8,0:0:0:0:
256,192,743658,1,0,0:0:0:0:
256,192,743754,1,0,0:0:0:0:
256,192,743851,1,8,0:0:0:0:
256,192,744045,1,0,0:0:0:0:
256,192,745593,1,4,0:0:0:0:
256,192,748690,1,0,0:0:0:0:
256,192,750238,1,8,0:0:0:0:
256,192,751787,1,0,0:0:0:0:
256,192,754883,1,8,0:0:0:0:
256,192,756432,1,0,0:0:0:0:
256,192,757980,1,12,0:0:0:0:
256,192,760690,1,4,0:0:0:0:
256,192,761077,1,12,0:0:0:0:
256,192,762625,1,12,0:0:0:0:
256,192,763787,1,4,0:0:0:0:
256,192,764174,1,12,0:0:0:0:
256,192,766883,1,4,0:0:0:0:
256,192,767271,1,12,0:0:0:0:
256,192,768819,1,4,0:0:0:0:
256,192,769206,1,12,0:0:0:0:
256,192,769593,1,4,0:0:0:0:
256,192,769980,1,4,0:0:0:0:
256,192,770367,1,12,0:0:0:0:
256,192,774715,1,0,0:0:0:0:
256,192,775270,1,8,0:0:0:0:
256,192,775548,1,0,0:0:0:0:
256,192,776659,1,8,0:0:0:0:
256,192,776937,1,0,0:0:0:0:
256,192,777492,1,8,0:0:0:0:
256,192,777770,1,0,0:0:0:0:
256,192,778881,1,8,0:0:0:0:
256,192,779159,1,0,0:0:0:0:
256,192,779715,1,8,0:0:0:0:
256,192,779992,1,0,0:0:0:0:
256,192,781103,1,8,0:0:0:0:
256,192,781381,1,0,0:0:0:0:
256,192,781937,1,8,0:0:0:0:
256,192,782215,1,0,0:0:0:0:
256,192,782770,1,0,0:0:0:0:
256,192,783326,1,8,0:0:0:0:
256,192,783603,1,0,0:0:0:0:
256,192,784159,1,8,0:0:0:0:
256,192,784437,1,0,0:0:0:0:
256,192,784715,1,0,0:0:0:0:
256,192,784992,1,8,0:0:0:0:
256,192,785548,1,8,0:0:0:0:
256,192,785826,1,0,0:0:0:0:
256,192,786381,1,8,0:0:0:0:
256,192,786659,1,0,0:0:0:0:
256,192,786937,1,0,0:0:0:0:
256,192,787215,1,8,0:0:0:0:
256,192,787353,1,0,0:0:0:0:
256,192,787492,1,8,0:0:0:0:
256,192,787770,1,8,0:0:0:0:
256,192,788048,1,0,0:0:0:0:
256,192,788603,1,8,0:0:0:0:
256,192,788881,1,0,0:0:0:0:
256,192,789159,1,8,0:0:0:0:
256,192,789437,1,8,0:0:0:0:
256,192,789992,1,8,0:0:0:0:
256,192,790270,1,0,0:0:0:0:
256,192,790826,1,8,0:0:0:0:
256,192,791103,1,0,0:0:0:0:
256,192,791659,1,0,0:0:0:0:
256,192,792215,1,8,0:0:0:0:
256,192,792492,1,4,0:0:0:0:
256,192,793048,1,8,0:0:0:0:
256,192,793326,1,4,0:0:0:0:
256,192,794159,1,0,0:0:0:0:
256,192,794437,1,8,0:0:0:0:
256,192,794715,1,4,0:0:0:0:
256,192,795270,1,8,0:0:0:0:
256,192,795548,1,4,0:0:0:0:
256,192,795826,1,0,0:0:0:0:
256,192,796103,1,8,0:0:0:0:
256,192,796242,1,0,0:0:0:0:
256,192,796381,1,8,0:0:0:0:
256,192,796659,1,8,0:0:0:0:
256,192,796937,1,4,0:0:0:0:
256,192,797492,1,8,0:0:0:0:
256,192,797770,1,4,0:0:0:0:
256,192,798048,1,0,0:0:0:0:
256,192,798881,1,8,0:0:0:0:
256,192,799159,1,4,0:0:0:0:
256,192,799715,1,8,0:0:0:0:
256,192,799992,1,4,0:0:0:0:
256,192,800270,1,0,0:0:0:0:
256,192,800409,1,8,0:0:0:0:
256,192,800548,1,8,0:0:0:0:
256,192,800826,1,0,0:0:0:0:
256,192,801103,1,8,0:0:0:0:
256,192,801381,1,4,0:0:0:0:
256,192,801520,1,8,0:0:0:0:
256,192,801659,1,0,0:0:0:0:
256,192,801798,1,0,0:0:0:0:
256,192,801937,1,8,0:0:0:0:
256,192,802215,1,4,0:0:0:0:
256,192,802492,1,8,0:0:0:0:
256,192,802631,1,0,0:0:0:0:
256,192,802770,1,8,0:0:0:0:
256,192,803048,1,0,0:0:0:0:
256,192,803326,1,8,0:0:0:0:
256,192,803603,1,4,0:0:0:0:
256,192,803742,1,0,0:0:0:0:
256,192,803881,1,8,0:0:0:0:
256,192,804020,1,0,0:0:0:0:
256,192,804159,1,8,0:0:0:0:
256,192,804437,1,4,0:0:0:0:
256,192,804715,1,8,0:0:0:0:
256,192,805548,1,8,0:0:0:0:
256,192,805826,1,4,0:0:0:0:
256,192,805965,1,8,0:0:0:0:
256,192,806103,1,8,0:0:0:0:
256,192,806242,1,0,0:0:0:0:
256,192,806381,1,8,0:0:0:0:
256,192,806659,1,4,0:0:0:0:
256,192,806937,1,8,0:0:0:0:
256,192,807076,1,0,0:0:0:0:
256,192,807215,1,8,0:0:0:0:
256,192,807492,1,0,0:0:0:0:
256,192,807770,1,8,0:0:0:0:
256,192,808048,1,4,0:0:0:0:
256,192,808395,1,0,0:0:0:0:
256,192,808465,1,0,0:0:0:0:
256,192,808603,1,8,0:0:0:0:
256,192,808881,1,4,0:0:0:0:
256,192,809159,1,8,0:0:0:0:
256,192,809437,1,4,0:0:0:0:
256,192,809576,1,8,0:0:0:0:
256,192,809715,1,0,0:0:0:0:
256,192,809992,1,8,0:0:0:0:
256,192,810270,1,4,0:0:0:0:
256,192,810409,1,8,0:0:0:0:
256,192,810548,1,0,0:0:0:0:
256,192,810687,1,8,0:0:0:0:
256,192,810826,1,8,0:0:0:0:
256,192,811104,1,4,0:0:0:0:
256,192,811381,1,8,0:0:0:0:
256,192,811520,1,0,0:0:0:0:
256,192,811659,1,8,0:0:0:0:
256,192,811937,1,0,0:0:0:0:
256,192,812215,1,8,0:0:0:0:
256,192,812492,1,4,0:0:0:0:
256,192,812631,1,0,0:0:0:0:
256,192,812770,1,8,0:0:0:0:
256,192,812909,1,0,0:0:0:0:
256,192,813048,1,8,0:0:0:0:
256,192,813326,1,4,0:0:0:0:
256,192,813604,1,8,0:0:0:0:
256,192,814437,1,8,0:0:0:0:
256,192,814715,1,4,0:0:0:0:
256,192,814854,1,8,0:0:0:0:
256,192,814992,1,8,0:0:0:0:
256,192,815131,1,0,0:0:0:0:
256,192,815270,1,8,0:0:0:0:
256,192,815409,1,0,0:0:0:0:
256,192,815548,1,4,0:0:0:0:
256,192,815826,1,8,0:0:0:0:
256,192,815965,1,0,0:0:0:0:
256,192,816104,1,8,0:0:0:0:
256,192,816381,1,0,0:0:0:0:
256,192,816659,1,8,0:0:0:0:
256,192,816937,1,4,0:0:0:0:
256,192,817076,1,8,0:0:0:0:
256,192,817215,1,8,0:0:0:0:
256,192,817353,1,0,0:0:0:0:
256,192,817492,1,8,0:0:0:0:
256,192,817631,1,0,0:0:0:0:
256,192,817770,1,4,0:0:0:0:
256,192,817909,1,8,0:0:0:0:
256,192,818048,1,8,0:0:0:0:
256,192,818187,1,0,0:0:0:0:
256,192,818326,1,4,0:0:0:0:
256,192,818465,1,8,0:0:0:0:
256,192,818603,1,0,0:0:0:0:
256,192,818742,1,0,0:0:0:0:
256,192,818881,1,8,0:0:0:0:
256,192,819020,1,0,0:0:0:0:
256,192,819159,1,8,0:0:0:0:
256,192,819992,1,0,0:0:0:0:
256,192,821381,1,0,0:0:0:0:
256,192,822215,1,0,0:0:0:0:
256,192,823603,1,8,0:0:0:0:
256,192,824437,1,0,0:0:0:0:
256,192,825826,1,8,0:0:0:0:
256,192,826659,1,0,0:0:0:0:
256,192,828048,1,4,0:0:0:0:
256,192,828603,1,8,0:0:0:0:
256,192,828881,1,4,0:0:0:0:
256,192,829298,1,8,0:0:0:0:
256,192,829437,1,0,0:0:0:0:
256,192,829715,1,8,0:0:0:0:
256,192,829992,1,8,0:0:0:0:
256,192,830270,1,4,0:0:0:0:
256,192,830548,1,8,0:0:0:0:
256,192,830687,1,0,0:0:0:0:
256,192,830826,1,8,0:0:0:0:
256,192,830965,1,8,0:0:0:0:
256,192,831103,1,4,0:0:0:0:
256,192,831381,1,8,0:0:0:0:
256,192,831659,1,0,0:0:0:0:
256,192,831798,1,8,0:0:0:0:
256,192,831937,1,8,0:0:0:0:
256,192,832076,1,0,0:0:0:0:
256,192,832215,1,8,0:0:0:0:
256,192,832492,1,4,0:0:0:0:
256,192,833048,1,8,0:0:0:0:
256,192,833326,1,4,0:0:0:0:
256,192,833603,1,0,0:0:0:0:
256,192,833742,1,8,0:0:0:0:
256,192,833881,1,0,0:0:0:0:
256,192,834159,1,8,0:0:0:0:
256,192,834437,1,8,0:0:0:0:
256,192,834715,1,4,0:0:0:0:
256,192,834992,1,8,0:0:0:0:
256,192,835131,1,0,0:0:0:0:
256,192,835270,1,8,0:0:0:0:
256,192,835409,1,8,0:0:0:0:
256,192,835548,1,4,0:0:0:0:
256,192,835687,1,0,0:0:0:0:
256,192,835826,1,8,0:0:0:0:
256,192,836103,1,0,0:0:0:0:
256,192,836242,1,0,0:0:0:0:
256,192,836381,1,8,0:0:0:0:
256,192,836520,1,0,0:0:0:0:
256,192,836659,1,8,0:0:0:0:
256,192,836798,1,8,0:0:0:0:
256,192,836937,1,0,0:0:0:0:
256,192,838048,1,0,0:0:0:0:
256,192,839159,1,8,0:0:0:0:
256,192,839992,1,0,0:0:0:0:
256,192,841381,1,0,0:0:0:0:
256,192,842492,1,8,0:0:0:0:
256,192,843603,1,8,0:0:0:0:
256,192,844437,1,0,0:0:0:0:
256,192,845270,1,0,0:0:0:0:
256,192,845548,1,8,0:0:0:0:
256,192,845826,1,0,0:0:0:0:
256,192,846381,1,8,0:0:0:0:
256,192,846659,1,0,0:0:0:0:
256,192,847215,1,0,0:0:0:0:
256,192,847492,1,8,0:0:0:0:
256,192,848048,1,0,0:0:0:0:
256,192,848326,1,0,0:0:0:0:
256,192,848603,1,8,0:0:0:0:
256,192,848881,1,0,0:0:0:0:
256,192,849437,1,0,0:0:0:0:
256,192,849715,1,8,0:0:0:0:
256,192,850270,1,0,0:0:0:0:
256,192,850826,1,8,0:0:0:0:
256,192,851103,1,0,0:0:0:0:
256,192,851381,1,0,0:0:0:0:
256,192,851659,1,0,0:0:0:0:
256,192,851937,1,8,0:0:0:0:
256,192,852492,1,0,0:0:0:0:
256,192,852770,1,8,0:0:0:0:
256,192,853048,1,8,0:0:0:0:
256,192,853326,1,0,0:0:0:0:
256,192,853603,1,8,0:0:0:0:
256,192,853742,1,8,0:0:0:0:
256,192,853881,1,8,0:0:0:0:
256,192,854020,1,8,0:0:0:0:
256,192,854159,1,8,0:0:0:0:
256,192,854437,1,8,0:0:0:0:
256,192,854576,1,0,0:0:0:0:
256,192,854715,1,4,0:0:0:0:
256,192,855270,1,8,0:0:0:0:
256,192,855548,1,4,0:0:0:0:
256,192,855687,1,8,0:0:0:0:
256,192,855826,1,8,0:0:0:0:
256,192,856103,1,0,0:0:0:0:
256,192,856381,1,8,0:0:0:0:
256,192,856937,1,4,0:0:0:0:
256,192,857076,1,8,0:0:0:0:
256,192,857215,1,0,0:0:0:0:
256,192,857492,1,8,0:0:0:0:
256,192,857770,1,4,0:0:0:0:
256,192,858048,1,8,0:0:0:0:
256,192,858187,1,0,0:0:0:0:
256,192,858326,1,0,0:0:0:0:
256,192,858603,1,8,0:0:0:0:
256,192,859159,1,4,0:0:0:0:
256,192,859715,1,8,0:0:0:0:
256,192,859992,1,4,0:0:0:0:
256,192,860131,1,0,0:0:0:0:
256,192,860270,1,8,0:0:0:0:
256,192,860548,1,0,0:0:0:0:
256,192,860826,1,8,0:0:0:0:
256,192,861381,1,4,0:0:0:0:
256,192,861937,1,8,0:0:0:0:
256,192,862215,1,4,0:0:0:0:
256,192,862492,1,0,0:0:0:0:
256,192,862631,1,8,0:0:0:0:
256,192,862770,1,4,0:0:0:0:
256,192,862909,1,0,0:0:0:0:
256,192,863048,1,8,0:0:0:0:
256,192,863326,1,8,0:0:0:0:
256,192,863603,1,0,0:0:0:0:
256,192,863881,1,8,0:0:0:0:
256,192,864159,1,8,0:0:0:0:
256,192,864437,1,0,0:0:0:0:
256,192,864715,1,8,0:0:0:0:
256,192,864853,1,8,0:0:0:0:
256,192,864992,1,0,0:0:0:0:
256,192,865270,1,8,0:0:0:0:
256,192,865548,1,0,0:0:0:0:
256,192,865826,1,8,0:0:0:0:
256,192,865965,1,0,0:0:0:0:
256,192,866103,1,8,0:0:0:0:
256,192,866242,1,8,0:0:0:0:
256,192,866381,1,0,0:0:0:0:
256,192,866659,1,8,0:0:0:0:
256,192,866937,1,0,0:0:0:0:
256,192,867076,1,8,0:0:0:0:
256,192,867215,1,0,0:0:0:0:
256,192,867353,1,0,0:0:0:0:
256,192,867492,1,8,0:0:0:0:
256,192,867770,1,0,0:0:0:0:
256,192,868048,1,8,0:0:0:0:
256,192,868326,1,0,0:0:0:0:
256,192,868603,1,0,0:0:0:0:
256,192,868881,1,8,0:0:0:0:
256,192,869159,1,0,0:0:0:0:
256,192,869298,1,0,0:0:0:0:
256,192,869437,1,8,0:0:0:0:
256,192,869576,1,8,0:0:0:0:
256,192,869715,1,0,0:0:0:0:
256,192,869992,1,8,0:0:0:0:
256,192,870270,1,0,0:0:0:0:
256,192,870548,1,8,0:0:0:0:
256,192,870826,1,8,0:0:0:0:
256,192,871103,1,0,0:0:0:0:
256,192,871381,1,8,0:0:0:0:
256,192,871798,1,8,0:0:0:0:
256,192,871937,1,8,0:0:0:0:
256,192,872215,1,8,0:0:0:0:
256,192,872492,1,4,0:0:0:0:
256,192,873326,1,4,0:0:0:0:
256,192,874715,1,4,0:0:0:0:
256,192,875548,1,4,0:0:0:0:
256,192,876937,1,4,0:0:0:0:
256,192,877770,1,4,0:0:0:0:
256,192,879159,1,4,0:0:0:0:
256,192,879992,1,4,0:0:0:0:
256,192,880548,1,4,0:0:0:0:
256,192,881381,1,4,0:0:0:0:
256,192,881937,1,8,0:0:0:0:
256,192,882215,1,4,0:0:0:0:
256,192,883326,1,8,0:0:0:0:
256,192,883603,1,4,0:0:0:0:
256,192,884159,1,8,0:0:0:0:
256,192,884437,1,4,0:0:0:0:
256,192,885548,1,8,0:0:0:0:
256,192,885826,1,4,0:0:0:0:
256,192,886381,1,8,0:0:0:0:
256,192,886659,1,4,0:0:0:0:
256,192,887770,1,8,0:0:0:0:
256,192,888048,1,4,0:0:0:0:
256,192,888603,1,8,0:0:0:0:
256,192,888881,1,4,0:0:0:0:
256,192,889437,1,4,0:0:0:0:
256,192,890270,1,8,0:0:0:0:
256,192,891103,1,0,0:0:0:0:
256,192,892492,1,0,0:0:0:0:
256,192,893326,1,0,0:0:0:0:
256,192,894714,1,8,0:0:0:0:
256,192,895548,1,0,0:0:0:0:
256,192,896937,1,8,0:0:0:0:
256,192,897770,1,0,0:0:0:0:
256,192,898326,1,0,0:0:0:0:
256,192,899159,1,4,0:0:0:0:
256,192,899714,1,8,0:0:0:0:
256,192,899992,1,4,0:0:0:0:
256,192,900409,1,8,0:0:0:0:
256,192,900548,1,0,0:0:0:0:
256,192,900826,1,8,0:0:0:0:
256,192,901103,1,8,0:0:0:0:
256,192,901381,1,4,0:0:0:0:
256,192,901659,1,8,0:0:0:0:
256,192,901798,1,0,0:0:0:0:
256,192,901937,1,8,0:0:0:0:
256,192,902076,1,8,0:0:0:0:
256,192,902214,1,4,0:0:0:0:
256,192,902492,1,8,0:0:0:0:
256,192,902770,1,0,0:0:0:0:
256,192,902909,1,8,0:0:0:0:
256,192,903048,1,8,0:0:0:0:
256,192,903187,1,0,0:0:0:0:
256,192,903326,1,8,0:0:0:0:
256,192,903603,1,4,0:0:0:0:
256,192,904159,1,8,0:0:0:0:
256,192,904437,1,4,0:0:0:0:
256,192,904714,1,0,0:0:0:0:
256,192,904853,1,8,0:0:0:0:
256,192,904992,1,0,0:0:0:0:
256,192,905270,1,8,0:0:0:0:
256,192,905548,1,8,0:0:0:0:
256,192,905826,1,4,0:0:0:0:
256,192,906103,1,8,0:0:0:0:
256,192,906242,1,0,0:0:0:0:
256,192,906381,1,8,0:0:0:0:
256,192,906520,1,8,0:0:0:0:
256,192,906659,1,4,0:0:0:0:
256,192,906798,1,0,0:0:0:0:
256,192,906937,1,8,0:0:0:0:
256,192,907214,1,0,0:0:0:0:
256,192,907353,1,0,0:0:0:0:
256,192,907492,1,8,0:0:0:0:
256,192,907631,1,0,0:0:0:0:
256,192,907770,1,8,0:0:0:0:
256,192,908048,1,4,0:0:0:0:
256,192,908326,1,0,0:0:0:0:
256,192,908603,1,8,0:0:0:0:
256,192,908881,1,4,0:0:0:0:
256,192,909020,1,8,0:0:0:0:
256,192,909159,1,0,0:0:0:0:
256,192,909437,1,0,0:0:0:0:
256,192,909715,1,8,0:0:0:0:
256,192,909992,1,8,0:0:0:0:
256,192,910131,1,0,0:0:0:0:
256,192,910270,1,4,0:0:0:0:
256,192,910548,1,8,0:0:0:0:
256,192,910687,1,0,0:0:0:0:
256,192,910826,1,8,0:0:0:0:
256,192,910965,1,8,0:0:0:0:
256,192,911103,1,4,0:0:0:0:
256,192,911242,1,8,0:0:0:0:
256,192,911381,1,0,0:0:0:0:
256,192,911659,1,0,0:0:0:0:
256,192,911798,1,0,0:0:0:0:
256,192,911937,1,8,0:0:0:0:
256,192,912076,1,0,0:0:0:0:
256,192,912215,1,8,0:0:0:0:
256,192,912353,1,8,0:0:0:0:
256,192,912492,1,4,0:0:0:0:
256,192,912770,1,0,0:0:0:0:
256,192,913048,1,8,0:0:0:0:
256,192,913326,1,4,0:0:0:0:
256,192,913465,1,8,0:0:0:0:
256,192,913603,1,8,0:0:0:0:
256,192,913881,1,0,0:0:0:0:
256,192,914159,1,8,0:0:0:0:
256,192,914437,1,8,0:0:0:0:
256,192,914576,1,8,0:0:0:0:
256,192,914715,1,4,0:0:0:0:
256,192,914992,1,8,0:0:0:0:
256,192,915131,1,0,0:0:0:0:
256,192,915270,1,8,0:0:0:0:
256,192,915409,1,8,0:0:0:0:
256,192,915548,1,4,0:0:0:0:
256,192,915687,1,8,0:0:0:0:
256,192,915826,1,8,0:0:0:0:
256,192,915965,1,8,0:0:0:0:
256,192,916103,1,4,0:0:0:0:
256,192,916242,1,8,0:0:0:0:
256,192,916381,1,0,0:0:0:0:
256,192,918475,5,8,0:0:0:0:
256,192,920372,1,0,0:0:0:0:
256,192,920519,1,8,0:0:0:0:
256,192,920592,1,8,0:0:0:0:
256,192,920702,1,0,0:0:0:0:
256,192,920813,1,0,0:0:0:0:
256,192,920923,1,0,0:0:0:0:
256,192,921033,1,8,0:0:0:0:
256,192,921150,1,0,0:0:0:0:
256,192,921267,1,8,0:0:0:0:
256,192,922179,1,8,0:0:0:0:
256,192,922613,1,0,0:0:0:0:
256,192,923910,1,8,0:0:0:0:
256,192,924812,1,0,0:0:0:0:
256,192,927036,1,8,0:0:0:0:
256,192,927204,1,0,0:0:0:0:
256,192,927672,1,8,0:0:0:0:
256,192,928155,1,8,0:0:0:0:
256,192,928994,1,0,0:0:0:0:
256,192,929156,1,8,0:0:0:0:
256,192,929664,1,8,0:0:0:0:
256,192,930194,1,0,0:0:0:0:
256,192,930706,1,8,0:0:0:0:
256,192,931269,1,0,0:0:0:0:
256,192,932120,1,8,0:0:0:0:
256,192,933057,1,0,0:0:0:0:
256,192,934147,1,0,0:0:0:0:
256,192,934280,1,0,0:0:0:0:
256,192,934414,1,0,0:0:0:0:
256,192,934733,1,8,0:0:0:0:
256,192,935345,1,8,0:0:0:0:
256,192,935890,1,0,0:0:0:0:
256,192,936759,1,8,0:0:0:0:
256,192,937675,1,0,0:0:0:0:
256,192,937785,1,8,0:0:0:0:
256,192,937941,1,0,0:0:0:0:
256,192,938216,1,0,0:0:0:0:
256,192,938841,1,8,0:0:0:0:
256,192,939493,1,8,0:0:0:0:
256,192,940145,1,8,0:0:0:0:
256,192,940797,1,8,0:0:0:0:
256,192,941449,1,4,0:0:0:0:
256,192,941824,1,4,0:0:0:0:
256,192,942130,1,12,0:0:0:0:
256,192,943130,1,4,0:0:0:0:
256,192,943402,1,12,0:0:0:0:
256,192,943711,1,4,0:0:0:0:
256,192,944370,1,4,0:0:0:0:
256,192,944673,1,12,0:0:0:0:
256,192,945568,1,4,0:0:0:0:
256,192,945710,1,4,0:0:0:0:
256,192,945892,1,12,0:0:0:0:
256,192,946504,1,0,0:0:0:0:
256,192,946883,1,8,0:0:0:0:
256,192,947235,1,0,0:0:0:0:
256,192,947392,1,0,0:0:0:0:
256,192,947592,1,8,0:0:0:0:
256,192,947925,1,8,0:0:0:0:
256,192,948258,1,0,0:0:0:0:
256,192,948409,1,8,0:0:0:0:
256,192,948614,1,8,0:0:0:0:
256,192,948799,1,0,0:0:0:0:
256,192,948978,1,0,0:0:0:0:
256,192,949250,1,8,0:0:0:0:
256,192,949655,1,0,0:0:0:0:
256,192,950027,1,0,0:0:0:0:
256,192,950379,1,8,0:0:0:0:
256,192,950691,1,0,0:0:0:0:
256,192,950882,1,0,0:0:0:0:
256,192,951008,1,8,0:0:0:0:
256,192,951195,1,0,0:0:0:0:
256,192,951361,1,8,0:0:0:0:
256,192,951523,1,8,0:0:0:0:
256,192,951723,1,0,0:0:0:0:
256,192,951895,1,8,0:0:0:0:
256,192,952062,1,0,0:0:0:0:
256,192,952155,1,8,0:0:0:0:
256,192,952512,1,0,0:0:0:0:
256,192,952651,1,8,0:0:0:0:
256,192,953899,1,0,0:0:0:0:
256,192,955232,1,8,0:0:0:0:
256,192,956095,1,12,0:0:0:0:
256,192,956482,1,0,0:0:0:0:
256,192,958704,1,8,0:0:0:0:
256,192,958934,1,8,0:0:0:0:
256,192,959165,1,0,0:0:0:0:
256,192,959396,1,8,0:0:0:0:
256,192,959627,1,0,0:0:0:0:
256,192,960903,1,8,0:0:0:0:
256,192,962180,1,8,0:0:0:0:
256,192,963019,1,0,0:0:0:0:
256,192,969365,5,8,0:0:0:0:
256,192,969434,1,8,0:0:0:0:
256,192,969527,1,0,0:0:0:0:
256,192,969660,1,8,0:0:0:0:
256,192,969960,1,0,0:0:0:0:
256,192,970472,1,8,0:0:0:0:
256,192,970985,1,0,0:0:0:0:
256,192,971498,1,8,0:0:0:0:
256,192,972011,1,0,0:0:0:0:
256,192,972524,1,8,0:0:0:0:
256,192,973036,1,8,0:0:0:0:
256,192,973549,1,8,0:0:0:0:
256,192,973966,1,0,0:0:0:0:
256,192,974511,1,8,0:0:0:0:
256,192,975177,1,0,0:0:0:0:
256,192,975722,1,8,0:0:0:0:
256,192,976322,1,0,0:0:0:0:
256,192,976867,1,8,0:0:0:0:
256,192,977667,1,0,0:0:0:0:
256,192,978238,1,8,0:0:0:0:
256,192,978699,1,0,0:0:0:0:
256,192,979220,1,8,0:0:0:0:
256,192,979742,1,0,0:0:0:0:
256,192,980264,1,8,0:0:0:0:
256,192,980785,1,0,0:0:0:0:
256,192,981307,1,0,0:0:0:0:
256,192,982375,1,4,0:0:0:0:
256,192,982647,1,8,0:0:0:0:
256,192,982715,1,0,0:0:0:0:
256,192,982784,1,8,0:0:0:0:
256,192,982920,1,0,0:0:0:0:
256,192,983056,1,0,0:0:0:0:
256,192,983193,1,8,0:0:0:0:
256,192,983465,1,0,0:0:0:0:
256,192,983534,1,8,0:0:0:0:
256,192,983602,1,0,0:0:0:0:
256,192,983738,1,8,0:0:0:0:
256,192,983806,1,8,0:0:0:0:
256,192,983875,1,8,0:0:0:0:
256,192,984011,1,0,0:0:0:0:
256,192,984147,1,0,0:0:0:0:
256,192,984284,1,8,0:0:0:0:
256,192,984556,1,0,0:0:0:0:
256,192,984689,1,8,0:0:0:0:
256,192,984823,1,0,0:0:0:0:
256,192,984957,1,8,0:0:0:0:
256,192,985091,1,8,0:0:0:0:
256,192,985225,1,0,0:0:0:0:
256,192,985359,1,8,0:0:0:0:
256,192,985493,1,8,0:0:0:0:
256,192,985627,1,0,0:0:0:0:
256,192,985761,1,0,0:0:0:0:
256,192,985895,1,8,0:0:0:0:
256,192,986029,1,0,0:0:0:0:
256,192,986163,1,8,0:0:0:0:
256,192,986297,1,8,0:0:0:0:
256,192,986431,1,0,0:0:0:0:
256,192,986564,1,8,0:0:0:0:
256,192,986698,1,4,0:0:0:0:
256,192,986970,1,8,0:0:0:0:
256,192,987038,1,0,0:0:0:0:
256,192,987107,1,8,0:0:0:0:
256,192,987243,1,0,0:0:0:0:
256,192,987379,1,0,0:0:0:0:
256,192,987516,1,8,0:0:0:0:
256,192,987908,1,4,0:0:0:0:
256,192,988180,1,8,0:0:0:0:
256,192,988248,1,0,0:0:0:0:
256,192,988317,1,8,0:0:0:0:
256,192,988453,1,0,0:0:0:0:
256,192,988589,1,0,0:0:0:0:
256,192,988726,1,8,0:0:0:0:
256,192,988998,1,0,0:0:0:0:
256,192,989131,1,8,0:0:0:0:
256,192,989265,1,0,0:0:0:0:
256,192,989399,1,8,0:0:0:0:
256,192,989533,1,8,0:0:0:0:
256,192,989667,1,0,0:0:0:0:
256,192,989801,1,0,0:0:0:0:
256,192,989935,1,8,0:0:0:0:
256,192,990069,1,0,0:0:0:0:
256,192,990203,1,8,0:0:0:0:
256,192,990337,1,8,0:0:0:0:
256,192,990471,1,0,0:0:0:0:
256,192,990605,1,8,0:0:0:0:
256,192,990739,1,8,0:0:0:0:
256,192,990873,1,8,0:0:0:0:
256,192,991006,1,0,0:0:0:0:
256,192,991140,1,8,0:0:0:0:
256,192,993302,1,8,0:0:0:0:
256,192,995464,8,0,996545,0:0:0:0:
256,192,997626,8,0,998675,0:0:0:0:
256,192,999380,5,8,0:0:0:0:
256,192,1001264,1,0,0:0:0:0:
256,192,1002853,1,0,0:0:0:0:
256,192,1004592,1,0,0:0:0:0:
256,192,1006331,1,8,0:0:0:0:
256,192,1007997,1,0,0:0:0:0:
256,192,1009917,1,0,0:0:0:0:
256,192,1011544,1,0,0:0:0:0:
256,192,1013383,1,8,0:0:0:0:
256,192,1015287,1,0,0:0:0:0:
256,192,1016908,1,0,0:0:0:0:
256,192,1018529,1,0,0:0:0:0:
256,192,1020333,1,8,0:0:0:0:
256,192,1022011,1,0,0:0:0:0:
256,192,1023815,1,0,0:0:0:0:
256,192,1025554,1,8,0:0:0:0:
256,192,1027386,1,8,0:0:0:0:
256,192,1029290,1,0,0:0:0:0:
256,192,1030868,1,8,0:0:0:0:
256,192,1031520,1,0,0:0:0:0:
256,192,1032172,1,0,0:0:0:0:
256,192,1032607,1,8,0:0:0:0:
256,192,1033259,1,8,0:0:0:0:
256,192,1033911,1,0,0:0:0:0:
256,192,1034128,1,0,0:0:0:0:
256,192,1034346,1,8,0:0:0:0:
256,192,1036085,1,0,0:0:0:0:
256,192,1037824,1,8,0:0:0:0:
256,192,1038476,1,8,0:0:0:0:
256,192,1039128,1,0,0:0:0:0:
256,192,1039563,1,8,0:0:0:0:
256,192,1040215,1,0,0:0:0:0:
256,192,1040868,1,8,0:0:0:0:
256,192,1041085,1,0,0:0:0:0:
256,192,1041389,1,8,0:0:0:0:
256,192,1043293,1,0,0:0:0:0:
256,192,1044861,1,0,0:0:0:0:
256,192,1045513,1,8,0:0:0:0:
256,192,1046165,1,8,0:0:0:0:
256,192,1046600,1,0,0:0:0:0:
256,192,1047252,1,8,0:0:0:0:
256,192,1047904,1,8,0:0:0:0:
256,192,1048121,1,0,0:0:0:0:
256,192,1048339,1,8,0:0:0:0:
256,192,1050078,1,8,0:0:0:0:
256,192,1051817,1,8,0:0:0:0:
256,192,1052469,1,8,0:0:0:0:
256,192,1053121,1,8,0:0:0:0:
256,192,1053556,1,0,0:0:0:0:
256,192,1054208,1,8,0:0:0:0:
256,192,1054861,1,0,0:0:0:0:
256,192,1055295,1,12,0:0:0:0:
256,192,1062458,5,0,0:0:0:0:
256,192,1062990,1,8,0:0:0:0:
256,192,1063168,1,0,0:0:0:0:
256,192,1063523,1,0,0:0:0:0:
256,192,1063700,1,8,0:0:0:0:
256,192,1063878,1,0,0:0:0:0:
256,192,1064588,1,0,0:0:0:0:
256,192,1065298,1,8,0:0:0:0:
256,192,1065475,1,0,0:0:0:0:
256,192,1065830,1,8,0:0:0:0:
256,192,1066185,1,0,0:0:0:0:
256,192,1066363,1,8,0:0:0:0:
256,192,1066540,1,8,0:0:0:0:
256,192,1066718,1,0,0:0:0:0:
256,192,1067073,1,8,0:0:0:0:
256,192,1067428,1,0,0:0:0:0:
256,192,1067605,1,0,0:0:0:0:
256,192,1067783,1,8,0:0:0:0:
256,192,1068138,1,0,0:0:0:0:
256,192,1068671,1,8,0:0:0:0:
256,192,1068848,1,0,0:0:0:0:
256,192,1069558,1,0,0:0:0:0:
256,192,1070268,1,8,0:0:0:0:
256,192,1070978,1,0,0:0:0:0:
256,192,1071511,1,0,0:0:0:0:
256,192,1071688,1,8,0:0:0:0:
256,192,1072398,1,0,0:0:0:0:
256,192,1073818,1,8,0:0:0:0:
256,192,1074529,1,0,0:0:0:0:
256,192,1075239,1,8,0:0:0:0:
256,192,1075594,1,8,0:0:0:0:
256,192,1075949,1,0,0:0:0:0:
256,192,1076304,1,8,0:0:0:0:
256,192,1077014,1,8,0:0:0:0:
256,192,1077369,1,0,0:0:0:0:
256,192,1077724,1,0,0:0:0:0:
256,192,1078079,1,8,0:0:0:0:
256,192,1078789,1,0,0:0:0:0:
256,192,1079499,1,8,0:0:0:0:
256,192,1080209,1,0,0:0:0:0:
256,192,1080919,1,8,0:0:0:0:
256,192,1081274,1,8,0:0:0:0:
256,192,1081629,1,0,0:0:0:0:
256,192,1081984,1,8,0:0:0:0:
256,192,1082694,1,0,0:0:0:0:
256,192,1083049,1,8,0:0:0:0:
256,192,1083404,1,0,0:0:0:0:
256,192,1084114,1,8,0:0:0:0:
256,192,1084469,1,8,0:0:0:0:
256,192,1085179,1,0,0:0:0:0:
256,192,1085534,1,8,0:0:0:0:
256,192,1086244,1,8,0:0:0:0:
256,192,1086600,1,0,0:0:0:0:
256,192,1086777,1,0,0:0:0:0:
256,192,1086955,1,8,0:0:0:0:
256,192,1087310,1,8,0:0:0:0:
256,192,1087487,1,0,0:0:0:0:
256,192,1087665,1,8,0:0:0:0:
256,192,1088020,1,0,0:0:0:0:
256,192,1088375,1,8,0:0:0:0:
256,192,1088730,1,0,0:0:0:0:
256,192,1088907,1,8,0:0:0:0:
256,192,1089085,1,8,0:0:0:0:
256,192,1089262,1,0,0:0:0:0:
256,192,1089617,1,8,0:0:0:0:
256,192,1089795,1,0,0:0:0:0:
256,192,1089972,1,8,0:0:0:0:
256,192,1090150,1,0,0:0:0:0:
256,192,1090327,1,0,0:0:0:0:
256,192,1090505,1,8,0:0:0:0:
256,192,1090860,1,0,0:0:0:0:
256,192,1091215,1,8,0:0:0:0:
256,192,1091570,1,0,0:0:0:0:
256,192,1091747,1,0,0:0:0:0:
256,192,1091925,1,8,0:0:0:0:
256,192,1092102,1,8,0:0:0:0:
256,192,1092280,1,0,0:0:0:0:
256,192,1092635,1,8,0:0:0:0:
256,192,1092990,1,0,0:0:0:0:
256,192,1093168,1,8,0:0:0:0:
256,192,1093345,1,8,0:0:0:0:
256,192,1093700,1,0,0:0:0:0:
256,192,1094055,1,8,0:0:0:0:
256,192,1094233,1,0,0:0:0:0:
256,192,1094410,1,8,0:0:0:0:
256,192,1094588,1,8,0:0:0:0:
256,192,1094765,1,0,0:0:0:0:
256,192,1095120,1,8,0:0:0:0:
256,192,1095475,1,0,0:0:0:0:
256,192,1095830,1,8,0:0:0:0:
256,192,1096008,1,8,0:0:0:0:
256,192,1096185,1,8,0:0:0:0:
256,192,1096540,1,0,0:0:0:0:
256,192,1096718,1,0,0:0:0:0:
256,192,1096895,1,8,0:0:0:0:
256,192,1097073,1,8,0:0:0:0:
256,192,1097250,1,0,0:0:0:0:
256,192,1097428,1,8,0:0:0:0:
256,192,1097605,1,8,0:0:0:0:
256,192,1097783,1,8,0:0:0:0:
256,192,1097960,1,0,0:0:0:0:
256,192,1098315,1,0,0:0:0:0:
256,192,1098493,1,8,0:0:0:0:
256,192,1098671,1,0,0:0:0:0:
256,192,1098848,1,8,0:0:0:0:
256,192,1099026,1,8,0:0:0:0:
256,192,1099203,1,8,0:0:0:0:
256,192,1099381,1,0,0:0:0:0:
256,192,1099736,1,8,0:0:0:0:
256,192,1099913,1,0,0:0:0:0:
256,192,1100091,1,8,0:0:0:0:
256,192,1100268,1,8,0:0:0:0:
256,192,1100446,1,0,0:0:0:0:
256,192,1100623,1,0,0:0:0:0:
256,192,1100801,1,8,0:0:0:0:
256,192,1100978,1,0,0:0:0:0:
256,192,1101156,1,0,0:0:0:0:
256,192,1101333,1,8,0:0:0:0:
256,192,1101511,1,0,0:0:0:0:
256,192,1101688,1,8,0:0:0:0:
256,192,1101866,1,8,0:0:0:0:
256,192,1102043,1,8,0:0:0:0:
256,192,1102221,1,0,0:0:0:0:
256,192,1102576,1,0,0:0:0:0:
256,192,1102753,1,8,0:0:0:0:
256,192,1102931,1,0,0:0:0:0:
256,192,1103108,1,0,0:0:0:0:
256,192,1103286,1,8,0:0:0:0:
256,192,1103463,1,8,0:0:0:0:
256,192,1103641,1,0,0:0:0:0:
256,192,1103996,1,0,0:0:0:0:
256,192,1104173,1,8,0:0:0:0:
256,192,1104351,1,8,0:0:0:0:
256,192,1104529,1,0,0:0:0:0:
256,192,1104706,1,8,0:0:0:0:
256,192,1104884,1,8,0:0:0:0:
256,192,1105061,1,0,0:0:0:0:
256,192,1105416,1,0,0:0:0:0:
256,192,1105594,1,0,0:0:0:0:
256,192,1105771,1,8,0:0:0:0:
256,192,1105949,1,8,0:0:0:0:
256,192,1106126,1,0,0:0:0:0:
256,192,1106304,1,8,0:0:0:0:
256,192,1106481,1,0,0:0:0:0:
256,192,1106659,1,0,0:0:0:0:
256,192,1106836,1,0,0:0:0:0:
256,192,1107014,1,8,0:0:0:0:
256,192,1107191,1,0,0:0:0:0:
256,192,1107369,1,8,0:0:0:0:
256,192,1107546,1,8,0:0:0:0:
256,192,1107724,1,8,0:0:0:0:
256,192,1107901,1,0,0:0:0:0:
256,192,1108256,1,8,0:0:0:0:
256,192,1108611,1,8,0:0:0:0:
256,192,1108966,1,0,0:0:0:0:
256,192,1109321,1,8,0:0:0:0:
256,192,1109676,1,0,0:0:0:0:
256,192,1110031,1,8,0:0:0:0:
256,192,1110386,1,8,0:0:0:0:
256,192,1110742,1,0,0:0:0:0:
256,192,1111097,1,8,0:0:0:0:
256,192,1111452,1,8,0:0:0:0:
256,192,1111807,1,8,0:0:0:0:
256,192,1112162,1,0,0:0:0:0:
256,192,1112517,1,8,0:0:0:0:
256,192,1112872,1,8,0:0:0:0:
256,192,1113227,1,0,0:0:0:0:
256,192,1113582,1,12,0:0:0:0:
256,192,1114114,1,12,0:0:0:0:
256,192,1114647,1,12,0:0:0:0:
256,192,1115002,1,4,0:0:0:0:
256,192,1115534,1,4,0:0:0:0:
256,192,1116067,1,4,0:0:0:0:
256,192,1116422,1,12,0:0:0:0:
256,192,1116777,1,4,0:0:0:0:
256,192,1117132,1,12,0:0:0:0:
256,192,1117487,1,12,0:0:0:0:
256,192,1117842,1,4,0:0:0:0:
256,192,1118020,1,8,0:0:0:0:
256,192,1118197,1,4,0:0:0:0:
256,192,1118375,1,0,0:0:0:0:
256,192,1118552,1,12,0:0:0:0:
256,192,1118730,1,0,0:0:0:0:
256,192,1118907,1,12,0:0:0:0:
256,192,1119085,1,8,0:0:0:0:
256,192,1119262,1,4,0:0:0:0:
256,192,1119972,1,8,0:0:0:0:
256,192,1120327,1,4,0:0:0:0:
256,192,1121037,1,4,0:0:0:0:
256,192,1121392,1,8,0:0:0:0:
256,192,1122102,1,4,0:0:0:0:
256,192,1122457,1,8,0:0:0:0:
256,192,1122812,1,8,0:0:0:0:
256,192,1123167,1,4,0:0:0:0:
256,192,1124942,1,4,0:0:0:0:
256,192,1125652,1,8,0:0:0:0:
256,192,1126007,1,4,0:0:0:0:
256,192,1126717,1,4,0:0:0:0:
256,192,1127072,1,8,0:0:0:0:
256,192,1127782,1,4,0:0:0:0:
256,192,1128137,1,8,0:0:0:0:
256,192,1128492,1,8,0:0:0:0:
256,192,1128847,1,4,0:0:0:0:
256,192,1129557,1,4,0:0:0:0:
256,192,1129912,1,12,0:0:0:0:
256,192,1130622,1,4,0:0:0:0:
256,192,1130977,1,0,0:0:0:0:
256,192,1131155,1,0,0:0:0:0:
256,192,1131333,1,8,0:0:0:0:
256,192,1131688,1,4,0:0:0:0:
256,192,1132398,1,4,0:0:0:0:
256,192,1132753,1,8,0:0:0:0:
256,192,1133463,1,4,0:0:0:0:
256,192,1133818,1,0,0:0:0:0:
256,192,1133877,1,0,0:0:0:0:
256,192,1133936,1,0,0:0:0:0:
256,192,1133995,1,0,0:0:0:0:
256,192,1134054,1,0,0:0:0:0:
256,192,1134114,1,0,0:0:0:0:
256,192,1134173,1,8,0:0:0:0:
256,192,1134528,1,4,0:0:0:0:
256,192,1135238,1,4,0:0:0:0:
256,192,1135593,1,8,0:0:0:0:
256,192,1136303,1,4,0:0:0:0:
256,192,1136658,1,0,0:0:0:0:
256,192,1136835,1,0,0:0:0:0:
256,192,1137013,1,8,0:0:0:0:
256,192,1137368,1,4,0:0:0:0:
256,192,1137723,1,8,0:0:0:0:
256,192,1137901,1,8,0:0:0:0:
256,192,1138078,1,4,0:0:0:0:
256,192,1138433,1,8,0:0:0:0:
256,192,1139143,1,4,0:0:0:0:
256,192,1139498,1,8,0:0:0:0:
256,192,1139853,1,8,0:0:0:0:
256,192,1140208,1,4,0:0:0:0:
256,192,1141983,1,4,0:0:0:0:
256,192,1142516,1,0,0:0:0:0:
256,192,1142693,1,8,0:0:0:0:
256,192,1142871,1,0,0:0:0:0:
256,192,1143048,1,4,0:0:0:0:
256,192,1143581,1,8,0:0:0:0:
256,192,1143759,1,4,0:0:0:0:
256,192,1144114,1,8,0:0:0:0:
256,192,1144824,1,4,0:0:0:0:
256,192,1145179,1,8,0:0:0:0:
256,192,1145356,1,0,0:0:0:0:
256,192,1145534,1,8,0:0:0:0:
256,192,1145711,1,8,0:0:0:0:
256,192,1145889,1,4,0:0:0:0:
256,192,1146421,1,0,0:0:0:0:
256,192,1146599,1,4,0:0:0:0:
256,192,1146954,1,8,0:0:0:0:
256,192,1147664,1,0,0:0:0:0:
256,192,1148196,1,0,0:0:0:0:
256,192,1148374,1,8,0:0:0:0:
256,192,1148551,1,0,0:0:0:0:
256,192,1148729,1,8,0:0:0:0:
256,192,1149262,1,8,0:0:0:0:
256,192,1149794,1,8,0:0:0:0:
256,192,1150149,1,8,0:0:0:0:
256,192,1150327,1,8,0:0:0:0:
256,192,1150504,1,0,0:0:0:0:
256,192,1150859,1,0,0:0:0:0:
256,192,1151037,1,0,0:0:0:0:
256,192,1151214,1,8,0:0:0:0:
256,192,1151392,1,0,0:0:0:0:
256,192,1151569,1,0,0:0:0:0:
256,192,1151924,1,8,0:0:0:0:
256,192,1152279,1,8,0:0:0:0:
256,192,1152634,1,8,0:0:0:0:
256,192,1152812,1,8,0:0:0:0:
256,192,1152989,1,8,0:0:0:0:
256,192,1153167,1,8,0:0:0:0:
256,192,1153344,1,4,0:0:0:0:
256,192,1154054,1,8,0:0:0:0:
256,192,1154409,1,4,0:0:0:0:
256,192,1155119,1,4,0:0:0:0:
256,192,1155475,1,8,0:0:0:0:
256,192,1156185,1,4,0:0:0:0:
256,192,1156540,1,8,0:0:0:0:
256,192,1156895,1,8,0:0:0:0:
256,192,1157250,1,4,0:0:0:0:
256,192,1157960,1,4,0:0:0:0:
256,192,1158315,1,8,0:0:0:0:
256,192,1159025,1,0,0:0:0:0:
256,192,1159735,1,8,0:0:0:0:
256,192,1160090,1,4,0:0:0:0:
256,192,1160800,1,4,0:0:0:0:
256,192,1161155,1,8,0:0:0:0:
256,192,1161865,1,4,0:0:0:0:
256,192,1162220,1,8,0:0:0:0:
256,192,1162575,1,8,0:0:0:0:
256,192,1162930,1,4,0:0:0:0:
256,192,1163640,1,0,0:0:0:0:
256,192,1164705,1,0,0:0:0:0:
256,192,1165415,1,8,0:0:0:0:
256,192,1166480,1,0,0:0:0:0:
256,192,1166835,1,8,0:0:0:0:
256,192,1167546,1,0,0:0:0:0:
256,192,1167901,1,8,0:0:0:0:
256,192,1168256,1,8,0:0:0:0:
256,192,1169321,1,0,0:0:0:0:
256,192,1169676,1,8,0:0:0:0:
256,192,1170386,1,0,0:0:0:0:
256,192,1171096,1,8,0:0:0:0:
256,192,1172161,1,0,0:0:0:0:
256,192,1172516,1,8,0:0:0:0:
256,192,1173581,1,8,0:0:0:0:
256,192,1173936,1,8,0:0:0:0:
256,192,1174291,1,0,0:0:0:0:
256,192,1175356,1,8,0:0:0:0:
256,192,1176066,1,4,0:0:0:0:
256,192,1176776,1,8,0:0:0:0:
256,192,1177131,1,4,0:0:0:0:
256,192,1177841,1,4,0:0:0:0:
256,192,1178196,1,8,0:0:0:0:
256,192,1178906,1,4,0:0:0:0:
256,192,1179262,1,8,0:0:0:0:
256,192,1179617,1,8,0:0:0:0:
256,192,1179972,1,4,0:0:0:0:
256,192,1180682,1,0,0:0:0:0:
256,192,1181037,1,8,0:0:0:0:
256,192,1181747,1,4,0:0:0:0:
256,192,1182457,1,8,0:0:0:0:
256,192,1182812,1,4,0:0:0:0:
256,192,1183522,1,4,0:0:0:0:
256,192,1183877,1,8,0:0:0:0:
256,192,1184587,1,4,0:0:0:0:
256,192,1184942,1,8,0:0:0:0:
256,192,1185297,1,8,0:0:0:0:
256,192,1185652,1,4,0:0:0:0:
256,192,1189151,8,0,1194445,0:0:0:0:
256,192,1194798,5,8,0:0:0:0:
256,192,1195856,1,0,0:0:0:0:
256,192,1197621,1,8,0:0:0:0:
256,192,1198680,1,8,0:0:0:0:
256,192,1199739,1,0,0:0:0:0:
256,192,1200445,1,8,0:0:0:0:
256,192,1201503,1,0,0:0:0:0:
256,192,1203268,1,8,0:0:0:0:
256,192,1204680,1,8,0:0:0:0:
256,192,1206092,1,0,0:0:0:0:
256,192,1206268,1,0,0:0:0:0:
256,192,1206444,1,8,0:0:0:0:
256,192,1206621,1,0,0:0:0:0:
256,192,1206709,1,0,0:0:0:0:
256,192,1206886,1,8,0:0:0:0:
256,192,1206974,1,0,0:0:0:0:
256,192,1207150,1,8,0:0:0:0:
256,192,1207327,1,0,0:0:0:0:
256,192,1207503,1,0,0:0:0:0:
256,192,1207680,1,0,0:0:0:0:
256,192,1207856,1,8,0:0:0:0:
256,192,1208033,1,0,0:0:0:0:
256,192,1208209,1,8,0:0:0:0:
256,192,1208297,1,8,0:0:0:0:
256,192,1208386,1,0,0:0:0:0:
256,192,1208562,1,8,0:0:0:0:
256,192,1208915,1,0,0:0:0:0:
256,192,1209092,1,0,0:0:0:0:
256,192,1209268,1,8,0:0:0:0:
256,192,1209444,1,0,0:0:0:0:
256,192,1209533,1,0,0:0:0:0:
256,192,1209709,1,8,0:0:0:0:
256,192,1209797,1,0,0:0:0:0:
256,192,1209886,1,0,0:0:0:0:
256,192,1209974,1,8,0:0:0:0:
256,192,1210150,1,0,0:0:0:0:
256,192,1210327,1,0,0:0:0:0:
256,192,1210503,1,0,0:0:0:0:
256,192,1210680,1,8,0:0:0:0:
256,192,1210856,1,0,0:0:0:0:
256,192,1210944,1,0,0:0:0:0:
256,192,1211033,1,8,0:0:0:0:
256,192,1211209,1,8,0:0:0:0:
256,192,1211297,1,0,0:0:0:0:
256,192,1211386,1,8,0:0:0:0:
256,192,1211562,1,0,0:0:0:0:
256,192,1211621,1,8,0:0:0:0:
256,192,1211680,1,8,0:0:0:0:
256,192,1211739,1,0,0:0:0:0:
256,192,1211915,1,0,0:0:0:0:
256,192,1212091,1,8,0:0:0:0:
256,192,1212268,1,0,0:0:0:0:
256,192,1212356,1,8,0:0:0:0:
256,192,1212533,1,8,0:0:0:0:
256,192,1212621,1,0,0:0:0:0:
256,192,1212797,1,8,0:0:0:0:
256,192,1212974,1,0,0:0:0:0:
256,192,1213150,1,0,0:0:0:0:
256,192,1213239,1,0,0:0:0:0:
256,192,1213327,1,0,0:0:0:0:
256,192,1213503,1,8,0:0:0:0:
256,192,1213680,1,0,0:0:0:0:
256,192,1213768,1,0,0:0:0:0:
256,192,1213856,1,8,0:0:0:0:
256,192,1213944,1,8,0:0:0:0:
256,192,1214033,1,0,0:0:0:0:
256,192,1214209,1,8,0:0:0:0:
256,192,1214562,1,0,0:0:0:0:
256,192,1214739,1,0,0:0:0:0:
256,192,1214915,1,8,0:0:0:0:
256,192,1215091,1,0,0:0:0:0:
256,192,1215180,1,8,0:0:0:0:
256,192,1215356,1,8,0:0:0:0:
256,192,1215444,1,8,0:0:0:0:
256,192,1215533,1,0,0:0:0:0:
256,192,1215621,1,8,0:0:0:0:
256,192,1215797,1,0,0:0:0:0:
256,192,1215974,1,0,0:0:0:0:
256,192,1216062,1,8,0:0:0:0:
256,192,1216150,1,0,0:0:0:0:
256,192,1216327,1,8,0:0:0:0:
256,192,1216503,1,0,0:0:0:0:
256,192,1216591,1,0,0:0:0:0:
256,192,1216680,1,8,0:0:0:0:
256,192,1216856,1,8,0:0:0:0:
256,192,1216944,1,0,0:0:0:0:
256,192,1217033,1,8,0:0:0:0:
256,192,1217209,1,0,0:0:0:0:
256,192,1217268,1,8,0:0:0:0:
256,192,1217327,1,8,0:0:0:0:
256,192,1217386,1,0,0:0:0:0:
256,192,1217739,1,0,0:0:0:0:
256,192,1217915,1,8,0:0:0:0:
256,192,1217974,1,8,0:0:0:0:
256,192,1218033,1,8,0:0:0:0:
256,192,1218092,1,0,0:0:0:0:
256,192,1218268,1,8,0:0:0:0:
256,192,1218444,1,8,0:0:0:0:
256,192,1218621,1,8,0:0:0:0:
256,192,1218797,1,0,0:0:0:0:
256,192,1218974,1,8,0:0:0:0:
256,192,1219150,1,0,0:0:0:0:
256,192,1219327,1,8,0:0:0:0:
256,192,1219503,1,8,0:0:0:0:
256,192,1219680,1,8,0:0:0:0:
256,192,1219856,1,0,0:0:0:0:
256,192,1220033,1,8,0:0:0:0:
256,192,1220209,1,0,0:0:0:0:
256,192,1220562,1,0,0:0:0:0:
256,192,1220739,1,8,0:0:0:0:
256,192,1220915,1,0,0:0:0:0:
256,192,1221092,1,8,0:0:0:0:
256,192,1221150,1,8,0:0:0:0:
256,192,1221209,1,8,0:0:0:0:
256,192,1221268,1,8,0:0:0:0:
256,192,1221444,1,8,0:0:0:0:
256,192,1221621,1,0,0:0:0:0:
256,192,1221974,1,0,0:0:0:0:
256,192,1222150,1,8,0:0:0:0:
256,192,1222209,1,8,0:0:0:0:
256,192,1222268,1,8,0:0:0:0:
256,192,1222327,1,0,0:0:0:0:
256,192,1222503,1,8,0:0:0:0:
256,192,1222680,1,0,0:0:0:0:
256,192,1222739,1,0,0:0:0:0:
256,192,1222797,1,0,0:0:0:0:
256,192,1222856,1,0,0:0:0:0:
256,192,1223033,1,8,0:0:0:0:
256,192,1223562,1,8,0:0:0:0:
256,192,1224092,1,8,0:0:0:0:
256,192,1224621,1,8,0:0:0:0:
256,192,1224797,1,0,0:0:0:0:
256,192,1225150,1,8,0:0:0:0:
256,192,1225327,1,0,0:0:0:0:
256,192,1225503,1,8,0:0:0:0:
256,192,1225856,1,8,0:0:0:0:
256,192,1226209,1,8,0:0:0:0:
256,192,1226562,1,8,0:0:0:0:
256,192,1226915,1,8,0:0:0:0:
256,192,1227268,1,8,0:0:0:0:
256,192,1227444,1,8,0:0:0:0:
256,192,1227621,1,8,0:0:0:0:
256,192,1227797,1,8,0:0:0:0:
256,192,1227974,1,8,0:0:0:0:
256,192,1228062,1,8,0:0:0:0:
256,192,1228150,1,8,0:0:0:0:
256,192,1228239,1,8,0:0:0:0:
256,192,1228327,1,8,0:0:0:0:
256,192,1228386,1,8,0:0:0:0:
256,192,1228444,1,8,0:0:0:0:
256,192,1228503,1,8,0:0:0:0:
256,192,1228562,1,8,0:0:0:0:
256,192,1228621,1,8,0:0:0:0:
256,192,1228680,1,4,0:0:0:0:
256,192,1229033,1,8,0:0:0:0:
256,192,1229209,1,0,0:0:0:0:
256,192,1229386,1,8,0:0:0:0:
256,192,1229739,1,0,0:0:0:0:
256,192,1229915,1,8,0:0:0:0:
256,192,1230268,1,8,0:0:0:0:
256,192,1230444,1,4,0:0:0:0:
256,192,1230797,1,8,0:0:0:0:
256,192,1230974,1,4,0:0:0:0:
256,192,1231327,1,0,0:0:0:0:
256,192,1231503,1,4,0:0:0:0:
256,192,1231856,1,8,0:0:0:0:
256,192,1232033,1,0,0:0:0:0:
256,192,1232209,1,8,0:0:0:0:
256,192,1232386,1,8,0:0:0:0:
256,192,1232562,1,0,0:0:0:0:
256,192,1232650,1,0,0:0:0:0:
256,192,1232739,1,8,0:0:0:0:
256,192,1232827,1,0,0:0:0:0:
256,192,1233092,1,8,0:0:0:0:
256,192,1233268,1,4,0:0:0:0:
256,192,1233621,1,8,0:0:0:0:
256,192,1233797,1,4,0:0:0:0:
256,192,1233974,1,0,0:0:0:0:
256,192,1234033,1,0,0:0:0:0:
256,192,1234092,1,0,0:0:0:0:
256,192,1234150,1,0,0:0:0:0:
256,192,1234327,1,4,0:0:0:0:
256,192,1234680,1,8,0:0:0:0:
256,192,1234768,1,8,0:0:0:0:
256,192,1234856,1,0,0:0:0:0:
256,192,1235033,1,8,0:0:0:0:
256,192,1235386,1,0,0:0:0:0:
256,192,1235562,1,8,0:0:0:0:
256,192,1235915,1,8,0:0:0:0:
256,192,1236092,1,4,0:0:0:0:
256,192,1236444,1,8,0:0:0:0:
256,192,1236621,1,4,0:0:0:0:
256,192,1236974,1,0,0:0:0:0:
256,192,1237150,1,4,0:0:0:0:
256,192,1237503,1,8,0:0:0:0:
256,192,1237680,1,0,0:0:0:0:
256,192,1237856,1,8,0:0:0:0:
256,192,1238033,1,8,0:0:0:0:
256,192,1238209,1,0,0:0:0:0:
256,192,1238297,1,8,0:0:0:0:
256,192,1238386,1,8,0:0:0:0:
256,192,1239974,1,4,0:0:0:0:
256,192,1240327,1,8,0:0:0:0:
256,192,1240503,1,0,0:0:0:0:
256,192,1240680,1,8,0:0:0:0:
256,192,1240856,1,8,0:0:0:0:
256,192,1241033,1,0,0:0:0:0:
256,192,1241209,1,8,0:0:0:0:
256,192,1241562,1,8,0:0:0:0:
256,192,1241739,1,4,0:0:0:0:
256,192,1242092,1,8,0:0:0:0:
256,192,1242268,1,4,0:0:0:0:
256,192,1242621,1,0,0:0:0:0:
256,192,1242797,1,4,0:0:0:0:
256,192,1243150,1,8,0:0:0:0:
256,192,1243327,1,0,0:0:0:0:
256,192,1243503,1,8,0:0:0:0:
256,192,1243592,1,0,0:0:0:0:
256,192,1243680,1,8,0:0:0:0:
256,192,1243856,1,0,0:0:0:0:
256,192,1243944,1,8,0:0:0:0:
256,192,1244033,1,8,0:0:0:0:
256,192,1244121,1,0,0:0:0:0:
256,192,1244386,1,8,0:0:0:0:
256,192,1244562,1,4,0:0:0:0:
256,192,1244915,1,8,0:0:0:0:
256,192,1245092,1,4,0:0:0:0:
256,192,1245268,1,0,0:0:0:0:
256,192,1245327,1,0,0:0:0:0:
256,192,1245386,1,0,0:0:0:0:
256,192,1245444,1,8,0:0:0:0:
256,192,1245621,1,4,0:0:0:0:
256,192,1245974,1,8,0:0:0:0:
256,192,1246062,1,8,0:0:0:0:
256,192,1246150,1,0,0:0:0:0:
256,192,1246327,1,8,0:0:0:0:
256,192,1246503,1,8,0:0:0:0:
256,192,1246680,1,0,0:0:0:0:
256,192,1246856,1,8,0:0:0:0:
256,192,1247209,1,8,0:0:0:0:
256,192,1247386,1,4,0:0:0:0:
256,192,1247739,1,8,0:0:0:0:
256,192,1247915,1,4,0:0:0:0:
256,192,1248268,1,0,0:0:0:0:
256,192,1248444,1,4,0:0:0:0:
256,192,1248797,1,8,0:0:0:0:
256,192,1248974,1,0,0:0:0:0:
256,192,1249150,1,8,0:0:0:0:
256,192,1249327,1,8,0:0:0:0:
256,192,1249503,1,0,0:0:0:0:
256,192,1249592,1,8,0:0:0:0:
256,192,1249680,1,8,0:0:0:0:
256,192,1249768,1,8,0:0:0:0:
256,192,1250033,1,8,0:0:0:0:
256,192,1250209,1,4,0:0:0:0:
256,192,1250562,1,8,0:0:0:0:
256,192,1250739,1,4,0:0:0:0:
256,192,1250915,1,0,0:0:0:0:
256,192,1250974,1,0,0:0:0:0:
256,192,1251033,1,0,0:0:0:0:
256,192,1251092,1,8,0:0:0:0:
256,192,1251268,1,8,0:0:0:0:
256,192,1252327,1,0,0:0:0:0:
256,192,1254092,1,0,0:0:0:0:
256,192,1255150,1,8,0:0:0:0:
256,192,1256209,1,8,0:0:0:0:
256,192,1256915,1,0,0:0:0:0:
256,192,1257092,1,0,0:0:0:0:
256,192,1257268,1,8,0:0:0:0:
256,192,1257533,1,0,0:0:0:0:
256,192,1257621,1,0,0:0:0:0:
256,192,1257709,1,8,0:0:0:0:
256,192,1257797,1,0,0:0:0:0:
256,192,1257974,1,8,0:0:0:0:
256,192,1258327,1,0,0:0:0:0:
256,192,1258503,1,0,0:0:0:0:
256,192,1258680,1,8,0:0:0:0:
256,192,1258856,1,0,0:0:0:0:
256,192,1258944,1,0,0:0:0:0:
256,192,1259121,1,8,0:0:0:0:
256,192,1259209,1,0,0:0:0:0:
256,192,1259386,1,8,0:0:0:0:
256,192,1259739,1,0,0:0:0:0:
256,192,1259915,1,0,0:0:0:0:
256,192,1260092,1,8,0:0:0:0:
256,192,1260268,1,0,0:0:0:0:
256,192,1260356,1,0,0:0:0:0:
256,192,1260444,1,8,0:0:0:0:
256,192,1260533,1,0,0:0:0:0:
256,192,1260621,1,0,0:0:0:0:
256,192,1260797,1,8,0:0:0:0:
256,192,1261150,1,0,0:0:0:0:
256,192,1261327,1,0,0:0:0:0:
256,192,1261503,1,8,0:0:0:0:
256,192,1261680,1,0,0:0:0:0:
256,192,1261768,1,0,0:0:0:0:
256,192,1261856,1,8,0:0:0:0:
256,192,1262033,1,8,0:0:0:0:
256,192,1262209,1,8,0:0:0:0:
256,192,1262297,1,8,0:0:0:0:
256,192,1262386,1,8,0:0:0:0:
256,192,1262562,1,0,0:0:0:0:
256,192,1262915,1,0,0:0:0:0:
256,192,1263092,1,8,0:0:0:0:
256,192,1263150,1,8,0:0:0:0:
256,192,1263209,1,8,0:0:0:0:
256,192,1263268,1,0,0:0:0:0:
256,192,1263444,1,8,0:0:0:0:
256,192,1263621,1,8,0:0:0:0:
256,192,1263797,1,8,0:0:0:0:
256,192,1263974,1,0,0:0:0:0:
256,192,1264150,1,8,0:0:0:0:
256,192,1264327,1,0,0:0:0:0:
256,192,1264503,1,8,0:0:0:0:
256,192,1264680,1,0,0:0:0:0:
256,192,1264856,1,0,0:0:0:0:
256,192,1265033,1,8,0:0:0:0:
256,192,1265092,1,8,0:0:0:0:
256,192,1265150,1,8,0:0:0:0:
256,192,1265209,1,8,0:0:0:0:
256,192,1265386,1,0,0:0:0:0:
256,192,1265562,1,0,0:0:0:0:
256,192,1265739,1,0,0:0:0:0:
256,192,1265915,1,8,0:0:0:0:
256,192,1266092,1,0,0:0:0:0:
256,192,1266268,1,8,0:0:0:0:
256,192,1266327,1,8,0:0:0:0:
256,192,1266386,1,8,0:0:0:0:
256,192,1266444,1,0,0:0:0:0:
256,192,1266621,1,8,0:0:0:0:
256,192,1266797,1,0,0:0:0:0:
256,192,1266974,1,0,0:0:0:0:
256,192,1267150,1,0,0:0:0:0:
256,192,1267327,1,8,0:0:0:0:
256,192,1267386,1,8,0:0:0:0:
256,192,1267444,1,8,0:0:0:0:
256,192,1267503,1,0,0:0:0:0:
256,192,1267680,1,8,0:0:0:0:
256,192,1267856,1,8,0:0:0:0:
256,192,1267915,1,8,0:0:0:0:
256,192,1267974,1,8,0:0:0:0:
256,192,1268033,1,8,0:0:0:0:
256,192,1268209,1,0,0:0:0:0:
256,192,1268386,1,0,0:0:0:0:
256,192,1268562,1,0,0:0:0:0:
256,192,1268739,1,8,0:0:0:0:
256,192,1268797,1,8,0:0:0:0:
256,192,1268856,1,8,0:0:0:0:
256,192,1268915,1,0,0:0:0:0:
256,192,1269092,1,8,0:0:0:0:
256,192,1269268,1,8,0:0:0:0:
256,192,1269444,1,8,0:0:0:0:
256,192,1269621,1,0,0:0:0:0:
256,192,1269797,1,8,0:0:0:0:
256,192,1269974,1,0,0:0:0:0:
256,192,1270150,1,8,0:0:0:0:
256,192,1270327,1,0,0:0:0:0:
256,192,1270503,1,0,0:0:0:0:
256,192,1270680,1,8,0:0:0:0:
256,192,1270739,1,8,0:0:0:0:
256,192,1270797,1,8,0:0:0:0:
256,192,1270856,1,8,0:0:0:0:
256,192,1271033,1,0,0:0:0:0:
256,192,1271209,1,0,0:0:0:0:
256,192,1271386,1,0,0:0:0:0:
256,192,1271562,1,8,0:0:0:0:
256,192,1271739,1,0,0:0:0:0:
256,192,1271915,1,8,0:0:0:0:
256,192,1271974,1,8,0:0:0:0:
256,192,1272033,1,8,0:0:0:0:
256,192,1272092,1,0,0:0:0:0:
256,192,1272268,1,8,0:0:0:0:
256,192,1273856,1,4,0:0:0:0:
256,192,1274033,1,8,0:0:0:0:
256,192,1274209,1,0,0:0:0:0:
256,192,1274386,1,8,0:0:0:0:
256,192,1274444,1,8,0:0:0:0:
256,192,1274503,1,8,0:0:0:0:
256,192,1274562,1,0,0:0:0:0:
256,192,1274739,1,8,0:0:0:0:
256,192,1274915,1,8,0:0:0:0:
256,192,1275092,1,8,0:0:0:0:
256,192,1275268,1,0,0:0:0:0:
256,192,1275444,1,0,0:0:0:0:
256,192,1275621,1,8,0:0:0:0:
256,192,1275797,1,8,0:0:0:0:
256,192,1275974,1,8,0:0:0:0:
256,192,1276150,1,0,0:0:0:0:
256,192,1276327,1,8,0:0:0:0:
256,192,1276386,1,8,0:0:0:0:
256,192,1276444,1,8,0:0:0:0:
256,192,1276503,1,0,0:0:0:0:
256,192,1276680,1,8,0:0:0:0:
256,192,1276856,1,8,0:0:0:0:
256,192,1277033,1,0,0:0:0:0:
256,192,1277209,1,8,0:0:0:0:
256,192,1277386,1,0,0:0:0:0:
256,192,1277562,1,8,0:0:0:0:
256,192,1277621,1,8,0:0:0:0:
256,192,1277680,1,8,0:0:0:0:
256,192,1277739,1,8,0:0:0:0:
256,192,1277915,1,8,0:0:0:0:
256,192,1278092,1,0,0:0:0:0:
256,192,1278444,1,8,0:0:0:0:
256,192,1278974,1,8,0:0:0:0:
256,192,1279503,1,0,0:0:0:0:
256,192,1279680,1,8,0:0:0:0:
256,192,1279856,1,0,0:0:0:0:
256,192,1280033,1,8,0:0:0:0:
256,192,1280092,1,8,0:0:0:0:
256,192,1280150,1,8,0:0:0:0:
256,192,1280209,1,0,0:0:0:0:
256,192,1280386,1,8,0:0:0:0:
256,192,1280562,1,8,0:0:0:0:
256,192,1280739,1,8,0:0:0:0:
256,192,1280915,1,0,0:0:0:0:
256,192,1281092,1,0,0:0:0:0:
256,192,1281268,1,8,0:0:0:0:
256,192,1281444,1,8,0:0:0:0:
256,192,1281621,1,8,0:0:0:0:
256,192,1281797,1,0,0:0:0:0:
256,192,1281974,1,8,0:0:0:0:
256,192,1282033,1,8,0:0:0:0:
256,192,1282092,1,8,0:0:0:0:
256,192,1282150,1,0,0:0:0:0:
256,192,1282327,1,8,0:0:0:0:
256,192,1282503,1,8,0:0:0:0:
256,192,1282680,1,0,0:0:0:0:
256,192,1282856,1,8,0:0:0:0:
256,192,1283033,1,0,0:0:0:0:
256,192,1283209,1,8,0:0:0:0:
256,192,1283268,1,8,0:0:0:0:
256,192,1283327,1,8,0:0:0:0:
256,192,1283386,1,8,0:0:0:0:
256,192,1283562,1,8,0:0:0:0:
256,192,1283739,8,0,1284797,0:0:0:0:
256,192,1285150,5,4,0:0:0:0:
256,192,1285503,1,8,0:0:0:0:
256,192,1285680,1,0,0:0:0:0:
256,192,1285856,1,8,0:0:0:0:
256,192,1286209,1,0,0:0:0:0:
256,192,1286386,1,8,0:0:0:0:
256,192,1286739,1,8,0:0:0:0:
256,192,1286915,1,4,0:0:0:0:
256,192,1287268,1,8,0:0:0:0:
256,192,1287444,1,4,0:0:0:0:
256,192,1287797,1,0,0:0:0:0:
256,192,1287974,1,4,0:0:0:0:
256,192,1288327,1,8,0:0:0:0:
256,192,1288503,1,0,0:0:0:0:
256,192,1288680,1,8,0:0:0:0:
256,192,1288856,1,8,0:0:0:0:
256,192,1289033,1,0,0:0:0:0:
256,192,1289121,1,0,0:0:0:0:
256,192,1289209,1,8,0:0:0:0:
256,192,1289297,1,0,0:0:0:0:
256,192,1289562,1,8,0:0:0:0:
256,192,1289739,1,4,0:0:0:0:
256,192,1290092,1,8,0:0:0:0:
256,192,1290268,1,4,0:0:0:0:
256,192,1290444,1,0,0:0:0:0:
256,192,1290503,1,0,0:0:0:0:
256,192,1290562,1,0,0:0:0:0:
256,192,1290621,1,0,0:0:0:0:
256,192,1290797,1,4,0:0:0:0:
256,192,1291150,1,8,0:0:0:0:
256,192,1291239,1,8,0:0:0:0:
256,192,1291327,1,0,0:0:0:0:
256,192,1291503,1,8,0:0:0:0:
256,192,1291856,1,0,0:0:0:0:
256,192,1292033,1,8,0:0:0:0:
256,192,1292386,1,8,0:0:0:0:
256,192,1292562,1,4,0:0:0:0:
256,192,1292915,1,8,0:0:0:0:
256,192,1293092,1,4,0:0:0:0:
256,192,1293444,1,0,0:0:0:0:
256,192,1293621,1,4,0:0:0:0:
256,192,1293974,1,8,0:0:0:0:
256,192,1294150,1,0,0:0:0:0:
256,192,1294327,1,8,0:0:0:0:
256,192,1294503,1,8,0:0:0:0:
256,192,1294680,1,0,0:0:0:0:
256,192,1294768,1,8,0:0:0:0:
256,192,1294856,1,8,0:0:0:0:
256,192,1294944,1,8,0:0:0:0:
256,192,1296444,1,0,0:0:0:0:
256,192,1296621,1,8,0:0:0:0:
256,192,1296797,1,0,0:0:0:0:
256,192,1296974,1,8,0:0:0:0:
256,192,1297033,1,8,0:0:0:0:
256,192,1297092,1,8,0:0:0:0:
256,192,1297150,1,0,0:0:0:0:
256,192,1297327,1,8,0:0:0:0:
256,192,1297503,1,8,0:0:0:0:
256,192,1297680,1,8,0:0:0:0:
256,192,1297856,1,0,0:0:0:0:
256,192,1298033,1,8,0:0:0:0:
256,192,1298209,1,0,0:0:0:0:
256,192,1298386,1,8,0:0:0:0:
256,192,1298562,1,8,0:0:0:0:
256,192,1298739,1,8,0:0:0:0:
256,192,1298915,1,0,0:0:0:0:
256,192,1298974,1,8,0:0:0:0:
256,192,1299033,1,8,0:0:0:0:
256,192,1299092,1,8,0:0:0:0:
256,192,1299268,1,0,0:0:0:0:
256,192,1299444,1,8,0:0:0:0:
256,192,1299621,1,0,0:0:0:0:
256,192,1299797,1,8,0:0:0:0:
256,192,1299974,1,0,0:0:0:0:
256,192,1300150,1,8,0:0:0:0:
256,192,1300209,1,8,0:0:0:0:
256,192,1300268,1,8,0:0:0:0:
256,192,1300327,1,8,0:0:0:0:
256,192,1300503,1,8,0:0:0:0:
256,192,1300680,1,0,0:0:0:0:
256,192,1300856,1,8,0:0:0:0:
256,192,1301033,1,0,0:0:0:0:
256,192,1301209,1,8,0:0:0:0:
256,192,1301268,1,8,0:0:0:0:
256,192,1301327,1,8,0:0:0:0:
256,192,1301386,1,0,0:0:0:0:
256,192,1301562,1,8,0:0:0:0:
256,192,1301739,1,0,0:0:0:0:
256,192,1301797,1,8,0:0:0:0:
256,192,1301856,1,8,0:0:0:0:
256,192,1301915,1,8,0:0:0:0:
256,192,1302092,1,0,0:0:0:0:
256,192,1302268,1,8,0:0:0:0:
256,192,1302444,1,0,0:0:0:0:
256,192,1302621,1,8,0:0:0:0:
256,192,1302680,1,8,0:0:0:0:
256,192,1302739,1,8,0:0:0:0:
256,192,1302797,1,0,0:0:0:0:
256,192,1302974,1,8,0:0:0:0:
256,192,1303150,1,8,0:0:0:0:
256,192,1303327,1,8,0:0:0:0:
256,192,1303503,1,0,0:0:0:0:
256,192,1303680,1,8,0:0:0:0:
256,192,1303856,1,0,0:0:0:0:
256,192,1304033,1,8,0:0:0:0:
256,192,1304209,1,8,0:0:0:0:
256,192,1304386,1,0,0:0:0:0:
256,192,1304562,1,8,0:0:0:0:
256,192,1304621,1,8,0:0:0:0:
256,192,1304680,1,8,0:0:0:0:
256,192,1304739,1,8,0:0:0:0:
256,192,1304915,1,0,0:0:0:0:
256,192,1305092,1,8,0:0:0:0:
256,192,1305268,1,0,0:0:0:0:
256,192,1305444,1,8,0:0:0:0:
256,192,1305621,1,0,0:0:0:0:
256,192,1305797,1,8,0:0:0:0:
256,192,1305856,1,8,0:0:0:0:
256,192,1305915,1,8,0:0:0:0:
256,192,1305974,1,8,0:0:0:0:
256,192,1306150,1,0,0:0:0:0:
256,192,1306327,1,8,0:0:0:0:
256,192,1306680,1,0,0:0:0:0:
256,192,1307209,1,0,0:0:0:0:
256,192,1307562,1,8,0:0:0:0:
256,192,1307739,1,0,0:0:0:0:
256,192,1309503,1,0,0:0:0:0:
256,192,1310033,1,0,0:0:0:0:
256,192,1310386,1,8,0:0:0:0:
256,192,1310562,1,0,0:0:0:0:
256,192,1311268,1,8,0:0:0:0:
256,192,1312680,1,8,0:0:0:0:
256,192,1313386,1,0,0:0:0:0:
256,192,1315150,1,0,0:0:0:0:
256,192,1316033,1,8,0:0:0:0:
256,192,1316209,1,0,0:0:0:0:
256,192,1316915,1,8,0:0:0:0:
256,192,1318327,1,8,0:0:0:0:
256,192,1319033,1,4,0:0:0:0:
256,192,1319386,1,8,0:0:0:0:
256,192,1319562,1,0,0:0:0:0:
256,192,1319739,1,8,0:0:0:0:
256,192,1319915,1,8,0:0:0:0:
256,192,1320092,1,0,0:0:0:0:
256,192,1320268,1,8,0:0:0:0:
256,192,1320621,1,8,0:0:0:0:
256,192,1320797,1,4,0:0:0:0:
256,192,1321150,1,8,0:0:0:0:
256,192,1321327,1,4,0:0:0:0:
256,192,1321680,1,0,0:0:0:0:
256,192,1321856,1,4,0:0:0:0:
256,192,1322209,1,8,0:0:0:0:
256,192,1322386,1,0,0:0:0:0:
256,192,1322562,1,8,0:0:0:0:
256,192,1322650,1,0,0:0:0:0:
256,192,1322739,1,8,0:0:0:0:
256,192,1322915,1,0,0:0:0:0:
256,192,1323003,1,8,0:0:0:0:
256,192,1323092,1,8,0:0:0:0:
256,192,1323180,1,0,0:0:0:0:
256,192,1323444,1,8,0:0:0:0:
256,192,1323621,1,4,0:0:0:0:
256,192,1323974,1,8,0:0:0:0:
256,192,1324150,1,4,0:0:0:0:
256,192,1324327,1,0,0:0:0:0:
256,192,1324386,1,0,0:0:0:0:
256,192,1324444,1,0,0:0:0:0:
256,192,1324503,1,0,0:0:0:0:
256,192,1324680,1,4,0:0:0:0:
256,192,1325033,1,8,0:0:0:0:
256,192,1325121,1,8,0:0:0:0:
256,192,1325209,1,0,0:0:0:0:
256,192,1325386,1,8,0:0:0:0:
256,192,1325562,1,8,0:0:0:0:
256,192,1325739,1,0,0:0:0:0:
256,192,1325915,1,8,0:0:0:0:
256,192,1326268,1,8,0:0:0:0:
256,192,1326444,1,4,0:0:0:0:
256,192,1326797,1,8,0:0:0:0:
256,192,1326974,1,4,0:0:0:0:
256,192,1327327,1,0,0:0:0:0:
256,192,1327503,1,4,0:0:0:0:
256,192,1327856,1,8,0:0:0:0:
256,192,1328033,1,0,0:0:0:0:
256,192,1328209,1,8,0:0:0:0:
256,192,1328386,1,8,0:0:0:0:
256,192,1328562,1,0,0:0:0:0:
256,192,1328650,1,8,0:0:0:0:
256,192,1328739,1,8,0:0:0:0:
256,192,1328827,1,8,0:0:0:0:
256,192,1330327,1,14,0:0:0:0:
256,192,1330680,1,14,0:0:0:0:
256,192,1331033,1,4,0:0:0:0:
256,192,1331386,1,4,0:0:0:0:
256,192,1331738,1,14,0:0:0:0:
256,192,1332080,1,4,0:0:0:0:
256,192,1332423,1,14,0:0:0:0:
256,192,1332766,1,14,0:0:0:0:
256,192,1333109,1,4,0:0:0:0:
256,192,1333442,1,14,0:0:0:0:
256,192,1333775,1,4,0:0:0:0:
256,192,1334109,1,4,0:0:0:0:
256,192,1334442,1,14,0:0:0:0:
256,192,1334766,1,4,0:0:0:0:
256,192,1335090,1,14,0:0:0:0:
256,192,1335414,1,14,0:0:0:0:
256,192,1335739,1,14,0:0:0:0:
256,192,1336054,1,4,0:0:0:0:
256,192,1336370,1,4,0:0:0:0:
256,192,1336686,1,14,0:0:0:0:
256,192,1337002,1,14,0:0:0:0:
256,192,1337302,1,4,0:0:0:0:
256,192,1337602,1,4,0:0:0:0:
256,192,1337902,1,14,0:0:0:0:
256,192,1338202,1,4,0:0:0:0:
256,192,1338487,1,14,0:0:0:0:
256,192,1338773,1,4,0:0:0:0:
256,192,1339059,1,4,0:0:0:0:
256,192,1339344,1,14,0:0:0:0:
256,192,1339623,1,4,0:0:0:0:
256,192,1339902,1,14,0:0:0:0:
256,192,1340181,1,14,0:0:0:0:
256,192,1340460,1,0,0:0:0:0:
256,192,1340732,1,8,0:0:0:0:
256,192,1341005,1,8,0:0:0:0:
256,192,1341278,1,8,0:0:0:0:
256,192,1341448,1,8,0:0:0:0:
256,192,1341550,1,8,0:0:0:0:
256,192,1341823,1,8,0:0:0:0:
256,192,1342096,1,8,0:0:0:0:
256,192,1342266,1,0,0:0:0:0:
256,192,1342369,1,8,0:0:0:0:
256,192,1342539,1,8,0:0:0:0:
256,192,1342641,1,0,0:0:0:0:
256,192,1342901,1,8,0:0:0:0:
256,192,1343162,1,8,0:0:0:0:
256,192,1343423,1,8,0:0:0:0:
256,192,1343586,1,0,0:0:0:0:
256,192,1343684,1,0,0:0:0:0:
256,192,1343854,1,8,0:0:0:0:
256,192,1343956,1,8,0:0:0:0:
256,192,1344127,1,0,0:0:0:0:
256,192,1344229,1,8,0:0:0:0:
256,192,1344502,1,0,0:0:0:0:
256,192,1344672,1,8,0:0:0:0:
256,192,1344774,1,0,0:0:0:0:
256,192,1345040,1,8,0:0:0:0:
256,192,1345307,1,8,0:0:0:0:
256,192,1345574,1,8,0:0:0:0:
256,192,1345740,1,8,0:0:0:0:
256,192,1345840,1,8,0:0:0:0:
256,192,1346100,1,8,0:0:0:0:
256,192,1346361,1,8,0:0:0:0:
256,192,1346524,1,0,0:0:0:0:
256,192,1346622,1,0,0:0:0:0:
256,192,1346785,1,8,0:0:0:0:
256,192,1346883,1,0,0:0:0:0:
256,192,1347113,1,0,0:0:0:0:
256,192,1347344,1,0,0:0:0:0:
256,192,1347575,1,0,0:0:0:0:
256,192,1347806,1,8,0:0:0:0:
256,192,1348793,1,4,0:0:0:0:
256,192,1349015,1,10,0:0:0:0:
256,192,1349237,1,10,0:0:0:0:
256,192,1349459,1,10,0:0:0:0:
256,192,1349598,1,0,0:0:0:0:
256,192,1349681,1,10,0:0:0:0:
256,192,1349904,1,10,0:0:0:0:
256,192,1350126,1,10,0:0:0:0:
256,192,1350265,1,0,0:0:0:0:
256,192,1350348,1,10,0:0:0:0:
256,192,1350487,1,10,0:0:0:0:
256,192,1350570,1,0,0:0:0:0:
256,192,1350793,1,10,0:0:0:0:
256,192,1351015,1,0,0:0:0:0:
256,192,1351237,1,0,0:0:0:0:
256,192,1351459,1,10,0:0:0:0:
256,192,1351598,1,0,0:0:0:0:
256,192,1351681,1,10,0:0:0:0:
256,192,1351820,1,10,0:0:0:0:
256,192,1351904,1,0,0:0:0:0:
256,192,1352043,1,10,0:0:0:0:
256,192,1352265,1,10,0:0:0:0:
256,192,1352348,1,0,0:0:0:0:
256,192,1352570,1,10,0:0:0:0:
256,192,1352793,1,10,0:0:0:0:
256,192,1353015,1,10,0:0:0:0:
256,192,1353154,1,0,0:0:0:0:
256,192,1353237,1,10,0:0:0:0:
256,192,1353451,1,10,0:0:0:0:
256,192,1353665,1,0,0:0:0:0:
256,192,1353799,1,10,0:0:0:0:
256,192,1353879,1,0,0:0:0:0:
256,192,1354013,1,0,0:0:0:0:
256,192,1354094,1,10,0:0:0:0:
256,192,1354308,1,10,0:0:0:0:
256,192,1354522,1,0,0:0:0:0:
256,192,1354737,1,0,0:0:0:0:
256,192,1355751,1,4,0:0:0:0:
256,192,1355948,1,10,0:0:0:0:
256,192,1356146,1,0,0:0:0:0:
256,192,1356344,1,0,0:0:0:0:
256,192,1356542,1,14,0:0:0:0:
256,192,1356740,1,0,0:0:0:0:
256,192,1356937,1,10,0:0:0:0:
256,192,1357135,1,10,0:0:0:0:
256,192,1357333,1,4,0:0:0:0:
256,192,1357531,1,10,0:0:0:0:
256,192,1357729,1,0,0:0:0:0:
256,192,1357927,1,10,0:0:0:0:
256,192,1358124,1,14,0:0:0:0:
256,192,1358322,1,0,0:0:0:0:
256,192,1358520,1,14,0:0:0:0:
256,192,1358718,1,10,0:0:0:0:
256,192,1358916,1,14,0:0:0:0:
256,192,1359114,1,0,0:0:0:0:
256,192,1359311,1,10,0:0:0:0:
256,192,1359509,1,10,0:0:0:0:
256,192,1359707,1,4,0:0:0:0:
256,192,1359905,1,10,0:0:0:0:
256,192,1360103,1,0,0:0:0:0:
256,192,1360300,1,0,0:0:0:0:
256,192,1360498,1,14,0:0:0:0:
256,192,1360696,1,0,0:0:0:0:
256,192,1360894,1,10,0:0:0:0:
256,192,1361092,1,0,0:0:0:0:
256,192,1361290,1,4,0:0:0:0:
256,192,1361487,1,10,0:0:0:0:
256,192,1361685,1,4,0:0:0:0:
256,192,1361883,1,0,0:0:0:0:
256,192,1362081,1,14,0:0:0:0:
256,192,1362279,1,14,0:0:0:0:
256,192,1362477,1,14,0:0:0:0:
256,192,1362674,1,14,0:0:0:0:
256,192,1362872,1,4,0:0:0:0:
256,192,1363070,1,4,0:0:0:0:
256,192,1363268,1,4,0:0:0:0:
256,192,1363466,1,4,0:0:0:0:
256,192,1363663,1,14,0:0:0:0:
256,192,1363861,1,4,0:0:0:0:
256,192,1364059,1,14,0:0:0:0:
256,192,1364257,1,14,0:0:0:0:
256,192,1364455,1,4,0:0:0:0:
256,192,1364653,1,14,0:0:0:0:
256,192,1364850,1,4,0:0:0:0:
256,192,1365048,1,4,0:0:0:0:
256,192,1365246,1,14,0:0:0:0:
256,192,1365444,1,14,0:0:0:0:
256,192,1365642,1,14,0:0:0:0:
256,192,1365840,1,14,0:0:0:0:
256,192,1366037,1,4,0:0:0:0:
256,192,1366235,1,4,0:0:0:0:
256,192,1366433,1,4,0:0:0:0:
256,192,1366631,1,4,0:0:0:0:
256,192,1366829,1,14,0:0:0:0:
256,192,1367026,1,14,0:0:0:0:
256,192,1367224,1,4,0:0:0:0:
256,192,1367422,1,4,0:0:0:0:
256,192,1367620,1,10,0:0:0:0:
256,192,1367818,1,10,0:0:0:0:
256,192,1368016,1,10,0:0:0:0:
256,192,1368213,1,10,0:0:0:0:
256,192,1368411,1,4,0:0:0:0:
256,192,1368609,1,10,0:0:0:0:
256,192,1368807,1,0,0:0:0:0:
256,192,1369005,1,0,0:0:0:0:
256,192,1369203,1,14,0:0:0:0:
256,192,1369400,1,0,0:0:0:0:
256,192,1369598,1,10,0:0:0:0:
256,192,1369796,1,10,0:0:0:0:
256,192,1369994,1,4,0:0:0:0:
256,192,1370192,1,10,0:0:0:0:
256,192,1370389,1,0,0:0:0:0:
256,192,1370587,1,10,0:0:0:0:
256,192,1370785,1,14,0:0:0:0:
256,192,1370983,1,0,0:0:0:0:
256,192,1371181,1,14,0:0:0:0:
256,192,1371379,1,10,0:0:0:0:
256,192,1371576,1,14,0:0:0:0:
256,192,1371774,1,0,0:0:0:0:
256,192,1371972,1,10,0:0:0:0:
256,192,1372170,1,10,0:0:0:0:
256,192,1372368,1,4,0:0:0:0:
256,192,1372566,1,10,0:0:0:0:
256,192,1372763,1,0,0:0:0:0:
256,192,1372961,1,0,0:0:0:0:
256,192,1373159,1,14,0:0:0:0:
256,192,1373357,1,0,0:0:0:0:
256,192,1373555,1,10,0:0:0:0:
256,192,1373752,1,10,0:0:0:0:
256,192,1373950,1,4,0:0:0:0:
256,192,1374148,1,10,0:0:0:0:
256,192,1374346,1,14,0:0:0:0:
256,192,1374544,1,10,0:0:0:0:
256,192,1374742,1,4,0:0:0:0:
256,192,1374939,1,4,0:0:0:0:
256,192,1375137,1,4,0:0:0:0:
256,192,1375335,1,4,0:0:0:0:
256,192,1375533,1,14,0:0:0:0:
256,192,1375731,1,14,0:0:0:0:
256,192,1375929,1,14,0:0:0:0:
256,192,1376126,1,14,0:0:0:0:
256,192,1376324,1,4,0:0:0:0:
256,192,1376522,1,4,0:0:0:0:
256,192,1376720,1,14,0:0:0:0:
256,192,1376918,1,14,0:0:0:0:
256,192,1377115,1,4,0:0:0:0:
256,192,1377313,1,14,0:0:0:0:
256,192,1377511,1,14,0:0:0:0:
256,192,1377709,1,14,0:0:0:0:
256,192,1377907,1,4,0:0:0:0:
256,192,1378105,1,14,0:0:0:0:
256,192,1378302,1,4,0:0:0:0:
256,192,1378500,1,4,0:0:0:0:
256,192,1378698,1,14,0:0:0:0:
256,192,1378896,1,14,0:0:0:0:
256,192,1379094,1,4,0:0:0:0:
256,192,1379292,1,14,0:0:0:0:
256,192,1379489,1,4,0:0:0:0:
256,192,1379687,1,4,0:0:0:0:
256,192,1379885,1,14,0:0:0:0:
256,192,1380083,1,14,0:0:0:0:
256,192,1380281,1,4,0:0:0:0:
256,192,1380478,1,4,0:0:0:0:
256,192,1380676,1,14,0:0:0:0:
256,192,1380874,1,14,0:0:0:0:
