osu file format v14

[General]
AudioFilename: audio.mp3
AudioLeadIn: 0
PreviewTime: 42929
Countdown: 0
SampleSet: Normal
StackLeniency: 0.7
Mode: 1
LetterboxInBreaks: 0
WidescreenStoryboard: 1

[Editor]
DistanceSpacing: 0.3
BeatDivisor: 4
GridSize: 32
TimelineZoom: 3.100004

[Metadata]
Title:OUTSIDE
TitleUnicode:OUTSIDE
Artist:1 800 PAIN
ArtistUnicode:1 800 PAIN
Creator:Nifty
Version:ONI
Source:
Tags:rap electronic industrial hip hop angry sv postmodern english 1-800-PAIN 1800PAIN best house on a bad block jody jetski jone d'bonechis
BeatmapID:4246069
BeatmapSetID:2034952

[Difficulty]
HPDrainRate:5
CircleSize:2
OverallDifficulty:5
ApproachRate:10
SliderMultiplier:1.4
SliderTickRate:1

[Events]
//Background and Video events
0,0,"pain.jpg",0,-40
//Break Periods
//Storyboard Layer 0 (Background)
//Storyboard Layer 1 (Fail)
//Storyboard Layer 2 (Pass)
//Storyboard Layer 3 (Foreground)
//Storyboard Layer 4 (Overlay)
//Storyboard Sound Samples

[TimingPoints]
-24.6699507389162,340.909090909091,4,1,0,100,1,0
103,-200,4,1,0,100,0,0
10883,-83.333336,4,1,0,100,0,0
10968,-84.285545,4,1,0,100,0,0
11053,-85.24863,4,1,0,100,0,0
11224,-87.2196,4,1,0,100,0,0
11309,-88.21621,4,1,0,100,0,0
11394,-89.224205,4,1,0,100,0,0
11565,-91.28709,4,1,0,100,0,0
11650,-92.330185,4,1,0,100,0,0
11735,-93.38519,4,1,0,100,0,0
11906,-95.54428,4,1,0,100,0,0
11991,-96.63602,4,1,0,100,0,0
12076,-97.740204,4,1,0,100,0,0
12161,-98.85704,4,1,0,100,0,0
12247,-100,4,1,0,100,0,0
12587,-111.111115,4,1,0,100,0,0
12673,-109.25242,4,1,0,100,0,0
12758,-107.445915,4,1,0,100,0,0
12928,-103.92199,4,1,0,100,0,0
13014,-102.183556,4,1,0,100,0,0
13099,-100.49393,4,1,0,100,0,0
13269,-97.198006,4,1,0,100,0,0
13355,-95.57206,4,1,0,100,0,0
13440,-93.99175,4,1,0,100,0,0
13525,-92.43757,4,1,0,100,0,0
13610,-90.90909,4,1,0,100,0,0
16338,-50,4,1,0,100,0,0
16679,-90.9090909090909,4,1,0,100,0,0
21792,-83.333336,4,1,0,100,0,0
21877,-84.285545,4,1,0,100,0,0
21962,-85.24863,4,1,0,100,0,0
22048,-86.23424,4,1,0,100,0,0
22133,-87.2196,4,1,0,100,0,0
22303,-89.224205,4,1,0,100,0,0
22474,-91.28709,4,1,0,100,0,0
22559,-92.330185,4,1,0,100,0,0
22644,-93.38519,4,1,0,100,0,0
22730,-94.46487,4,1,0,100,0,0
22815,-95.54428,4,1,0,100,0,0
22985,-97.740204,4,1,0,100,0,0
23156,-100,4,1,0,100,0,0
23497,-111.111115,4,1,0,100,0,0
23582,-109.94931,4,1,0,100,0,0
23667,-108.79965,4,1,0,100,0,0
23837,-106.53627,4,1,0,100,0,0
23923,-105.40926,4,1,0,100,0,0
24008,-104.30707,4,1,0,100,0,0
24178,-102.13715,4,1,0,100,0,0
24264,-101.05668,4,1,0,100,0,0
24349,-100,4,1,0,100,0,0
24519,-83.333336,4,1,0,100,0,0
24690,-85.260025,4,1,0,100,0,0
24860,-87.2196,4,1,0,100,0,0
24945,-88.21621,4,1,0,100,0,0
25031,-89.23614,4,1,0,100,0,0
25116,-90.25579,4,1,0,100,0,0
25201,-91.28709,4,1,0,100,0,0
25372,-93.397675,4,1,0,100,0,0
25542,-95.54428,4,1,0,100,0,0
25627,-96.63602,4,1,0,100,0,0
25712,-97.740204,4,1,0,100,0,0
25798,-98.87026,4,1,0,100,0,0
25883,-100,4,1,0,100,0,0
26224,-111.111115,4,1,0,100,0,0
26309,-109.94931,4,1,0,100,0,0
26394,-108.79965,4,1,0,100,0,0
26565,-106.523094,4,1,0,100,0,0
26650,-105.40926,4,1,0,100,0,0
26735,-104.30707,4,1,0,100,0,0
26906,-102.12452,4,1,0,100,0,0
27076,-100,4,1,0,100,0,0
27247,-83.333336,4,1,0,100,0,0
27332,-84.28625,4,1,0,100,0,0
27417,-85.250046,4,1,0,100,0,0
27502,-86.22487,4,1,0,100,0,0
27587,-87.210846,4,1,0,100,0,0
27758,-89.228676,4,1,0,100,0,0
27928,-91.28098,4,1,0,100,0,0
28014,-92.33713,4,1,0,100,0,0
28099,-93.39299,4,1,0,100,0,0
28184,-94.46094,4,1,0,100,0,0
28269,-95.54108,4,1,0,100,0,0
28440,-97.751656,4,1,0,100,0,0
28610,-100,4,1,0,100,0,0
28951,-111.111115,4,1,0,100,0,0
29036,-109.94931,4,1,0,100,0,0
29122,-108.786194,4,1,0,100,0,0
29292,-106.523094,4,1,0,100,0,0
29377,-105.40926,4,1,0,100,0,0
29462,-104.30707,4,1,0,100,0,0
29633,-102.12452,4,1,0,100,0,0
29803,-100,4,1,0,100,0,0
29974,-83.333336,4,1,0,100,0,0
30059,-84.422905,4,1,0,100,0,0
30144,-85.52674,4,1,0,100,0,0
30230,-86.65824,4,1,0,100,0,0
30315,-87.79129,4,1,0,100,0,0
30485,-90.10204,4,1,0,100,0,0
30656,-92.48773,4,1,0,100,0,0
30741,-93.697,4,1,0,100,0,0
30826,-94.9221,4,1,0,100,0,0
30911,-96.163185,4,1,0,100,0,0
30997,-97.43541,4,1,0,100,0,0
31167,-100,4,1,0,100,0,0
31337,-83.333336,4,1,0,100,0,0
31423,-85.21503,4,1,0,100,0,0
31508,-87.11658,4,1,0,100,0,0
31593,-89.06057,4,1,0,100,0,0
31678,-91.047935,4,1,0,100,0,0
31849,-95.18142,4,1,0,100,0,0
32019,-99.47673,4,1,0,100,0,0
32105,-101.722946,4,1,0,100,0,0
32360,-108.685814,4,1,0,100,0,0
32445,-111.111115,4,1,0,100,0,0
32702,-66.6666666666667,4,1,0,100,0,0
33042,-125,4,1,0,100,0,0
33212,-124.99964,4,1,0,100,0,0
33298,-124.99881,4,1,0,100,0,0
33383,-124.99718,4,1,0,100,0,0
33553,-124.99049,4,1,0,100,0,0
33724,-124.97741,4,1,0,100,0,0
33894,-124.95596,4,1,0,100,0,0
34065,-124.92379,4,1,0,100,0,0
34150,-124.90319,4,1,0,100,0,0
34235,-124.87918,4,1,0,100,0,0
34406,-124.81951,4,1,0,100,0,0
34747,-124.647964,4,1,0,100,0,0
34832,-124.59282,4,1,0,100,0,0
35002,-124.465996,4,1,0,100,0,0
35087,-124.39382,4,1,0,100,0,0
35258,-124.2297,4,1,0,100,0,0
35428,-124.03993,4,1,0,100,0,0
35514,-123.93326,4,1,0,100,0,0
35599,-123.820465,4,1,0,100,0,0
35769,-123.57209,4,1,0,100,0,0
35940,-123.29019,4,1,0,100,0,0
36110,-122.97645,4,1,0,100,0,0
36195,-122.806595,4,1,0,100,0,0
36281,-122.62569,4,1,0,100,0,0
36451,-122.24055,4,1,0,100,0,0
36622,-121.81525,4,1,0,100,0,0
36792,-121.353546,4,1,0,100,0,0
36877,-121.10782,4,1,0,100,0,0
36962,-120.852005,4,1,0,100,0,0
37133,-120.306435,4,1,0,100,0,0
37303,-119.72241,4,1,0,100,0,0
37389,-119.41095,4,1,0,100,0,0
37474,-119.09244,4,1,0,100,0,0
37644,-118.423386,4,1,0,100,0,0
37815,-117.70707,4,1,0,100,0,0
37900,-117.33479,4,1,0,100,0,0
37985,-116.95171,4,1,0,100,0,0
38156,-116.14843,4,1,0,100,0,0
38326,-115.30677,4,1,0,100,0,0
38411,-114.86994,4,1,0,100,0,0
38497,-114.4172,4,1,0,100,0,0
38667,-113.4906,4,1,0,100,0,0
38837,-112.522575,4,1,0,100,0,0
38923,-112.01734,4,1,0,100,0,0
39008,-111.50788,4,1,0,100,0,0
39178,-110.45935,4,1,0,100,0,0
39349,-109.365814,4,1,0,100,0,0
39519,-108.241325,4,1,0,100,0,0
39860,-105.87918,4,1,0,100,0,0
40031,-104.64432,4,1,0,100,0,0
40116,-104.01874,4,1,0,100,0,0
40201,-103.38565,4,1,0,100,0,0
40372,-102.09022,4,1,0,100,0,0
40457,-101.435936,4,1,0,100,0,0
40542,-100.7751,4,1,0,100,0,0
40712,-99.434784,4,1,0,100,0,0
40883,-98.063225,4,1,0,100,0,0
40968,-97.3734,4,1,0,100,0,0
41053,-96.67856,4,1,0,100,0,0
41139,-95.970726,4,1,0,100,0,0
41224,-95.26663,4,1,0,100,0,0
41394,-93.846085,4,1,0,100,0,0
41565,-92.402405,4,1,0,100,0,0
41650,-91.67993,4,1,0,100,0,0
41735,-90.95459,4,1,0,100,0,0
41820,-90.22665,4,1,0,100,0,0
41906,-89.48777,4,1,0,100,0,0
42076,-88.02122,4,1,0,100,0,0
42247,-86.539764,4,1,0,100,0,0
42332,-85.80166,4,1,0,100,0,0
42417,-85.06275,4,1,0,100,0,0
42587,-83.583496,4,1,0,100,0,0
42673,-82.834946,4,1,0,100,0,0
42758,-82.095245,4,1,0,100,0,0
42928,-80.61722,4,1,0,100,0,0
43014,-79.87066,4,1,0,100,0,0
43269,-77.66415,4,1,0,100,0,0
43355,-76.92308,4,1,0,100,0,0
43611,-83.333336,4,1,0,100,0,1
43695,-83.83993,4,1,0,100,0,1
43781,-84.35562,4,1,0,100,0,1
43951,-85.38436,4,1,0,100,0,1
44036,-85.90343,4,1,0,100,0,1
44122,-86.43181,4,1,0,100,0,1
44207,-86.95724,4,1,0,100,0,1
44292,-87.48587,4,1,0,100,0,1
44462,-88.55279,4,1,0,100,0,1
44633,-89.6391,4,1,0,100,0,1
44718,-90.18402,4,1,0,100,0,1
44803,-90.73226,4,1,0,100,0,1
44974,-91.84532,4,1,0,100,0,1
45059,-92.40366,4,1,0,100,0,1
45144,-92.96539,4,1,0,100,0,1
45315,-94.10585,4,1,0,100,0,1
45485,-95.25349,4,1,0,100,0,1
45656,-96.42201,4,1,0,100,0,1
45826,-97.5979,4,1,0,100,0,1
45911,-98.191216,4,1,0,100,0,1
45997,-98.79518,4,1,0,100,0,1
46167,-100.00001,4,1,0,100,0,1
46337,-83.333336,4,1,0,100,0,1
46423,-83.84591,4,1,0,100,0,1
46508,-84.35562,4,1,0,100,0,1
46678,-85.38436,4,1,0,100,0,1
46764,-85.90955,4,1,0,100,0,1
46849,-86.43181,4,1,0,100,0,1
46934,-86.95724,4,1,0,100,0,1
47019,-87.48587,4,1,0,100,0,1
47190,-88.5591,4,1,0,100,0,1
47360,-89.6391,4,1,0,100,0,1
47445,-90.18402,4,1,0,100,0,1
47531,-90.73873,4,1,0,100,0,1
47701,-91.84532,4,1,0,100,0,1
47786,-92.40366,4,1,0,100,0,1
47872,-92.97203,4,1,0,100,0,1
48042,-94.10585,4,1,0,100,0,1
48212,-95.25349,4,1,0,100,0,1
48383,-96.42201,4,1,0,100,0,1
48553,-97.5979,4,1,0,100,0,1
48724,-98.79518,4,1,0,100,0,1
48809,-99.39577,4,1,0,100,0,1
48894,-100.00001,4,1,0,100,0,1
49065,-83.333336,4,1,0,100,0,1
49150,-83.83993,4,1,0,100,0,1
49235,-84.34961,4,1,0,100,0,1
49406,-85.38436,4,1,0,100,0,1
49491,-85.90343,4,1,0,100,0,1
49576,-86.425644,4,1,0,100,0,1
49661,-86.95104,4,1,0,100,0,1
49747,-87.48587,4,1,0,100,0,1
49917,-88.55279,4,1,0,100,0,1
50087,-89.6327,4,1,0,100,0,1
50173,-90.18402,4,1,0,100,0,1
50258,-90.73226,4,1,0,100,0,1
50428,-91.838776,4,1,0,100,0,1
50514,-92.40366,4,1,0,100,0,1
50599,-92.96539,4,1,0,100,0,1
50684,-93.53055,4,1,0,100,0,1
50769,-94.09914,4,1,0,100,0,1
50940,-95.25349,4,1,0,100,0,1
51110,-96.41513,4,1,0,100,0,1
51195,-97.00126,4,1,0,100,0,1
51281,-97.5979,4,1,0,100,0,1
51451,-98.78814,4,1,0,100,0,1
51536,-99.38869,4,1,0,100,0,1
51622,-100.00001,4,1,0,100,0,1
51792,-83.333336,4,1,0,100,0,1
51877,-83.83993,4,1,0,100,0,1
51962,-84.34961,4,1,0,100,0,1
52133,-85.38436,4,1,0,100,0,1
52218,-85.90343,4,1,0,100,0,1
52303,-86.425644,4,1,0,100,0,1
52389,-86.95724,4,1,0,100,0,1
52474,-87.48587,4,1,0,100,0,1
52644,-88.55279,4,1,0,100,0,1
52815,-89.6391,4,1,0,100,0,1
52900,-90.18402,4,1,0,100,0,1
52985,-90.73226,4,1,0,100,0,1
53070,-91.283844,4,1,0,100,0,1
53156,-91.84532,4,1,0,100,0,1
53242,-92.4214417744917,4,1,0,100,0,1
53326,-92.96539,4,1,0,100,0,1
53497,-94.10585,4,1,0,100,0,1
53582,-94.67793,4,1,0,100,0,1
53667,-95.25349,4,1,0,100,0,1
53837,-96.41513,4,1,0,100,0,1
54178,-98.78814,4,1,0,100,0,1
54264,-99.39577,4,1,0,100,0,1
54349,-100.00001,4,1,0,100,0,1
54519,-83.333336,4,1,0,100,0,1
54605,-83.84591,4,1,0,100,0,1
54690,-84.35562,4,1,0,100,0,1
54860,-85.38436,4,1,0,100,0,1
54945,-85.90343,4,1,0,100,0,1
55031,-86.43181,4,1,0,100,0,1
55116,-86.95724,4,1,0,100,0,1
55201,-87.48587,4,1,0,100,0,1
55371,-88.55279,4,1,0,100,0,1
55542,-89.6391,4,1,0,100,0,1
55627,-90.18402,4,1,0,100,0,1
55712,-90.73226,4,1,0,100,0,1
55883,-91.84532,4,1,0,100,0,1
55968,-92.40366,4,1,0,100,0,1
56053,-92.96539,4,1,0,100,0,1
56224,-94.10585,4,1,0,100,0,1
56394,-95.25349,4,1,0,100,0,1
56565,-96.42201,4,1,0,100,0,1
56650,-97.00817,4,1,0,100,0,1
56735,-97.5979,4,1,0,100,0,1
56906,-98.79518,4,1,0,100,0,1
57076,-100.00001,4,1,0,100,0,1
57246,-83.32739,4,1,0,100,0,1
57332,-83.840126,4,1,0,100,0,1
57417,-84.350006,4,1,0,100,0,1
57587,-85.37909,4,1,0,100,0,1
57673,-85.90444,4,1,0,100,0,1
57758,-86.42688,4,1,0,100,0,1
57843,-86.952484,4,1,0,100,0,1
57928,-87.48129,4,1,0,100,0,1
58099,-88.554886,4,1,0,100,0,1
58269,-89.63526,4,1,0,100,0,1
58354,-90.18038,4,1,0,100,0,1
58440,-90.73529,4,1,0,100,0,1
58610,-91.84226,4,1,0,100,0,1
58695,-92.4008,4,1,0,100,0,1
58781,-92.96938,4,1,0,100,0,1
58951,-94.103615,4,1,0,100,0,1
59121,-95.25167,4,1,0,100,0,1
59292,-96.42064,4,1,0,100,0,1
59462,-97.59697,4,1,0,100,0,1
59633,-98.794716,4,1,0,100,0,1
59718,-99.39553,4,1,0,100,0,1
59803,-100.00001,4,1,0,100,0,1
59974,-83.333336,4,1,0,100,0,1
60059,-83.83993,4,1,0,100,0,1
60144,-84.34961,4,1,0,100,0,1
60315,-85.38436,4,1,0,100,0,1
60400,-85.90343,4,1,0,100,0,1
60485,-86.425644,4,1,0,100,0,1
60570,-86.95104,4,1,0,100,0,1
60656,-87.48587,4,1,0,100,0,1
60826,-88.55279,4,1,0,100,0,1
60996,-89.6327,4,1,0,100,0,1
61082,-90.18402,4,1,0,100,0,1
61167,-90.73226,4,1,0,100,0,1
61337,-91.838776,4,1,0,100,0,1
61423,-92.40366,4,1,0,100,0,1
61508,-92.96539,4,1,0,100,0,1
61678,-94.09914,4,1,0,100,0,1
61849,-95.25349,4,1,0,100,0,1
62019,-96.41513,4,1,0,100,0,1
62104,-97.00126,4,1,0,100,0,1
62190,-97.5979,4,1,0,100,0,1
62360,-98.78814,4,1,0,100,0,1
62531,-100.00001,4,1,0,100,0,1
62701,-83.333336,4,1,0,100,0,1
62786,-83.80826,4,1,0,100,0,1
62872,-84.291534,4,1,0,100,0,1
63042,-85.255035,4,1,0,100,0,1
63127,-85.74091,4,1,0,100,0,1
63212,-86.22956,4,1,0,100,0,1
63298,-86.72679,4,1,0,100,0,1
63383,-87.221054,4,1,0,100,0,1
63553,-88.218056,4,1,0,100,0,1
63724,-89.232414,4,1,0,100,0,1
63809,-89.74096,4,1,0,100,0,1
63894,-90.2524,4,1,0,100,0,1
64065,-91.290146,4,1,0,100,0,1
64150,-91.810425,4,1,0,100,0,1
64235,-92.33366,4,1,0,100,0,1
64406,-93.39534,4,1,0,100,0,1
64576,-94.46291,4,1,0,100,0,1
64661,-95.00127,4,1,0,100,0,1
64746,-95.54269,4,1,0,100,0,1
64917,-96.641266,4,1,0,100,0,1
65087,-97.74595,4,1,0,100,0,1
65173,-98.30958,4,1,0,100,0,1
65258,-98.86986,4,1,0,100,0,1
65429,-100.00001,4,1,0,100,0,0
76338,-90.9090991735536,4,1,0,100,0,0
85883,-90.909096,4,1,0,100,0,0
85968,-92.73121,4,1,0,100,0,0
86053,-94.589836,4,1,0,100,0,0
86224,-98.44259,4,1,0,100,0,0
86309,-100.415695,4,1,0,100,0,0
86394,-102.428345,4,1,0,100,0,0
86565,-106.60037,4,1,0,100,0,0
86650,-108.736984,4,1,0,100,0,0
86906,-115.434166,4,1,0,100,0,0
86991,-117.74784,4,1,0,100,0,0
87246,-125.00001,4,1,0,100,0,0
87417,-124.99968,4,1,0,100,0,0
87502,-124.998924,4,1,0,100,0,0
87587,-124.997444,4,1,0,100,0,0
87758,-124.99134,4,1,0,100,0,0
87843,-124.98626,4,1,0,100,0,0
88014,-124.970764,4,1,0,100,0,0
88099,-124.95993,4,1,0,100,0,0
88269,-124.93088,4,1,0,100,0,0
88610,-124.83628,4,1,0,100,0,0
88781,-124.76679,4,1,0,100,0,0
88951,-124.680626,4,1,0,100,0,0
89122,-124.57494,4,1,0,100,0,0
89207,-124.51473,4,1,0,100,0,0
89377,-124.37795,4,1,0,100,0,0
89462,-124.300934,4,1,0,100,0,0
89633,-124.1275,4,1,0,100,0,0
89974,-123.70208,4,1,0,100,0,0
90059,-123.57836,4,1,0,100,0,0
90144,-123.4472,4,1,0,100,0,0
90315,-123.16007,4,1,0,100,0,0
90485,-122.84264,4,1,0,100,0,0
90570,-122.67155,4,1,0,100,0,0
90741,-122.301544,4,1,0,100,0,0
90826,-122.10452,4,1,0,100,0,0
90997,-121.68102,4,1,0,100,0,0
91337,-120.72794,4,1,0,100,0,0
91508,-120.19102,4,1,0,100,0,0
91678,-119.61808,4,1,0,100,0,0
91764,-119.3132,4,1,0,100,0,0
91849,-119.00185,4,1,0,100,0,0
91934,-118.68049,4,1,0,100,0,0
92019,-118.34909,4,1,0,100,0,0
92190,-117.65189,4,1,0,100,0,0
92360,-116.918236,4,1,0,100,0,0
92445,-116.53628,4,1,0,100,0,0
92531,-116.139534,4,1,0,100,0,0
92701,-115.325035,4,1,0,100,0,0
92872,-114.46547,4,1,0,100,0,0
93042,-113.57134,4,1,0,100,0,0
93212,-112.63831,4,1,0,100,0,0
93298,-112.15173,4,1,0,100,0,0
93468,-111.16158,4,1,0,100,0,0
93553,-110.65264,4,1,0,100,0,0
93724,-109.60142,4,1,0,100,0,0
94065,-107.40016,4,1,0,100,0,0
94235,-106.253136,4,1,0,100,0,0
94406,-105.067986,4,1,0,100,0,0
94576,-103.86012,4,1,0,100,0,0
94661,-103.24562,4,1,0,100,0,0
94832,-101.98908,4,1,0,100,0,0
94917,-101.35484,4,1,0,100,0,0
95087,-100.06826,4,1,0,100,0,0
95428,-97.42127,4,1,0,100,0,0
95514,-96.74115,4,1,0,100,0,0
95599,-96.06444,4,1,0,100,0,0
95769,-94.69859,4,1,0,100,0,0
95940,-93.30963,4,1,0,100,0,0
96025,-92.6142,4,1,0,100,0,0
96195,-91.21456,4,1,0,100,0,0
96281,-90.50254,4,1,0,100,0,0
96451,-89.088425,4,1,0,100,0,0
96792,-86.231926,4,1,0,100,0,0
96877,-85.517105,4,1,0,100,0,0
96962,-84.80161,4,1,0,100,0,0
97133,-83.361115,4,1,0,100,0,0
97218,-82.64496,4,1,0,100,0,0
97303,-81.92901,4,1,0,100,0,0
97474,-80.49011,4,1,0,100,0,0
97559,-79.775986,4,1,0,100,0,0
97815,-77.63204,4,1,0,100,0,0
97900,-76.92308,4,1,0,100,0,0
98157,-83.333336,4,1,0,100,0,1
98219,-83.83993,4,1,0,100,0,1
98305,-84.35562,4,1,0,100,0,1
98475,-85.38436,4,1,0,100,0,1
98560,-85.90343,4,1,0,100,0,1
98646,-86.43181,4,1,0,100,0,1
98731,-86.95724,4,1,0,100,0,1
98816,-87.48587,4,1,0,100,0,1
98986,-88.55279,4,1,0,100,0,1
99157,-89.6391,4,1,0,100,0,1
99242,-90.18402,4,1,0,100,0,1
99327,-90.73226,4,1,0,100,0,1
99498,-91.84532,4,1,0,100,0,1
99583,-92.40366,4,1,0,100,0,1
99668,-92.96539,4,1,0,100,0,1
99839,-94.10585,4,1,0,100,0,1
100009,-95.25349,4,1,0,100,0,1
100180,-96.42201,4,1,0,100,0,1
100350,-97.5979,4,1,0,100,0,1
100435,-98.191216,4,1,0,100,0,1
100521,-98.79518,4,1,0,100,0,1
100691,-100.00001,4,1,0,100,0,1
100861,-83.333336,4,1,0,100,0,1
100947,-83.84591,4,1,0,100,0,1
101032,-84.35562,4,1,0,100,0,1
101202,-85.38436,4,1,0,100,0,1
101288,-85.90955,4,1,0,100,0,1
101373,-86.43181,4,1,0,100,0,1
101458,-86.95724,4,1,0,100,0,1
101543,-87.48587,4,1,0,100,0,1
101714,-88.5591,4,1,0,100,0,1
101884,-89.6391,4,1,0,100,0,1
101969,-90.18402,4,1,0,100,0,1
102055,-90.73873,4,1,0,100,0,1
102225,-91.84532,4,1,0,100,0,1
102310,-92.40366,4,1,0,100,0,1
102396,-92.97203,4,1,0,100,0,1
102566,-94.10585,4,1,0,100,0,1
102736,-95.25349,4,1,0,100,0,1
102907,-96.42201,4,1,0,100,0,1
103077,-97.5979,4,1,0,100,0,1
103248,-98.79518,4,1,0,100,0,1
103333,-99.39577,4,1,0,100,0,1
103418,-100.00001,4,1,0,100,0,1
103589,-83.333336,4,1,0,100,0,1
103674,-83.83993,4,1,0,100,0,1
103759,-84.34961,4,1,0,100,0,1
103930,-85.38436,4,1,0,100,0,1
104015,-85.90343,4,1,0,100,0,1
104100,-86.425644,4,1,0,100,0,1
104185,-86.95104,4,1,0,100,0,1
104271,-87.48587,4,1,0,100,0,1
104441,-88.55279,4,1,0,100,0,1
104611,-89.6327,4,1,0,100,0,1
104697,-90.18402,4,1,0,100,0,1
104782,-90.73226,4,1,0,100,0,1
104952,-91.838776,4,1,0,100,0,1
105038,-92.40366,4,1,0,100,0,1
105123,-92.96539,4,1,0,100,0,1
105208,-93.53055,4,1,0,100,0,1
105293,-94.09914,4,1,0,100,0,1
105464,-95.25349,4,1,0,100,0,1
105634,-96.41513,4,1,0,100,0,1
105719,-97.00126,4,1,0,100,0,1
105805,-97.5979,4,1,0,100,0,1
105975,-98.78814,4,1,0,100,0,1
106060,-99.38869,4,1,0,100,0,1
106146,-100.00001,4,1,0,100,0,1
106316,-83.333336,4,1,0,100,0,1
106401,-83.83993,4,1,0,100,0,1
106486,-84.34961,4,1,0,100,0,1
106657,-85.38436,4,1,0,100,0,1
106742,-85.90343,4,1,0,100,0,1
106827,-86.425644,4,1,0,100,0,1
106913,-86.95724,4,1,0,100,0,1
106998,-87.48587,4,1,0,100,0,1
107168,-88.55279,4,1,0,100,0,1
107339,-89.6391,4,1,0,100,0,1
107424,-90.18402,4,1,0,100,0,1
107509,-90.73226,4,1,0,100,0,1
107594,-91.283844,4,1,0,100,0,1
107680,-91.84532,4,1,0,100,0,1
107850,-92.96539,4,1,0,100,0,1
108021,-94.10585,4,1,0,100,0,1
108106,-94.67793,4,1,0,100,0,1
108191,-95.25349,4,1,0,100,0,1
108361,-96.41513,4,1,0,100,0,1
108702,-98.78814,4,1,0,100,0,1
108788,-99.39577,4,1,0,100,0,1
108873,-100.00001,4,1,0,100,0,1
109043,-83.333336,4,1,0,100,0,1
109129,-83.84591,4,1,0,100,0,1
109214,-84.35562,4,1,0,100,0,1
109384,-85.38436,4,1,0,100,0,1
109469,-85.90343,4,1,0,100,0,1
109555,-86.43181,4,1,0,100,0,1
109640,-86.95724,4,1,0,100,0,1
109725,-87.48587,4,1,0,100,0,1
109895,-88.55279,4,1,0,100,0,1
110066,-89.6391,4,1,0,100,0,1
110151,-90.18402,4,1,0,100,0,1
110236,-90.73226,4,1,0,100,0,1
110407,-91.84532,4,1,0,100,0,1
110492,-92.40366,4,1,0,100,0,1
110577,-92.96539,4,1,0,100,0,1
110748,-94.10585,4,1,0,100,0,1
110918,-95.25349,4,1,0,100,0,1
111089,-96.42201,4,1,0,100,0,1
111174,-97.00817,4,1,0,100,0,1
111259,-97.5979,4,1,0,100,0,1
111430,-98.79518,4,1,0,100,0,1
111600,-100.00001,4,1,0,100,0,1
111770,-83.32739,4,1,0,100,0,1
111856,-83.840126,4,1,0,100,0,1
111941,-84.350006,4,1,0,100,0,1
112111,-85.37909,4,1,0,100,0,1
112197,-85.90444,4,1,0,100,0,1
112282,-86.42688,4,1,0,100,0,1
112367,-86.952484,4,1,0,100,0,1
112452,-87.48129,4,1,0,100,0,1
112623,-88.554886,4,1,0,100,0,1
112793,-89.63526,4,1,0,100,0,1
112878,-90.18038,4,1,0,100,0,1
112964,-90.73529,4,1,0,100,0,1
113134,-91.84226,4,1,0,100,0,1
113219,-92.4008,4,1,0,100,0,1
113305,-92.96938,4,1,0,100,0,1
113475,-94.103615,4,1,0,100,0,1
113645,-95.25167,4,1,0,100,0,1
113816,-96.42064,4,1,0,100,0,1
113986,-97.59697,4,1,0,100,0,1
114157,-98.794716,4,1,0,100,0,1
114242,-99.39553,4,1,0,100,0,1
114327,-100.00001,4,1,0,100,0,1
114498,-83.333336,4,1,0,100,0,1
114583,-83.83993,4,1,0,100,0,1
114668,-84.34961,4,1,0,100,0,1
114839,-85.38436,4,1,0,100,0,1
114924,-85.90343,4,1,0,100,0,1
115009,-86.425644,4,1,0,100,0,1
115094,-86.95104,4,1,0,100,0,1
115180,-87.48587,4,1,0,100,0,1
115350,-88.55279,4,1,0,100,0,1
115520,-89.6327,4,1,0,100,0,1
115606,-90.18402,4,1,0,100,0,1
115691,-90.73226,4,1,0,100,0,1
115861,-91.838776,4,1,0,100,0,1
115947,-92.40366,4,1,0,100,0,1
116032,-92.96539,4,1,0,100,0,1
116202,-94.09914,4,1,0,100,0,1
116373,-95.25349,4,1,0,100,0,1
116543,-96.41513,4,1,0,100,0,1
116628,-97.00126,4,1,0,100,0,1
116714,-97.5979,4,1,0,100,0,1
116884,-98.78814,4,1,0,100,0,1
117055,-100.00001,4,1,0,100,0,1
117225,-83.333336,4,1,0,100,0,1
117310,-83.80826,4,1,0,100,0,1
117396,-84.291534,4,1,0,100,0,1
117566,-85.255035,4,1,0,100,0,1
117651,-85.74091,4,1,0,100,0,1
117736,-86.22956,4,1,0,100,0,1
117822,-86.72679,4,1,0,100,0,1
117907,-87.221054,4,1,0,100,0,1
118077,-88.218056,4,1,0,100,0,1
118248,-89.232414,4,1,0,100,0,1
118333,-89.74096,4,1,0,100,0,1
118418,-90.2524,4,1,0,100,0,1
118589,-91.290146,4,1,0,100,0,1
118674,-91.810425,4,1,0,100,0,1
118759,-92.33366,4,1,0,100,0,1
118930,-93.39534,4,1,0,100,0,1
119100,-94.46291,4,1,0,100,0,1
119185,-95.00127,4,1,0,100,0,1
119270,-95.54269,4,1,0,100,0,1
119441,-96.641266,4,1,0,100,0,1
119611,-97.74595,4,1,0,100,0,1
119697,-98.30958,4,1,0,100,0,1
119804,-98.86986,4,1,0,100,0,0
119975,-100.00001,4,1,0,100,0,0
121083,468.75,4,1,0,100,1,0
121083,-76.92308,4,1,0,100,0,0
121160,-77.76724,4,1,0,100,0,0
121238,-78.620674,4,1,0,100,0,0
121316,-79.48347,4,1,0,100,0,0
121433,-80.79544,4,1,0,100,0,0
121550,-82.12907,4,1,0,100,0,0
121609,-82.80991,4,1,0,100,0,0
121667,-83.48472,4,1,0,100,0,0
121785,-84.87461,4,1,0,100,0,0
121902,-86.27557,4,1,0,100,0,0
122019,-87.69966,4,1,0,100,0,0
122253,-90.61875,4,1,0,100,0,0
122371,-92.12742,4,1,0,100,0,0
122488,-93.6481,4,1,0,100,0,0
122605,-95.193886,4,1,0,100,0,0
122722,-96.765175,4,1,0,100,0,0
122839,-98.36241,4,1,0,100,0,0
122957,-100,4,1,0,100,0,0
123191,-83.333336,4,1,0,100,0,0
123308,-84.50874,4,1,0,100,0,0
123425,-85.70072,4,1,0,100,0,0
123484,-86.30818,4,1,0,100,0,0
123542,-86.90952,4,1,0,100,0,0
123660,-88.14593,4,1,0,100,0,0
123777,-89.38921,4,1,0,100,0,0
123894,-90.65003,4,1,0,100,0,0
123953,-91.292564,4,1,0,100,0,0
124011,-91.92864,4,1,0,100,0,0
124128,-93.22527,4,1,0,100,0,0
124246,-94.55153,4,1,0,100,0,0
124363,-95.88517,4,1,0,100,0,0
124597,-98.60913,4,1,0,100,0,0
124714,-100,4,1,0,100,0,0
124832,-76.92308,4,1,0,100,0,0
124910,-77.76724,4,1,0,100,0,0
124988,-78.620674,4,1,0,100,0,0
125066,-79.48347,4,1,0,100,0,0
125183,-80.79544,4,1,0,100,0,0
125300,-82.12907,4,1,0,100,0,0
125359,-82.80991,4,1,0,100,0,0
125417,-83.48472,4,1,0,100,0,0
125535,-84.87461,4,1,0,100,0,0
125593,-85.56624,4,1,0,100,0,0
125652,-86.27557,4,1,0,100,0,0
125769,-87.69966,4,1,0,100,0,0
126003,-90.61875,4,1,0,100,0,0
126121,-92.12742,4,1,0,100,0,0
126238,-93.6481,4,1,0,100,0,0
126355,-95.193886,4,1,0,100,0,0
126472,-96.765175,4,1,0,100,0,0
126589,-98.36241,4,1,0,100,0,0
126707,-100,4,1,0,100,0,0
126941,-111.111115,4,1,0,100,0,0
127058,-108.482765,4,1,0,100,0,0
127175,-105.91659,4,1,0,100,0,0
127292,-103.41112,4,1,0,100,0,0
127410,-100.94427,4,1,0,100,0,0
127527,-98.55641,4,1,0,100,0,0
127585,-97.393715,4,1,0,100,0,0
127644,-96.225044,4,1,0,100,0,0
127761,-93.94884,4,1,0,100,0,0
127878,-91.72646,4,1,0,100,0,0
127996,-89.53834,4,1,0,100,0,0
128113,-87.420296,4,1,0,100,0,0
128230,-85.352356,4,1,0,100,0,0
128347,-83.333336,4,1,0,100,0,0
128582,-76.92308,4,1,0,100,0,0
128660,-77.76724,4,1,0,100,0,0
128738,-78.620674,4,1,0,100,0,0
128816,-79.48347,4,1,0,100,0,0
128933,-80.79544,4,1,0,100,0,0
129050,-82.12907,4,1,0,100,0,0
129109,-82.80991,4,1,0,100,0,0
129167,-83.48472,4,1,0,100,0,0
129285,-84.87461,4,1,0,100,0,0
129402,-86.27557,4,1,0,100,0,0
129519,-87.69966,4,1,0,100,0,0
129753,-90.61875,4,1,0,100,0,0
129871,-92.12742,4,1,0,100,0,0
129988,-93.6481,4,1,0,100,0,0
130105,-95.193886,4,1,0,100,0,0
130222,-96.765175,4,1,0,100,0,0
130339,-98.36241,4,1,0,100,0,0
130457,-100,4,1,0,100,0,0
130691,-83.333336,4,1,0,100,0,0
130808,-84.6073,4,1,0,100,0,0
130925,-85.900734,4,1,0,100,0,0
130984,-86.56046,4,1,0,100,0,0
131042,-87.21394,4,1,0,100,0,0
131160,-88.558716,4,1,0,100,0,0
131277,-89.91256,4,1,0,100,0,0
131394,-91.2871,4,1,0,100,0,0
131453,-91.98819,4,1,0,100,0,0
131511,-92.68265,4,1,0,100,0,0
131628,-94.09954,4,1,0,100,0,0
131746,-95.55047,4,1,0,100,0,0
131863,-97.0112,4,1,0,100,0,0
131980,-98.49427,4,1,0,100,0,0
132097,-100,4,1,0,100,0,0
132332,-76.92308,4,1,0,100,0,0
132410,-77.76724,4,1,0,100,0,0
132488,-78.620674,4,1,0,100,0,0
132566,-79.48347,4,1,0,100,0,0
132683,-80.79544,4,1,0,100,0,0
132800,-82.12907,4,1,0,100,0,0
132859,-82.80991,4,1,0,100,0,0
132917,-83.48472,4,1,0,100,0,0
133035,-84.87461,4,1,0,100,0,0
133152,-86.27557,4,1,0,100,0,0
133269,-87.69966,4,1,0,100,0,0
133503,-90.61875,4,1,0,100,0,0
133621,-92.12742,4,1,0,100,0,0
133738,-93.6481,4,1,0,100,0,0
133855,-95.193886,4,1,0,100,0,0
133972,-96.765175,4,1,0,100,0,0
134089,-98.36241,4,1,0,100,0,0
134207,-100,4,1,0,100,0,0
134441,-111.111115,4,1,0,100,0,0
134558,-108.482765,4,1,0,100,0,0
134675,-105.91659,4,1,0,100,0,0
134792,-103.41112,4,1,0,100,0,0
134910,-100.94427,4,1,0,100,0,0
135027,-98.55641,4,1,0,100,0,0
135085,-97.393715,4,1,0,100,0,0
135144,-96.225044,4,1,0,100,0,0
135261,-93.94884,4,1,0,100,0,0
135378,-91.72646,4,1,0,100,0,0
135496,-89.53834,4,1,0,100,0,0
135613,-87.420296,4,1,0,100,0,0
135847,-83.333336,4,1,0,100,0,0
136082,-76.92308,4,1,0,100,0,0
136160,-77.31246,4,1,0,100,0,0
136238,-77.70383,4,1,0,100,0,0
136316,-78.09717,4,1,0,100,0,0
136433,-78.69091,4,1,0,100,0,0
136550,-79.28918,4,1,0,100,0,0
136609,-79.59258,4,1,0,100,0,0
136667,-79.89199,4,1,0,100,0,0
136785,-80.50459,4,1,0,100,0,0
136902,-81.116646,4,1,0,100,0,0
137019,-81.733345,4,1,0,100,0,0
137253,-82.98086,4,1,0,100,0,0
137371,-83.61714,4,1,0,100,0,0
137488,-84.25286,4,1,0,100,0,0
137566,-84.679344,4,1,0,100,0,0
137644,-85.108,4,1,0,100,0,0
137722,-85.538826,4,1,0,100,0,0
137839,-86.18914,4,1,0,100,0,0
137957,-86.85004,4,1,0,100,0,0
138191,-88.17564,4,1,0,100,0,0
138308,-88.846016,4,1,0,100,0,0
138425,-89.521484,4,1,0,100,0,0
138484,-89.864044,4,1,0,100,0,0
138542,-90.20209,4,1,0,100,0,0
138660,-90.893745,4,1,0,100,0,0
138777,-91.58478,4,1,0,100,0,0
138894,-92.281075,4,1,0,100,0,0
138953,-92.63419,4,1,0,100,0,0
139011,-92.98264,4,1,0,100,0,0
139128,-93.68957,4,1,0,100,0,0
139246,-94.407974,4,1,0,100,0,0
139363,-95.125725,4,1,0,100,0,0
139480,-95.84894,4,1,0,100,0,0
139597,-96.57764,4,1,0,100,0,0
139832,-98.05807,4,1,0,100,0,0
139910,-98.55444,4,1,0,100,0,0
139988,-99.05334,4,1,0,100,0,0
140066,-99.55474,4,1,0,100,0,0
140183,-100.31163,4,1,0,100,0,0
140300,-101.074265,4,1,0,100,0,0
140359,-101.46104,4,1,0,100,0,0
140417,-101.8427,4,1,0,100,0,0
140535,-102.62362,4,1,0,100,0,0
140652,-103.40383,4,1,0,100,0,0
140769,-104.18998,4,1,0,100,0,0
141003,-105.78025,4,1,0,100,0,0
141121,-106.59136,4,1,0,100,0,0
141238,-107.40174,4,1,0,100,0,0
141316,-107.945404,4,1,0,100,0,0
141394,-108.49184,4,1,0,100,0,0
141472,-109.04103,4,1,0,100,0,0
141589,-109.870026,4,1,0,100,0,0
141707,-110.7125,4,1,0,100,0,0
141941,-112.402336,4,1,0,100,0,0
142058,-113.25688,4,1,0,100,0,0
142175,-114.11794,4,1,0,100,0,0
142292,-114.98555,4,1,0,100,0,0
142410,-115.86724,4,1,0,100,0,0
142527,-116.748146,4,1,0,100,0,0
142585,-117.18731,4,1,0,100,0,0
142644,-117.635735,4,1,0,100,0,0
142761,-118.53009,4,1,0,100,0,0
142878,-119.43124,4,1,0,100,0,0
142996,-120.34702,4,1,0,100,0,0
143113,-121.26198,4,1,0,100,0,0
143347,-123.11282,4,1,0,100,0,0
143582,-125,4,1,0,100,0,0

[HitObjects]
298,142,10884,5,8,0:0:0:0:
301,154,11054,1,0,0:0:0:0:
298,154,11225,1,8,0:0:0:0:
296,155,11310,1,0,0:0:0:0:
297,156,11395,1,0,0:0:0:0:
297,156,11566,1,8,0:0:0:0:
297,156,11736,1,0,0:0:0:0:
301,155,11907,1,8,0:0:0:0:
301,154,12077,1,0,0:0:0:0:
300,154,12162,1,0,0:0:0:0:
298,154,12248,1,8,0:0:0:0:
297,156,12588,1,0,0:0:0:0:
297,156,12674,1,8,0:0:0:0:
297,161,12759,1,0,0:0:0:0:
297,161,12929,1,8,0:0:0:0:
274,130,13100,1,8,0:0:0:0:
289,167,13270,1,0,0:0:0:0:
289,167,13356,1,0,0:0:0:0:
289,167,13441,1,0,0:0:0:0:
288,167,13611,1,8,0:0:0:0:
297,161,13952,1,8,0:0:0:0:
295,161,14037,1,0,0:0:0:0:
301,157,14123,1,8,0:0:0:0:
301,157,14293,1,0,0:0:0:0:
285,158,14463,1,0,0:0:0:0:
285,158,14634,1,8,0:0:0:0:
285,158,14719,1,8,0:0:0:0:
286,158,14804,1,0,0:0:0:0:
286,158,14975,1,8,0:0:0:0:
289,159,15316,1,0,0:0:0:0:
295,157,15401,1,8,0:0:0:0:
285,158,15486,1,0,0:0:0:0:
285,158,15657,1,8,0:0:0:0:
286,158,15827,1,8,0:0:0:0:
286,158,15998,1,0,0:0:0:0:
290,158,16168,1,0,0:0:0:0:
289,159,16339,1,12,0:0:0:0:
289,164,16679,1,8,0:0:0:0:
289,164,16850,1,8,0:0:0:0:
290,164,17020,1,0,0:0:0:0:
290,158,17106,1,0,0:0:0:0:
290,158,17191,1,8,0:0:0:0:
289,159,17361,1,0,0:0:0:0:
289,164,17532,1,0,0:0:0:0:
289,164,17702,1,8,0:0:0:0:
291,154,18043,1,0,0:0:0:0:
292,151,18128,1,8,0:0:0:0:
293,149,18213,1,0,0:0:0:0:
292,149,18384,1,8,0:0:0:0:
291,148,18554,1,8,0:0:0:0:
291,148,18725,1,0,0:0:0:0:
263,135,18895,1,0,0:0:0:0:
292,130,19066,1,8,0:0:0:0:
282,151,19151,1,8,0:0:0:0:
286,134,19236,1,0,0:0:0:0:
287,129,19407,1,8,0:0:0:0:
283,126,19577,1,8,0:0:0:0:
283,126,19748,1,0,0:0:0:0:
283,126,19918,1,8,0:0:0:0:
283,125,20003,1,8,0:0:0:0:
283,125,20088,1,0,0:0:0:0:
283,125,20259,1,0,0:0:0:0:
292,122,20429,1,8,0:0:0:0:
286,114,20770,1,8,0:0:0:0:
288,106,20856,1,8,0:0:0:0:
292,102,20941,1,0,0:0:0:0:
292,102,21111,1,8,0:0:0:0:
288,106,21282,1,0,0:0:0:0:
288,106,21452,1,8,0:0:0:0:
288,105,21537,1,8,0:0:0:0:
291,106,21623,1,0,0:0:0:0:
293,107,21793,1,8,0:0:0:0:
308,105,21963,1,0,0:0:0:0:
288,106,22049,1,0,0:0:0:0:
292,102,22134,1,8,0:0:0:0:
279,101,22304,1,8,0:0:0:0:
279,101,22475,1,0,0:0:0:0:
279,101,22560,1,0,0:0:0:0:
278,102,22645,1,8,0:0:0:0:
278,102,22816,1,8,0:0:0:0:
278,102,22986,1,0,0:0:0:0:
278,102,23157,1,8,0:0:0:0:
279,101,23498,1,0,0:0:0:0:
279,101,23583,1,8,0:0:0:0:
285,90,23668,1,0,0:0:0:0:
285,90,23838,1,8,0:0:0:0:
280,83,24009,1,8,0:0:0:0:
271,91,24179,1,0,0:0:0:0:
271,90,24265,1,0,0:0:0:0:
270,91,24350,1,8,0:0:0:0:
276,89,24520,1,0,0:0:0:0:
276,89,24691,1,0,0:0:0:0:
276,90,24861,1,8,0:0:0:0:
285,90,24946,1,8,0:0:0:0:
272,90,25032,1,0,0:0:0:0:
278,89,25202,1,8,0:0:0:0:
278,89,25373,1,8,0:0:0:0:
276,89,25543,1,0,0:0:0:0:
281,94,25628,1,8,0:0:0:0:
284,96,25713,1,0,0:0:0:0:
276,90,25884,1,8,0:0:0:0:
293,90,26225,1,0,0:0:0:0:
298,86,26310,1,8,0:0:0:0:
298,86,26395,1,0,0:0:0:0:
298,86,26566,1,8,0:0:0:0:
298,86,26736,1,8,0:0:0:0:
301,85,26907,1,0,0:0:0:0:
300,87,27077,1,0,0:0:0:0:
301,85,27248,1,0,0:0:0:0:
298,86,27333,1,0,0:0:0:0:
305,84,27418,1,8,0:0:0:0:
305,84,27588,1,8,0:0:0:0:
304,87,27759,1,0,0:0:0:0:
307,82,27929,1,8,0:0:0:0:
300,87,28015,1,8,0:0:0:0:
300,87,28100,1,0,0:0:0:0:
298,86,28270,1,8,0:0:0:0:
305,84,28441,1,0,0:0:0:0:
305,84,28611,1,8,0:0:0:0:
301,96,28952,1,0,0:0:0:0:
300,87,29037,1,8,0:0:0:0:
300,87,29123,1,0,0:0:0:0:
298,86,29293,1,8,0:0:0:0:
297,83,29463,1,0,0:0:0:0:
296,83,29634,1,8,0:0:0:0:
285,90,29804,1,0,0:0:0:0:
287,85,29975,1,8,0:0:0:0:
287,88,30145,1,0,0:0:0:0:
291,87,30231,1,0,0:0:0:0:
291,87,30316,1,8,0:0:0:0:
291,87,30486,1,0,0:0:0:0:
289,94,30657,1,8,0:0:0:0:
295,93,30742,1,8,0:0:0:0:
295,93,30827,1,0,0:0:0:0:
296,91,30998,1,8,0:0:0:0:
296,91,31168,1,0,0:0:0:0:
291,87,31338,1,8,0:0:0:0:
312,89,31424,1,8,0:0:0:0:
308,91,31509,1,8,0:0:0:0:
311,94,31679,1,0,0:0:0:0:
314,92,31850,1,0,0:0:0:0:
313,92,32020,1,8,0:0:0:0:
323,90,32106,1,8,0:0:0:0:
316,91,32361,1,0,0:0:0:0:
330,86,32446,1,0,0:0:0:0:
311,94,32702,1,12,0:0:0:0:
313,92,33043,1,8,0:0:0:0:
302,91,33213,1,0,0:0:0:0:
306,91,33299,1,0,0:0:0:0:
316,91,33384,1,8,0:0:0:0:
311,94,33554,1,8,0:0:0:0:
311,94,33725,1,0,0:0:0:0:
313,92,33895,1,0,0:0:0:0:
313,92,34066,1,8,0:0:0:0:
309,90,34151,1,8,0:0:0:0:
315,89,34236,1,0,0:0:0:0:
316,91,34407,1,8,0:0:0:0:
311,94,34748,1,0,0:0:0:0:
313,92,34833,1,0,0:0:0:0:
309,103,35003,1,0,0:0:0:0:
309,103,35088,1,8,0:0:0:0:
309,103,35259,1,0,0:0:0:0:
309,103,35429,1,8,0:0:0:0:
308,103,35515,1,8,0:0:0:0:
308,103,35600,1,0,0:0:0:0:
308,102,35770,1,8,0:0:0:0:
309,103,35941,1,0,0:0:0:0:
309,103,36111,1,8,0:0:0:0:
314,111,36196,1,0,0:0:0:0:
309,103,36282,1,8,0:0:0:0:
315,114,36452,1,8,0:0:0:0:
315,114,36623,1,0,0:0:0:0:
315,114,36793,1,8,0:0:0:0:
317,102,36878,1,8,0:0:0:0:
309,103,36963,1,0,0:0:0:0:
310,116,37134,1,8,0:0:0:0:
315,114,37304,1,0,0:0:0:0:
322,109,37390,1,0,0:0:0:0:
303,111,37475,1,8,0:0:0:0:
310,103,37645,1,0,0:0:0:0:
306,104,37816,1,8,0:0:0:0:
309,103,37986,1,0,0:0:0:0:
308,108,38157,1,8,0:0:0:0:
309,115,38327,1,0,0:0:0:0:
308,108,38412,1,0,0:0:0:0:
303,111,38498,1,8,0:0:0:0:
310,103,38668,1,0,0:0:0:0:
324,96,38838,1,8,0:0:0:0:
324,96,38924,1,8,0:0:0:0:
323,103,39009,1,0,0:0:0:0:
320,86,39179,1,8,0:0:0:0:
306,98,39350,1,0,0:0:0:0:
305,99,39520,1,8,0:0:0:0:
324,96,39861,1,0,0:0:0:0:
323,103,40032,1,0,0:0:0:0:
350,95,40117,1,0,0:0:0:0:
323,97,40202,1,8,0:0:0:0:
321,92,40373,1,0,0:0:0:0:
322,101,40543,1,8,0:0:0:0:
322,101,40713,1,0,0:0:0:0:
324,96,40884,1,8,0:0:0:0:
324,96,40969,1,8,0:0:0:0:
323,103,41054,1,0,0:0:0:0:
313,103,41225,1,8,0:0:0:0:
333,93,41395,1,0,0:0:0:0:
313,103,41566,1,8,0:0:0:0:
333,93,41651,1,8,0:0:0:0:
333,93,41736,1,8,0:0:0:0:
312,102,41907,1,8,0:0:0:0:
327,86,42077,1,0,0:0:0:0:
323,94,42248,1,8,0:0:0:0:
324,93,42333,1,8,0:0:0:0:
323,94,42418,1,8,0:0:0:0:
324,92,42588,1,0,0:0:0:0:
320,89,42674,1,0,0:0:0:0:
324,92,42759,1,0,0:0:0:0:
328,87,42929,1,8,0:0:0:0:
318,84,43015,1,8,0:0:0:0:
331,89,43270,1,8,0:0:0:0:
319,83,43356,1,8,0:0:0:0:
324,106,43611,1,8,0:0:0:0:
330,88,43782,1,0,0:0:0:0:
331,98,43952,1,8,0:0:0:0:
332,91,44037,1,8,0:0:0:0:
331,96,44123,1,0,0:0:0:0:
331,89,44208,1,0,0:0:0:0:
331,89,44293,1,8,0:0:0:0:
321,91,44463,1,0,0:0:0:0:
320,91,44634,1,8,0:0:0:0:
321,94,44804,1,0,0:0:0:0:
323,92,44975,1,8,0:0:0:0:
322,84,45060,1,0,0:0:0:0:
322,84,45145,1,8,0:0:0:0:
339,91,45316,1,0,0:0:0:0:
320,91,45657,1,8,0:0:0:0:
320,86,45827,1,0,0:0:0:0:
317,87,45912,1,0,0:0:0:0:
323,92,45998,1,8,0:0:0:0:
322,84,46168,1,0,0:0:0:0:
325,84,46338,1,8,0:0:0:0:
316,81,46509,1,0,0:0:0:0:
311,83,46679,1,8,0:0:0:0:
305,87,46765,1,8,0:0:0:0:
308,85,46850,1,0,0:0:0:0:
305,86,46935,1,8,0:0:0:0:
310,84,47020,1,0,0:0:0:0:
316,94,47191,1,0,0:0:0:0:
315,93,47361,1,8,0:0:0:0:
317,92,47532,1,0,0:0:0:0:
311,83,47702,1,8,0:0:0:0:
317,92,47787,1,0,0:0:0:0:
319,89,47873,1,8,0:0:0:0:
325,98,48043,1,0,0:0:0:0:
267,109,48213,1,0,0:0:0:0:
325,97,48384,1,8,0:0:0:0:
319,90,48725,1,0,0:0:0:0:
312,91,48810,1,8,0:0:0:0:
311,91,48895,1,0,0:0:0:0:
323,82,49066,1,8,0:0:0:0:
328,90,49236,1,0,0:0:0:0:
334,88,49407,1,8,0:0:0:0:
325,85,49492,1,0,0:0:0:0:
317,92,49577,1,0,0:0:0:0:
326,88,49662,1,0,0:0:0:0:
340,91,49748,1,8,0:0:0:0:
312,81,49918,1,0,0:0:0:0:
312,81,50088,1,8,0:0:0:0:
320,80,50259,1,0,0:0:0:0:
330,75,50429,1,8,0:0:0:0:
336,81,50515,1,8,0:0:0:0:
327,78,50600,1,0,0:0:0:0:
333,77,50770,1,8,0:0:0:0:
337,75,51111,1,8,0:0:0:0:
334,87,51282,1,8,0:0:0:0:
331,80,51452,1,0,0:0:0:0:
336,81,51623,1,0,0:0:0:0:
333,77,51793,1,8,0:0:0:0:
334,91,51963,1,0,0:0:0:0:
335,90,52134,1,8,0:0:0:0:
349,86,52219,1,8,0:0:0:0:
349,86,52304,1,0,0:0:0:0:
348,86,52390,1,0,0:0:0:0:
353,84,52475,1,8,0:0:0:0:
339,90,52645,1,0,0:0:0:0:
339,90,52816,1,0,0:0:0:0:
334,81,52901,1,0,0:0:0:0:
349,83,52986,1,8,0:0:0:0:
346,83,53157,1,8,0:0:0:0:
339,75,53327,1,0,0:0:0:0:
353,84,53498,1,8,0:0:0:0:
339,90,53668,1,0,0:0:0:0:
339,90,53838,1,8,0:0:0:0:
355,95,54179,1,0,0:0:0:0:
355,95,54265,1,8,0:0:0:0:
355,95,54350,1,0,0:0:0:0:
324,106,54520,1,8,0:0:0:0:
330,88,54691,1,8,0:0:0:0:
331,98,54861,1,0,0:0:0:0:
332,91,54946,1,0,0:0:0:0:
331,96,55032,1,8,0:0:0:0:
331,89,55117,1,0,0:0:0:0:
331,89,55202,1,8,0:0:0:0:
321,91,55372,1,0,0:0:0:0:
320,91,55543,1,8,0:0:0:0:
321,94,55713,1,8,0:0:0:0:
323,92,55884,1,0,0:0:0:0:
322,84,55969,1,0,0:0:0:0:
322,84,56054,1,8,0:0:0:0:
339,91,56225,1,0,0:0:0:0:
320,91,56566,1,8,0:0:0:0:
322,91,56651,1,8,0:0:0:0:
320,86,56736,1,0,0:0:0:0:
323,92,56907,1,8,0:0:0:0:
322,84,57077,1,0,0:0:0:0:
325,84,57247,1,8,0:0:0:0:
316,81,57418,1,0,0:0:0:0:
311,83,57588,1,8,0:0:0:0:
308,85,57674,1,8,0:0:0:0:
308,85,57759,1,0,0:0:0:0:
305,86,57844,1,0,0:0:0:0:
310,84,57929,1,8,0:0:0:0:
316,94,58100,1,0,0:0:0:0:
315,93,58270,1,8,0:0:0:0:
317,92,58441,1,0,0:0:0:0:
311,83,58611,1,8,0:0:0:0:
322,86,58696,1,0,0:0:0:0:
320,88,58782,1,8,0:0:0:0:
325,98,58952,1,0,0:0:0:0:
325,97,59293,1,8,0:0:0:0:
317,92,59463,1,8,0:0:0:0:
319,90,59634,1,0,0:0:0:0:
312,91,59719,1,8,0:0:0:0:
311,91,59804,1,0,0:0:0:0:
323,82,59975,1,8,0:0:0:0:
328,90,60145,1,0,0:0:0:0:
334,88,60316,1,8,0:0:0:0:
321,97,60401,1,0,0:0:0:0:
317,92,60486,1,0,0:0:0:0:
326,88,60571,1,0,0:0:0:0:
326,88,60657,1,8,0:0:0:0:
312,81,60827,1,0,0:0:0:0:
312,81,60997,1,8,0:0:0:0:
320,80,61168,1,0,0:0:0:0:
331,80,61338,1,8,0:0:0:0:
330,75,61424,1,8,0:0:0:0:
327,78,61509,1,0,0:0:0:0:
333,77,61679,1,8,0:0:0:0:
337,75,62020,1,8,0:0:0:0:
336,75,62105,1,0,0:0:0:0:
336,75,62191,1,0,0:0:0:0:
331,80,62361,1,8,0:0:0:0:
336,81,62532,1,0,0:0:0:0:
333,77,62702,1,8,0:0:0:0:
334,91,62873,1,0,0:0:0:0:
335,90,63043,1,8,0:0:0:0:
349,86,63128,1,8,0:0:0:0:
349,86,63213,1,0,0:0:0:0:
348,86,63299,1,0,0:0:0:0:
353,84,63384,1,8,0:0:0:0:
339,90,63554,1,0,0:0:0:0:
339,90,63725,1,0,0:0:0:0:
349,83,63895,1,0,0:0:0:0:
346,83,64066,1,8,0:0:0:0:
338,77,64151,1,8,0:0:0:0:
339,75,64236,1,0,0:0:0:0:
353,84,64407,1,0,0:0:0:0:
339,90,64577,1,8,0:0:0:0:
339,83,64662,1,0,0:0:0:0:
339,90,64747,1,8,0:0:0:0:
349,83,64918,1,8,0:0:0:0:
355,95,65088,1,0,0:0:0:0:
355,95,65174,1,8,0:0:0:0:
355,95,65259,1,0,0:0:0:0:
342,89,65429,1,0,0:0:0:0:
339,90,65770,1,8,0:0:0:0:
340,90,66026,1,8,0:0:0:0:
340,90,66196,1,8,0:0:0:0:
341,90,66282,1,0,0:0:0:0:
342,89,66452,1,8,0:0:0:0:
340,82,66623,1,0,0:0:0:0:
340,83,66963,1,0,0:0:0:0:
342,82,67134,1,8,0:0:0:0:
342,89,67390,1,8,0:0:0:0:
340,82,67560,1,8,0:0:0:0:
340,82,67645,1,0,0:0:0:0:
340,83,67816,1,8,0:0:0:0:
347,81,67986,1,0,0:0:0:0:
350,79,68157,1,0,0:0:0:0:
350,79,68327,1,0,0:0:0:0:
340,82,68498,1,8,0:0:0:0:
340,82,68753,1,8,0:0:0:0:
329,80,68924,1,8,0:0:0:0:
330,80,69009,1,0,0:0:0:0:
329,80,69179,1,8,0:0:0:0:
339,75,69350,1,0,0:0:0:0:
326,93,69691,1,0,0:0:0:0:
331,90,69861,1,8,0:0:0:0:
331,90,70117,1,8,0:0:0:0:
337,88,70287,1,8,0:0:0:0:
335,88,70373,1,0,0:0:0:0:
326,93,70543,1,8,0:0:0:0:
335,88,70628,1,8,0:0:0:0:
333,84,70713,1,0,0:0:0:0:
331,90,70884,1,0,0:0:0:0:
334,89,71054,1,8,0:0:0:0:
331,92,71225,1,0,0:0:0:0:
324,89,71481,1,0,0:0:0:0:
324,89,71651,1,0,0:0:0:0:
326,89,71736,1,8,0:0:0:0:
331,90,71907,1,0,0:0:0:0:
334,89,72077,1,8,0:0:0:0:
324,89,72418,1,8,0:0:0:0:
324,89,72588,1,0,0:0:0:0:
320,84,72844,1,0,0:0:0:0:
320,84,73015,1,0,0:0:0:0:
322,74,73100,1,8,0:0:0:0:
320,84,73270,1,0,0:0:0:0:
316,80,73441,1,0,0:0:0:0:
318,80,73611,1,8,0:0:0:0:
318,80,73782,1,8,0:0:0:0:
320,84,73952,1,0,0:0:0:0:
324,84,74208,1,0,0:0:0:0:
324,84,74378,1,0,0:0:0:0:
323,84,74463,1,8,0:0:0:0:
324,84,74634,1,0,0:0:0:0:
318,76,74890,1,0,0:0:0:0:
323,84,74975,1,8,0:0:0:0:
323,84,75145,1,8,0:0:0:0:
317,79,75316,1,0,0:0:0:0:
323,84,75571,1,0,0:0:0:0:
323,83,75742,1,0,0:0:0:0:
316,88,75827,1,8,0:0:0:0:
312,90,76338,1,8,0:0:0:0:
316,88,76509,1,0,0:0:0:0:
323,83,76594,1,0,0:0:0:0:
323,83,76679,1,8,0:0:0:0:
316,88,76850,1,0,0:0:0:0:
325,87,76935,1,8,0:0:0:0:
325,87,77106,1,8,0:0:0:0:
315,89,77191,1,0,0:0:0:0:
323,83,77361,1,8,0:0:0:0:
323,75,77532,1,0,0:0:0:0:
324,87,77873,1,0,0:0:0:0:
325,87,78043,1,8,0:0:0:0:
321,87,78213,1,0,0:0:0:0:
323,83,78299,1,8,0:0:0:0:
325,87,78469,1,8,0:0:0:0:
332,85,78554,1,0,0:0:0:0:
325,87,78725,1,8,0:0:0:0:
327,80,79066,1,0,0:0:0:0:
328,80,79236,1,0,0:0:0:0:
323,83,79321,1,0,0:0:0:0:
328,77,79407,1,8,0:0:0:0:
332,85,79577,1,0,0:0:0:0:
328,77,79662,1,8,0:0:0:0:
328,77,79833,1,8,0:0:0:0:
331,88,79918,1,0,0:0:0:0:
328,77,80088,1,8,0:0:0:0:
328,80,80259,1,0,0:0:0:0:
332,85,80600,1,0,0:0:0:0:
328,77,80770,1,8,0:0:0:0:
331,88,80941,1,0,0:0:0:0:
328,77,81026,1,8,0:0:0:0:
328,77,81196,1,8,0:0:0:0:
329,93,81282,1,0,0:0:0:0:
328,77,81452,1,8,0:0:0:0:
329,94,81537,1,8,0:0:0:0:
328,86,81623,1,0,0:0:0:0:
328,77,81793,1,0,0:0:0:0:
330,77,81963,1,8,0:0:0:0:
330,77,82049,1,8,0:0:0:0:
328,77,82134,1,0,0:0:0:0:
325,86,82304,1,8,0:0:0:0:
328,77,82390,1,0,0:0:0:0:
328,77,82560,1,0,0:0:0:0:
328,86,82645,1,8,0:0:0:0:
328,77,82816,1,0,0:0:0:0:
329,86,82986,1,8,0:0:0:0:
331,89,83327,1,8,0:0:0:0:
328,77,83498,1,0,0:0:0:0:
339,82,83668,1,8,0:0:0:0:
328,77,83753,1,0,0:0:0:0:
328,77,83924,1,0,0:0:0:0:
337,83,84009,1,8,0:0:0:0:
328,77,84179,1,0,0:0:0:0:
340,81,84265,1,0,0:0:0:0:
340,81,84350,1,8,0:0:0:0:
328,77,84520,1,0,0:0:0:0:
340,79,84691,1,8,0:0:0:0:
340,79,84776,1,8,0:0:0:0:
328,77,84861,1,0,0:0:0:0:
337,83,85032,1,8,0:0:0:0:
328,77,85117,1,0,0:0:0:0:
328,77,85287,1,0,0:0:0:0:
340,81,85373,1,8,0:0:0:0:
328,77,85543,1,0,0:0:0:0:
337,67,85713,1,0,0:0:0:0:
328,77,85884,1,8,0:0:0:0:
328,77,85969,1,8,0:0:0:0:
328,77,86054,1,8,0:0:0:0:
328,77,86225,1,0,0:0:0:0:
328,77,86310,1,0,0:0:0:0:
328,77,86395,1,0,0:0:0:0:
328,77,86566,1,8,0:0:0:0:
328,77,86651,1,8,0:0:0:0:
328,77,86907,1,0,0:0:0:0:
328,77,86992,1,0,0:0:0:0:
292,111,87248,1,8,0:0:0:0:
339,68,87418,1,0,0:0:0:0:
333,92,87503,1,0,0:0:0:0:
334,91,87588,1,8,0:0:0:0:
328,77,87759,1,0,0:0:0:0:
326,87,87844,1,8,0:0:0:0:
326,87,88015,1,8,0:0:0:0:
332,78,88100,1,0,0:0:0:0:
326,86,88270,1,8,0:0:0:0:
341,86,88611,1,8,0:0:0:0:
329,87,88782,1,0,0:0:0:0:
326,87,88952,1,8,0:0:0:0:
326,86,89123,1,0,0:0:0:0:
326,86,89208,1,8,0:0:0:0:
326,87,89378,1,8,0:0:0:0:
326,85,89463,1,0,0:0:0:0:
326,87,89634,1,8,0:0:0:0:
337,80,89975,1,8,0:0:0:0:
340,79,90060,1,8,0:0:0:0:
326,86,90145,1,0,0:0:0:0:
326,87,90316,1,8,0:0:0:0:
326,85,90486,1,0,0:0:0:0:
326,87,90571,1,8,0:0:0:0:
326,87,90742,1,8,0:0:0:0:
326,87,90827,1,0,0:0:0:0:
326,87,90998,1,8,0:0:0:0:
326,87,91338,1,8,0:0:0:0:
318,83,91509,1,0,0:0:0:0:
326,87,91679,1,8,0:0:0:0:
334,73,91850,1,0,0:0:0:0:
326,87,91935,1,0,0:0:0:0:
325,87,92020,1,8,0:0:0:0:
334,74,92191,1,0,0:0:0:0:
326,87,92361,1,8,0:0:0:0:
333,72,92446,1,0,0:0:0:0:
324,76,92532,1,0,0:0:0:0:
324,76,92702,1,8,0:0:0:0:
328,86,92873,1,8,0:0:0:0:
326,87,93043,1,0,0:0:0:0:
323,78,93213,1,8,0:0:0:0:
326,87,93299,1,0,0:0:0:0:
326,87,93469,1,0,0:0:0:0:
324,76,93554,1,8,0:0:0:0:
326,87,93725,1,0,0:0:0:0:
309,77,94066,1,0,0:0:0:0:
311,77,94236,1,8,0:0:0:0:
326,87,94407,1,0,0:0:0:0:
324,76,94577,1,8,0:0:0:0:
326,87,94662,1,0,0:0:0:0:
314,74,94833,1,0,0:0:0:0:
317,75,94918,1,8,0:0:0:0:
314,74,95088,1,0,0:0:0:0:
318,75,95429,1,0,0:0:0:0:
321,68,95515,1,8,0:0:0:0:
324,76,95600,1,8,0:0:0:0:
326,88,95770,1,0,0:0:0:0:
322,69,95941,1,8,0:0:0:0:
326,88,96026,1,0,0:0:0:0:
326,88,96196,1,0,0:0:0:0:
320,74,96282,1,8,0:0:0:0:
326,88,96452,1,0,0:0:0:0:
326,88,96793,1,0,0:0:0:0:
326,88,96878,1,0,0:0:0:0:
326,88,96963,1,0,0:0:0:0:
326,88,97134,1,8,0:0:0:0:
326,88,97219,1,8,0:0:0:0:
326,88,97304,1,8,0:0:0:0:
326,88,97475,1,0,0:0:0:0:
326,88,97560,1,0,0:0:0:0:
326,88,97816,1,8,0:0:0:0:
326,88,97901,1,8,0:0:0:0:
324,106,98157,1,8,0:0:0:0:
330,88,98328,1,0,0:0:0:0:
331,98,98498,1,8,0:0:0:0:
332,91,98583,1,8,0:0:0:0:
331,96,98669,1,0,0:0:0:0:
331,89,98754,1,0,0:0:0:0:
331,89,98839,1,8,0:0:0:0:
321,91,99009,1,0,0:0:0:0:
320,91,99180,1,8,0:0:0:0:
321,94,99350,1,0,0:0:0:0:
323,92,99521,1,8,0:0:0:0:
322,84,99606,1,0,0:0:0:0:
322,84,99691,1,8,0:0:0:0:
339,91,99862,1,0,0:0:0:0:
320,91,100203,1,8,0:0:0:0:
320,86,100373,1,0,0:0:0:0:
317,87,100458,1,0,0:0:0:0:
323,92,100544,1,8,0:0:0:0:
322,84,100714,1,0,0:0:0:0:
325,84,100884,1,8,0:0:0:0:
316,81,101055,1,0,0:0:0:0:
311,83,101225,1,8,0:0:0:0:
305,87,101311,1,8,0:0:0:0:
308,85,101396,1,0,0:0:0:0:
305,86,101481,1,8,0:0:0:0:
310,84,101566,1,0,0:0:0:0:
316,94,101737,1,0,0:0:0:0:
315,93,101907,1,8,0:0:0:0:
317,92,102078,1,0,0:0:0:0:
311,83,102248,1,8,0:0:0:0:
323,88,102333,1,0,0:0:0:0:
319,89,102419,1,8,0:0:0:0:
325,98,102589,1,0,0:0:0:0:
325,98,102759,1,0,0:0:0:0:
325,97,102930,1,8,0:0:0:0:
319,90,103271,1,0,0:0:0:0:
312,91,103356,1,8,0:0:0:0:
311,91,103441,1,0,0:0:0:0:
323,82,103612,1,8,0:0:0:0:
328,90,103782,1,0,0:0:0:0:
334,88,103953,1,8,0:0:0:0:
325,85,104038,1,0,0:0:0:0:
317,92,104123,1,0,0:0:0:0:
326,88,104208,1,0,0:0:0:0:
340,91,104294,1,8,0:0:0:0:
312,81,104464,1,0,0:0:0:0:
312,81,104634,1,8,0:0:0:0:
320,80,104805,1,0,0:0:0:0:
330,75,104975,1,8,0:0:0:0:
336,81,105061,1,8,0:0:0:0:
327,78,105146,1,0,0:0:0:0:
333,77,105316,1,8,0:0:0:0:
337,75,105657,1,8,0:0:0:0:
336,75,105828,1,8,0:0:0:0:
331,80,105998,1,0,0:0:0:0:
336,81,106083,1,8,0:0:0:0:
336,81,106169,1,0,0:0:0:0:
333,77,106339,1,8,0:0:0:0:
334,91,106509,1,0,0:0:0:0:
335,90,106680,1,8,0:0:0:0:
349,86,106765,1,8,0:0:0:0:
349,86,106850,1,0,0:0:0:0:
348,86,106936,1,0,0:0:0:0:
353,84,107021,1,8,0:0:0:0:
339,90,107191,1,0,0:0:0:0:
339,90,107362,1,0,0:0:0:0:
349,83,107447,1,0,0:0:0:0:
349,83,107532,1,8,0:0:0:0:
346,83,107703,1,8,0:0:0:0:
339,75,107873,1,0,0:0:0:0:
353,84,108044,1,8,0:0:0:0:
339,90,108129,1,8,0:0:0:0:
339,90,108214,1,0,0:0:0:0:
339,90,108384,1,8,0:0:0:0:
355,95,108725,1,0,0:0:0:0:
355,95,108811,1,8,0:0:0:0:
355,95,108896,1,0,0:0:0:0:
324,106,109066,1,8,0:0:0:0:
330,88,109237,1,8,0:0:0:0:
331,98,109407,1,0,0:0:0:0:
332,91,109492,1,0,0:0:0:0:
331,96,109578,1,8,0:0:0:0:
331,89,109663,1,0,0:0:0:0:
331,89,109748,1,8,0:0:0:0:
321,91,109918,1,0,0:0:0:0:
320,91,110089,1,8,0:0:0:0:
321,94,110259,1,8,0:0:0:0:
323,92,110430,1,0,0:0:0:0:
322,84,110515,1,0,0:0:0:0:
322,84,110600,1,8,0:0:0:0:
339,91,110771,1,0,0:0:0:0:
320,91,111112,1,8,0:0:0:0:
322,91,111197,1,8,0:0:0:0:
320,86,111282,1,0,0:0:0:0:
323,92,111453,1,8,0:0:0:0:
322,84,111623,1,0,0:0:0:0:
325,84,111793,1,8,0:0:0:0:
316,81,111964,1,0,0:0:0:0:
311,83,112134,1,8,0:0:0:0:
308,85,112220,1,8,0:0:0:0:
308,85,112305,1,0,0:0:0:0:
305,86,112390,1,0,0:0:0:0:
310,84,112475,1,8,0:0:0:0:
316,94,112646,1,0,0:0:0:0:
315,93,112816,1,8,0:0:0:0:
317,92,112987,1,0,0:0:0:0:
311,83,113157,1,8,0:0:0:0:
322,86,113242,1,0,0:0:0:0:
320,88,113328,1,8,0:0:0:0:
325,98,113498,1,0,0:0:0:0:
325,98,113668,1,0,0:0:0:0:
325,97,113839,1,8,0:0:0:0:
319,90,114180,1,0,0:0:0:0:
312,91,114265,1,8,0:0:0:0:
311,91,114350,1,0,0:0:0:0:
323,82,114521,1,8,0:0:0:0:
328,90,114691,1,0,0:0:0:0:
334,88,114862,1,8,0:0:0:0:
321,97,114947,1,0,0:0:0:0:
317,92,115032,1,0,0:0:0:0:
326,88,115117,1,0,0:0:0:0:
326,88,115203,1,8,0:0:0:0:
312,81,115373,1,0,0:0:0:0:
312,81,115543,1,8,0:0:0:0:
320,80,115714,1,0,0:0:0:0:
331,80,115884,1,8,0:0:0:0:
330,75,115970,1,8,0:0:0:0:
327,78,116055,1,0,0:0:0:0:
333,77,116225,1,8,0:0:0:0:
337,75,116566,1,8,0:0:0:0:
336,75,116651,1,0,0:0:0:0:
336,75,116737,1,0,0:0:0:0:
331,80,116907,1,8,0:0:0:0:
336,81,117078,1,0,0:0:0:0:
333,77,117248,1,8,0:0:0:0:
334,91,117419,1,0,0:0:0:0:
335,90,117589,1,8,0:0:0:0:
349,86,117674,1,8,0:0:0:0:
349,86,117759,1,0,0:0:0:0:
348,86,117845,1,0,0:0:0:0:
353,84,117930,1,8,0:0:0:0:
339,90,118100,1,0,0:0:0:0:
339,90,118271,1,0,0:0:0:0:
349,83,118356,1,0,0:0:0:0:
349,83,118441,1,8,0:0:0:0:
346,83,118612,1,8,0:0:0:0:
339,75,118782,1,0,0:0:0:0:
353,84,118953,1,0,0:0:0:0:
339,90,119123,1,8,0:0:0:0:
339,83,119208,1,0,0:0:0:0:
339,90,119293,1,8,0:0:0:0:
349,83,119464,1,8,0:0:0:0:
355,95,119634,1,0,0:0:0:0:
355,95,119720,1,8,0:0:0:0:
355,95,119805,1,0,0:0:0:0:
253,141,121083,5,0,0:0:0:0:
315,112,121200,1,0,0:0:0:0:
315,112,121317,1,8,0:0:0:0:
299,124,121551,1,8,0:0:0:0:
314,93,121629,1,8,0:0:0:0:
315,101,121708,1,8,0:0:0:0:
320,100,121786,1,0,0:0:0:0:
321,103,122020,1,8,0:0:0:0:
329,100,122254,1,8,0:0:0:0:
329,100,122372,1,8,0:0:0:0:
321,96,122489,1,0,0:0:0:0:
325,102,122723,1,0,0:0:0:0:
333,93,122958,1,8,0:0:0:0:
320,103,123192,1,0,0:0:0:0:
350,94,123309,1,0,0:0:0:0:
337,98,123426,1,8,0:0:0:0:
336,94,123543,1,8,0:0:0:0:
336,94,123661,1,0,0:0:0:0:
338,96,123778,1,0,0:0:0:0:
333,93,123895,1,8,0:0:0:0:
339,93,124129,1,0,0:0:0:0:
350,94,124247,1,0,0:0:0:0:
349,97,124364,1,8,0:0:0:0:
336,94,124598,1,0,0:0:0:0:
344,89,124833,1,8,0:0:0:0:
348,87,124950,1,8,0:0:0:0:
350,80,125067,1,0,0:0:0:0:
349,77,125301,1,8,0:0:0:0:
375,72,125379,1,8,0:0:0:0:
355,78,125458,1,8,0:0:0:0:
352,73,125536,1,0,0:0:0:0:
354,74,125770,1,8,0:0:0:0:
358,77,126004,1,8,0:0:0:0:
358,77,126122,1,8,0:0:0:0:
359,69,126239,1,0,0:0:0:0:
355,78,126473,1,0,0:0:0:0:
355,74,126708,1,8,0:0:0:0:
348,75,126942,1,0,0:0:0:0:
351,81,127059,1,0,0:0:0:0:
359,80,127176,1,8,0:0:0:0:
361,79,127293,1,0,0:0:0:0:
355,78,127411,1,8,0:0:0:0:
349,71,127528,1,0,0:0:0:0:
345,73,127645,1,8,0:0:0:0:
348,75,127879,1,8,0:0:0:0:
346,78,128114,1,0,0:0:0:0:
342,79,128231,1,8,0:0:0:0:
342,79,128348,1,0,0:0:0:0:
355,81,128583,1,0,0:0:0:0:
355,74,128700,1,0,0:0:0:0:
355,74,128817,1,8,0:0:0:0:
356,70,129051,1,0,0:0:0:0:
353,76,129129,1,0,0:0:0:0:
349,77,129208,1,0,0:0:0:0:
342,79,129286,1,8,0:0:0:0:
345,78,129520,1,0,0:0:0:0:
365,74,129754,1,8,0:0:0:0:
365,74,129872,1,8,0:0:0:0:
357,79,129989,1,0,0:0:0:0:
349,77,130223,1,0,0:0:0:0:
345,78,130458,1,8,0:0:0:0:
347,77,130692,1,8,0:0:0:0:
360,79,130809,1,8,0:0:0:0:
360,79,130926,1,0,0:0:0:0:
345,85,131043,1,0,0:0:0:0:
349,77,131161,1,8,0:0:0:0:
348,83,131278,1,8,0:0:0:0:
345,78,131395,1,0,0:0:0:0:
348,77,131629,1,8,0:0:0:0:
347,77,131747,1,0,0:0:0:0:
360,79,131864,1,8,0:0:0:0:
351,75,132098,1,8,0:0:0:0:
351,71,132333,1,0,0:0:0:0:
348,72,132450,1,0,0:0:0:0:
346,73,132567,1,8,0:0:0:0:
349,65,132801,1,0,0:0:0:0:
354,75,132879,1,0,0:0:0:0:
351,74,132958,1,0,0:0:0:0:
349,81,133036,1,8,0:0:0:0:
352,79,133270,1,0,0:0:0:0:
348,72,133504,1,8,0:0:0:0:
353,82,133622,1,0,0:0:0:0:
353,82,133739,1,8,0:0:0:0:
349,88,133856,1,8,0:0:0:0:
356,84,133973,1,0,0:0:0:0:
349,81,134208,1,8,0:0:0:0:
359,84,134442,1,0,0:0:0:0:
351,88,134559,1,8,0:0:0:0:
353,82,134676,1,0,0:0:0:0:
346,89,134793,1,0,0:0:0:0:
349,88,134911,1,8,0:0:0:0:
344,89,135028,1,0,0:0:0:0:
328,88,135145,1,8,0:0:0:0:
360,83,135379,1,0,0:0:0:0:
351,88,135614,1,0,0:0:0:0:
333,78,136083,1,8,0:0:0:0:
361,84,136200,1,8,0:0:0:0:
360,83,136317,1,0,0:0:0:0:
354,91,136551,1,8,0:0:0:0:
329,80,136629,1,8,0:0:0:0:
326,81,136708,1,8,0:0:0:0:
331,79,136786,1,0,0:0:0:0:
363,88,137020,1,8,0:0:0:0:
345,86,137254,1,0,0:0:0:0:
360,83,137372,1,0,0:0:0:0:
360,83,137489,1,8,0:0:0:0:
351,84,137606,1,8,0:0:0:0:
350,90,137723,1,0,0:0:0:0:
350,91,137958,1,8,0:0:0:0:
355,81,138192,1,0,0:0:0:0:
362,79,138309,1,0,0:0:0:0:
355,75,138426,1,8,0:0:0:0:
354,91,138543,1,8,0:0:0:0:
351,89,138661,1,0,0:0:0:0:
351,89,138778,1,0,0:0:0:0:
350,91,138895,1,8,0:0:0:0:
347,94,139129,1,0,0:0:0:0:
349,94,139247,1,0,0:0:0:0:
349,94,139364,1,8,0:0:0:0:
341,92,139598,1,8,0:0:0:0:
342,91,139833,1,8,0:0:0:0:
345,85,139950,1,8,0:0:0:0:
342,88,140067,1,0,0:0:0:0:
342,79,140301,1,8,0:0:0:0:
349,94,140379,1,8,0:0:0:0:
348,90,140458,1,8,0:0:0:0:
341,92,140536,1,0,0:0:0:0:
342,91,140770,1,8,0:0:0:0:
342,88,141004,1,0,0:0:0:0:
342,88,141122,1,0,0:0:0:0:
348,83,141239,1,8,0:0:0:0:
344,79,141356,1,0,0:0:0:0:
354,84,141473,1,8,0:0:0:0:
362,85,141708,1,8,0:0:0:0:
346,84,141942,1,8,0:0:0:0:
356,84,142059,1,8,0:0:0:0:
348,83,142176,1,0,0:0:0:0:
356,84,142293,1,0,0:0:0:0:
344,79,142411,1,8,0:0:0:0:
345,81,142528,1,0,0:0:0:0:
118,94,142645,1,8,0:0:0:0:
346,84,142879,1,8,0:0:0:0:
296,89,143114,1,12,0:0:0:0:
350,84,143348,1,4,0:0:0:0:
350,84,143584,1,4,0:0:0:0:
