osu file format v14

[General]
AudioFilename: audio.mp3
AudioLeadIn: 0
PreviewTime: 42929
Countdown: 0
SampleSet: Normal
StackLeniency: 0.7
Mode: 1
LetterboxInBreaks: 0
WidescreenStoryboard: 0

[Editor]
DistanceSpacing: 0.3
BeatDivisor: 4
GridSize: 32
TimelineZoom: 3.100004

[Metadata]
Title:OUTSIDE
TitleUnicode:OUTSIDE
Artist:1 800 PAIN
ArtistUnicode:1 800 PAIN
Creator:Nifty
Version:MUZUKASHII
Source:
Tags:rap electronic industrial hip hop angry sv postmodern english 1-800-PAIN 1800PAIN best house on a bad block jody jetski jone d'bonechis
BeatmapID:4246068
BeatmapSetID:2034952

[Difficulty]
HPDrainRate:6
CircleSize:2
OverallDifficulty:4
ApproachRate:10
SliderMultiplier:1.4
SliderTickRate:1

[Events]
//Background and Video events
0,0,"pain.jpg",0,-40
//Break Periods
//Storyboard Layer 0 (Background)
//Storyboard Layer 1 (Fail)
//Storyboard Layer 2 (Pass)
//Storyboard Layer 3 (Foreground)
//Storyboard Layer 4 (Overlay)
//Storyboard Sound Samples

[TimingPoints]
-24.6699507389162,340.909090909091,4,1,0,100,1,0
10884,-90.9090909090909,4,1,0,100,0,0
43611,-90.9090909090909,4,1,0,100,0,1
65429,-90.9090909090909,4,1,0,100,0,0
65515,-100,4,1,0,100,0,0
76338,-95.2380952380952,4,1,0,100,0,0
86907,-100,4,1,0,100,0,0
87247,-111.111115,4,1,0,100,0,0
87417,-111.111015,4,1,0,100,0,0
87587,-111.11037,4,1,0,100,0,0
87843,-111.107086,4,1,0,100,0,0
88014,-111.10253,4,1,0,100,0,0
88269,-111.09081,4,1,0,100,0,0
88610,-111.06298,4,1,0,100,0,0
88781,-111.04251,4,1,0,100,0,0
88951,-111.01709,4,1,0,100,0,0
89207,-110.9681,4,1,0,100,0,0
89377,-110.92763,4,1,0,100,0,0
89633,-110.85337,4,1,0,100,0,0
89974,-110.72675,4,1,0,100,0,0
90144,-110.65061,4,1,0,100,0,0
90315,-110.56458,4,1,0,100,0,0
90570,-110.41759,4,1,0,100,0,0
90741,-110.30574,4,1,0,100,0,0
90997,-110.11713,4,1,0,100,0,0
91337,-109.824936,4,1,0,100,0,0
91508,-109.65897,4,1,0,100,0,0
91678,-109.48078,4,1,0,100,0,0
91849,-109.28787,4,1,0,100,0,0
91934,-109.186745,4,1,0,100,0,0
92019,-109.08209,4,1,0,100,0,0
92190,-108.86063,4,1,0,100,0,0
92360,-108.62574,4,1,0,100,0,0
92701,-108.10892,4,1,0,100,0,0
92872,-107.82619,4,1,0,100,0,0
93042,-107.52916,4,1,0,100,0,0
93298,-107.05129,4,1,0,100,0,0
93468,-106.71335,4,1,0,100,0,0
93724,-106.17292,4,1,0,100,0,0
94065,-105.39346,4,1,0,100,0,0
94235,-104.979225,4,1,0,100,0,0
94406,-104.54522,4,1,0,100,0,0
94661,-103.86571,4,1,0,100,0,0
94832,-103.388374,4,1,0,100,0,0
95087,-102.64438,4,1,0,100,0,0
95428,-101.5897,4,1,0,100,0,0
95599,-101.035355,4,1,0,100,0,0
95769,-100.46764,4,1,0,100,0,0
96025,-99.5819,4,1,0,100,0,0
96195,-98.973595,4,1,0,100,0,0
96451,-98.027954,4,1,0,100,0,0
96792,-96.71474,4,1,0,100,0,0
96877,-96.37814,4,1,0,100,0,0
96962,-96.037964,4,1,0,100,0,0
97133,-95.34288,4,1,0,100,0,0
97218,-94.992165,4,1,0,100,0,0
97303,-94.638054,4,1,0,100,0,0
97474,-93.915596,4,1,0,100,0,0
97815,-92.43638,4,1,0,100,0,0
98157,-90.90909,4,1,0,100,0,1
119804,-90.90909,4,1,0,100,0,0
121083,468.75,4,1,0,100,1,0
121083,-83.3333333333333,4,1,0,100,0,0

[HitObjects]
301,139,10884,5,8,0:0:0:0:
304,151,11054,1,0,0:0:0:0:
301,151,11225,1,8,0:0:0:0:
299,152,11310,1,8,0:0:0:0:
300,153,11395,1,8,0:0:0:0:
300,153,11566,1,0,0:0:0:0:
300,153,11736,1,8,0:0:0:0:
304,152,11907,1,0,0:0:0:0:
304,151,12077,1,0,0:0:0:0:
301,151,12248,1,8,0:0:0:0:
300,153,12588,1,0,0:0:0:0:
300,158,12759,1,0,0:0:0:0:
300,158,12929,1,8,0:0:0:0:
277,127,13100,1,8,0:0:0:0:
292,164,13270,1,0,0:0:0:0:
292,164,13356,1,0,0:0:0:0:
292,164,13441,1,0,0:0:0:0:
291,164,13611,1,8,0:0:0:0:
300,158,13952,1,8,0:0:0:0:
304,154,14123,1,0,0:0:0:0:
304,154,14293,1,8,0:0:0:0:
288,155,14463,1,8,0:0:0:0:
288,155,14634,1,0,0:0:0:0:
289,155,14804,1,0,0:0:0:0:
289,155,14975,1,8,0:0:0:0:
292,156,15316,1,0,0:0:0:0:
288,155,15486,1,0,0:0:0:0:
288,155,15657,1,8,0:0:0:0:
289,155,15827,1,8,0:0:0:0:
289,155,15998,1,0,0:0:0:0:
293,155,16168,1,0,0:0:0:0:
292,156,16339,1,12,0:0:0:0:
293,161,17020,1,0,0:0:0:0:
293,155,17191,1,0,0:0:0:0:
292,156,17361,1,8,0:0:0:0:
292,161,17532,1,0,0:0:0:0:
292,161,17702,1,8,0:0:0:0:
294,151,18043,1,0,0:0:0:0:
294,145,18554,1,8,0:0:0:0:
294,145,18725,1,0,0:0:0:0:
266,132,18895,1,0,0:0:0:0:
295,127,19066,1,8,0:0:0:0:
290,126,19407,1,8,0:0:0:0:
286,123,19577,1,0,0:0:0:0:
286,123,19748,1,8,0:0:0:0:
286,123,19918,1,0,0:0:0:0:
286,122,20003,1,0,0:0:0:0:
286,122,20088,1,0,0:0:0:0:
286,122,20259,1,0,0:0:0:0:
295,119,20429,1,8,0:0:0:0:
289,111,20770,1,8,0:0:0:0:
295,99,20941,1,0,0:0:0:0:
295,99,21111,1,8,0:0:0:0:
291,103,21282,1,8,0:0:0:0:
291,103,21452,1,0,0:0:0:0:
296,104,21793,1,8,0:0:0:0:
312,101,21878,1,8,0:0:0:0:
311,102,21963,1,8,0:0:0:0:
295,99,22134,1,0,0:0:0:0:
282,98,22304,1,8,0:0:0:0:
282,98,22475,1,0,0:0:0:0:
281,99,22645,1,0,0:0:0:0:
281,99,22816,1,8,0:0:0:0:
281,99,22986,1,0,0:0:0:0:
281,99,23157,1,8,0:0:0:0:
282,98,23498,1,0,0:0:0:0:
275,86,24009,1,8,0:0:0:0:
274,88,24179,1,0,0:0:0:0:
273,88,24350,1,8,0:0:0:0:
279,86,24520,1,0,0:0:0:0:
279,86,24691,1,0,0:0:0:0:
279,87,24861,1,8,0:0:0:0:
288,87,24946,1,8,0:0:0:0:
275,87,25032,1,8,0:0:0:0:
281,86,25202,1,0,0:0:0:0:
281,86,25373,1,8,0:0:0:0:
279,86,25543,1,0,0:0:0:0:
287,93,25713,1,0,0:0:0:0:
279,87,25884,1,8,0:0:0:0:
296,87,26225,1,0,0:0:0:0:
301,83,26736,1,8,0:0:0:0:
304,82,26907,1,0,0:0:0:0:
303,84,27077,1,0,0:0:0:0:
304,82,27248,1,8,0:0:0:0:
303,84,27333,1,8,0:0:0:0:
308,81,27418,1,8,0:0:0:0:
308,81,27588,1,0,0:0:0:0:
307,84,27759,1,0,0:0:0:0:
310,79,27929,1,8,0:0:0:0:
303,84,28100,1,8,0:0:0:0:
301,83,28270,1,8,0:0:0:0:
308,81,28441,1,0,0:0:0:0:
308,81,28611,1,8,0:0:0:0:
304,93,28952,1,0,0:0:0:0:
300,80,29463,1,0,0:0:0:0:
299,80,29634,1,8,0:0:0:0:
288,87,29804,1,0,0:0:0:0:
290,82,29975,1,8,0:0:0:0:
290,85,30060,1,8,0:0:0:0:
290,85,30145,1,8,0:0:0:0:
294,84,30316,1,8,0:0:0:0:
294,84,30486,1,0,0:0:0:0:
292,91,30657,1,8,0:0:0:0:
298,90,30827,1,8,0:0:0:0:
299,88,30998,1,0,0:0:0:0:
294,84,31338,1,8,0:0:0:0:
315,86,31424,1,8,0:0:0:0:
311,88,31509,1,8,0:0:0:0:
314,91,31679,1,0,0:0:0:0:
317,89,31850,1,0,0:0:0:0:
316,89,32020,1,8,0:0:0:0:
319,88,32361,1,0,0:0:0:0:
314,91,32702,1,12,0:0:0:0:
319,88,33384,1,8,0:0:0:0:
314,91,33554,1,8,0:0:0:0:
314,91,33725,1,0,0:0:0:0:
316,89,33895,1,0,0:0:0:0:
316,89,34066,1,8,0:0:0:0:
319,88,34407,1,0,0:0:0:0:
316,89,35003,1,8,0:0:0:0:
312,100,35088,1,8,0:0:0:0:
312,100,35259,1,0,0:0:0:0:
312,100,35429,1,8,0:0:0:0:
311,100,35600,1,0,0:0:0:0:
311,99,35770,1,8,0:0:0:0:
312,100,35941,1,0,0:0:0:0:
312,100,36111,1,8,0:0:0:0:
312,100,36282,1,8,0:0:0:0:
318,111,36452,1,8,0:0:0:0:
318,111,36623,1,0,0:0:0:0:
318,111,36793,1,8,0:0:0:0:
313,113,37134,1,0,0:0:0:0:
313,100,37645,1,0,0:0:0:0:
309,101,37816,1,8,0:0:0:0:
312,100,37986,1,0,0:0:0:0:
311,105,38157,1,8,0:0:0:0:
312,112,38327,1,8,0:0:0:0:
306,108,38498,1,0,0:0:0:0:
313,100,38668,1,0,0:0:0:0:
327,93,38838,1,8,0:0:0:0:
327,93,38924,1,8,0:0:0:0:
326,100,39009,1,8,0:0:0:0:
323,83,39179,1,8,0:0:0:0:
309,95,39350,1,0,0:0:0:0:
308,96,39520,1,8,0:0:0:0:
327,93,39861,1,0,0:0:0:0:
324,89,40373,1,0,0:0:0:0:
325,98,40543,1,8,0:0:0:0:
325,98,40713,1,0,0:0:0:0:
327,93,40884,1,8,0:0:0:0:
326,100,41054,1,8,0:0:0:0:
316,100,41225,1,8,0:0:0:0:
336,90,41395,1,0,0:0:0:0:
316,100,41566,1,8,0:0:0:0:
336,90,41651,1,8,0:0:0:0:
336,90,41736,1,8,0:0:0:0:
315,99,41907,1,8,0:0:0:0:
330,83,42077,1,0,0:0:0:0:
326,91,42248,1,8,0:0:0:0:
327,90,42333,1,8,0:0:0:0:
326,91,42418,1,8,0:0:0:0:
327,89,42588,1,0,0:0:0:0:
323,86,42674,1,0,0:0:0:0:
327,89,42759,1,0,0:0:0:0:
331,84,42929,1,8,0:0:0:0:
334,86,43270,1,8,0:0:0:0:
327,103,43611,1,8,0:0:0:0:
333,85,43782,1,0,0:0:0:0:
334,95,43952,1,8,0:0:0:0:
335,88,44037,1,8,0:0:0:0:
334,93,44123,1,8,0:0:0:0:
334,86,44293,1,8,0:0:0:0:
323,88,44634,1,0,0:0:0:0:
324,91,44804,1,8,0:0:0:0:
326,89,44975,1,0,0:0:0:0:
325,81,45060,1,0,0:0:0:0:
325,81,45145,1,0,0:0:0:0:
342,88,45316,1,8,0:0:0:0:
324,88,45486,1,0,0:0:0:0:
323,88,45657,1,8,0:0:0:0:
314,74,45998,1,0,0:0:0:0:
325,81,46168,1,0,0:0:0:0:
328,81,46338,1,8,0:0:0:0:
319,78,46509,1,0,0:0:0:0:
314,80,46679,1,8,0:0:0:0:
328,77,46765,1,8,0:0:0:0:
311,82,46850,1,8,0:0:0:0:
313,81,47020,1,8,0:0:0:0:
318,90,47361,1,0,0:0:0:0:
320,89,47532,1,8,0:0:0:0:
314,80,47702,1,0,0:0:0:0:
320,89,47787,1,0,0:0:0:0:
322,86,47873,1,0,0:0:0:0:
328,95,48043,1,8,0:0:0:0:
328,95,48213,1,0,0:0:0:0:
328,94,48384,1,8,0:0:0:0:
314,88,48895,1,0,0:0:0:0:
326,79,49066,1,8,0:0:0:0:
331,87,49236,1,0,0:0:0:0:
337,85,49407,1,8,0:0:0:0:
328,82,49492,1,8,0:0:0:0:
320,89,49577,1,8,0:0:0:0:
343,88,49748,1,8,0:0:0:0:
315,78,50088,1,0,0:0:0:0:
323,77,50259,1,8,0:0:0:0:
333,72,50429,1,0,0:0:0:0:
339,78,50515,1,0,0:0:0:0:
330,75,50600,1,0,0:0:0:0:
336,74,50770,1,8,0:0:0:0:
337,84,50941,1,0,0:0:0:0:
340,72,51111,1,8,0:0:0:0:
334,77,51452,1,0,0:0:0:0:
339,78,51623,1,0,0:0:0:0:
336,74,51793,1,8,0:0:0:0:
337,88,51963,1,0,0:0:0:0:
338,87,52134,1,8,0:0:0:0:
352,83,52219,1,8,0:0:0:0:
352,83,52304,1,8,0:0:0:0:
356,81,52475,1,8,0:0:0:0:
342,87,52816,1,0,0:0:0:0:
352,80,52986,1,0,0:0:0:0:
349,80,53157,1,8,0:0:0:0:
342,72,53327,1,0,0:0:0:0:
356,81,53498,1,8,0:0:0:0:
342,87,53583,1,8,0:0:0:0:
342,87,53668,1,8,0:0:0:0:
342,87,53838,1,8,0:0:0:0:
327,103,54520,1,0,0:0:0:0:
333,85,54606,1,0,0:0:0:0:
333,85,54691,1,0,0:0:0:0:
334,95,54861,1,8,0:0:0:0:
334,93,55032,1,8,0:0:0:0:
334,86,55202,1,0,0:0:0:0:
323,88,55543,1,8,0:0:0:0:
325,88,55628,1,8,0:0:0:0:
324,91,55713,1,8,0:0:0:0:
326,89,55884,1,0,0:0:0:0:
342,88,56225,1,0,0:0:0:0:
324,88,56395,1,0,0:0:0:0:
323,88,56566,1,8,0:0:0:0:
323,83,56736,1,0,0:0:0:0:
326,89,56907,1,8,0:0:0:0:
328,81,57247,1,8,0:0:0:0:
319,78,57333,1,8,0:0:0:0:
319,78,57418,1,8,0:0:0:0:
314,80,57588,1,8,0:0:0:0:
311,82,57759,1,0,0:0:0:0:
313,81,57929,1,8,0:0:0:0:
318,90,58270,1,8,0:0:0:0:
320,89,58355,1,8,0:0:0:0:
320,89,58441,1,8,0:0:0:0:
314,80,58611,1,0,0:0:0:0:
328,95,59122,1,0,0:0:0:0:
328,94,59293,1,8,0:0:0:0:
320,89,59463,1,8,0:0:0:0:
322,87,59634,1,0,0:0:0:0:
314,88,59804,1,0,0:0:0:0:
326,79,59975,1,8,0:0:0:0:
331,87,60060,1,8,0:0:0:0:
331,87,60145,1,8,0:0:0:0:
337,85,60316,1,8,0:0:0:0:
320,89,60486,1,0,0:0:0:0:
329,85,60657,1,8,0:0:0:0:
315,78,60997,1,8,0:0:0:0:
327,76,61083,1,8,0:0:0:0:
323,77,61168,1,8,0:0:0:0:
334,77,61338,1,8,0:0:0:0:
336,74,61679,1,0,0:0:0:0:
337,84,61850,1,0,0:0:0:0:
340,72,62020,1,8,0:0:0:0:
339,72,62191,1,0,0:0:0:0:
334,77,62361,1,8,0:0:0:0:
336,74,62702,1,8,0:0:0:0:
337,84,62787,1,8,0:0:0:0:
337,88,62873,1,8,0:0:0:0:
338,87,63043,1,8,0:0:0:0:
352,83,63213,1,0,0:0:0:0:
356,81,63384,1,8,0:0:0:0:
342,87,63725,1,0,0:0:0:0:
352,80,63810,1,0,0:0:0:0:
352,80,63895,1,0,0:0:0:0:
349,80,64066,1,8,0:0:0:0:
356,81,64407,1,0,0:0:0:0:
342,87,64577,1,0,0:0:0:0:
342,87,64747,1,8,0:0:0:0:
352,80,64918,1,8,0:0:0:0:
358,92,65088,1,0,0:0:0:0:
358,92,65174,1,0,0:0:0:0:
358,92,65259,1,0,0:0:0:0:
345,86,65429,1,0,0:0:0:0:
342,87,65770,1,8,0:0:0:0:
343,87,66026,1,8,0:0:0:0:
343,87,66196,1,8,0:0:0:0:
345,86,66452,1,8,0:0:0:0:
343,80,66963,1,0,0:0:0:0:
345,79,67134,1,8,0:0:0:0:
345,86,67390,1,8,0:0:0:0:
343,79,67560,1,8,0:0:0:0:
343,80,67816,1,8,0:0:0:0:
353,76,68157,1,0,0:0:0:0:
353,76,68327,1,0,0:0:0:0:
343,79,68498,1,8,0:0:0:0:
343,79,68753,1,8,0:0:0:0:
332,77,68924,1,8,0:0:0:0:
332,77,69179,1,8,0:0:0:0:
329,90,69691,1,0,0:0:0:0:
334,87,69861,1,8,0:0:0:0:
334,87,70117,1,8,0:0:0:0:
340,85,70287,1,8,0:0:0:0:
329,90,70543,1,8,0:0:0:0:
336,81,70713,1,8,0:0:0:0:
334,87,70884,1,0,0:0:0:0:
337,86,71054,1,0,0:0:0:0:
334,89,71225,1,8,0:0:0:0:
327,86,71481,1,8,0:0:0:0:
327,86,71651,1,8,0:0:0:0:
334,87,71907,1,8,0:0:0:0:
327,86,72418,1,0,0:0:0:0:
327,86,72588,1,8,0:0:0:0:
323,81,72844,1,8,0:0:0:0:
323,81,73015,1,8,0:0:0:0:
323,81,73270,1,8,0:0:0:0:
321,77,73611,1,0,0:0:0:0:
321,77,73782,1,0,0:0:0:0:
323,81,73952,1,8,0:0:0:0:
327,81,74208,1,8,0:0:0:0:
327,81,74378,1,8,0:0:0:0:
327,81,74634,1,8,0:0:0:0:
326,81,74975,1,0,0:0:0:0:
326,81,75145,1,0,0:0:0:0:
320,76,75316,1,8,0:0:0:0:
326,81,75571,1,8,0:0:0:0:
326,80,75742,1,8,0:0:0:0:
326,81,75998,1,0,0:0:0:0:
318,86,76168,1,0,0:0:0:0:
315,87,76338,1,8,0:0:0:0:
326,80,76679,1,8,0:0:0:0:
319,85,76850,1,0,0:0:0:0:
328,84,76935,1,0,0:0:0:0:
328,84,77020,1,0,0:0:0:0:
318,86,77191,1,0,0:0:0:0:
326,80,77361,1,8,0:0:0:0:
328,84,78043,1,8,0:0:0:0:
353,86,78213,1,0,0:0:0:0:
326,80,78384,1,8,0:0:0:0:
328,84,78469,1,8,0:0:0:0:
335,82,78554,1,8,0:0:0:0:
328,84,78725,1,8,0:0:0:0:
330,77,79066,1,0,0:0:0:0:
331,77,79236,1,0,0:0:0:0:
331,74,79407,1,8,0:0:0:0:
335,82,79577,1,0,0:0:0:0:
331,74,79748,1,0,0:0:0:0:
331,74,79833,1,0,0:0:0:0:
334,85,79918,1,0,0:0:0:0:
331,74,80088,1,8,0:0:0:0:
331,74,80770,1,8,0:0:0:0:
334,85,80941,1,0,0:0:0:0:
331,74,81111,1,8,0:0:0:0:
331,74,81196,1,8,0:0:0:0:
332,90,81282,1,8,0:0:0:0:
331,74,81452,1,8,0:0:0:0:
331,83,81623,1,0,0:0:0:0:
331,74,81793,1,0,0:0:0:0:
331,74,82134,1,8,0:0:0:0:
328,83,82304,1,0,0:0:0:0:
331,74,82390,1,0,0:0:0:0:
324,72,82475,1,0,0:0:0:0:
331,83,82645,1,8,0:0:0:0:
331,74,82816,1,0,0:0:0:0:
331,74,83498,1,0,0:0:0:0:
342,79,83668,1,0,0:0:0:0:
331,74,83838,1,8,0:0:0:0:
331,74,83924,1,8,0:0:0:0:
340,80,84009,1,8,0:0:0:0:
331,74,84179,1,0,0:0:0:0:
331,74,84520,1,0,0:0:0:0:
331,74,84861,1,8,0:0:0:0:
340,80,85032,1,0,0:0:0:0:
331,74,85117,1,0,0:0:0:0:
331,74,85202,1,0,0:0:0:0:
343,78,85373,1,8,0:0:0:0:
331,74,85543,1,0,0:0:0:0:
331,74,85884,1,8,0:0:0:0:
331,74,85969,1,8,0:0:0:0:
331,74,86054,1,8,0:0:0:0:
331,74,86225,1,0,0:0:0:0:
331,74,86310,1,0,0:0:0:0:
331,74,86395,1,0,0:0:0:0:
331,74,86566,1,8,0:0:0:0:
331,74,86907,1,0,0:0:0:0:
295,108,87248,1,8,0:0:0:0:
342,65,87418,1,0,0:0:0:0:
337,88,87588,1,8,0:0:0:0:
329,84,87844,1,8,0:0:0:0:
329,84,88015,1,8,0:0:0:0:
329,83,88270,1,8,0:0:0:0:
344,83,88611,1,8,0:0:0:0:
332,84,88782,1,0,0:0:0:0:
329,84,88952,1,8,0:0:0:0:
329,83,89208,1,8,0:0:0:0:
329,84,89378,1,8,0:0:0:0:
329,84,89634,1,8,0:0:0:0:
340,77,89975,1,8,0:0:0:0:
329,83,90145,1,0,0:0:0:0:
329,84,90316,1,8,0:0:0:0:
329,84,90571,1,8,0:0:0:0:
329,84,90742,1,8,0:0:0:0:
329,84,90998,1,8,0:0:0:0:
329,84,91338,1,8,0:0:0:0:
321,80,91509,1,0,0:0:0:0:
329,84,91679,1,8,0:0:0:0:
337,70,91850,1,0,0:0:0:0:
329,84,91935,1,0,0:0:0:0:
328,84,92020,1,0,0:0:0:0:
337,71,92191,1,0,0:0:0:0:
329,84,92361,1,8,0:0:0:0:
327,73,92702,1,0,0:0:0:0:
331,83,92873,1,0,0:0:0:0:
329,84,93043,1,8,0:0:0:0:
329,84,93299,1,8,0:0:0:0:
329,84,93469,1,8,0:0:0:0:
329,84,93725,1,8,0:0:0:0:
312,74,94066,1,0,0:0:0:0:
314,74,94236,1,0,0:0:0:0:
329,84,94407,1,8,0:0:0:0:
329,84,94662,1,8,0:0:0:0:
317,71,94833,1,8,0:0:0:0:
317,71,95088,1,8,0:0:0:0:
321,72,95429,1,0,0:0:0:0:
327,73,95600,1,0,0:0:0:0:
329,85,95770,1,8,0:0:0:0:
329,85,96026,1,8,0:0:0:0:
329,85,96196,1,8,0:0:0:0:
329,85,96452,1,8,0:0:0:0:
329,85,96793,1,0,0:0:0:0:
329,85,96878,1,0,0:0:0:0:
329,85,96963,1,0,0:0:0:0:
329,85,97134,1,8,0:0:0:0:
329,85,97219,1,8,0:0:0:0:
329,85,97304,1,8,0:0:0:0:
329,85,97475,1,0,0:0:0:0:
329,85,97816,1,8,0:0:0:0:
327,103,98157,1,8,0:0:0:0:
333,85,98328,1,0,0:0:0:0:
334,95,98498,1,8,0:0:0:0:
335,88,98583,1,8,0:0:0:0:
334,93,98669,1,8,0:0:0:0:
334,86,98839,1,8,0:0:0:0:
323,88,99180,1,0,0:0:0:0:
324,91,99350,1,8,0:0:0:0:
326,89,99521,1,0,0:0:0:0:
325,81,99606,1,0,0:0:0:0:
325,81,99691,1,0,0:0:0:0:
342,88,99861,1,8,0:0:0:0:
324,88,100032,1,0,0:0:0:0:
323,88,100203,1,8,0:0:0:0:
314,74,100544,1,0,0:0:0:0:
325,81,100714,1,0,0:0:0:0:
328,81,100884,1,8,0:0:0:0:
319,78,101055,1,0,0:0:0:0:
314,80,101225,1,8,0:0:0:0:
328,77,101311,1,8,0:0:0:0:
311,82,101396,1,8,0:0:0:0:
313,81,101566,1,8,0:0:0:0:
318,90,101907,1,0,0:0:0:0:
320,89,102078,1,8,0:0:0:0:
314,80,102248,1,0,0:0:0:0:
320,89,102333,1,0,0:0:0:0:
322,86,102419,1,0,0:0:0:0:
328,95,102589,1,8,0:0:0:0:
328,95,102759,1,0,0:0:0:0:
328,94,102930,1,8,0:0:0:0:
314,88,103441,1,0,0:0:0:0:
326,79,103612,1,8,0:0:0:0:
331,87,103782,1,0,0:0:0:0:
337,85,103953,1,8,0:0:0:0:
328,82,104038,1,8,0:0:0:0:
320,89,104123,1,8,0:0:0:0:
343,88,104294,1,8,0:0:0:0:
315,78,104634,1,8,0:0:0:0:
323,77,104805,1,8,0:0:0:0:
333,72,104975,1,0,0:0:0:0:
339,78,105061,1,0,0:0:0:0:
330,75,105146,1,0,0:0:0:0:
336,74,105316,1,8,0:0:0:0:
337,84,105487,1,0,0:0:0:0:
340,72,105657,1,8,0:0:0:0:
334,77,105998,1,0,0:0:0:0:
339,78,106169,1,0,0:0:0:0:
336,74,106339,1,8,0:0:0:0:
337,88,106509,1,0,0:0:0:0:
338,87,106680,1,8,0:0:0:0:
352,83,106765,1,8,0:0:0:0:
352,83,106850,1,8,0:0:0:0:
356,81,107021,1,8,0:0:0:0:
342,87,107362,1,0,0:0:0:0:
352,80,107532,1,0,0:0:0:0:
349,80,107703,1,8,0:0:0:0:
342,72,107873,1,0,0:0:0:0:
356,81,108044,1,8,0:0:0:0:
342,87,108129,1,8,0:0:0:0:
342,87,108214,1,8,0:0:0:0:
342,87,108384,1,8,0:0:0:0:
327,103,109066,1,0,0:0:0:0:
333,85,109152,1,0,0:0:0:0:
333,85,109237,1,0,0:0:0:0:
334,95,109407,1,8,0:0:0:0:
334,93,109578,1,8,0:0:0:0:
334,86,109748,1,0,0:0:0:0:
323,88,110089,1,8,0:0:0:0:
325,88,110174,1,8,0:0:0:0:
324,91,110259,1,8,0:0:0:0:
326,89,110430,1,0,0:0:0:0:
342,88,110771,1,0,0:0:0:0:
324,88,110941,1,0,0:0:0:0:
323,88,111112,1,8,0:0:0:0:
323,83,111282,1,0,0:0:0:0:
326,89,111453,1,8,0:0:0:0:
328,81,111793,1,8,0:0:0:0:
319,78,111879,1,8,0:0:0:0:
319,78,111964,1,8,0:0:0:0:
314,80,112134,1,8,0:0:0:0:
311,82,112305,1,0,0:0:0:0:
313,81,112475,1,8,0:0:0:0:
318,90,112816,1,8,0:0:0:0:
320,89,112901,1,8,0:0:0:0:
320,89,112987,1,8,0:0:0:0:
314,80,113157,1,0,0:0:0:0:
328,95,113668,1,0,0:0:0:0:
328,94,113839,1,8,0:0:0:0:
320,89,114009,1,8,0:0:0:0:
322,87,114180,1,0,0:0:0:0:
314,88,114350,1,0,0:0:0:0:
326,79,114521,1,8,0:0:0:0:
331,87,114606,1,8,0:0:0:0:
331,87,114691,1,8,0:0:0:0:
337,85,114862,1,8,0:0:0:0:
320,89,115032,1,0,0:0:0:0:
329,85,115203,1,8,0:0:0:0:
315,78,115543,1,8,0:0:0:0:
327,76,115629,1,8,0:0:0:0:
323,77,115714,1,8,0:0:0:0:
334,77,115884,1,8,0:0:0:0:
336,74,116225,1,0,0:0:0:0:
337,84,116396,1,0,0:0:0:0:
340,72,116566,1,8,0:0:0:0:
339,72,116737,1,0,0:0:0:0:
334,77,116907,1,8,0:0:0:0:
336,74,117248,1,8,0:0:0:0:
337,84,117333,1,8,0:0:0:0:
337,88,117419,1,8,0:0:0:0:
338,87,117589,1,8,0:0:0:0:
352,83,117759,1,0,0:0:0:0:
356,81,117930,1,8,0:0:0:0:
342,87,118271,1,0,0:0:0:0:
352,80,118356,1,0,0:0:0:0:
352,80,118441,1,0,0:0:0:0:
349,80,118612,1,8,0:0:0:0:
356,81,118953,1,0,0:0:0:0:
342,87,119123,1,0,0:0:0:0:
342,87,119293,1,8,0:0:0:0:
352,80,119464,1,8,0:0:0:0:
358,92,119634,1,0,0:0:0:0:
358,92,119720,1,0,0:0:0:0:
358,92,119805,1,0,0:0:0:0:
256,138,121083,5,0,0:0:0:0:
318,109,121317,1,8,0:0:0:0:
318,109,121434,1,0,0:0:0:0:
302,121,121551,1,8,0:0:0:0:
323,97,121786,1,0,0:0:0:0:
324,100,122020,1,8,0:0:0:0:
332,97,122254,1,8,0:0:0:0:
332,97,122372,1,8,0:0:0:0:
324,93,122489,1,0,0:0:0:0:
328,99,122723,1,0,0:0:0:0:
336,90,122958,1,8,0:0:0:0:
323,100,123192,1,0,0:0:0:0:
353,91,123309,1,0,0:0:0:0:
340,95,123426,1,8,0:0:0:0:
339,91,123661,1,0,0:0:0:0:
336,90,123895,1,8,0:0:0:0:
341,93,124012,1,8,0:0:0:0:
342,90,124129,1,0,0:0:0:0:
352,94,124364,1,8,0:0:0:0:
347,86,124833,1,8,0:0:0:0:
353,77,125067,1,0,0:0:0:0:
346,70,125184,1,0,0:0:0:0:
352,74,125301,1,8,0:0:0:0:
355,70,125536,1,0,0:0:0:0:
357,71,125770,1,8,0:0:0:0:
361,74,126004,1,8,0:0:0:0:
361,74,126122,1,8,0:0:0:0:
362,66,126239,1,0,0:0:0:0:
358,75,126473,1,0,0:0:0:0:
358,71,126708,1,8,0:0:0:0:
351,72,126942,1,0,0:0:0:0:
354,78,127059,1,0,0:0:0:0:
362,77,127176,1,8,0:0:0:0:
358,75,127411,1,8,0:0:0:0:
352,68,127528,1,0,0:0:0:0:
348,70,127645,1,8,0:0:0:0:
351,72,127879,1,8,0:0:0:0:
349,75,128114,1,0,0:0:0:0:
358,78,128583,1,0,0:0:0:0:
358,71,128817,1,8,0:0:0:0:
351,72,128934,1,8,0:0:0:0:
359,67,129051,1,0,0:0:0:0:
345,76,129286,1,8,0:0:0:0:
348,75,129520,1,0,0:0:0:0:
368,71,129754,1,8,0:0:0:0:
368,71,129872,1,8,0:0:0:0:
360,76,129989,1,0,0:0:0:0:
352,74,130223,1,0,0:0:0:0:
348,75,130458,1,8,0:0:0:0:
350,74,130692,1,8,0:0:0:0:
363,76,130809,1,8,0:0:0:0:
363,76,130926,1,0,0:0:0:0:
352,74,131161,1,8,0:0:0:0:
348,75,131395,1,0,0:0:0:0:
350,74,131512,1,0,0:0:0:0:
351,74,131629,1,8,0:0:0:0:
363,76,131864,1,8,0:0:0:0:
354,68,132333,1,0,0:0:0:0:
349,70,132567,1,8,0:0:0:0:
360,65,132684,1,8,0:0:0:0:
352,62,132801,1,0,0:0:0:0:
352,78,133036,1,8,0:0:0:0:
355,76,133270,1,0,0:0:0:0:
351,69,133504,1,8,0:0:0:0:
356,79,133622,1,0,0:0:0:0:
356,79,133739,1,8,0:0:0:0:
359,81,133973,1,0,0:0:0:0:
352,78,134208,1,8,0:0:0:0:
362,81,134442,1,0,0:0:0:0:
354,85,134559,1,8,0:0:0:0:
356,79,134676,1,0,0:0:0:0:
352,85,134911,1,8,0:0:0:0:
347,86,135028,1,0,0:0:0:0:
331,85,135145,1,8,0:0:0:0:
363,80,135379,1,0,0:0:0:0:
354,85,135614,1,0,0:0:0:0:
336,75,136083,1,0,0:0:0:0:
363,80,136317,1,8,0:0:0:0:
363,80,136434,1,8,0:0:0:0:
357,88,136551,1,0,0:0:0:0:
334,76,136786,1,8,0:0:0:0:
366,85,137020,1,8,0:0:0:0:
348,83,137254,1,0,0:0:0:0:
363,80,137372,1,0,0:0:0:0:
363,80,137489,1,8,0:0:0:0:
353,87,137723,1,0,0:0:0:0:
353,88,137958,1,8,0:0:0:0:
358,78,138192,1,0,0:0:0:0:
365,76,138309,1,0,0:0:0:0:
358,72,138426,1,8,0:0:0:0:
354,86,138661,1,0,0:0:0:0:
353,88,138895,1,8,0:0:0:0:
344,81,139012,1,8,0:0:0:0:
350,91,139129,1,0,0:0:0:0:
352,91,139364,1,8,0:0:0:0:
345,88,139833,1,8,0:0:0:0:
345,85,140067,1,0,0:0:0:0:
343,75,140184,1,0,0:0:0:0:
345,76,140301,1,8,0:0:0:0:
344,89,140536,1,0,0:0:0:0:
345,88,140770,1,8,0:0:0:0:
345,85,141004,1,0,0:0:0:0:
345,85,141122,1,0,0:0:0:0:
351,80,141239,1,8,0:0:0:0:
357,81,141473,1,8,0:0:0:0:
365,82,141708,1,0,0:0:0:0:
349,81,141942,1,8,0:0:0:0:
359,81,142059,1,8,0:0:0:0:
351,80,142176,1,0,0:0:0:0:
347,76,142411,1,8,0:0:0:0:
348,78,142528,1,0,0:0:0:0:
121,91,142645,1,8,0:0:0:0:
349,81,142879,1,8,0:0:0:0:
299,86,143114,1,12,0:0:0:0:
353,81,143348,1,4,0:0:0:0:
353,81,143584,1,4,0:0:0:0:
