osu file format v14

[General]
AudioFilename: audio.mp3
AudioLeadIn: 0
PreviewTime: 42929
Countdown: 0
SampleSet: Normal
StackLeniency: 0.7
Mode: 1
LetterboxInBreaks: 0
WidescreenStoryboard: 1

[Editor]
DistanceSpacing: 0.3
BeatDivisor: 4
GridSize: 32
TimelineZoom: 3.100004

[Metadata]
Title:OUTSIDE
TitleUnicode:OUTSIDE
Artist:1 800 PAIN
ArtistUnicode:1 800 PAIN
Creator:Nifty
Version:INNER ONI
Source:
Tags:rap electronic industrial hip hop angry sv postmodern english 1-800-PAIN 1800PAIN best house on a bad block jody jetski jone d'bonechis
BeatmapID:4246067
BeatmapSetID:2034952

[Difficulty]
HPDrainRate:5
CircleSize:2
OverallDifficulty:6
ApproachRate:10
SliderMultiplier:1.4
SliderTickRate:1

[Events]
//Background and Video events
0,0,"pain.jpg",0,-40
//Break Periods
//Storyboard Layer 0 (Background)
//Storyboard Layer 1 (Fail)
//Storyboard Layer 2 (Pass)
//Storyboard Layer 3 (Foreground)
//Storyboard Layer 4 (Overlay)
//Storyboard Sound Samples

[TimingPoints]
-24.6699507389162,340.909090909091,4,1,0,100,1,0
103,-200,4,1,0,100,0,0
10882,-76.92308,4,1,0,100,0,0
10967,-81.31033,4,1,0,100,0,0
11052,-85.947815,4,1,0,100,0,0
11138,-90.90909,4,1,0,100,0,0
11223,-76.92308,4,1,0,100,0,0
11308,-81.31033,4,1,0,100,0,0
11393,-85.947815,4,1,0,100,0,0
11479,-90.90909,4,1,0,100,0,0
11564,-76.92308,4,1,0,100,0,0
11649,-81.328026,4,1,0,100,0,0
11734,-85.985214,4,1,0,100,0,0
11819,-90.90909,4,1,0,100,0,0
11905,-76.92308,4,1,0,100,0,0
11990,-80.35448,4,1,0,100,0,0
12075,-83.938934,4,1,0,100,0,0
12160,-87.6833,4,1,0,100,0,0
12246,-91.641716,4,1,0,100,0,0
12302,-94.31487,4,1,0,100,0,0
12359,-97.11584,4,1,0,100,0,0
12416,-100,4,1,0,100,0,0
12587,-125,4,1,0,100,0,0
12673,-122.468636,4,1,0,100,0,0
12758,-120.017075,4,1,0,100,0,0
12928,-115.26021,4,1,0,100,0,0
13014,-112.92608,4,1,0,100,0,0
13099,-110.66555,4,1,0,100,0,0
13269,-106.27933,4,1,0,100,0,0
13355,-104.12707,4,1,0,100,0,0
13440,-102.04267,4,1,0,100,0,0
13525,-100,4,1,0,100,0,0
13610,-83.333336,4,1,0,100,0,0
13667,-84.22892,4,1,0,100,0,0
13696,-84.7457627118644,4,1,0,100,0,0
13724,-85.13412,4,1,0,100,0,0
13781,-86.04905,4,1,0,100,0,0
13866,-87.431725,4,1,0,100,0,0
13951,-88.83662,4,1,0,100,0,0
14036,-90.26407,4,1,0,100,0,0
14122,-91.73167,4,1,0,100,0,0
14207,-93.20565,4,1,0,100,0,0
14292,-94.70331,4,1,0,100,0,0
14377,-96.225044,4,1,0,100,0,0
14462,-97.771225,4,1,0,100,0,0
14548,-99.36088,4,1,0,100,0,0
14633,-100.95746,4,1,0,100,0,0
14718,-102.57967,4,1,0,100,0,0
14803,-104.22798,4,1,0,100,0,0
14889,-105.922615,4,1,0,100,0,0
14974,-107.62462,4,1,0,100,0,0
15031,-108.78125,4,1,0,100,0,0
15087,-109.92971,4,1,0,100,0,0
15144,-111.111115,4,1,0,100,0,0
15315,-125,4,1,0,100,0,0
15400,-120.04448,4,1,0,100,0,0
15485,-115.28542,4,1,0,100,0,0
15656,-106.27525,4,1,0,100,0,0
15741,-102.062065,4,1,0,100,0,0
15826,-98.01591,4,1,0,100,0,0
15911,-94.130165,4,1,0,100,0,0
15997,-90.355446,4,1,0,100,0,0
16167,-83.33333,4,1,0,100,0,0
16338,-12.5,4,1,0,100,0,0
16339,-50,4,1,0,100,0,0
16679,-100,4,1,0,100,0,0
16850,-111.111111111111,4,1,0,100,0,0
17019,-83.333336,4,1,0,100,0,0
17105,-84.87931,4,1,0,100,0,0
17190,-86.4355,4,1,0,100,0,0
17275,-88.02021,4,1,0,100,0,0
17360,-89.63399,4,1,0,100,0,0
17445,-91.277336,4,1,0,100,0,0
17531,-92.970695,4,1,0,100,0,0
17616,-94.675224,4,1,0,100,0,0
17701,-96.41101,4,1,0,100,0,0
17758,-97.5928,4,1,0,100,0,0
17815,-98.78906,4,1,0,100,0,0
17872,-100,4,1,0,100,0,0
18042,-111.111115,4,1,0,100,0,0
18127,-109.273865,4,1,0,100,0,0
18212,-107.46699,4,1,0,100,0,0
18383,-103.92199,4,1,0,100,0,0
18468,-102.20361,4,1,0,100,0,0
18553,-100.51364,4,1,0,100,0,0
18639,-98.83223,4,1,0,100,0,0
18724,-97.198006,4,1,0,100,0,0
18894,-94.010185,4,1,0,100,0,0
18980,-92.43757,4,1,0,100,0,0
19065,-90.90909,4,1,0,100,0,0
19235,-83.333336,4,1,0,100,0,0
19320,-84.84076,4,1,0,100,0,0
19406,-86.39366,4,1,0,100,0,0
19491,-87.95644,4,1,0,100,0,0
19576,-89.54749,4,1,0,100,0,0
19661,-91.16732,4,1,0,100,0,0
19747,-92.836044,4,1,0,100,0,0
19832,-94.51535,4,1,0,100,0,0
19917,-96.225044,4,1,0,100,0,0
20002,-97.96567,4,1,0,100,0,0
20087,-99.73777,4,1,0,100,0,0
20173,-101.563354,4,1,0,100,0,0
20258,-103.400536,4,1,0,100,0,0
20343,-105.27096,4,1,0,100,0,0
20428,-107.17522,4,1,0,100,0,0
20485,-108.471436,4,1,0,100,0,0
20542,-109.783356,4,1,0,100,0,0
20599,-111.111115,4,1,0,100,0,0
20769,-125.00001,4,1,0,100,0,0
20855,-122.46864,4,1,0,100,0,0
20940,-120.01708,4,1,0,100,0,0
21025,-117.6146,4,1,0,100,0,0
21110,-115.26021,4,1,0,100,0,0
21195,-112.95296,4,1,0,100,0,0
21281,-110.66555,4,1,0,100,0,0
21366,-108.45026,4,1,0,100,0,0
21451,-106.27933,4,1,0,100,0,0
21536,-104.15185,4,1,0,100,0,0
21622,-102.04267,4,1,0,100,0,0
21707,-100,4,1,0,100,0,0
21792,-83.333336,4,1,0,100,0,0
21849,-84.79666,4,1,0,100,0,0
21906,-86.28569,4,1,0,100,0,0
21962,-87.774055,4,1,0,100,0,0
22048,-90.1099,4,1,0,100,0,0
22133,-92.47966,4,1,0,100,0,0
22218,-94.91174,4,1,0,100,0,0
22303,-97.40778,4,1,0,100,0,0
22389,-100,4,1,0,100,0,0
22474,-111.111115,4,1,0,100,0,0
22559,-107.10874,4,1,0,100,0,0
22644,-103.250534,4,1,0,100,0,0
22730,-99.488365,4,1,0,100,0,0
22815,-95.90466,4,1,0,100,0,0
22900,-92.45004,4,1,0,100,0,0
22985,-89.11986,4,1,0,100,0,0
23070,-85.90964,4,1,0,100,0,0
23156,-82.77932,4,1,0,100,0,0
23212,-80.80255,4,1,0,100,0,0
23269,-78.83896,4,1,0,100,0,0
23326,-76.92308,4,1,0,100,0,0
23497,-90.909096,4,1,0,100,0,0
23582,-91.69851,4,1,0,100,0,0
23667,-92.49478,4,1,0,100,0,0
23837,-94.108116,4,1,0,100,0,0
23923,-94.934975,4,1,0,100,0,0
24008,-95.75934,4,1,0,100,0,0
24093,-96.59088,4,1,0,100,0,0
24178,-97.42963,4,1,0,100,0,0
24264,-98.28567,4,1,0,100,0,0
24349,-99.13913,4,1,0,100,0,0
24434,-100.00001,4,1,0,100,0,0
24519,-83.333336,4,1,0,100,0,0
24605,-85.551,4,1,0,100,0,0
24690,-87.800865,4,1,0,100,0,0
24775,-90.10991,4,1,0,100,0,0
24860,-92.47967,4,1,0,100,0,0
24945,-94.91175,4,1,0,100,0,0
25031,-97.437546,4,1,0,100,0,0
25116,-100.00001,4,1,0,100,0,0
25201,-111.111115,4,1,0,100,0,0
25286,-107.10874,4,1,0,100,0,0
25372,-103.205986,4,1,0,100,0,0
25457,-99.488365,4,1,0,100,0,0
25542,-95.90466,4,1,0,100,0,0
25627,-92.45004,4,1,0,100,0,0
25712,-89.11986,4,1,0,100,0,0
25798,-85.87256,4,1,0,100,0,0
25883,-82.77932,4,1,0,100,0,0
25940,-80.767685,4,1,0,100,0,0
25997,-78.80493,4,1,0,100,0,0
26053,-76.92308,4,1,0,100,0,0
26224,-83.333336,4,1,0,100,0,0
26309,-84.05988,4,1,0,100,0,0
26394,-84.792755,4,1,0,100,0,0
26565,-86.28654,4,1,0,100,0,0
26650,-87.038826,4,1,0,100,0,0
26735,-87.797676,4,1,0,100,0,0
26820,-88.56314,4,1,0,100,0,0
26906,-89.344406,4,1,0,100,0,0
27076,-90.909096,4,1,0,100,0,0
27247,-76.92308,4,1,0,100,0,0
27332,-78.77776,4,1,0,100,0,0
27417,-80.67717,4,1,0,100,0,0
27502,-82.62237,4,1,0,100,0,0
27587,-84.61447,4,1,0,100,0,0
27673,-86.678894,4,1,0,100,0,0
27758,-88.7688,4,1,0,100,0,0
27843,-90.909096,4,1,0,100,0,0
27928,-100.00001,4,1,0,100,0,0
28014,-96.664566,4,1,0,100,0,0
28099,-93.47725,4,1,0,100,0,0
28184,-90.39502,4,1,0,100,0,0
28269,-87.41442,4,1,0,100,0,0
28355,-84.498764,4,1,0,100,0,0
28440,-81.712585,4,1,0,100,0,0
28525,-79.01827,4,1,0,100,0,0
28610,-76.4128,4,1,0,100,0,0
28667,-74.7139,4,1,0,100,0,0
28724,-73.05277,4,1,0,100,0,0
28781,-71.42857,4,1,0,100,0,0
28951,-83.333336,4,1,0,100,0,0
29036,-83.993,4,1,0,100,0,0
29122,-84.66574,4,1,0,100,0,0
29292,-86.011475,4,1,0,100,0,0
29377,-86.69234,4,1,0,100,0,0
29462,-87.3786,4,1,0,100,0,0
29548,-88.07847,4,1,0,100,0,0
29633,-88.77569,4,1,0,100,0,0
29718,-89.47844,4,1,0,100,0,0
29803,-90.186745,4,1,0,100,0,0
29889,-90.909096,4,1,0,100,0,0
29974,-76.92308,4,1,0,100,0,0
30059,-78.77776,4,1,0,100,0,0
30144,-80.67717,4,1,0,100,0,0
30230,-82.64553,4,1,0,100,0,0
30315,-84.63819,4,1,0,100,0,0
30400,-86.678894,4,1,0,100,0,0
30485,-88.7688,4,1,0,100,0,0
30570,-90.909096,4,1,0,100,0,0
30656,-100,4,1,0,100,0,0
30741,-97.4333,4,1,0,100,0,0
30826,-94.93246,4,1,0,100,0,0
30911,-92.49582,4,1,0,100,0,0
30997,-90.09416,4,1,0,100,0,0
31082,-87.78171,4,1,0,100,0,0
31167,-85.5286,4,1,0,100,0,0
31252,-83.333336,4,1,0,100,0,0
31337,-76.92308,4,1,0,100,0,0
31394,-78.392105,4,1,0,100,0,0
31451,-79.88918,4,1,0,100,0,0
31508,-81.414856,4,1,0,100,0,0
31593,-83.74426,4,1,0,100,0,0
31678,-86.14032,4,1,0,100,0,0
31764,-88.634346,4,1,0,100,0,0
31849,-91.1703,4,1,0,100,0,0
31934,-93.77884,4,1,0,100,0,0
32019,-96.462006,4,1,0,100,0,0
32105,-99.254875,4,1,0,100,0,0
32360,-108.02047,4,1,0,100,0,0
32445,-111.111115,4,1,0,100,0,0
32702,-33.3333333333333,4,1,0,100,0,0
33042,-166.66667,4,1,0,100,0,0
33212,-166.66539,4,1,0,100,0,0
33298,-166.66232,4,1,0,100,0,0
33383,-166.65642,4,1,0,100,0,0
33553,-166.63214,4,1,0,100,0,0
33724,-166.58463,4,1,0,100,0,0
33809,-166.55,4,1,0,100,0,0
33894,-166.50679,4,1,0,100,0,0
34065,-166.39012,4,1,0,100,0,0
34122,-166.34135,4,1,0,100,0,0
34178,-166.28821,4,1,0,100,0,0
34235,-166.22849,4,1,0,100,0,0
34406,-166.01262,4,1,0,100,0,0
34491,-165.88316,4,1,0,100,0,0
34576,-165.73785,4,1,0,100,0,0
34747,-165.39398,4,1,0,100,0,0
34832,-165.19576,4,1,0,100,0,0
35002,-164.74092,4,1,0,100,0,0
35087,-164.48279,4,1,0,100,0,0
35173,-164.19977,4,1,0,100,0,0
35258,-163.89774,4,1,0,100,0,0
35428,-163.22455,4,1,0,100,0,0
35514,-162.84761,4,1,0,100,0,0
35599,-162.45027,4,1,0,100,0,0
35684,-162.02774,4,1,0,100,0,0
35769,-161.57956,4,1,0,100,0,0
35940,-160.59839,4,1,0,100,0,0
36110,-159.51517,4,1,0,100,0,0
36195,-158.9325,4,1,0,100,0,0
36281,-158.3148,4,1,0,100,0,0
36366,-157.67627,4,1,0,100,0,0
36451,-157.00978,4,1,0,100,0,0
36622,-155.58401,4,1,0,100,0,0
36792,-154.05429,4,1,0,100,0,0
36849,-153.51645,4,1,0,100,0,0
36906,-152.96619,4,1,0,100,0,0
36962,-152.41351,4,1,0,100,0,0
37133,-150.65283,4,1,0,100,0,0
37218,-149.7373,4,1,0,100,0,0
37303,-148.79547,4,1,0,100,0,0
37360,-148.14938,4,1,0,100,0,0
37417,-147.49182,4,1,0,100,0,0
37474,-146.82297,4,1,0,100,0,0
37644,-144.76256,4,1,0,100,0,0
37730,-143.68399,4,1,0,100,0,0
37815,-142.59491,4,1,0,100,0,0
37900,-141.48364,4,1,0,100,0,0
37985,-140.35088,4,1,0,100,0,0
38070,-139.19743,4,1,0,100,0,0
38156,-138.0102,4,1,0,100,0,0
38326,-135.60683,4,1,0,100,0,0
38411,-134.37874,4,1,0,100,0,0
38497,-133.11954,4,1,0,100,0,0
38582,-131.8594,4,1,0,100,0,0
38667,-130.58476,4,1,0,100,0,0
38752,-129.29654,4,1,0,100,0,0
38837,-127.9957,4,1,0,100,0,0
38880,-127.33312,4,1,0,100,0,0
38923,-126.667694,4,1,0,100,0,0
39008,-125.3444,4,1,0,100,0,0
39178,-122.6697,4,1,0,100,0,0
39264,-121.304306,4,1,0,100,0,0
39349,-119.94797,4,1,0,100,0,0
39434,-118.58579,4,1,0,100,0,0
39519,-117.218735,4,1,0,100,0,0
39576,-116.29974,4,1,0,100,0,0
39633,-115.379234,4,1,0,100,0,0
39690,-114.457504,4,1,0,100,0,0
39860,-111.70388,4,1,0,100,0,0
39945,-110.32609,4,1,0,100,0,0
40031,-108.93258,4,1,0,100,0,0
40116,-107.55659,4,1,0,100,0,0
40201,-106.1827,4,1,0,100,0,0
40286,-104.8117,4,1,0,100,0,0
40372,-103.4283,4,1,0,100,0,0
40457,-102.06536,4,1,0,100,0,0
40542,-100.70752,4,1,0,100,0,0
40712,-98.0097,4,1,0,100,0,0
40883,-95.3243,4,1,0,100,0,0
40940,-94.43632,4,1,0,100,0,0
40997,-93.55214,4,1,0,100,0,0
41053,-92.68738,4,1,0,100,0,0
41139,-91.36718,4,1,0,100,0,0
41224,-90.07209,4,1,0,100,0,0
41281,-89.20927,4,1,0,100,0,0
41337,-88.36616,4,1,0,100,0,0
41394,-87.51278,4,1,0,100,0,0
41480,-86.234566,4,1,0,100,0,0
41565,-84.98264,4,1,0,100,0,0
41622,-84.14964,4,1,0,100,0,0
41678,-83.336464,4,1,0,100,0,0
41735,-82.514175,4,1,0,100,0,0
41820,-81.29824,4,1,0,100,0,0
41906,-80.080795,4,1,0,100,0,0
41962,-79.295074,4,1,0,100,0,0
42019,-78.50112,4,1,0,100,0,0
42076,-77.71304,4,1,0,100,0,0
42161,-76.548935,4,1,0,100,0,0
42247,-75.384796,4,1,0,100,0,0
42332,-74.24785,4,1,0,100,0,0
42417,-73.12462,4,1,0,100,0,0
42502,-72.015236,4,1,0,100,0,0
42587,-70.919785,4,1,0,100,0,0
42673,-69.82572,4,1,0,100,0,0
42758,-68.75856,4,1,0,100,0,0
42843,-67.70552,4,1,0,100,0,0
42928,-66.666664,4,1,0,100,0,0
42972,-68.9655172413793,4,1,0,100,0,0
43015,-71.4285683673471,4,1,0,100,0,0
43270,-62.4999976562501,4,1,0,100,0,0
43313,-64.5161290322581,4,1,0,100,0,0
43356,-66.6666666666667,4,1,0,100,0,0
43611,-71.41414,4,1,0,100,0,1
43677,-72.40257,4,1,0,100,0,1
43746,-73.41954,4,1,0,100,0,1
43814,-74.43573,4,1,0,100,0,1
43882,-75.465996,4,1,0,100,0,1
43950,-76.51051,4,1,0,100,0,1
44007,-77.397194,4,1,0,100,0,1
44064,-78.29415,4,1,0,100,0,1
44121,-79.20151,4,1,0,100,0,1
44206,-80.57415,4,1,0,100,0,1
44291,-81.97058,4,1,0,100,0,1
44376,-83.39121,4,1,0,100,0,1
44461,-84.83647,4,1,0,100,0,1
44547,-86.32422,4,1,0,100,0,1
44632,-87.8203,4,1,0,100,0,1
44717,-89.34232,4,1,0,100,0,1
44802,-90.89071,4,1,0,100,0,1
44973,-100.021996,4,1,0,100,0,1
45030,-98.776,4,1,0,100,0,1
45086,-97.56698,4,1,0,100,0,1
45143,-96.35158,4,1,0,100,0,1
45314,-92.79543,4,1,0,100,0,1
45356,-91.94226,4,1,0,100,0,1
45399,-91.07691,4,1,0,100,0,1
45484,-89.39021,4,1,0,100,0,1
45569,-87.73474,4,1,0,100,0,1
45655,-86.091,4,1,0,100,0,1
45697,-85.29947,4,1,0,100,0,1
45740,-84.49663,4,1,0,100,0,1
45825,-82.93179,4,1,0,100,0,1
45910,-81.395935,4,1,0,100,0,1
45996,-79.87095,4,1,0,100,0,1
46166,-76.939995,4,1,0,100,0,1
46337,-71.44316,4,1,0,100,0,1
46406,-72.5322,4,1,0,100,0,1
46474,-73.621704,4,1,0,100,0,1
46542,-74.72757,4,1,0,100,0,1
46610,-75.850044,4,1,0,100,0,1
46678,-76.98939,4,1,0,100,0,1
46735,-77.957596,4,1,0,100,0,1
46792,-78.93798,4,1,0,100,0,1
46849,-79.930695,4,1,0,100,0,1
46906,-80.93588,4,1,0,100,0,1
46962,-81.93575,4,1,0,100,0,1
47019,-82.96617,4,1,0,100,0,1
47190,-86.13582,4,1,0,100,0,1
47360,-89.40695,4,1,0,100,0,1
47445,-91.0888,4,1,0,100,0,1
47531,-92.822655,4,1,0,100,0,1
47616,-94.568756,4,1,0,100,0,1
47701,-96.347725,4,1,0,100,0,1
47758,-97.55938,4,1,0,100,0,1
47815,-98.78627,4,1,0,100,0,1
47872,-100.028595,4,1,0,100,0,1
48042,-111.146416,4,1,0,100,0,1
48212,-104.94446,4,1,0,100,0,1
48383,-99.0551,4,1,0,100,0,1
48426,-97.6269,4,1,0,100,0,1
48553,-93.52784,4,1,0,100,0,1
48596,-92.17932,4,1,0,100,0,1
48724,-88.27916,4,1,0,100,0,1
48809,-85.78082,4,1,0,100,0,1
48894,-83.35319,4,1,0,100,0,1
49065,-71.44316,4,1,0,100,0,1
49133,-72.21118,4,1,0,100,0,1
49201,-72.98747,4,1,0,100,0,1
49269,-73.7721,4,1,0,100,0,1
49337,-74.56516,4,1,0,100,0,1
49406,-75.37862,4,1,0,100,0,1
49462,-76.04531,4,1,0,100,0,1
49519,-76.72999,4,1,0,100,0,1
49576,-77.420815,4,1,0,100,0,1
49661,-78.46257,4,1,0,100,0,1
49747,-79.53085,4,1,0,100,0,1
49832,-80.601,4,1,0,100,0,1
49917,-81.68555,4,1,0,100,0,1
50087,-83.89862,4,1,0,100,0,1
50173,-85.04092,4,1,0,100,0,1
50258,-86.185196,4,1,0,100,0,1
50343,-87.34489,4,1,0,100,0,1
50428,-88.52018,4,1,0,100,0,1
50485,-89.31717,4,1,0,100,0,1
50542,-90.12133,4,1,0,100,0,1
50599,-90.932724,4,1,0,100,0,1
50769,-100.028595,4,1,0,100,0,1
50855,-97.4167,4,1,0,100,0,1
50897,-96.16603,4,1,0,100,0,1
50940,-94.902214,4,1,0,100,0,1
51025,-92.45261,4,1,0,100,0,1
51110,-90.066246,4,1,0,100,0,1
51195,-87.74148,4,1,0,100,0,1
51238,-86.58837,4,1,0,100,0,1
51281,-85.45043,4,1,0,100,0,1
51366,-83.2448,4,1,0,100,0,1
51451,-81.09611,4,1,0,100,0,1
51536,-79.00288,4,1,0,100,0,1
51622,-76.939995,4,1,0,100,0,1
51792,-71.44316,4,1,0,100,0,1
51860,-72.517006,4,1,0,100,0,1
51928,-73.606995,4,1,0,100,0,1
51997,-74.72977,4,1,0,100,0,1
52065,-75.85301,4,1,0,100,0,1
52133,-76.99314,4,1,0,100,0,1
52190,-77.962036,4,1,0,100,0,1
52247,-78.943115,4,1,0,100,0,1
52303,-79.91901,4,1,0,100,0,1
52360,-80.92471,4,1,0,100,0,1
52417,-81.94308,4,1,0,100,0,1
52474,-82.97426,4,1,0,100,0,1
52644,-86.12742,4,1,0,100,0,1
52815,-89.42003,4,1,0,100,0,1
52900,-91.10323,4,1,0,100,0,1
52985,-92.81812,4,1,0,100,0,1
53070,-94.5653,4,1,0,100,0,1
53156,-96.36651,4,1,0,100,0,1
53212,-97.55779,4,1,0,100,0,1
53269,-98.78547,4,1,0,100,0,1
53326,-100.028595,4,1,0,100,0,1
53497,-111.146416,4,1,0,100,0,1
53582,-108.00092,4,1,0,100,0,1
53667,-104.94446,4,1,0,100,0,1
53752,-101.97448,4,1,0,100,0,1
53837,-99.08856,4,1,0,100,0,1
53880,-97.659874,4,1,0,100,0,1
54008,-93.52784,4,1,0,100,0,1
54051,-92.17932,4,1,0,100,0,1
54178,-88.30898,4,1,0,100,0,1
54264,-85.78082,4,1,0,100,0,1
54349,-83.35319,4,1,0,100,0,1
54499,-71.41414,4,1,0,100,0,1
54567,-72.40257,4,1,0,100,0,1
54636,-73.41954,4,1,0,100,0,1
54704,-74.43573,4,1,0,100,0,1
54772,-75.465996,4,1,0,100,0,1
54840,-76.51051,4,1,0,100,0,1
54897,-77.397194,4,1,0,100,0,1
54954,-78.29415,4,1,0,100,0,1
55011,-79.20151,4,1,0,100,0,1
55096,-80.57415,4,1,0,100,0,1
55181,-81.97058,4,1,0,100,0,1
55266,-83.39121,4,1,0,100,0,1
55351,-84.83647,4,1,0,100,0,1
55437,-86.32422,4,1,0,100,0,1
55522,-87.8203,4,1,0,100,0,1
55607,-89.34232,4,1,0,100,0,1
55692,-90.89071,4,1,0,100,0,1
55863,-100.021996,4,1,0,100,0,1
55920,-98.776,4,1,0,100,0,1
55976,-97.56698,4,1,0,100,0,1
56033,-96.35158,4,1,0,100,0,1
56204,-92.79543,4,1,0,100,0,1
56246,-91.94226,4,1,0,100,0,1
56289,-91.07691,4,1,0,100,0,1
56374,-89.39021,4,1,0,100,0,1
56459,-87.73474,4,1,0,100,0,1
56545,-86.091,4,1,0,100,0,1
56587,-85.29947,4,1,0,100,0,1
56630,-84.49663,4,1,0,100,0,1
56715,-82.93179,4,1,0,100,0,1
56800,-81.395935,4,1,0,100,0,1
56886,-79.87095,4,1,0,100,0,1
57056,-76.939995,4,1,0,100,0,1
57227,-71.44316,4,1,0,100,0,1
57296,-72.5322,4,1,0,100,0,1
57364,-73.621704,4,1,0,100,0,1
57432,-74.72757,4,1,0,100,0,1
57500,-75.850044,4,1,0,100,0,1
57568,-76.98939,4,1,0,100,0,1
57625,-77.957596,4,1,0,100,0,1
57682,-78.93798,4,1,0,100,0,1
57739,-79.930695,4,1,0,100,0,1
57796,-80.93588,4,1,0,100,0,1
57852,-81.93575,4,1,0,100,0,1
57909,-82.96617,4,1,0,100,0,1
58080,-86.13582,4,1,0,100,0,1
58250,-89.40695,4,1,0,100,0,1
58335,-91.0888,4,1,0,100,0,1
58421,-92.822655,4,1,0,100,0,1
58506,-94.568756,4,1,0,100,0,1
58591,-96.347725,4,1,0,100,0,1
58648,-97.55938,4,1,0,100,0,1
58705,-98.78627,4,1,0,100,0,1
58762,-100.028595,4,1,0,100,0,1
58932,-111.146416,4,1,0,100,0,1
59102,-104.94446,4,1,0,100,0,1
59273,-99.0551,4,1,0,100,0,1
59316,-97.6269,4,1,0,100,0,1
59443,-93.52784,4,1,0,100,0,1
59486,-92.17932,4,1,0,100,0,1
59614,-88.27916,4,1,0,100,0,1
59699,-85.78082,4,1,0,100,0,1
59784,-83.35319,4,1,0,100,0,1
59955,-71.44316,4,1,0,100,0,1
60023,-72.21118,4,1,0,100,0,1
60091,-72.98747,4,1,0,100,0,1
60159,-73.7721,4,1,0,100,0,1
60227,-74.56516,4,1,0,100,0,1
60296,-75.37862,4,1,0,100,0,1
60352,-76.04531,4,1,0,100,0,1
60409,-76.72999,4,1,0,100,0,1
60466,-77.420815,4,1,0,100,0,1
60551,-78.46257,4,1,0,100,0,1
60637,-79.53085,4,1,0,100,0,1
60722,-80.601,4,1,0,100,0,1
60807,-81.68555,4,1,0,100,0,1
60977,-83.89862,4,1,0,100,0,1
61063,-85.04092,4,1,0,100,0,1
61148,-86.185196,4,1,0,100,0,1
61233,-87.34489,4,1,0,100,0,1
61318,-88.52018,4,1,0,100,0,1
61375,-89.31717,4,1,0,100,0,1
61432,-90.12133,4,1,0,100,0,1
61489,-90.932724,4,1,0,100,0,1
61659,-100.028595,4,1,0,100,0,1
61745,-97.4167,4,1,0,100,0,1
61787,-96.16603,4,1,0,100,0,1
61830,-94.902214,4,1,0,100,0,1
61915,-92.45261,4,1,0,100,0,1
62000,-90.066246,4,1,0,100,0,1
62085,-87.74148,4,1,0,100,0,1
62128,-86.58837,4,1,0,100,0,1
62171,-85.45043,4,1,0,100,0,1
62256,-83.2448,4,1,0,100,0,1
62341,-81.09611,4,1,0,100,0,1
62426,-79.00288,4,1,0,100,0,1
62512,-76.939995,4,1,0,100,0,1
62682,-71.44316,4,1,0,100,0,1
62750,-72.517006,4,1,0,100,0,1
62818,-73.606995,4,1,0,100,0,1
62887,-74.72977,4,1,0,100,0,1
62955,-75.85301,4,1,0,100,0,1
63023,-76.99314,4,1,0,100,0,1
63080,-77.962036,4,1,0,100,0,1
63137,-78.943115,4,1,0,100,0,1
63193,-79.91901,4,1,0,100,0,1
63250,-80.92471,4,1,0,100,0,1
63307,-81.94308,4,1,0,100,0,1
63364,-82.97426,4,1,0,100,0,1
63534,-86.12742,4,1,0,100,0,1
63705,-89.42003,4,1,0,100,0,1
63790,-91.10323,4,1,0,100,0,1
63875,-92.81812,4,1,0,100,0,1
63960,-94.5653,4,1,0,100,0,1
64046,-96.36651,4,1,0,100,0,1
64102,-97.55779,4,1,0,100,0,1
64159,-98.78547,4,1,0,100,0,1
64216,-100.028595,4,1,0,100,0,1
64406,-125.04469,4,1,0,100,0,1
64491,-122.74467,4,1,0,100,0,1
64576,-120.48695,4,1,0,100,0,1
64661,-118.27076,4,1,0,100,0,1
64746,-116.095345,4,1,0,100,0,1
64789,-115.010124,4,1,0,100,0,1
64917,-111.83938,4,1,0,100,0,1
64960,-110.79394,4,1,0,100,0,1
65087,-107.76295,4,1,0,100,0,1
65173,-105.757706,4,1,0,100,0,1
65258,-103.81244,4,1,0,100,0,1
65429,-111.146420875152,4,1,0,100,0,0
70286,-111.14642,4,1,0,100,0,0
70372,-109.471725,4,1,0,100,0,0
70457,-107.84131,4,1,0,100,0,0
70542,-106.23515,4,1,0,100,0,0
70627,-104.65294,4,1,0,100,0,0
70712,-103.09428,4,1,0,100,0,0
70798,-101.54091,4,1,0,100,0,0
70883,-100.0286,4,1,0,100,0,0
75741,-100.0286,4,1,0,100,0,0
75826,-101.79766,4,1,0,100,0,0
75911,-103.598015,4,1,0,100,0,0
75997,-105.45195,4,1,0,100,0,0
76082,-107.31693,4,1,0,100,0,0
76167,-109.2149,4,1,0,100,0,0
76252,-111.14642,4,1,0,100,0,0
76338,-90.9327266581978,4,1,0,100,0,0
85881,-90.932724,4,1,0,100,0,0
85966,-92.33956,4,1,0,100,0,0
86051,-93.768166,4,1,0,100,0,0
86137,-95.23608,4,1,0,100,0,0
86222,-96.70949,4,1,0,100,0,0
86307,-98.205696,4,1,0,100,0,0
86392,-99.72506,4,1,0,100,0,0
86478,-101.286224,4,1,0,100,0,0
86563,-102.85324,4,1,0,100,0,0
86648,-104.4445,4,1,0,100,0,0
86904,-109.38728,4,1,0,100,0,0
86989,-111.079636,4,1,0,100,0,0
87247,-125,4,1,0,100,0,0
87332,-124.99993,4,1,0,100,0,0
87417,-124.9995,4,1,0,100,0,0
87474,-124.99881,4,1,0,100,0,0
87531,-124.99765,4,1,0,100,0,0
87587,-124.99597,4,1,0,100,0,0
87758,-124.98636,4,1,0,100,0,0
87843,-124.978355,4,1,0,100,0,0
88014,-124.95388,4,1,0,100,0,0
88099,-124.93679,4,1,0,100,0,0
88269,-124.89095,4,1,0,100,0,0
88383,-124.85027,4,1,0,100,0,0
88497,-124.800606,4,1,0,100,0,0
88610,-124.741615,4,1,0,100,0,0
88667,-124.7079,4,1,0,100,0,0
88724,-124.6714,4,1,0,100,0,0
88781,-124.63198,4,1,0,100,0,0
88951,-124.49612,4,1,0,100,0,0
89122,-124.3296,4,1,0,100,0,0
89207,-124.234795,4,1,0,100,0,0
89377,-124.01962,4,1,0,100,0,0
89462,-123.89858,4,1,0,100,0,0
89633,-123.62633,4,1,0,100,0,0
89747,-123.42247,4,1,0,100,0,0
89860,-123.20196,4,1,0,100,0,0
89974,-122.96022,4,1,0,100,0,0
90059,-122.766975,4,1,0,100,0,0
90144,-122.56238,4,1,0,100,0,0
90315,-122.1153,4,1,0,100,0,0
90485,-121.622406,4,1,0,100,0,0
90570,-121.357315,4,1,0,100,0,0
90741,-120.78549,4,1,0,100,0,0
90826,-120.48175,4,1,0,100,0,0
90997,-119.83077,4,1,0,100,0,0
91110,-119.37093,4,1,0,100,0,0
91224,-118.88285,4,1,0,100,0,0
91337,-118.37489,4,1,0,100,0,0
91394,-118.10951,4,1,0,100,0,0
91451,-117.83797,4,1,0,100,0,0
91508,-117.56025,4,1,0,100,0,0
91678,-116.695335,4,1,0,100,0,0
91764,-116.23689,4,1,0,100,0,0
91849,-115.77006,4,1,0,100,0,0
91906,-115.449356,4,1,0,100,0,0
91962,-115.12832,4,1,0,100,0,0
92019,-114.79554,4,1,0,100,0,0
92105,-114.282,4,1,0,100,0,0
92190,-113.76098,4,1,0,100,0,0
92275,-113.2267,4,1,0,100,0,0
92360,-112.67932,4,1,0,100,0,0
92445,-112.11896,4,1,0,100,0,0
92502,-111.736,4,1,0,100,0,0
92559,-111.34734,4,1,0,100,0,0
92616,-110.953026,4,1,0,100,0,0
92701,-110.35467,4,1,0,100,0,0
92872,-109.1141,4,1,0,100,0,0
93042,-107.83366,4,1,0,100,0,0
93212,-106.508255,4,1,0,100,0,0
93298,-105.82136,4,1,0,100,0,0
93468,-104.43256,4,1,0,100,0,0
93553,-103.72341,4,1,0,100,0,0
93724,-102.26855,4,1,0,100,0,0
93837,-101.28758,4,1,0,100,0,0
93951,-100.28314,4,1,0,100,0,0
94065,-99.2647,4,1,0,100,0,0
94122,-98.75052,4,1,0,100,0,0
94178,-98.24227,4,1,0,100,0,0
94235,-97.72191,4,1,0,100,0,0
94406,-96.14367,4,1,0,100,0,0
94576,-94.5515,4,1,0,100,0,0
94661,-93.74772,4,1,0,100,0,0
94832,-92.11708,4,1,0,100,0,0
94917,-91.30055,4,1,0,100,0,0
95087,-89.65745,4,1,0,100,0,0
95201,-88.54934,4,1,0,100,0,0
95315,-87.43725,4,1,0,100,0,0
95428,-86.33183,4,1,0,100,0,0
95514,-85.489044,4,1,0,100,0,0
95599,-84.65514,4,1,0,100,0,0
95769,-82.986084,4,1,0,100,0,0
95940,-81.307755,4,1,0,100,0,0
96025,-80.47453,4,1,0,100,0,0
96195,-78.8117,4,1,0,100,0,0
96281,-77.97297,4,1,0,100,0,0
96451,-76.32131,4,1,0,100,0,0
96565,-75.21932,4,1,0,100,0,0
96678,-74.132164,4,1,0,100,0,0
96792,-73.04121,4,1,0,100,0,0
96877,-72.23192,4,1,0,100,0,0
96962,-71.42642,4,1,0,100,0,0
97048,-70.61555,4,1,0,100,0,0
97133,-69.81835,4,1,0,100,0,0
97218,-69.02559,4,1,0,100,0,0
97303,-68.23746,4,1,0,100,0,0
97389,-67.44495,4,1,0,100,0,0
97474,-66.666664,4,1,0,100,0,0
97517,-68.9655172413793,4,1,0,100,0,0
97560,-71.4285683673471,4,1,0,100,0,0
97816,-62.4999976562501,4,1,0,100,0,0
97858,-64.5161290322581,4,1,0,100,0,0
97901,-66.6666640000001,4,1,0,100,0,0
98157,-71.41414,4,1,0,100,0,1
98210,-72.40257,4,1,0,100,0,1
98279,-73.41954,4,1,0,100,0,1
98347,-74.43573,4,1,0,100,0,1
98415,-75.465996,4,1,0,100,0,1
98483,-76.51051,4,1,0,100,0,1
98540,-77.397194,4,1,0,100,0,1
98597,-78.29415,4,1,0,100,0,1
98654,-79.20151,4,1,0,100,0,1
98739,-80.57415,4,1,0,100,0,1
98824,-81.97058,4,1,0,100,0,1
98909,-83.39121,4,1,0,100,0,1
98994,-84.83647,4,1,0,100,0,1
99080,-86.32422,4,1,0,100,0,1
99165,-87.8203,4,1,0,100,0,1
99250,-89.34232,4,1,0,100,0,1
99335,-90.89071,4,1,0,100,0,1
99506,-100.021996,4,1,0,100,0,1
99563,-98.776,4,1,0,100,0,1
99619,-97.56698,4,1,0,100,0,1
99676,-96.35158,4,1,0,100,0,1
99847,-92.79543,4,1,0,100,0,1
99889,-91.94226,4,1,0,100,0,1
99932,-91.07691,4,1,0,100,0,1
100017,-89.39021,4,1,0,100,0,1
100102,-87.73474,4,1,0,100,0,1
100188,-86.091,4,1,0,100,0,1
100230,-85.29947,4,1,0,100,0,1
100273,-84.49663,4,1,0,100,0,1
100358,-82.93179,4,1,0,100,0,1
100443,-81.395935,4,1,0,100,0,1
100529,-79.87095,4,1,0,100,0,1
100699,-76.939995,4,1,0,100,0,1
100870,-71.44316,4,1,0,100,0,1
100939,-72.5322,4,1,0,100,0,1
101007,-73.621704,4,1,0,100,0,1
101075,-74.72757,4,1,0,100,0,1
101143,-75.850044,4,1,0,100,0,1
101211,-76.98939,4,1,0,100,0,1
101268,-77.957596,4,1,0,100,0,1
101325,-78.93798,4,1,0,100,0,1
101382,-79.930695,4,1,0,100,0,1
101439,-80.93588,4,1,0,100,0,1
101495,-81.93575,4,1,0,100,0,1
101552,-82.96617,4,1,0,100,0,1
101723,-86.13582,4,1,0,100,0,1
101893,-89.40695,4,1,0,100,0,1
101978,-91.0888,4,1,0,100,0,1
102064,-92.822655,4,1,0,100,0,1
102149,-94.568756,4,1,0,100,0,1
102234,-96.347725,4,1,0,100,0,1
102291,-97.55938,4,1,0,100,0,1
102348,-98.78627,4,1,0,100,0,1
102405,-100.028595,4,1,0,100,0,1
102575,-111.146416,4,1,0,100,0,1
102745,-104.94446,4,1,0,100,0,1
102916,-99.0551,4,1,0,100,0,1
102959,-97.6269,4,1,0,100,0,1
103086,-93.52784,4,1,0,100,0,1
103129,-92.17932,4,1,0,100,0,1
103257,-88.27916,4,1,0,100,0,1
103342,-85.78082,4,1,0,100,0,1
103427,-83.35319,4,1,0,100,0,1
103598,-71.44316,4,1,0,100,0,1
103666,-72.21118,4,1,0,100,0,1
103734,-72.98747,4,1,0,100,0,1
103802,-73.7721,4,1,0,100,0,1
103870,-74.56516,4,1,0,100,0,1
103939,-75.37862,4,1,0,100,0,1
103995,-76.04531,4,1,0,100,0,1
104052,-76.72999,4,1,0,100,0,1
104109,-77.420815,4,1,0,100,0,1
104194,-78.46257,4,1,0,100,0,1
104280,-79.53085,4,1,0,100,0,1
104365,-80.601,4,1,0,100,0,1
104450,-81.68555,4,1,0,100,0,1
104620,-83.89862,4,1,0,100,0,1
104706,-85.04092,4,1,0,100,0,1
104791,-86.185196,4,1,0,100,0,1
104876,-87.34489,4,1,0,100,0,1
104961,-88.52018,4,1,0,100,0,1
105018,-89.31717,4,1,0,100,0,1
105075,-90.12133,4,1,0,100,0,1
105132,-90.932724,4,1,0,100,0,1
105302,-100.028595,4,1,0,100,0,1
105388,-97.4167,4,1,0,100,0,1
105430,-96.16603,4,1,0,100,0,1
105473,-94.902214,4,1,0,100,0,1
105558,-92.45261,4,1,0,100,0,1
105643,-90.066246,4,1,0,100,0,1
105728,-87.74148,4,1,0,100,0,1
105771,-86.58837,4,1,0,100,0,1
105814,-85.45043,4,1,0,100,0,1
105899,-83.2448,4,1,0,100,0,1
105984,-81.09611,4,1,0,100,0,1
106069,-79.00288,4,1,0,100,0,1
106155,-76.939995,4,1,0,100,0,1
106325,-71.44316,4,1,0,100,0,1
106393,-72.517006,4,1,0,100,0,1
106461,-73.606995,4,1,0,100,0,1
106530,-74.72977,4,1,0,100,0,1
106598,-75.85301,4,1,0,100,0,1
106666,-76.99314,4,1,0,100,0,1
106723,-77.962036,4,1,0,100,0,1
106780,-78.943115,4,1,0,100,0,1
106836,-79.91901,4,1,0,100,0,1
106893,-80.92471,4,1,0,100,0,1
106950,-81.94308,4,1,0,100,0,1
107007,-82.97426,4,1,0,100,0,1
107177,-86.12742,4,1,0,100,0,1
107348,-89.42003,4,1,0,100,0,1
107433,-91.10323,4,1,0,100,0,1
107518,-92.81812,4,1,0,100,0,1
107603,-94.5653,4,1,0,100,0,1
107689,-96.36651,4,1,0,100,0,1
107745,-97.55779,4,1,0,100,0,1
107802,-98.78547,4,1,0,100,0,1
107859,-100.028595,4,1,0,100,0,1
108030,-111.146416,4,1,0,100,0,1
108115,-108.00092,4,1,0,100,0,1
108200,-104.94446,4,1,0,100,0,1
108285,-101.97448,4,1,0,100,0,1
108370,-99.08856,4,1,0,100,0,1
108413,-97.659874,4,1,0,100,0,1
108541,-93.52784,4,1,0,100,0,1
108584,-92.17932,4,1,0,100,0,1
108711,-88.30898,4,1,0,100,0,1
108797,-85.78082,4,1,0,100,0,1
108882,-83.35319,4,1,0,100,0,1
109032,-71.41414,4,1,0,100,0,1
109100,-72.40257,4,1,0,100,0,1
109169,-73.41954,4,1,0,100,0,1
109237,-74.43573,4,1,0,100,0,1
109305,-75.465996,4,1,0,100,0,1
109373,-76.51051,4,1,0,100,0,1
109430,-77.397194,4,1,0,100,0,1
109487,-78.29415,4,1,0,100,0,1
109544,-79.20151,4,1,0,100,0,1
109629,-80.57415,4,1,0,100,0,1
109714,-81.97058,4,1,0,100,0,1
109799,-83.39121,4,1,0,100,0,1
109884,-84.83647,4,1,0,100,0,1
109970,-86.32422,4,1,0,100,0,1
110055,-87.8203,4,1,0,100,0,1
110140,-89.34232,4,1,0,100,0,1
110225,-90.89071,4,1,0,100,0,1
110396,-100.021996,4,1,0,100,0,1
110453,-98.776,4,1,0,100,0,1
110509,-97.56698,4,1,0,100,0,1
110566,-96.35158,4,1,0,100,0,1
110737,-92.79543,4,1,0,100,0,1
110779,-91.94226,4,1,0,100,0,1
110822,-91.07691,4,1,0,100,0,1
110907,-89.39021,4,1,0,100,0,1
110992,-87.73474,4,1,0,100,0,1
111078,-86.091,4,1,0,100,0,1
111120,-85.29947,4,1,0,100,0,1
111163,-84.49663,4,1,0,100,0,1
111248,-82.93179,4,1,0,100,0,1
111333,-81.395935,4,1,0,100,0,1
111419,-79.87095,4,1,0,100,0,1
111589,-76.939995,4,1,0,100,0,1
111760,-71.44316,4,1,0,100,0,1
111829,-72.5322,4,1,0,100,0,1
111897,-73.621704,4,1,0,100,0,1
111965,-74.72757,4,1,0,100,0,1
112033,-75.850044,4,1,0,100,0,1
112101,-76.98939,4,1,0,100,0,1
112158,-77.957596,4,1,0,100,0,1
112215,-78.93798,4,1,0,100,0,1
112272,-79.930695,4,1,0,100,0,1
112329,-80.93588,4,1,0,100,0,1
112385,-81.93575,4,1,0,100,0,1
112442,-82.96617,4,1,0,100,0,1
112613,-86.13582,4,1,0,100,0,1
112783,-89.40695,4,1,0,100,0,1
112868,-91.0888,4,1,0,100,0,1
112954,-92.822655,4,1,0,100,0,1
113039,-94.568756,4,1,0,100,0,1
113124,-96.347725,4,1,0,100,0,1
113181,-97.55938,4,1,0,100,0,1
113238,-98.78627,4,1,0,100,0,1
113295,-100.028595,4,1,0,100,0,1
113465,-111.146416,4,1,0,100,0,1
113635,-104.94446,4,1,0,100,0,1
113806,-99.0551,4,1,0,100,0,1
113849,-97.6269,4,1,0,100,0,1
113976,-93.52784,4,1,0,100,0,1
114019,-92.17932,4,1,0,100,0,1
114147,-88.27916,4,1,0,100,0,1
114232,-85.78082,4,1,0,100,0,1
114317,-83.35319,4,1,0,100,0,1
114488,-71.44316,4,1,0,100,0,1
114556,-72.21118,4,1,0,100,0,1
114624,-72.98747,4,1,0,100,0,1
114692,-73.7721,4,1,0,100,0,1
114760,-74.56516,4,1,0,100,0,1
114829,-75.37862,4,1,0,100,0,1
114885,-76.04531,4,1,0,100,0,1
114942,-76.72999,4,1,0,100,0,1
114999,-77.420815,4,1,0,100,0,1
115084,-78.46257,4,1,0,100,0,1
115170,-79.53085,4,1,0,100,0,1
115255,-80.601,4,1,0,100,0,1
115340,-81.68555,4,1,0,100,0,1
115510,-83.89862,4,1,0,100,0,1
115596,-85.04092,4,1,0,100,0,1
115681,-86.185196,4,1,0,100,0,1
115766,-87.34489,4,1,0,100,0,1
115851,-88.52018,4,1,0,100,0,1
115908,-89.31717,4,1,0,100,0,1
115965,-90.12133,4,1,0,100,0,1
116022,-90.932724,4,1,0,100,0,1
116192,-100.028595,4,1,0,100,0,1
116278,-97.4167,4,1,0,100,0,1
116320,-96.16603,4,1,0,100,0,1
116363,-94.902214,4,1,0,100,0,1
116448,-92.45261,4,1,0,100,0,1
116533,-90.066246,4,1,0,100,0,1
116618,-87.74148,4,1,0,100,0,1
116661,-86.58837,4,1,0,100,0,1
116704,-85.45043,4,1,0,100,0,1
116789,-83.2448,4,1,0,100,0,1
116874,-81.09611,4,1,0,100,0,1
116959,-79.00288,4,1,0,100,0,1
117045,-76.939995,4,1,0,100,0,1
117215,-71.44316,4,1,0,100,0,1
117283,-72.517006,4,1,0,100,0,1
117351,-73.606995,4,1,0,100,0,1
117420,-74.72977,4,1,0,100,0,1
117488,-75.85301,4,1,0,100,0,1
117556,-76.99314,4,1,0,100,0,1
117613,-77.962036,4,1,0,100,0,1
117670,-78.943115,4,1,0,100,0,1
117726,-79.91901,4,1,0,100,0,1
117783,-80.92471,4,1,0,100,0,1
117840,-81.94308,4,1,0,100,0,1
117897,-82.97426,4,1,0,100,0,1
118067,-86.12742,4,1,0,100,0,1
118238,-89.42003,4,1,0,100,0,1
118323,-91.10323,4,1,0,100,0,1
118408,-92.81812,4,1,0,100,0,1
118493,-94.5653,4,1,0,100,0,1
118579,-96.36651,4,1,0,100,0,1
118635,-97.55779,4,1,0,100,0,1
118692,-98.78547,4,1,0,100,0,1
118749,-100.028595,4,1,0,100,0,1
118939,-125.04469,4,1,0,100,0,1
119024,-122.74467,4,1,0,100,0,1
119109,-120.48695,4,1,0,100,0,1
119194,-118.27076,4,1,0,100,0,1
119279,-116.095345,4,1,0,100,0,1
119322,-115.010124,4,1,0,100,0,1
119450,-111.83938,4,1,0,100,0,1
119493,-110.79394,4,1,0,100,0,1
119620,-107.76295,4,1,0,100,0,1
119706,-105.757706,4,1,0,100,0,1
119804,-103.81244,4,1,0,100,0,0
119847,-103.092783505155,4,1,0,100,0,0
119890,-102.040816326531,4,1,0,100,0,0
119961,-111.146420875152,4,1,0,100,0,0
121083,468.75,4,1,0,100,1,0
121083,-76.92308,4,1,0,100,0,0
121160,-77.76724,4,1,0,100,0,0
121238,-78.620674,4,1,0,100,0,0
121316,-79.48347,4,1,0,100,0,0
121433,-80.79544,4,1,0,100,0,0
121550,-82.12907,4,1,0,100,0,0
121609,-82.80991,4,1,0,100,0,0
121667,-83.48472,4,1,0,100,0,0
121785,-84.87461,4,1,0,100,0,0
121902,-86.27557,4,1,0,100,0,0
122019,-87.69966,4,1,0,100,0,0
122253,-90.61875,4,1,0,100,0,0
122371,-92.12742,4,1,0,100,0,0
122488,-93.6481,4,1,0,100,0,0
122605,-95.193886,4,1,0,100,0,0
122722,-96.765175,4,1,0,100,0,0
122839,-98.36241,4,1,0,100,0,0
122957,-100,4,1,0,100,0,0
123191,-83.333336,4,1,0,100,0,0
123308,-84.50874,4,1,0,100,0,0
123425,-85.70072,4,1,0,100,0,0
123484,-86.30818,4,1,0,100,0,0
123542,-86.90952,4,1,0,100,0,0
123660,-88.14593,4,1,0,100,0,0
123777,-89.38921,4,1,0,100,0,0
123894,-90.65003,4,1,0,100,0,0
123953,-91.292564,4,1,0,100,0,0
124011,-91.92864,4,1,0,100,0,0
124128,-93.22527,4,1,0,100,0,0
124246,-94.55153,4,1,0,100,0,0
124363,-95.88517,4,1,0,100,0,0
124597,-98.60913,4,1,0,100,0,0
124714,-100,4,1,0,100,0,0
124832,-76.92308,4,1,0,100,0,0
124910,-77.76724,4,1,0,100,0,0
124988,-78.620674,4,1,0,100,0,0
125066,-79.48347,4,1,0,100,0,0
125183,-80.79544,4,1,0,100,0,0
125300,-82.12907,4,1,0,100,0,0
125359,-82.80991,4,1,0,100,0,0
125417,-83.48472,4,1,0,100,0,0
125535,-84.87461,4,1,0,100,0,0
125593,-85.56624,4,1,0,100,0,0
125652,-86.27557,4,1,0,100,0,0
125769,-87.69966,4,1,0,100,0,0
126003,-90.61875,4,1,0,100,0,0
126121,-92.12742,4,1,0,100,0,0
126238,-93.6481,4,1,0,100,0,0
126355,-95.193886,4,1,0,100,0,0
126472,-96.765175,4,1,0,100,0,0
126589,-98.36241,4,1,0,100,0,0
126707,-100,4,1,0,100,0,0
126941,-111.111115,4,1,0,100,0,0
127058,-108.482765,4,1,0,100,0,0
127175,-105.91659,4,1,0,100,0,0
127292,-103.41112,4,1,0,100,0,0
127410,-100.94427,4,1,0,100,0,0
127527,-98.55641,4,1,0,100,0,0
127585,-97.393715,4,1,0,100,0,0
127644,-96.225044,4,1,0,100,0,0
127761,-93.94884,4,1,0,100,0,0
127878,-91.72646,4,1,0,100,0,0
127996,-89.53834,4,1,0,100,0,0
128113,-87.420296,4,1,0,100,0,0
128230,-85.352356,4,1,0,100,0,0
128347,-83.333336,4,1,0,100,0,0
128582,-76.92308,4,1,0,100,0,0
128660,-77.76724,4,1,0,100,0,0
128738,-78.620674,4,1,0,100,0,0
128816,-79.48347,4,1,0,100,0,0
128933,-80.79544,4,1,0,100,0,0
129050,-82.12907,4,1,0,100,0,0
129109,-82.80991,4,1,0,100,0,0
129167,-83.48472,4,1,0,100,0,0
129285,-84.87461,4,1,0,100,0,0
129402,-86.27557,4,1,0,100,0,0
129519,-87.69966,4,1,0,100,0,0
129753,-90.61875,4,1,0,100,0,0
129871,-92.12742,4,1,0,100,0,0
129988,-93.6481,4,1,0,100,0,0
130105,-95.193886,4,1,0,100,0,0
130222,-96.765175,4,1,0,100,0,0
130339,-98.36241,4,1,0,100,0,0
130457,-100,4,1,0,100,0,0
130691,-83.333336,4,1,0,100,0,0
130808,-84.6073,4,1,0,100,0,0
130925,-85.900734,4,1,0,100,0,0
130984,-86.56046,4,1,0,100,0,0
131042,-87.21394,4,1,0,100,0,0
131160,-88.558716,4,1,0,100,0,0
131277,-89.91256,4,1,0,100,0,0
131394,-91.2871,4,1,0,100,0,0
131453,-91.98819,4,1,0,100,0,0
131511,-92.68265,4,1,0,100,0,0
131628,-94.09954,4,1,0,100,0,0
131746,-95.55047,4,1,0,100,0,0
131863,-97.0112,4,1,0,100,0,0
131980,-98.49427,4,1,0,100,0,0
132097,-100,4,1,0,100,0,0
132332,-76.92308,4,1,0,100,0,0
132410,-77.76724,4,1,0,100,0,0
132488,-78.620674,4,1,0,100,0,0
132566,-79.48347,4,1,0,100,0,0
132683,-80.79544,4,1,0,100,0,0
132800,-82.12907,4,1,0,100,0,0
132859,-82.80991,4,1,0,100,0,0
132917,-83.48472,4,1,0,100,0,0
133035,-84.87461,4,1,0,100,0,0
133152,-86.27557,4,1,0,100,0,0
133269,-87.69966,4,1,0,100,0,0
133503,-90.61875,4,1,0,100,0,0
133621,-92.12742,4,1,0,100,0,0
133738,-93.6481,4,1,0,100,0,0
133855,-95.193886,4,1,0,100,0,0
133972,-96.765175,4,1,0,100,0,0
134089,-98.36241,4,1,0,100,0,0
134207,-100,4,1,0,100,0,0
134441,-111.111115,4,1,0,100,0,0
134558,-108.482765,4,1,0,100,0,0
134675,-105.91659,4,1,0,100,0,0
134792,-103.41112,4,1,0,100,0,0
134910,-100.94427,4,1,0,100,0,0
135027,-98.55641,4,1,0,100,0,0
135085,-97.393715,4,1,0,100,0,0
135144,-96.225044,4,1,0,100,0,0
135261,-93.94884,4,1,0,100,0,0
135378,-91.72646,4,1,0,100,0,0
135496,-89.53834,4,1,0,100,0,0
135613,-87.420296,4,1,0,100,0,0
135847,-83.333336,4,1,0,100,0,0
136082,-76.92308,4,1,0,100,0,0
136160,-77.31246,4,1,0,100,0,0
136238,-77.70383,4,1,0,100,0,0
136316,-78.09717,4,1,0,100,0,0
136433,-78.69091,4,1,0,100,0,0
136550,-79.28918,4,1,0,100,0,0
136609,-79.59258,4,1,0,100,0,0
136667,-79.89199,4,1,0,100,0,0
136785,-80.50459,4,1,0,100,0,0
136902,-81.116646,4,1,0,100,0,0
137019,-81.733345,4,1,0,100,0,0
137253,-82.98086,4,1,0,100,0,0
137371,-83.61714,4,1,0,100,0,0
137488,-84.25286,4,1,0,100,0,0
137566,-84.679344,4,1,0,100,0,0
137644,-85.108,4,1,0,100,0,0
137722,-85.538826,4,1,0,100,0,0
137839,-86.18914,4,1,0,100,0,0
137957,-86.85004,4,1,0,100,0,0
138191,-88.17564,4,1,0,100,0,0
138308,-88.846016,4,1,0,100,0,0
138425,-89.521484,4,1,0,100,0,0
138484,-89.864044,4,1,0,100,0,0
138542,-90.20209,4,1,0,100,0,0
138660,-90.893745,4,1,0,100,0,0
138777,-91.58478,4,1,0,100,0,0
138894,-92.281075,4,1,0,100,0,0
138953,-92.63419,4,1,0,100,0,0
139011,-92.98264,4,1,0,100,0,0
139128,-93.68957,4,1,0,100,0,0
139246,-94.407974,4,1,0,100,0,0
139363,-95.125725,4,1,0,100,0,0
139480,-95.84894,4,1,0,100,0,0
139597,-96.57764,4,1,0,100,0,0
139832,-98.05807,4,1,0,100,0,0
139910,-98.55444,4,1,0,100,0,0
139988,-99.05334,4,1,0,100,0,0
140066,-99.55474,4,1,0,100,0,0
140183,-100.31163,4,1,0,100,0,0
140300,-101.074265,4,1,0,100,0,0
140359,-101.46104,4,1,0,100,0,0
140417,-101.8427,4,1,0,100,0,0
140535,-102.62362,4,1,0,100,0,0
140652,-103.40383,4,1,0,100,0,0
140769,-104.18998,4,1,0,100,0,0
141003,-105.78025,4,1,0,100,0,0
141121,-106.59136,4,1,0,100,0,0
141238,-107.40174,4,1,0,100,0,0
141316,-107.945404,4,1,0,100,0,0
141394,-108.49184,4,1,0,100,0,0
141472,-109.04103,4,1,0,100,0,0
141589,-109.870026,4,1,0,100,0,0
141707,-110.7125,4,1,0,100,0,0
141941,-112.402336,4,1,0,100,0,0
142058,-113.25688,4,1,0,100,0,0
142175,-114.11794,4,1,0,100,0,0
142292,-114.98555,4,1,0,100,0,0
142410,-115.86724,4,1,0,100,0,0
142527,-116.748146,4,1,0,100,0,0
142585,-117.18731,4,1,0,100,0,0
142644,-117.635735,4,1,0,100,0,0
142761,-118.53009,4,1,0,100,0,0
142878,-119.43124,4,1,0,100,0,0
142996,-120.34702,4,1,0,100,0,0
143113,-121.26198,4,1,0,100,0,0
143347,-123.11282,4,1,0,100,0,0
143582,-125,4,1,0,100,0,0

[HitObjects]
298,142,10884,5,8,0:0:0:0:
298,153,10969,1,8,0:0:0:0:
301,154,11054,1,0,0:0:0:0:
300,154,11140,1,0,0:0:0:0:
298,154,11225,1,8,0:0:0:0:
296,155,11310,1,0,0:0:0:0:
297,156,11395,1,0,0:0:0:0:
296,155,11481,1,0,0:0:0:0:
297,156,11566,1,8,0:0:0:0:
297,156,11651,1,8,0:0:0:0:
297,156,11736,1,0,0:0:0:0:
301,155,11821,1,0,0:0:0:0:
301,155,11907,1,8,0:0:0:0:
298,153,11992,1,0,0:0:0:0:
301,154,12077,1,0,0:0:0:0:
300,154,12162,1,0,0:0:0:0:
298,154,12248,1,8,0:0:0:0:
297,156,12588,1,0,0:0:0:0:
297,156,12674,1,8,0:0:0:0:
297,161,12759,1,0,0:0:0:0:
297,161,12929,1,8,0:0:0:0:
295,161,13015,1,0,0:0:0:0:
274,130,13100,1,8,0:0:0:0:
289,167,13270,1,0,0:0:0:0:
289,167,13356,1,8,0:0:0:0:
289,167,13441,1,8,0:0:0:0:
288,167,13526,1,0,0:0:0:0:
288,167,13611,1,8,0:0:0:0:
305,138,13696,1,8,0:0:0:0:
296,149,13782,1,0,0:0:0:0:
305,159,13867,1,0,0:0:0:0:
297,161,13952,1,8,0:0:0:0:
295,161,14037,1,0,0:0:0:0:
301,157,14123,1,8,0:0:0:0:
295,157,14208,1,8,0:0:0:0:
301,157,14293,1,0,0:0:0:0:
295,157,14378,1,0,0:0:0:0:
285,158,14463,1,8,0:0:0:0:
285,158,14549,1,0,0:0:0:0:
285,158,14634,1,8,0:0:0:0:
285,158,14719,1,8,0:0:0:0:
286,158,14804,1,0,0:0:0:0:
286,158,14890,1,0,0:0:0:0:
286,158,14975,1,8,0:0:0:0:
289,159,15316,1,0,0:0:0:0:
295,157,15401,1,8,0:0:0:0:
285,158,15486,1,0,0:0:0:0:
285,158,15657,1,8,0:0:0:0:
285,158,15742,1,0,0:0:0:0:
286,158,15827,1,8,0:0:0:0:
286,158,15912,1,8,0:0:0:0:
286,158,15998,1,0,0:0:0:0:
290,158,16168,1,0,0:0:0:0:
289,159,16339,1,12,0:0:0:0:
289,164,16679,1,8,0:0:0:0:
289,164,16850,1,8,0:0:0:0:
290,164,17020,1,0,0:0:0:0:
290,158,17106,1,0,0:0:0:0:
290,158,17191,1,8,0:0:0:0:
289,159,17276,1,8,0:0:0:0:
289,159,17361,1,0,0:0:0:0:
289,164,17446,1,0,0:0:0:0:
289,164,17532,1,0,0:0:0:0:
289,164,17617,1,0,0:0:0:0:
289,164,17702,1,8,0:0:0:0:
291,154,18043,1,0,0:0:0:0:
292,151,18128,1,8,0:0:0:0:
293,149,18213,1,0,0:0:0:0:
292,149,18384,1,8,0:0:0:0:
292,147,18469,1,0,0:0:0:0:
291,148,18554,1,8,0:0:0:0:
291,148,18640,1,8,0:0:0:0:
291,148,18725,1,0,0:0:0:0:
263,135,18895,1,0,0:0:0:0:
282,151,18981,1,0,0:0:0:0:
292,130,19066,1,8,0:0:0:0:
286,134,19236,1,0,0:0:0:0:
286,134,19321,1,0,0:0:0:0:
287,129,19407,1,8,0:0:0:0:
280,128,19492,1,0,0:0:0:0:
283,126,19577,1,8,0:0:0:0:
287,129,19662,1,0,0:0:0:0:
283,126,19748,1,8,0:0:0:0:
283,125,19833,1,8,0:0:0:0:
283,126,19918,1,0,0:0:0:0:
283,125,20003,1,8,0:0:0:0:
283,125,20088,1,0,0:0:0:0:
283,125,20174,1,8,0:0:0:0:
283,125,20259,1,0,0:0:0:0:
290,122,20344,1,0,0:0:0:0:
292,122,20429,1,8,0:0:0:0:
286,114,20770,1,8,0:0:0:0:
288,106,20856,1,8,0:0:0:0:
292,102,20941,1,0,0:0:0:0:
288,106,21026,1,0,0:0:0:0:
292,102,21111,1,8,0:0:0:0:
288,106,21196,1,0,0:0:0:0:
288,106,21282,1,0,0:0:0:0:
288,106,21367,1,0,0:0:0:0:
288,106,21452,1,8,0:0:0:0:
288,105,21537,1,8,0:0:0:0:
291,106,21623,1,0,0:0:0:0:
293,107,21793,1,8,0:0:0:0:
309,104,21850,1,8,0:0:0:0:
308,105,21907,1,8,0:0:0:0:
308,105,21963,1,0,0:0:0:0:
288,106,22049,1,0,0:0:0:0:
292,102,22134,1,8,0:0:0:0:
277,103,22219,1,0,0:0:0:0:
279,101,22304,1,8,0:0:0:0:
279,101,22390,1,8,0:0:0:0:
279,101,22475,1,0,0:0:0:0:
279,101,22560,1,0,0:0:0:0:
278,102,22645,1,8,0:0:0:0:
278,102,22731,1,0,0:0:0:0:
278,102,22816,1,8,0:0:0:0:
278,102,22901,1,8,0:0:0:0:
278,102,22986,1,0,0:0:0:0:
278,102,23071,1,8,0:0:0:0:
278,102,23157,1,0,0:0:0:0:
279,101,23498,1,0,0:0:0:0:
279,101,23583,1,8,0:0:0:0:
285,90,23668,1,0,0:0:0:0:
285,90,23838,1,8,0:0:0:0:
285,90,23924,1,0,0:0:0:0:
280,83,24009,1,8,0:0:0:0:
272,90,24094,1,8,0:0:0:0:
271,91,24179,1,0,0:0:0:0:
271,90,24265,1,0,0:0:0:0:
270,91,24350,1,8,0:0:0:0:
272,90,24435,1,8,0:0:0:0:
276,89,24520,1,0,0:0:0:0:
276,90,24606,1,8,0:0:0:0:
276,89,24691,1,0,0:0:0:0:
276,89,24776,1,0,0:0:0:0:
276,90,24861,1,8,0:0:0:0:
285,90,24946,1,8,0:0:0:0:
272,90,25032,1,0,0:0:0:0:
272,90,25117,1,0,0:0:0:0:
278,89,25202,1,8,0:0:0:0:
278,89,25287,1,0,0:0:0:0:
278,89,25373,1,8,0:0:0:0:
276,89,25458,1,0,0:0:0:0:
276,89,25543,1,8,0:0:0:0:
281,94,25628,1,8,0:0:0:0:
284,96,25713,1,0,0:0:0:0:
287,95,25799,1,8,0:0:0:0:
276,90,25884,1,0,0:0:0:0:
293,90,26225,1,0,0:0:0:0:
298,86,26310,1,8,0:0:0:0:
298,86,26395,1,0,0:0:0:0:
298,86,26566,1,8,0:0:0:0:
298,86,26651,1,0,0:0:0:0:
298,86,26736,1,8,0:0:0:0:
298,86,26821,1,8,0:0:0:0:
301,85,26907,1,0,0:0:0:0:
300,87,27077,1,0,0:0:0:0:
301,85,27248,1,0,0:0:0:0:
298,86,27333,1,0,0:0:0:0:
305,84,27418,1,8,0:0:0:0:
303,77,27503,1,0,0:0:0:0:
305,84,27588,1,8,0:0:0:0:
298,86,27674,1,8,0:0:0:0:
304,87,27759,1,0,0:0:0:0:
301,85,27844,1,0,0:0:0:0:
307,82,27929,1,8,0:0:0:0:
300,87,28015,1,0,0:0:0:0:
300,87,28100,1,8,0:0:0:0:
301,85,28185,1,0,0:0:0:0:
298,86,28270,1,8,0:0:0:0:
305,83,28356,1,8,0:0:0:0:
305,84,28441,1,0,0:0:0:0:
303,77,28526,1,8,0:0:0:0:
305,84,28611,1,0,0:0:0:0:
301,96,28952,1,0,0:0:0:0:
300,87,29037,1,8,0:0:0:0:
300,87,29123,1,0,0:0:0:0:
298,86,29293,1,8,0:0:0:0:
298,86,29378,1,0,0:0:0:0:
297,83,29463,1,0,0:0:0:0:
296,83,29549,1,8,0:0:0:0:
296,83,29634,1,0,0:0:0:0:
297,83,29719,1,8,0:0:0:0:
285,90,29804,1,8,0:0:0:0:
286,86,29890,1,0,0:0:0:0:
287,85,29975,1,8,0:0:0:0:
287,88,30060,1,0,0:0:0:0:
287,88,30145,1,0,0:0:0:0:
291,87,30231,1,0,0:0:0:0:
291,87,30316,1,8,0:0:0:0:
291,87,30401,1,8,0:0:0:0:
291,87,30486,1,8,0:0:0:0:
296,83,30571,1,0,0:0:0:0:
289,94,30657,1,8,0:0:0:0:
295,93,30742,1,8,0:0:0:0:
295,93,30827,1,0,0:0:0:0:
296,91,30912,1,8,0:0:0:0:
296,91,30998,1,0,0:0:0:0:
297,94,31083,1,8,0:0:0:0:
296,91,31168,1,0,0:0:0:0:
291,87,31338,1,8,0:0:0:0:
312,89,31395,1,8,0:0:0:0:
308,91,31452,1,8,0:0:0:0:
308,91,31509,1,0,0:0:0:0:
311,94,31594,1,0,0:0:0:0:
311,94,31679,1,8,0:0:0:0:
314,92,31765,1,8,0:0:0:0:
314,92,31850,1,8,0:0:0:0:
314,92,31935,1,0,0:0:0:0:
313,92,32020,1,8,0:0:0:0:
323,90,32106,1,8,0:0:0:0:
316,91,32361,1,0,0:0:0:0:
330,86,32446,1,0,0:0:0:0:
311,94,32702,1,12,0:0:0:0:
313,92,33043,1,8,0:0:0:0:
302,91,33213,1,0,0:0:0:0:
306,91,33299,1,0,0:0:0:0:
316,91,33384,1,8,0:0:0:0:
311,94,33554,1,8,0:0:0:0:
311,94,33725,1,0,0:0:0:0:
313,92,33810,1,8,0:0:0:0:
313,92,33895,1,0,0:0:0:0:
313,92,34066,1,8,0:0:0:0:
309,90,34151,1,8,0:0:0:0:
315,89,34236,1,0,0:0:0:0:
316,91,34407,1,8,0:0:0:0:
311,94,34492,1,8,0:0:0:0:
311,94,34577,1,8,0:0:0:0:
311,94,34748,1,0,0:0:0:0:
313,92,34833,1,0,0:0:0:0:
309,103,35003,1,0,0:0:0:0:
309,103,35088,1,8,0:0:0:0:
309,103,35174,1,8,0:0:0:0:
309,103,35259,1,0,0:0:0:0:
309,103,35429,1,8,0:0:0:0:
308,103,35515,1,8,0:0:0:0:
308,103,35600,1,0,0:0:0:0:
308,102,35685,1,0,0:0:0:0:
308,102,35770,1,8,0:0:0:0:
309,103,35941,1,0,0:0:0:0:
309,103,36111,1,8,0:0:0:0:
314,111,36196,1,0,0:0:0:0:
309,103,36282,1,8,0:0:0:0:
314,111,36367,1,0,0:0:0:0:
315,114,36452,1,8,0:0:0:0:
315,114,36623,1,8,0:0:0:0:
315,114,36793,1,0,0:0:0:0:
309,103,36878,1,8,0:0:0:0:
309,103,36963,1,0,0:0:0:0:
310,116,37134,1,8,0:0:0:0:
309,117,37219,1,8,0:0:0:0:
309,115,37304,1,0,0:0:0:0:
314,111,37361,1,0,0:0:0:0:
286,120,37418,1,0,0:0:0:0:
303,111,37475,1,8,0:0:0:0:
310,103,37645,1,0,0:0:0:0:
310,103,37731,1,0,0:0:0:0:
306,104,37816,1,8,0:0:0:0:
309,103,37901,1,8,0:0:0:0:
309,103,37986,1,0,0:0:0:0:
308,108,38071,1,8,0:0:0:0:
308,108,38157,1,0,0:0:0:0:
309,115,38327,1,0,0:0:0:0:
308,108,38412,1,0,0:0:0:0:
303,111,38498,1,8,0:0:0:0:
310,103,38583,1,8,0:0:0:0:
310,103,38668,1,0,0:0:0:0:
310,103,38753,1,0,0:0:0:0:
324,96,38838,1,8,0:0:0:0:
324,96,38924,1,8,0:0:0:0:
323,103,39009,1,0,0:0:0:0:
320,86,39179,1,8,0:0:0:0:
317,86,39265,1,0,0:0:0:0:
306,98,39350,1,0,0:0:0:0:
305,99,39435,1,8,0:0:0:0:
305,99,39520,1,0,0:0:0:0:
310,103,39606,1,0,0:0:0:0:
317,93,39691,1,8,0:0:0:0:
324,96,39861,1,0,0:0:0:0:
324,96,39946,1,8,0:0:0:0:
323,103,40032,1,0,0:0:0:0:
324,99,40117,1,0,0:0:0:0:
323,97,40202,1,8,0:0:0:0:
323,97,40287,1,8,0:0:0:0:
323,97,40373,1,0,0:0:0:0:
323,97,40458,1,8,0:0:0:0:
322,101,40543,1,0,0:0:0:0:
322,101,40713,1,0,0:0:0:0:
324,96,40884,1,8,0:0:0:0:
324,96,40969,1,8,0:0:0:0:
323,103,41054,1,0,0:0:0:0:
322,86,41140,1,0,0:0:0:0:
313,103,41225,1,8,0:0:0:0:
336,90,41310,1,8,0:0:0:0:
333,93,41395,1,0,0:0:0:0:
320,89,41481,1,0,0:0:0:0:
313,103,41566,1,8,0:0:0:0:
333,93,41651,1,8,0:0:0:0:
333,93,41736,1,8,0:0:0:0:
320,89,41821,1,0,0:0:0:0:
312,102,41907,1,8,0:0:0:0:
328,87,41992,1,8,0:0:0:0:
327,86,42077,1,8,0:0:0:0:
322,86,42162,1,0,0:0:0:0:
323,94,42248,1,8,0:0:0:0:
324,93,42333,1,8,0:0:0:0:
323,94,42418,1,8,0:0:0:0:
320,89,42503,1,8,0:0:0:0:
324,92,42588,1,0,0:0:0:0:
324,93,42674,1,0,0:0:0:0:
324,92,42759,1,0,0:0:0:0:
320,89,42844,1,0,0:0:0:0:
328,87,42929,1,8,0:0:0:0:
328,87,42972,1,8,0:0:0:0:
331,89,43270,1,8,0:0:0:0:
331,89,43313,1,8,0:0:0:0:
324,106,43611,1,8,0:0:0:0:
329,87,43696,1,8,0:0:0:0:
330,88,43782,1,0,0:0:0:0:
320,89,43867,1,0,0:0:0:0:
331,98,43952,1,8,0:0:0:0:
332,91,44009,1,8,0:0:0:0:
331,89,44066,1,8,0:0:0:0:
331,96,44123,1,0,0:0:0:0:
331,89,44208,1,0,0:0:0:0:
331,89,44293,1,8,0:0:0:0:
321,91,44463,1,0,0:0:0:0:
321,91,44549,1,0,0:0:0:0:
320,91,44634,1,8,0:0:0:0:
322,91,44719,1,0,0:0:0:0:
321,94,44804,1,0,0:0:0:0:
323,92,44975,1,8,0:0:0:0:
322,84,45032,1,8,0:0:0:0:
322,84,45088,1,0,0:0:0:0:
322,84,45145,1,8,0:0:0:0:
339,91,45316,1,0,0:0:0:0:
325,80,45401,1,0,0:0:0:0:
321,91,45486,1,8,0:0:0:0:
321,91,45571,1,0,0:0:0:0:
320,91,45657,1,8,0:0:0:0:
322,91,45742,1,8,0:0:0:0:
320,86,45827,1,0,0:0:0:0:
317,87,45912,1,0,0:0:0:0:
323,92,45998,1,8,0:0:0:0:
322,84,46168,1,0,0:0:0:0:
325,84,46338,1,8,0:0:0:0:
325,80,46424,1,8,0:0:0:0:
316,81,46509,1,0,0:0:0:0:
311,83,46594,1,0,0:0:0:0:
311,83,46679,1,8,0:0:0:0:
305,87,46736,1,8,0:0:0:0:
308,85,46793,1,0,0:0:0:0:
308,85,46850,1,0,0:0:0:0:
305,86,46935,1,8,0:0:0:0:
310,84,47020,1,0,0:0:0:0:
316,94,47191,1,0,0:0:0:0:
315,93,47361,1,8,0:0:0:0:
317,92,47446,1,8,0:0:0:0:
317,92,47532,1,0,0:0:0:0:
317,92,47617,1,0,0:0:0:0:
311,83,47702,1,8,0:0:0:0:
323,88,47759,1,0,0:0:0:0:
323,88,47816,1,0,0:0:0:0:
319,89,47873,1,8,0:0:0:0:
325,98,48043,1,0,0:0:0:0:
325,98,48213,1,0,0:0:0:0:
325,97,48384,1,8,0:0:0:0:
317,92,48554,1,8,0:0:0:0:
319,90,48725,1,0,0:0:0:0:
312,91,48810,1,8,0:0:0:0:
311,91,48895,1,0,0:0:0:0:
323,82,49066,1,8,0:0:0:0:
328,90,49151,1,0,0:0:0:0:
328,90,49236,1,0,0:0:0:0:
328,90,49321,1,0,0:0:0:0:
334,88,49407,1,8,0:0:0:0:
321,97,49463,1,8,0:0:0:0:
317,92,49520,1,0,0:0:0:0:
317,92,49577,1,0,0:0:0:0:
326,88,49662,1,8,0:0:0:0:
326,88,49748,1,0,0:0:0:0:
338,83,49833,1,8,0:0:0:0:
312,81,49918,1,0,0:0:0:0:
312,81,50088,1,8,0:0:0:0:
324,79,50174,1,8,0:0:0:0:
320,80,50259,1,0,0:0:0:0:
328,90,50344,1,8,0:0:0:0:
331,80,50429,1,0,0:0:0:0:
327,78,50486,1,0,0:0:0:0:
330,75,50543,1,8,0:0:0:0:
327,78,50600,1,0,0:0:0:0:
333,77,50770,1,8,0:0:0:0:
338,83,50856,1,0,0:0:0:0:
334,87,50941,1,8,0:0:0:0:
333,80,51026,1,8,0:0:0:0:
337,75,51111,1,0,0:0:0:0:
336,75,51196,1,8,0:0:0:0:
336,75,51282,1,0,0:0:0:0:
337,75,51367,1,0,0:0:0:0:
331,80,51452,1,8,0:0:0:0:
336,81,51537,1,8,0:0:0:0:
336,81,51623,1,0,0:0:0:0:
333,77,51793,1,8,0:0:0:0:
334,87,51878,1,8,0:0:0:0:
334,91,51963,1,0,0:0:0:0:
334,90,52049,1,0,0:0:0:0:
335,90,52134,1,8,0:0:0:0:
349,86,52191,1,8,0:0:0:0:
349,86,52248,1,8,0:0:0:0:
349,86,52304,1,0,0:0:0:0:
348,86,52390,1,0,0:0:0:0:
353,84,52475,1,8,0:0:0:0:
339,90,52645,1,0,0:0:0:0:
339,90,52816,1,0,0:0:0:0:
349,83,52901,1,0,0:0:0:0:
349,83,52986,1,8,0:0:0:0:
350,83,53071,1,0,0:0:0:0:
346,83,53157,1,8,0:0:0:0:
338,74,53213,1,8,0:0:0:0:
338,77,53270,1,0,0:0:0:0:
339,75,53327,1,0,0:0:0:0:
353,84,53498,1,0,0:0:0:0:
339,90,53583,1,0,0:0:0:0:
339,90,53668,1,8,0:0:0:0:
339,83,53753,1,0,0:0:0:0:
339,90,53838,1,8,0:0:0:0:
349,83,54009,1,8,0:0:0:0:
355,95,54179,1,0,0:0:0:0:
355,95,54265,1,8,0:0:0:0:
355,95,54350,1,0,0:0:0:0:
324,106,54520,1,8,0:0:0:0:
330,88,54606,1,0,0:0:0:0:
330,88,54691,1,8,0:0:0:0:
320,89,54776,1,8,0:0:0:0:
331,98,54861,1,0,0:0:0:0:
332,91,54918,1,0,0:0:0:0:
331,89,54975,1,0,0:0:0:0:
331,96,55032,1,8,0:0:0:0:
331,89,55117,1,0,0:0:0:0:
331,89,55202,1,8,0:0:0:0:
322,91,55287,1,8,0:0:0:0:
321,91,55372,1,0,0:0:0:0:
321,91,55458,1,0,0:0:0:0:
320,91,55543,1,8,0:0:0:0:
322,91,55628,1,0,0:0:0:0:
321,94,55713,1,8,0:0:0:0:
323,92,55884,1,0,0:0:0:0:
322,84,55941,1,0,0:0:0:0:
322,84,55997,1,0,0:0:0:0:
322,84,56054,1,8,0:0:0:0:
339,91,56225,1,0,0:0:0:0:
325,80,56310,1,0,0:0:0:0:
321,91,56395,1,8,0:0:0:0:
321,91,56480,1,0,0:0:0:0:
320,91,56566,1,8,0:0:0:0:
322,91,56651,1,8,0:0:0:0:
320,86,56736,1,0,0:0:0:0:
317,87,56821,1,0,0:0:0:0:
323,92,56907,1,8,0:0:0:0:
322,84,57077,1,0,0:0:0:0:
325,84,57247,1,8,0:0:0:0:
316,81,57333,1,8,0:0:0:0:
316,81,57418,1,8,0:0:0:0:
311,83,57503,1,0,0:0:0:0:
311,83,57588,1,8,0:0:0:0:
305,87,57645,1,8,0:0:0:0:
308,85,57702,1,8,0:0:0:0:
308,85,57759,1,0,0:0:0:0:
305,86,57844,1,0,0:0:0:0:
310,84,57929,1,8,0:0:0:0:
316,94,58100,1,0,0:0:0:0:
315,93,58270,1,8,0:0:0:0:
317,92,58355,1,8,0:0:0:0:
317,92,58441,1,0,0:0:0:0:
317,92,58526,1,0,0:0:0:0:
311,83,58611,1,8,0:0:0:0:
325,88,58668,1,0,0:0:0:0:
322,86,58725,1,0,0:0:0:0:
320,88,58782,1,8,0:0:0:0:
325,98,58952,1,0,0:0:0:0:
325,98,59122,1,0,0:0:0:0:
325,97,59293,1,8,0:0:0:0:
317,92,59463,1,8,0:0:0:0:
319,90,59634,1,0,0:0:0:0:
312,91,59719,1,8,0:0:0:0:
311,91,59804,1,0,0:0:0:0:
323,82,59975,1,8,0:0:0:0:
328,90,60060,1,0,0:0:0:0:
328,90,60145,1,0,0:0:0:0:
328,90,60231,1,0,0:0:0:0:
334,88,60316,1,8,0:0:0:0:
321,97,60372,1,8,0:0:0:0:
317,92,60429,1,8,0:0:0:0:
317,92,60486,1,0,0:0:0:0:
326,88,60571,1,0,0:0:0:0:
326,88,60657,1,8,0:0:0:0:
338,83,60742,1,8,0:0:0:0:
312,81,60827,1,0,0:0:0:0:
312,81,60997,1,8,0:0:0:0:
324,79,61083,1,8,0:0:0:0:
320,80,61168,1,0,0:0:0:0:
328,90,61253,1,8,0:0:0:0:
331,80,61338,1,0,0:0:0:0:
327,78,61395,1,8,0:0:0:0:
330,75,61452,1,8,0:0:0:0:
327,78,61509,1,0,0:0:0:0:
333,77,61679,1,8,0:0:0:0:
338,83,61765,1,0,0:0:0:0:
334,87,61850,1,8,0:0:0:0:
333,80,61935,1,8,0:0:0:0:
337,75,62020,1,0,0:0:0:0:
336,75,62105,1,8,0:0:0:0:
336,75,62191,1,0,0:0:0:0:
337,75,62276,1,0,0:0:0:0:
331,80,62361,1,8,0:0:0:0:
336,81,62446,1,8,0:0:0:0:
336,81,62532,1,0,0:0:0:0:
333,77,62702,1,8,0:0:0:0:
334,87,62787,1,8,0:0:0:0:
334,91,62873,1,0,0:0:0:0:
334,90,62958,1,0,0:0:0:0:
335,90,63043,1,8,0:0:0:0:
349,86,63100,1,8,0:0:0:0:
349,86,63157,1,8,0:0:0:0:
349,86,63213,1,0,0:0:0:0:
348,86,63299,1,0,0:0:0:0:
353,84,63384,1,8,0:0:0:0:
339,90,63554,1,0,0:0:0:0:
339,90,63725,1,0,0:0:0:0:
349,83,63810,1,0,0:0:0:0:
349,83,63895,1,8,0:0:0:0:
350,83,63980,1,0,0:0:0:0:
346,83,64066,1,8,0:0:0:0:
338,74,64122,1,8,0:0:0:0:
338,77,64179,1,0,0:0:0:0:
339,75,64236,1,0,0:0:0:0:
353,84,64407,1,0,0:0:0:0:
339,90,64492,1,0,0:0:0:0:
339,90,64577,1,8,0:0:0:0:
339,83,64662,1,0,0:0:0:0:
339,90,64747,1,8,0:0:0:0:
349,83,64918,1,8,0:0:0:0:
355,95,65088,1,0,0:0:0:0:
355,95,65174,1,8,0:0:0:0:
355,95,65259,1,0,0:0:0:0:
342,89,65429,1,0,0:0:0:0:
339,90,65600,1,0,0:0:0:0:
341,90,65685,1,0,0:0:0:0:
339,90,65770,1,8,0:0:0:0:
334,89,65941,1,0,0:0:0:0:
340,90,66026,1,8,0:0:0:0:
340,90,66196,1,8,0:0:0:0:
341,90,66282,1,0,0:0:0:0:
342,89,66367,1,0,0:0:0:0:
342,89,66452,1,8,0:0:0:0:
340,82,66623,1,0,0:0:0:0:
340,83,66708,1,0,0:0:0:0:
340,83,66963,1,0,0:0:0:0:
342,83,67049,1,0,0:0:0:0:
342,82,67134,1,8,0:0:0:0:
328,90,67304,1,0,0:0:0:0:
342,89,67390,1,8,0:0:0:0:
340,82,67560,1,8,0:0:0:0:
340,82,67645,1,0,0:0:0:0:
340,83,67731,1,0,0:0:0:0:
340,83,67816,1,8,0:0:0:0:
347,81,67986,1,0,0:0:0:0:
342,83,68071,1,0,0:0:0:0:
350,79,68157,1,0,0:0:0:0:
350,79,68327,1,0,0:0:0:0:
348,80,68412,1,0,0:0:0:0:
340,82,68498,1,8,0:0:0:0:
330,80,68668,1,0,0:0:0:0:
340,82,68753,1,8,0:0:0:0:
329,80,68924,1,8,0:0:0:0:
330,80,69009,1,0,0:0:0:0:
330,80,69094,1,0,0:0:0:0:
329,80,69179,1,8,0:0:0:0:
339,75,69350,1,0,0:0:0:0:
339,75,69435,1,0,0:0:0:0:
326,93,69691,1,0,0:0:0:0:
326,93,69776,1,0,0:0:0:0:
331,90,69861,1,8,0:0:0:0:
334,89,70032,1,0,0:0:0:0:
331,90,70117,1,8,0:0:0:0:
337,88,70287,1,8,0:0:0:0:
335,88,70373,1,0,0:0:0:0:
337,88,70458,1,0,0:0:0:0:
326,93,70543,1,8,0:0:0:0:
335,88,70628,1,8,0:0:0:0:
333,84,70713,1,0,0:0:0:0:
331,90,70799,1,8,0:0:0:0:
331,90,70884,1,0,0:0:0:0:
334,89,71054,1,8,0:0:0:0:
331,90,71140,1,8,0:0:0:0:
331,92,71225,1,0,0:0:0:0:
324,89,71395,1,8,0:0:0:0:
324,89,71481,1,0,0:0:0:0:
324,89,71651,1,0,0:0:0:0:
326,89,71736,1,8,0:0:0:0:
331,90,71821,1,8,0:0:0:0:
331,90,71907,1,0,0:0:0:0:
334,89,72077,1,8,0:0:0:0:
299,86,72162,1,8,0:0:0:0:
324,89,72418,1,8,0:0:0:0:
324,89,72503,1,8,0:0:0:0:
324,89,72588,1,0,0:0:0:0:
322,74,72759,1,8,0:0:0:0:
320,84,72844,1,0,0:0:0:0:
320,84,73015,1,0,0:0:0:0:
322,74,73100,1,8,0:0:0:0:
316,80,73185,1,8,0:0:0:0:
320,84,73270,1,0,0:0:0:0:
316,80,73441,1,0,0:0:0:0:
316,80,73526,1,0,0:0:0:0:
318,80,73611,1,8,0:0:0:0:
318,80,73782,1,8,0:0:0:0:
320,84,73867,1,8,0:0:0:0:
320,84,73952,1,0,0:0:0:0:
323,84,74123,1,8,0:0:0:0:
324,84,74208,1,0,0:0:0:0:
324,84,74378,1,0,0:0:0:0:
323,84,74463,1,8,0:0:0:0:
323,84,74549,1,8,0:0:0:0:
324,84,74634,1,0,0:0:0:0:
318,76,74890,1,0,0:0:0:0:
323,84,74975,1,8,0:0:0:0:
323,84,75145,1,8,0:0:0:0:
317,79,75316,1,0,0:0:0:0:
316,88,75486,1,8,0:0:0:0:
323,84,75571,1,0,0:0:0:0:
323,83,75742,1,0,0:0:0:0:
316,88,75827,1,8,0:0:0:0:
316,88,75912,1,8,0:0:0:0:
323,84,75998,1,0,0:0:0:0:
315,89,76083,1,0,0:0:0:0:
315,89,76168,1,0,0:0:0:0:
312,90,76253,1,0,0:0:0:0:
312,90,76338,1,8,0:0:0:0:
316,88,76509,1,0,0:0:0:0:
323,83,76594,1,0,0:0:0:0:
323,83,76679,1,8,0:0:0:0:
316,88,76850,1,0,0:0:0:0:
325,87,76935,1,8,0:0:0:0:
319,90,77020,1,0,0:0:0:0:
325,87,77106,1,8,0:0:0:0:
315,89,77191,1,0,0:0:0:0:
321,87,77276,1,0,0:0:0:0:
323,83,77361,1,8,0:0:0:0:
316,88,77446,1,0,0:0:0:0:
323,75,77532,1,0,0:0:0:0:
314,90,77617,1,0,0:0:0:0:
323,83,77702,1,8,0:0:0:0:
324,87,77873,1,0,0:0:0:0:
325,87,78043,1,8,0:0:0:0:
325,87,78128,1,0,0:0:0:0:
321,87,78213,1,0,0:0:0:0:
323,83,78299,1,8,0:0:0:0:
323,83,78384,1,0,0:0:0:0:
325,87,78469,1,8,0:0:0:0:
332,85,78554,1,0,0:0:0:0:
325,87,78725,1,8,0:0:0:0:
324,85,78810,1,8,0:0:0:0:
324,87,78895,1,0,0:0:0:0:
325,87,78981,1,8,0:0:0:0:
327,80,79066,1,0,0:0:0:0:
328,80,79236,1,0,0:0:0:0:
323,83,79321,1,0,0:0:0:0:
328,77,79407,1,8,0:0:0:0:
332,85,79577,1,0,0:0:0:0:
328,77,79662,1,8,0:0:0:0:
325,87,79748,1,0,0:0:0:0:
328,77,79833,1,8,0:0:0:0:
331,88,79918,1,0,0:0:0:0:
333,83,80003,1,0,0:0:0:0:
328,77,80088,1,8,0:0:0:0:
324,98,80174,1,8,0:0:0:0:
328,80,80259,1,0,0:0:0:0:
332,80,80344,1,0,0:0:0:0:
328,77,80429,1,8,0:0:0:0:
332,85,80600,1,0,0:0:0:0:
328,77,80770,1,8,0:0:0:0:
329,93,80856,1,0,0:0:0:0:
331,88,80941,1,0,0:0:0:0:
328,77,81026,1,8,0:0:0:0:
329,93,81111,1,0,0:0:0:0:
328,77,81196,1,8,0:0:0:0:
329,93,81282,1,0,0:0:0:0:
328,77,81452,1,8,0:0:0:0:
329,94,81537,1,8,0:0:0:0:
328,86,81623,1,0,0:0:0:0:
329,91,81708,1,8,0:0:0:0:
328,77,81793,1,0,0:0:0:0:
330,77,81963,1,8,0:0:0:0:
330,77,82049,1,8,0:0:0:0:
328,77,82134,1,0,0:0:0:0:
325,86,82304,1,8,0:0:0:0:
328,77,82390,1,0,0:0:0:0:
325,86,82475,1,8,0:0:0:0:
328,77,82560,1,0,0:0:0:0:
328,86,82645,1,8,0:0:0:0:
329,91,82731,1,8,0:0:0:0:
328,77,82816,1,0,0:0:0:0:
329,86,82901,1,0,0:0:0:0:
329,86,82986,1,8,0:0:0:0:
329,86,83071,1,8,0:0:0:0:
329,89,83157,1,0,0:0:0:0:
331,89,83327,1,8,0:0:0:0:
328,77,83498,1,0,0:0:0:0:
339,82,83583,1,8,0:0:0:0:
339,82,83668,1,8,0:0:0:0:
328,77,83753,1,0,0:0:0:0:
339,83,83838,1,8,0:0:0:0:
328,77,83924,1,0,0:0:0:0:
337,83,84009,1,8,0:0:0:0:
328,77,84179,1,0,0:0:0:0:
340,81,84265,1,0,0:0:0:0:
340,81,84350,1,8,0:0:0:0:
340,81,84435,1,8,0:0:0:0:
328,77,84520,1,0,0:0:0:0:
339,82,84606,1,8,0:0:0:0:
340,79,84691,1,8,0:0:0:0:
340,79,84776,1,8,0:0:0:0:
328,77,84861,1,0,0:0:0:0:
339,83,84946,1,8,0:0:0:0:
337,83,85032,1,8,0:0:0:0:
328,77,85117,1,0,0:0:0:0:
340,83,85202,1,8,0:0:0:0:
328,77,85287,1,0,0:0:0:0:
340,81,85373,1,8,0:0:0:0:
340,81,85458,1,8,0:0:0:0:
328,77,85543,1,0,0:0:0:0:
336,67,85628,1,8,0:0:0:0:
337,67,85713,1,0,0:0:0:0:
328,77,85884,1,8,0:0:0:0:
328,77,85969,1,8,0:0:0:0:
328,77,86054,1,8,0:0:0:0:
328,77,86140,1,8,0:0:0:0:
328,77,86225,1,0,0:0:0:0:
328,77,86310,1,0,0:0:0:0:
328,77,86395,1,0,0:0:0:0:
328,77,86481,1,0,0:0:0:0:
328,77,86566,1,8,0:0:0:0:
328,77,86651,1,8,0:0:0:0:
328,77,86907,1,0,0:0:0:0:
328,77,86992,1,0,0:0:0:0:
292,111,87248,1,8,0:0:0:0:
314,73,87333,1,8,0:0:0:0:
339,68,87418,1,0,0:0:0:0:
333,92,87503,1,0,0:0:0:0:
334,91,87588,1,8,0:0:0:0:
328,77,87759,1,0,0:0:0:0:
326,87,87844,1,8,0:0:0:0:
326,87,88015,1,8,0:0:0:0:
332,78,88100,1,0,0:0:0:0:
326,86,88270,1,8,0:0:0:0:
328,97,88384,1,0,0:0:0:0:
333,92,88498,1,0,0:0:0:0:
341,86,88611,1,8,0:0:0:0:
329,87,88782,1,0,0:0:0:0:
326,87,88952,1,8,0:0:0:0:
326,86,89123,1,0,0:0:0:0:
326,86,89208,1,8,0:0:0:0:
326,87,89378,1,8,0:0:0:0:
326,85,89463,1,0,0:0:0:0:
326,87,89634,1,8,0:0:0:0:
329,85,89748,1,0,0:0:0:0:
326,87,89861,1,0,0:0:0:0:
337,80,89975,1,8,0:0:0:0:
340,79,90060,1,8,0:0:0:0:
326,86,90145,1,0,0:0:0:0:
326,87,90316,1,8,0:0:0:0:
326,85,90486,1,0,0:0:0:0:
326,87,90571,1,8,0:0:0:0:
326,87,90742,1,8,0:0:0:0:
326,87,90827,1,0,0:0:0:0:
326,87,90998,1,8,0:0:0:0:
326,75,91111,1,0,0:0:0:0:
319,83,91225,1,0,0:0:0:0:
326,87,91338,1,8,0:0:0:0:
318,83,91509,1,0,0:0:0:0:
326,87,91679,1,8,0:0:0:0:
326,87,91765,1,8,0:0:0:0:
334,73,91850,1,0,0:0:0:0:
326,87,91907,1,0,0:0:0:0:
324,87,91963,1,0,0:0:0:0:
325,87,92020,1,8,0:0:0:0:
326,87,92106,1,8,0:0:0:0:
334,74,92191,1,0,0:0:0:0:
334,75,92276,1,0,0:0:0:0:
326,87,92361,1,8,0:0:0:0:
333,72,92446,1,0,0:0:0:0:
324,76,92532,1,8,0:0:0:0:
324,76,92617,1,0,0:0:0:0:
324,76,92702,1,8,0:0:0:0:
328,86,92873,1,8,0:0:0:0:
326,87,93043,1,0,0:0:0:0:
323,78,93213,1,8,0:0:0:0:
326,87,93299,1,0,0:0:0:0:
326,87,93469,1,0,0:0:0:0:
324,76,93554,1,8,0:0:0:0:
326,87,93725,1,0,0:0:0:0:
329,75,93838,1,8,0:0:0:0:
302,77,93952,1,8,0:0:0:0:
309,77,94066,1,0,0:0:0:0:
311,77,94236,1,8,0:0:0:0:
326,87,94407,1,0,0:0:0:0:
324,76,94577,1,8,0:0:0:0:
326,87,94662,1,0,0:0:0:0:
314,74,94833,1,0,0:0:0:0:
317,75,94918,1,8,0:0:0:0:
314,74,95088,1,0,0:0:0:0:
319,75,95202,1,8,0:0:0:0:
320,74,95316,1,8,0:0:0:0:
318,75,95429,1,0,0:0:0:0:
321,68,95515,1,8,0:0:0:0:
324,76,95600,1,8,0:0:0:0:
326,88,95770,1,0,0:0:0:0:
322,69,95941,1,8,0:0:0:0:
326,88,96026,1,0,0:0:0:0:
326,88,96196,1,0,0:0:0:0:
320,74,96282,1,8,0:0:0:0:
326,88,96452,1,0,0:0:0:0:
323,83,96566,1,8,0:0:0:0:
326,88,96679,1,8,0:0:0:0:
326,88,96793,1,0,0:0:0:0:
326,88,96878,1,0,0:0:0:0:
326,88,96963,1,0,0:0:0:0:
326,88,97049,1,0,0:0:0:0:
326,88,97134,1,8,0:0:0:0:
326,88,97219,1,8,0:0:0:0:
326,88,97304,1,0,0:0:0:0:
326,88,97390,1,0,0:0:0:0:
326,88,97475,1,8,0:0:0:0:
326,88,97517,1,8,0:0:0:0:
326,88,97816,1,8,0:0:0:0:
326,88,97858,1,8,0:0:0:0:
324,106,98157,1,8,0:0:0:0:
329,87,98242,1,8,0:0:0:0:
330,88,98328,1,0,0:0:0:0:
320,89,98413,1,0,0:0:0:0:
331,98,98498,1,8,0:0:0:0:
332,91,98555,1,8,0:0:0:0:
331,89,98612,1,8,0:0:0:0:
331,96,98669,1,0,0:0:0:0:
331,89,98754,1,0,0:0:0:0:
331,89,98839,1,8,0:0:0:0:
321,91,99009,1,0,0:0:0:0:
321,91,99095,1,0,0:0:0:0:
320,91,99180,1,8,0:0:0:0:
322,91,99265,1,0,0:0:0:0:
321,94,99350,1,0,0:0:0:0:
323,92,99521,1,8,0:0:0:0:
322,84,99578,1,8,0:0:0:0:
322,84,99634,1,0,0:0:0:0:
322,84,99691,1,8,0:0:0:0:
339,91,99862,1,0,0:0:0:0:
325,80,99947,1,0,0:0:0:0:
321,91,100032,1,8,0:0:0:0:
321,91,100117,1,0,0:0:0:0:
320,91,100203,1,8,0:0:0:0:
322,91,100288,1,8,0:0:0:0:
320,86,100373,1,0,0:0:0:0:
317,87,100458,1,0,0:0:0:0:
323,92,100544,1,8,0:0:0:0:
322,84,100714,1,0,0:0:0:0:
325,84,100884,1,8,0:0:0:0:
325,80,100970,1,8,0:0:0:0:
316,81,101055,1,0,0:0:0:0:
311,83,101140,1,0,0:0:0:0:
311,83,101225,1,8,0:0:0:0:
305,87,101282,1,8,0:0:0:0:
308,85,101339,1,0,0:0:0:0:
308,85,101396,1,0,0:0:0:0:
305,86,101481,1,8,0:0:0:0:
310,84,101566,1,0,0:0:0:0:
316,94,101737,1,0,0:0:0:0:
315,93,101907,1,8,0:0:0:0:
317,92,101992,1,8,0:0:0:0:
317,92,102078,1,0,0:0:0:0:
317,92,102163,1,0,0:0:0:0:
311,83,102248,1,8,0:0:0:0:
323,88,102305,1,0,0:0:0:0:
323,88,102362,1,0,0:0:0:0:
319,89,102419,1,8,0:0:0:0:
325,98,102589,1,0,0:0:0:0:
325,98,102759,1,0,0:0:0:0:
325,97,102930,1,8,0:0:0:0:
317,92,103100,1,8,0:0:0:0:
319,90,103271,1,0,0:0:0:0:
312,91,103356,1,8,0:0:0:0:
311,91,103441,1,0,0:0:0:0:
323,82,103612,1,8,0:0:0:0:
328,90,103697,1,0,0:0:0:0:
328,90,103782,1,0,0:0:0:0:
328,90,103867,1,0,0:0:0:0:
334,88,103953,1,8,0:0:0:0:
321,97,104009,1,8,0:0:0:0:
317,92,104066,1,0,0:0:0:0:
317,92,104123,1,0,0:0:0:0:
326,88,104208,1,8,0:0:0:0:
326,88,104294,1,0,0:0:0:0:
338,83,104379,1,8,0:0:0:0:
312,81,104464,1,0,0:0:0:0:
312,81,104634,1,8,0:0:0:0:
324,79,104720,1,8,0:0:0:0:
320,80,104805,1,0,0:0:0:0:
328,90,104890,1,8,0:0:0:0:
331,80,104975,1,0,0:0:0:0:
327,78,105032,1,0,0:0:0:0:
330,75,105089,1,8,0:0:0:0:
327,78,105146,1,0,0:0:0:0:
333,77,105316,1,8,0:0:0:0:
338,83,105402,1,0,0:0:0:0:
334,87,105487,1,8,0:0:0:0:
333,80,105572,1,8,0:0:0:0:
337,75,105657,1,0,0:0:0:0:
336,75,105742,1,8,0:0:0:0:
336,75,105828,1,0,0:0:0:0:
337,75,105913,1,0,0:0:0:0:
331,80,105998,1,8,0:0:0:0:
336,81,106083,1,8,0:0:0:0:
336,81,106169,1,0,0:0:0:0:
333,77,106339,1,8,0:0:0:0:
334,87,106424,1,8,0:0:0:0:
334,91,106509,1,0,0:0:0:0:
334,90,106595,1,0,0:0:0:0:
335,90,106680,1,8,0:0:0:0:
349,86,106737,1,8,0:0:0:0:
349,86,106794,1,8,0:0:0:0:
349,86,106850,1,0,0:0:0:0:
348,86,106936,1,0,0:0:0:0:
353,84,107021,1,8,0:0:0:0:
339,90,107191,1,0,0:0:0:0:
339,90,107362,1,0,0:0:0:0:
349,83,107447,1,0,0:0:0:0:
349,83,107532,1,8,0:0:0:0:
350,83,107617,1,0,0:0:0:0:
346,83,107703,1,8,0:0:0:0:
338,74,107759,1,8,0:0:0:0:
338,77,107816,1,0,0:0:0:0:
339,75,107873,1,0,0:0:0:0:
353,84,108044,1,0,0:0:0:0:
339,90,108129,1,0,0:0:0:0:
339,90,108214,1,8,0:0:0:0:
339,83,108299,1,0,0:0:0:0:
339,90,108384,1,8,0:0:0:0:
349,83,108555,1,8,0:0:0:0:
355,95,108725,1,0,0:0:0:0:
355,95,108811,1,8,0:0:0:0:
355,95,108896,1,0,0:0:0:0:
324,106,109066,1,8,0:0:0:0:
330,88,109152,1,0,0:0:0:0:
330,88,109237,1,8,0:0:0:0:
320,89,109322,1,8,0:0:0:0:
331,98,109407,1,0,0:0:0:0:
332,91,109464,1,0,0:0:0:0:
331,89,109521,1,0,0:0:0:0:
331,96,109578,1,8,0:0:0:0:
331,89,109663,1,0,0:0:0:0:
331,89,109748,1,8,0:0:0:0:
322,91,109833,1,8,0:0:0:0:
321,91,109918,1,0,0:0:0:0:
321,91,110004,1,0,0:0:0:0:
320,91,110089,1,8,0:0:0:0:
322,91,110174,1,0,0:0:0:0:
321,94,110259,1,8,0:0:0:0:
323,92,110430,1,0,0:0:0:0:
322,84,110487,1,0,0:0:0:0:
322,84,110543,1,0,0:0:0:0:
322,84,110600,1,8,0:0:0:0:
339,91,110771,1,0,0:0:0:0:
325,80,110856,1,0,0:0:0:0:
321,91,110941,1,8,0:0:0:0:
321,91,111026,1,0,0:0:0:0:
320,91,111112,1,8,0:0:0:0:
322,91,111197,1,8,0:0:0:0:
320,86,111282,1,0,0:0:0:0:
317,87,111367,1,0,0:0:0:0:
323,92,111453,1,8,0:0:0:0:
322,84,111623,1,0,0:0:0:0:
325,84,111793,1,8,0:0:0:0:
316,81,111879,1,8,0:0:0:0:
316,81,111964,1,8,0:0:0:0:
311,83,112049,1,0,0:0:0:0:
311,83,112134,1,8,0:0:0:0:
305,87,112191,1,8,0:0:0:0:
308,85,112248,1,8,0:0:0:0:
308,85,112305,1,0,0:0:0:0:
305,86,112390,1,0,0:0:0:0:
310,84,112475,1,8,0:0:0:0:
316,94,112646,1,0,0:0:0:0:
315,93,112816,1,8,0:0:0:0:
317,92,112901,1,8,0:0:0:0:
317,92,112987,1,0,0:0:0:0:
317,92,113072,1,0,0:0:0:0:
311,83,113157,1,8,0:0:0:0:
325,88,113214,1,0,0:0:0:0:
322,86,113271,1,0,0:0:0:0:
320,88,113328,1,8,0:0:0:0:
325,98,113498,1,0,0:0:0:0:
325,98,113668,1,0,0:0:0:0:
325,97,113839,1,8,0:0:0:0:
317,92,114009,1,8,0:0:0:0:
319,90,114180,1,0,0:0:0:0:
312,91,114265,1,8,0:0:0:0:
311,91,114350,1,0,0:0:0:0:
323,82,114521,1,8,0:0:0:0:
328,90,114606,1,0,0:0:0:0:
328,90,114691,1,0,0:0:0:0:
328,90,114777,1,0,0:0:0:0:
334,88,114862,1,8,0:0:0:0:
321,97,114918,1,8,0:0:0:0:
317,92,114975,1,8,0:0:0:0:
317,92,115032,1,0,0:0:0:0:
326,88,115117,1,0,0:0:0:0:
326,88,115203,1,8,0:0:0:0:
338,83,115288,1,8,0:0:0:0:
312,81,115373,1,0,0:0:0:0:
312,81,115543,1,8,0:0:0:0:
324,79,115629,1,8,0:0:0:0:
320,80,115714,1,0,0:0:0:0:
328,90,115799,1,8,0:0:0:0:
331,80,115884,1,0,0:0:0:0:
327,78,115941,1,8,0:0:0:0:
330,75,115998,1,8,0:0:0:0:
327,78,116055,1,0,0:0:0:0:
333,77,116225,1,8,0:0:0:0:
338,83,116311,1,0,0:0:0:0:
334,87,116396,1,8,0:0:0:0:
333,80,116481,1,8,0:0:0:0:
337,75,116566,1,0,0:0:0:0:
336,75,116651,1,8,0:0:0:0:
336,75,116737,1,0,0:0:0:0:
337,75,116822,1,0,0:0:0:0:
331,80,116907,1,8,0:0:0:0:
336,81,116992,1,8,0:0:0:0:
336,81,117078,1,0,0:0:0:0:
333,77,117248,1,8,0:0:0:0:
334,87,117333,1,8,0:0:0:0:
334,91,117419,1,0,0:0:0:0:
334,90,117504,1,0,0:0:0:0:
335,90,117589,1,8,0:0:0:0:
349,86,117646,1,8,0:0:0:0:
349,86,117703,1,8,0:0:0:0:
349,86,117759,1,0,0:0:0:0:
348,86,117845,1,0,0:0:0:0:
353,84,117930,1,8,0:0:0:0:
339,90,118100,1,0,0:0:0:0:
339,90,118271,1,0,0:0:0:0:
349,83,118356,1,0,0:0:0:0:
349,83,118441,1,8,0:0:0:0:
350,83,118526,1,0,0:0:0:0:
346,83,118612,1,8,0:0:0:0:
338,74,118668,1,8,0:0:0:0:
338,77,118725,1,0,0:0:0:0:
339,75,118782,1,0,0:0:0:0:
353,84,118953,1,0,0:0:0:0:
339,90,119038,1,0,0:0:0:0:
339,90,119123,1,8,0:0:0:0:
339,83,119208,1,0,0:0:0:0:
339,90,119293,1,8,0:0:0:0:
349,83,119464,1,8,0:0:0:0:
355,95,119634,1,0,0:0:0:0:
355,95,119720,1,8,0:0:0:0:
355,95,119805,1,0,0:0:0:0:
253,141,121083,5,0,0:0:0:0:
315,112,121161,1,0,0:0:0:0:
315,112,121239,1,0,0:0:0:0:
315,112,121317,1,8,0:0:0:0:
315,112,121434,1,0,0:0:0:0:
299,124,121551,1,8,0:0:0:0:
314,93,121610,1,8,0:0:0:0:
315,101,121668,1,0,0:0:0:0:
320,100,121786,1,8,0:0:0:0:
320,104,121903,1,0,0:0:0:0:
321,103,122020,1,8,0:0:0:0:
329,100,122254,1,8,0:0:0:0:
329,100,122372,1,8,0:0:0:0:
321,96,122489,1,0,0:0:0:0:
321,96,122606,1,0,0:0:0:0:
325,102,122723,1,0,0:0:0:0:
321,96,122840,1,0,0:0:0:0:
333,93,122958,1,8,0:0:0:0:
320,103,123192,1,0,0:0:0:0:
350,94,123309,1,0,0:0:0:0:
337,98,123426,1,8,0:0:0:0:
333,96,123485,1,8,0:0:0:0:
336,94,123543,1,8,0:0:0:0:
336,94,123661,1,0,0:0:0:0:
338,96,123778,1,0,0:0:0:0:
333,93,123895,1,8,0:0:0:0:
341,92,123954,1,8,0:0:0:0:
341,92,124012,1,8,0:0:0:0:
339,93,124129,1,0,0:0:0:0:
350,94,124247,1,0,0:0:0:0:
349,97,124364,1,8,0:0:0:0:
336,94,124598,1,0,0:0:0:0:
366,81,124715,1,0,0:0:0:0:
344,89,124833,1,8,0:0:0:0:
348,87,124911,1,8,0:0:0:0:
350,80,124989,1,8,0:0:0:0:
350,80,125067,1,0,0:0:0:0:
343,73,125184,1,0,0:0:0:0:
349,77,125301,1,8,0:0:0:0:
375,72,125360,1,8,0:0:0:0:
355,78,125418,1,8,0:0:0:0:
352,73,125536,1,0,0:0:0:0:
355,74,125653,1,0,0:0:0:0:
354,74,125770,1,8,0:0:0:0:
358,77,126004,1,8,0:0:0:0:
358,77,126122,1,8,0:0:0:0:
359,69,126239,1,0,0:0:0:0:
358,77,126356,1,0,0:0:0:0:
355,78,126473,1,0,0:0:0:0:
358,77,126590,1,0,0:0:0:0:
355,74,126708,1,8,0:0:0:0:
348,75,126942,1,0,0:0:0:0:
351,81,127059,1,0,0:0:0:0:
359,80,127176,1,8,0:0:0:0:
361,79,127293,1,0,0:0:0:0:
355,78,127411,1,8,0:0:0:0:
349,71,127528,1,0,0:0:0:0:
345,73,127586,1,0,0:0:0:0:
345,73,127645,1,8,0:0:0:0:
355,74,127762,1,0,0:0:0:0:
348,75,127879,1,8,0:0:0:0:
357,81,127997,1,0,0:0:0:0:
346,78,128114,1,8,0:0:0:0:
342,79,128231,1,8,0:0:0:0:
342,79,128348,1,0,0:0:0:0:
355,81,128583,1,0,0:0:0:0:
356,73,128661,1,0,0:0:0:0:
355,74,128739,1,8,0:0:0:0:
355,74,128817,1,8,0:0:0:0:
348,75,128934,1,0,0:0:0:0:
356,70,129051,1,8,0:0:0:0:
353,76,129110,1,8,0:0:0:0:
349,77,129168,1,8,0:0:0:0:
342,79,129286,1,0,0:0:0:0:
348,78,129403,1,0,0:0:0:0:
345,78,129520,1,8,0:0:0:0:
365,74,129754,1,8,0:0:0:0:
365,74,129872,1,8,0:0:0:0:
357,79,129989,1,0,0:0:0:0:
350,75,130106,1,0,0:0:0:0:
349,77,130223,1,0,0:0:0:0:
350,75,130340,1,0,0:0:0:0:
345,78,130458,1,8,0:0:0:0:
347,77,130692,1,8,0:0:0:0:
360,79,130809,1,8,0:0:0:0:
360,79,130926,1,0,0:0:0:0:
345,86,130985,1,0,0:0:0:0:
345,85,131043,1,0,0:0:0:0:
349,77,131161,1,8,0:0:0:0:
348,83,131278,1,8,0:0:0:0:
345,78,131395,1,0,0:0:0:0:
345,78,131454,1,0,0:0:0:0:
346,73,131512,1,0,0:0:0:0:
348,77,131629,1,8,0:0:0:0:
347,77,131747,1,0,0:0:0:0:
360,79,131864,1,8,0:0:0:0:
351,74,131981,1,0,0:0:0:0:
351,75,132098,1,8,0:0:0:0:
351,71,132333,1,8,0:0:0:0:
352,73,132411,1,8,0:0:0:0:
348,72,132489,1,0,0:0:0:0:
346,73,132567,1,0,0:0:0:0:
357,68,132684,1,8,0:0:0:0:
349,65,132801,1,0,0:0:0:0:
354,75,132860,1,0,0:0:0:0:
351,74,132918,1,0,0:0:0:0:
349,81,133036,1,8,0:0:0:0:
349,81,133153,1,8,0:0:0:0:
352,79,133270,1,0,0:0:0:0:
348,72,133504,1,8,0:0:0:0:
353,82,133622,1,0,0:0:0:0:
353,82,133739,1,8,0:0:0:0:
349,88,133856,1,8,0:0:0:0:
356,84,133973,1,0,0:0:0:0:
349,81,134090,1,0,0:0:0:0:
349,81,134208,1,8,0:0:0:0:
359,84,134442,1,0,0:0:0:0:
351,88,134559,1,8,0:0:0:0:
353,82,134676,1,0,0:0:0:0:
346,89,134793,1,0,0:0:0:0:
349,88,134911,1,8,0:0:0:0:
344,89,135028,1,0,0:0:0:0:
323,75,135086,1,0,0:0:0:0:
328,88,135145,1,8,0:0:0:0:
361,84,135262,1,8,0:0:0:0:
360,83,135379,1,0,0:0:0:0:
349,86,135497,1,0,0:0:0:0:
351,88,135614,1,0,0:0:0:0:
349,88,135848,1,8,0:0:0:0:
333,78,136083,1,0,0:0:0:0:
349,74,136161,1,0,0:0:0:0:
361,84,136239,1,0,0:0:0:0:
360,83,136317,1,8,0:0:0:0:
360,83,136434,1,8,0:0:0:0:
354,91,136551,1,0,0:0:0:0:
329,80,136610,1,0,0:0:0:0:
326,81,136668,1,0,0:0:0:0:
331,79,136786,1,8,0:0:0:0:
358,91,136903,1,0,0:0:0:0:
363,88,137020,1,8,0:0:0:0:
345,86,137254,1,0,0:0:0:0:
360,83,137372,1,0,0:0:0:0:
360,83,137489,1,8,0:0:0:0:
351,89,137567,1,8,0:0:0:0:
351,84,137645,1,8,0:0:0:0:
350,90,137723,1,0,0:0:0:0:
346,85,137840,1,0,0:0:0:0:
350,91,137958,1,8,0:0:0:0:
355,81,138192,1,0,0:0:0:0:
362,79,138309,1,0,0:0:0:0:
355,75,138426,1,8,0:0:0:0:
359,96,138485,1,8,0:0:0:0:
354,91,138543,1,8,0:0:0:0:
351,89,138661,1,0,0:0:0:0:
351,89,138778,1,0,0:0:0:0:
350,91,138895,1,8,0:0:0:0:
350,91,138954,1,8,0:0:0:0:
348,94,139012,1,8,0:0:0:0:
347,94,139129,1,0,0:0:0:0:
349,94,139247,1,0,0:0:0:0:
349,94,139364,1,8,0:0:0:0:
341,92,139481,1,0,0:0:0:0:
341,92,139598,1,8,0:0:0:0:
342,91,139833,1,8,0:0:0:0:
345,85,139911,1,0,0:0:0:0:
342,88,139989,1,0,0:0:0:0:
342,88,140067,1,8,0:0:0:0:
340,78,140184,1,0,0:0:0:0:
342,79,140301,1,8,0:0:0:0:
349,94,140360,1,8,0:0:0:0:
348,90,140418,1,8,0:0:0:0:
341,92,140536,1,0,0:0:0:0:
342,91,140653,1,0,0:0:0:0:
342,91,140770,1,8,0:0:0:0:
342,88,141004,1,0,0:0:0:0:
342,88,141122,1,0,0:0:0:0:
348,83,141239,1,8,0:0:0:0:
342,79,141317,1,8,0:0:0:0:
344,79,141395,1,0,0:0:0:0:
354,84,141473,1,8,0:0:0:0:
341,92,141590,1,0,0:0:0:0:
362,85,141708,1,8,0:0:0:0:
346,84,141942,1,8,0:0:0:0:
356,84,142059,1,8,0:0:0:0:
348,83,142176,1,0,0:0:0:0:
356,84,142293,1,0,0:0:0:0:
344,79,142411,1,8,0:0:0:0:
345,81,142528,1,0,0:0:0:0:
343,82,142586,1,0,0:0:0:0:
118,94,142645,1,8,0:0:0:0:
347,85,142762,1,0,0:0:0:0:
346,84,142879,1,8,0:0:0:0:
346,84,142997,1,0,0:0:0:0:
296,89,143114,1,12,0:0:0:0:
350,84,143348,1,4,0:0:0:0:
350,84,143584,1,4,0:0:0:0:
