osu file format v14

[General]
AudioFilename: audio.mp3
AudioLeadIn: 0
PreviewTime: 90431
Countdown: 0
SampleSet: Soft
StackLeniency: 0.7
Mode: 0
LetterboxInBreaks: 0
WidescreenStoryboard: 0

[Editor]
Bookmarks: 1470,2849,11125,12504,22159,23538,31814,34573,35952,45607,46987,56642,58021,67676,69056,78711,80090,89745,91125,100780,102159,110435,112504,113194,114573,117328,118707
DistanceSpacing: 1
BeatDivisor: 4
GridSize: 4
TimelineZoom: 1.4

[Metadata]
Title:No.3
TitleUnicode:No.3
Artist:0mega
ArtistUnicode:0mega
Creator:Naxess
Version:Hyper
Source:東方Project
Tags:Touhou ZUN 少女さとり ~ 3rd eye Satori Maiden Stage 4 Boss Komeiji Theme Subterranean Animism 東方アレンジ BMS Instrumental Omega Progressive Baroque
BeatmapID:1016902
BeatmapSetID:467572

[Difficulty]
HPDrainRate:6.3
CircleSize:3.8
OverallDifficulty:6.5
ApproachRate:8
SliderMultiplier:1.7
SliderTickRate:1

[Events]
//Background and Video events
0,0,"bg.jpg",0,0
//Break Periods
2,80286,88991
2,114769,115948
//Storyboard Layer 0 (Background)
//Storyboard Layer 1 (Fail)
//Storyboard Layer 2 (Pass)
//Storyboard Layer 3 (Foreground)
//Storyboard Sound Samples

[TimingPoints]
1466,344.827586206897,4,2,1,80,1,0
5862,-100,4,2,1,5,0,0
5948,-100,4,2,1,80,0,0
11121,-100,4,2,1,70,0,0
12500,-100,4,2,1,80,0,0
22155,-100,4,2,1,70,0,0
23534,-111.111111111111,4,2,1,80,0,0
28966,-111.111111111111,4,2,1,5,0,0
29052,-111.111111111111,4,2,1,80,0,0
31724,-111.111111111111,4,2,1,5,0,0
31810,-111.111111111111,4,2,1,80,0,0
32931,-111.111111111111,4,2,1,5,0,0
33017,-111.111111111111,4,2,1,80,0,0
33103,-111.111111111111,4,2,1,5,0,0
33190,-111.111111111111,4,2,1,80,0,0
34310,-111.111111111111,4,2,1,5,0,0
34397,-111.111111111111,4,2,1,80,0,0
34483,-111.111111111111,4,2,1,5,0,0
34569,-90.9090909090909,4,2,1,80,0,0
34569,-90.9090909090909,4,2,1,80,0,0
35948,-100,4,2,1,85,0,1
45603,-133.333333333333,4,2,1,75,0,1
46983,-100,4,2,1,85,0,1
56638,-133.333333333333,4,2,1,75,0,1
58017,-100,4,2,1,80,0,0
91121,-100,4,2,1,90,0,1
95259,-100,4,2,1,80,0,1
96638,-100,4,2,1,90,0,1
100776,-133.333333333333,4,2,1,80,0,1
101810,-100,4,2,1,90,0,1
102155,-86.9565217391304,4,2,1,95,0,1
104483,-86.9565217391304,4,2,1,5,0,1
104569,-86.9565217391304,4,2,1,95,0,1
106293,-133.333333333333,4,2,1,80,0,1
107672,-100,4,2,1,90,0,1
112500,-100,4,2,1,80,0,0

[Colours]
Combo1 : 192,213,187
Combo2 : 0,176,0
Combo3 : 250,231,165
Combo4 : 254,192,248

[HitObjects]
396,107,1466,5,4,0:0:0:0:
146,160,1983,1,4,0:0:0:0:
386,245,2500,1,2,0:0:0:0:
386,245,2586,1,2,0:0:0:0:
386,245,2672,1,2,0:0:0:0:
386,245,2759,1,2,0:0:0:0:
386,245,2845,6,0,L|295:299,1,85,2|0,0:0|3:0,0:0:0:0:
241,241,3190,2,0,L|332:187,1,85,0|0,0:0|3:0,0:0:0:0:
385,152,3534,2,0,P|331:159|262:72,1,170,2|0,0:0|0:0,0:0:0:0:
347,75,4052,1,0,3:0:0:0:
206,156,4224,6,0,L|131:201,1,85,2|0,0:0|3:0,0:0:0:0:
205,244,4569,2,0,L|280:289,1,85,0|0,0:0|3:0,0:0:0:0:
348,336,4914,2,0,P|289:316|222:338,2,127.5,2|0|0,0:0|0:0|0:0,0:0:0:0:
328,250,5603,6,0,P|320:203|359:134,1,127.5,2|0,0:0|0:0,0:0:0:0:
398,125,5948,2,0,P|412:166|400:208,1,85,0|0,0:0|3:0,0:0:0:0:
328,250,6293,2,0,L|281:270,3,42.5,2|0|0|0,0:0|0:0|0:0|0:0,0:0:0:0:
248,281,6638,1,2,0:0:0:0:
161,270,6810,1,2,0:0:0:0:
161,270,6897,1,2,0:0:0:0:
161,270,6983,6,0,P|174:223|154:177,1,85,6|0,0:0|3:0,0:0:0:0:
97,56,7328,2,0,P|84:96|95:137,1,85,0|0,0:0|0:0,0:0:0:0:
214,101,7672,2,0,L|261:87,1,42.5,6|0,0:0|0:0,0:0:0:0:
364,124,7931,2,0,L|324:137,1,42.5,6|0,0:0|0:0,0:0:0:0:
268,233,8190,2,0,L|309:221,1,42.5,6|0,0:0|0:0,0:0:0:0:
390,200,8362,6,0,P|373:246|392:292,1,85,2|0,0:0|3:0,0:0:0:0:
452,328,8707,2,0,P|469:282|450:236,1,85,0|0,0:0|3:0,0:0:0:0:
296,183,9052,2,0,P|235:182|145:249,1,170,2|0,0:0|0:0,0:0:0:0:
106,316,9569,1,0,3:0:0:0:
90,174,9741,6,0,L|82:86,1,85,2|0,0:0|3:0,0:0:0:0:
156,28,10086,2,0,L|164:113,1,85,0|0,0:0|3:0,0:0:0:0:
266,160,10431,1,2,0:0:0:0:
284,77,10603,1,0,3:0:0:0:
304,64,10690,1,0,0:0:0:0:
330,57,10776,2,0,P|358:55|378:63,3,42.5,0|0|0|0,0:0|0:0|0:0|0:0,0:0:0:0:
403,87,11121,6,0,P|434:146|384:230,1,170,2|0,0:0|0:0,0:0:0:0:
275,263,11638,1,0,3:0:0:0:
246,264,11724,1,0,0:0:0:0:
221,259,11810,2,0,P|164:223|157:182,1,85,2|0,0:0|0:0,0:0:0:0:
155,124,12155,1,2,0:0:0:0:
94,64,12328,1,2,0:0:0:0:
175,41,12500,6,0,P|216:33|262:41,1,85,6|0,0:0|3:0,0:0:0:0:
297,56,12759,1,0,0:0:0:0:
334,75,12845,2,0,P|375:81|417:73,1,85,8|0,0:0|3:0,0:0:0:0:
364,153,13190,2,0,P|351:198|372:247,1,85,2|0,0:0|3:0,0:0:0:0:
429,284,13534,1,8,0:0:0:0:
354,325,13707,1,0,3:0:0:0:
354,325,13793,1,0,0:0:0:0:
353,325,13879,6,0,P|313:337|273:327,2,85,2|0|8,0:0|3:0|0:0,0:0:0:0:
316,247,14397,1,0,0:0:0:0:
316,247,14483,1,0,0:0:0:0:
316,247,14569,2,0,P|252:244|187:343,1,170,2|8,0:0|0:0,0:0:0:0:
187,320,15086,1,0,0:0:0:0:
131,204,15259,6,0,L|92:125,1,85,2|0,0:0|3:0,0:0:0:0:
140,57,15603,2,0,L|179:136,1,85,8|0,0:0|3:0,0:0:0:0:
224,61,15948,2,0,P|260:108|328:114,2,127.5,2|0|0,0:0|0:0|3:0,0:0:0:0:
369,50,16638,6,0,P|399:88|386:165,1,127.5,2|0,0:0|3:0,0:0:0:0:
350,183,16983,2,0,L|443:215,1,85,8|0,0:0|3:0,0:0:0:0:
442,295,17328,2,0,L|401:281,3,42.5,2|0|0|0,0:0|0:0|0:0|0:0,0:0:0:0:
361,269,17672,2,0,B|315:285|315:285|271:268,1,85,10|0,0:0|3:0,0:0:0:0:
163,215,18017,6,0,P|185:252|187:294,1,85,2|0,0:0|0:0,0:0:0:0:
79,208,18362,2,0,P|57:171|55:129,1,85,8|0,0:0|3:0,0:0:0:0:
73,90,18621,1,0,0:0:0:0:
107,62,18707,2,0,P|159:47|229:92,2,127.5,2|0|0,0:0|0:0|3:0,0:0:0:0:
229,162,19397,6,0,P|188:156|155:131,1,85,2|0,0:0|3:0,0:0:0:0:
298,111,19741,2,0,P|339:116|372:142,1,85,8|0,0:0|3:0,0:0:0:0:
390,259,20086,2,0,P|393:186|481:141,1,170,2|8,0:0|0:0,0:0:0:0:
467,225,20603,1,0,3:0:0:0:
467,225,20776,6,0,P|494:262|494:313,1,85,2|0,0:0|3:0,0:0:0:0:
424,344,21121,2,0,B|380:336|380:336|336:347,1,85,8|0,0:0|3:0,0:0:0:0:
264,308,21466,2,0,B|224:317|224:317|180:309,1,85,2|0,0:0|3:0,0:0:0:0:
115,255,21810,1,8,0:0:0:0:
107,235,21896,1,0,0:0:0:0:
104,214,21982,1,0,0:0:0:0:
107,194,22068,1,0,0:0:0:0:
117,175,22154,5,2,0:0:0:0:
256,192,22241,8,0,23190,0:0:0:0:
381,161,23534,6,0,L|343:121,2,38.2499988327027,2|0|0,0:0|0:0|0:0,0:0:0:0:
452,191,23879,2,0,L|394:254,1,76.4999976654053,0|0,0:0|0:0,0:0:0:0:
327,273,24224,1,0,0:0:0:0:
280,214,24397,1,0,0:0:0:0:
280,214,24569,2,0,B|241:204|241:204|205:218,1,76.4999976654053,8|0,0:0|3:0,0:0:0:0:
135,245,24914,5,2,0:0:0:0:
172,311,25086,1,0,3:0:0:0:
135,245,25259,2,0,L|96:164,1,76.4999976654053,8|0,0:0|0:0,0:0:0:0:
67,107,25603,1,0,0:0:0:0:
67,107,25776,2,0,L|124:105,1,38.2499988327027,0|0,0:0|3:0,0:0:0:0:
143,106,25948,2,0,L|213:53,1,76.4999976654053,8|0,0:0|3:0,0:0:0:0:
291,84,26293,6,0,L|232:129,2,50.9999984436036,2|0|0,0:0|3:0|0:0,0:0:0:0:
294,174,26638,2,0,P|348:164|401:205,2,114.749996498108,8|0|2,0:0|0:0|0:0,0:0:0:0:
334,239,27328,2,0,P|277:269|246:262,1,76.4999976654053,8|0,0:0|3:0,0:0:0:0:
193,249,27672,6,0,B|102:233|102:233|79:251,1,114.749996498108,2|2,0:0|0:0,0:0:0:0:
113,271,28017,2,0,L|145:180,1,76.4999976654053,8|0,0:0|3:0,0:0:0:0:
159,125,28362,1,2,0:0:0:0:
159,125,28448,1,0,0:0:0:0:
159,125,28534,1,2,0:0:0:0:
226,88,28707,2,0,P|286:71|345:94,1,114.749996498108,10|0,0:0|0:0,0:0:0:0:
364,158,29052,6,0,P|356:118|433:59,1,114.749996498108,2|0,0:0|0:0,0:0:0:0:
437,59,29397,1,8,0:0:0:0:
359,274,29914,1,2,0:0:0:0:
359,274,30086,2,0,L|218:298,1,114.749996498108,8|0,0:0|0:0,0:0:0:0:
208,301,30431,5,2,0:0:0:0:
208,301,30603,2,0,L|215:242,1,38.2499988327027,2|0,0:0|3:0,0:0:0:0:
216,224,30776,2,0,P|255:179|220:88,1,152.999995330811,8|0,0:0|0:0,0:0:0:0:
183,155,31293,1,2,0:0:0:0:
183,155,31466,2,0,L|324:179,1,114.749996498108,8|0,0:0|0:0,0:0:0:0:
333,182,31810,6,0,P|322:137|393:66,1,152.999995330811,2|8,0:0|0:0,0:0:0:0:
399,143,32328,2,0,P|410:188|339:259,1,152.999995330811,0|2,0:0|0:0,0:0:0:0:
265,256,32845,2,0,L|231:226,1,38.2499988327027,8|0,0:0|0:0,0:0:0:0:
148,247,33017,2,0,L|182:277,1,38.2499988327027,0|0,3:0|0:0,0:0:0:0:
271,255,33190,6,0,P|229:195|263:124,1,152.999995330811,2|8,0:0|0:0,0:0:0:0:
305,186,33707,2,0,P|333:119|291:59,1,152.999995330811,0|2,0:0|0:0,0:0:0:0:
257,127,34224,2,0,L|216:177,1,38.2499988327027,10|0,0:0|0:0,0:0:0:0:
148,148,34397,2,0,L|189:98,1,38.2499988327027,2|0,0:0|0:0,0:0:0:0:
264,123,34569,37,0,0:0:0:0:
256,192,34655,8,0,35603,0:0:0:0:
365,138,35948,22,0,P|278:102|209:137,1,170,2|8,0:0|0:0,0:0:0:0:
157,196,36466,1,0,3:0:0:0:
333,230,36638,2,0,P|368:251|383:290,1,85,2|0,0:0|3:0,0:0:0:0:
263,191,36983,2,0,P|227:170|213:131,1,85,8|0,0:0|3:0,0:0:0:0:
178,260,37328,6,0,L|154:358,1,85,2|0,0:0|0:0,0:0:0:0:
88,293,37672,2,0,L|112:195,1,85,8|0,0:0|3:0,0:0:0:0:
126,127,38017,2,0,B|169:99|169:99|217:99,1,85,2|0,0:0|3:0,0:0:0:0:
301,157,38362,1,8,0:0:0:0:
379,58,38534,1,0,3:0:0:0:
407,184,38707,6,0,L|428:270,1,85,2|0,0:0|3:0,0:0:0:0:
301,323,39052,1,8,0:0:0:0:
157,308,39224,1,0,3:0:0:0:
265,215,39397,2,0,L|332:157,1,85,2|0,0:0|3:0,0:0:0:0:
168,160,39741,2,0,L|79:160,1,85,8|0,0:0|3:0,0:0:0:0:
227,69,40086,6,0,P|264:64|330:160,1,170,2|8,0:0|0:0,0:0:0:0:
254,143,40603,1,0,3:0:0:0:
391,61,40776,2,0,P|407:100|412:142,1,85,2|0,0:0|3:0,0:0:0:0:
376,221,41121,1,8,0:0:0:0:
510,273,41293,1,0,3:0:0:0:
376,221,41466,6,0,P|317:214|274:240,1,85,2|0,0:0|3:0,0:0:0:0:
276,306,41810,1,8,0:0:0:0:
438,260,41983,2,0,P|449:215|429:168,2,85,0|2|0,3:0|0:0|3:0,0:0:0:0:
361,130,42500,2,0,P|350:85|370:38,1,85,8|0,0:0|3:0,0:0:0:0:
280,76,42845,6,0,P|231:84|181:69,1,85,2|0,0:0|3:0,0:0:0:0:
125,18,43190,1,8,0:0:0:0:
221,131,43362,2,0,P|230:173|211:215,2,85,0|2|0,3:0|0:0|3:0,0:0:0:0:
131,233,43879,2,0,P|122:275|141:317,1,85,8|0,0:0|3:0,0:0:0:0:
222,315,44224,6,0,P|263:301|321:330,1,85,2|0,0:0|3:0,0:0:0:0:
371,361,44569,1,8,0:0:0:0:
262,262,44741,2,0,P|253:213|275:169,2,85,0|2|0,3:0|0:0|3:0,0:0:0:0:
348,140,45259,2,0,P|357:91|335:47,1,85,8|0,0:0|3:0,0:0:0:0:
189,34,45603,6,0,P|147:36|96:101,1,127.500004863739,2|8,0:0|0:0,0:0:0:0:
173,111,46121,1,0,3:0:0:0:
250,123,46293,2,0,P|218:176|157:187,1,127.500004863739,2|10,0:0|0:0,0:0:0:0:
93,181,46810,2,0,L|131:217,1,31.8750012159348,2|2,0:0|0:0,0:0:0:0:
192,240,46983,6,0,P|129:244|95:271,1,85,2|0,0:0|3:0,0:0:0:0:
69,328,47328,1,8,0:0:0:0:
210,328,47500,1,0,3:0:0:0:
357,291,47672,2,0,L|275:229,1,85,2|0,0:0|3:0,0:0:0:0:
327,166,48017,2,0,B|364:192|364:192|408:189,1,85,8|0,0:0|3:0,0:0:0:0:
338,65,48362,6,0,P|295:45|171:62,1,170,2|8,0:0|0:0,0:0:0:0:
101,98,48879,1,0,3:0:0:0:
33,150,49052,2,0,L|131:186,1,85,2|0,0:0|3:0,0:0:0:0:
222,220,49397,1,8,0:0:0:0:
65,276,49569,1,0,3:0:0:0:
178,296,49741,6,0,B|225:303|225:303|276:292,1,85,2|0,0:0|3:0,0:0:0:0:
365,239,50086,1,8,0:0:0:0:
435,343,50259,1,0,3:0:0:0:
466,213,50431,2,0,P|467:164|441:124,1,85,2|0,0:0|3:0,0:0:0:0:
349,49,50776,2,0,P|346:91|365:129,1,85,8|0,0:0|3:0,0:0:0:0:
243,93,51121,6,0,P|161:82|100:137,1,170,2|8,0:0|0:0,0:0:0:0:
28,182,51638,1,0,3:0:0:0:
192,182,51810,2,0,P|273:192|334:137,1,170,2|8,0:0|0:0,0:0:0:0:
399,192,52328,1,0,3:0:0:0:
318,269,52500,6,0,P|291:315|295:359,1,85,2|0,0:0|3:0,0:0:0:0:
374,333,52845,1,8,0:0:0:0:
241,286,53017,2,0,P|199:288|166:315,2,85,0|2|0,3:0|0:0|3:0,0:0:0:0:
94,347,53534,2,0,P|89:301|107:262,1,85,8|0,0:0|3:0,0:0:0:0:
155,197,53879,6,0,P|144:141|109:115,1,85,2|0,0:0|3:0,0:0:0:0:
49,105,54224,1,8,0:0:0:0:
104,266,54397,2,0,P|147:283|186:276,2,85,0|2|0,3:0|0:0|3:0,0:0:0:0:
211,200,54914,2,0,P|252:194|291:210,1,85,8|0,0:0|3:0,0:0:0:0:
318,291,55259,6,0,P|356:307|398:301,1,85,2|0,0:0|3:0,0:0:0:0:
461,245,55603,1,8,0:0:0:0:
318,291,55776,2,0,L|229:320,2,85,0|2|0,3:0|0:0|3:0,0:0:0:0:
378,200,56293,2,0,P|390:151|372:104,1,85,8|0,0:0|3:0,0:0:0:0:
289,58,56638,6,0,P|332:81|415:47,1,127.500004863739,2|8,0:0|0:0,0:0:0:0:
452,17,57155,1,0,3:0:0:0:
372,130,57328,2,0,L|358:208,1,63.7500024318696,2|2,0:0|0:0,0:0:0:0:
262,156,57672,2,0,L|248:234,1,63.7500024318696,10|2,0:0|0:0,0:0:0:0:
132,253,58017,6,0,B|90:258|90:258|44:223,2,85,2|0|8,0:0|0:0|0:0,0:0:0:0:
201,302,58534,1,0,3:0:0:0:
201,302,58707,2,0,L|262:295,3,42.5,2|0|0|0,0:0|0:0|0:0|0:0,0:0:0:0:
133,343,59052,2,0,L|72:350,3,42.5,8|0|0|0,0:0|0:0|0:0|0:0,0:0:0:0:
61,316,59397,5,2,0:0:0:0:
58,294,59483,1,0,0:0:0:0:
61,274,59569,1,0,3:0:0:0:
71,255,59655,1,0,0:0:0:0:
85,239,59741,2,0,P|103:219|122:152,2,85,8|0|2,0:0|3:0|0:0,0:0:0:0:
202,202,60259,1,0,0:0:0:0:
202,202,60345,1,0,0:0:0:0:
202,202,60431,2,0,B|223:202|223:202|246:217,3,42.5,8|0|0|0,0:0|0:0|0:0|0:0,0:0:0:0:
273,241,60776,6,0,P|324:281|414:227,1,170,2|8,0:0|0:0,0:0:0:0:
349,69,61466,2,0,L|308:42,3,42.5,2|0|0|0,0:0|0:0|0:0|0:0,0:0:0:0:
268,126,61810,2,0,L|227:153,3,42.5,8|0|0|0,0:0|0:0|0:0|0:0,0:0:0:0:
192,164,62155,6,0,P|137:159|100:62,1,170,2|8,0:0|0:0,0:0:0:0:
70,230,62845,2,0,L|60:278,3,42.5,2|0|0|0,0:0|0:0|3:0|0:0,0:0:0:0:
155,303,63190,2,0,P|158:326|168:351,3,42.5,8|0|0|0,0:0|0:0|0:0|0:0,0:0:0:0:
249,303,63534,6,0,L|336:257,1,85,2|0,0:0|0:0,0:0:0:0:
399,223,63879,1,8,0:0:0:0:
399,223,63966,1,0,0:0:0:0:
399,223,64052,1,0,3:0:0:0:
323,183,64224,2,0,L|236:137,1,85,2|0,0:0|3:0,0:0:0:0:
172,104,64569,1,8,0:0:0:0:
172,104,64655,1,0,0:0:0:0:
172,104,64741,1,0,0:0:0:0:
172,104,64828,1,0,0:0:0:0:
172,104,64914,6,0,L|85:150,1,85,2|0,0:0|0:0,0:0:0:0:
31,199,65259,1,8,0:0:0:0:
113,219,65431,1,0,3:0:0:0:
60,286,65603,2,0,P|37:293|16:309,3,42.5,2|0|0|0,0:0|0:0|0:0|0:0,0:0:0:0:
138,335,65948,2,0,P|161:340|187:337,3,42.5,8|0|0|0,0:0|0:0|0:0|0:0,0:0:0:0:
217,317,66293,6,0,P|248:289|290:286,1,85,2|0,0:0|3:0,0:0:0:0:
353,320,66552,1,0,0:0:0:0:
353,320,66638,2,0,P|406:325|440:299,1,85,8|0,0:0|3:0,0:0:0:0:
502,213,66983,2,0,P|461:205|424:224,1,85,2|0,0:0|3:0,0:0:0:0:
309,156,67328,2,0,P|350:164|388:146,1,85,8|0,0:0|3:0,0:0:0:0:
471,63,67672,6,0,P|386:25|307:60,1,170,2|8,0:0|0:0,0:0:0:0:
247,205,68362,2,0,B|239:227|239:227|212:243,3,42.5,2|0|0|0,0:0|0:0|0:0|0:0,0:0:0:0:
180,247,68707,1,10,0:0:0:0:
158,247,68793,1,2,0:0:0:0:
138,241,68879,1,2,0:0:0:0:
121,229,68965,1,2,0:0:0:0:
108,212,69052,6,0,P|102:155|127:120,1,85,6|0,0:0|0:0,0:0:0:0:
177,75,69397,1,8,0:0:0:0:
258,197,69569,2,0,P|297:225|342:227,2,85,0|2|0,3:0|0:0|3:0,0:0:0:0:
324,143,70086,1,8,0:0:0:0:
433,65,70259,2,0,L|470:38,1,42.5,0|0,3:0|3:0,0:0:0:0:
478,126,70431,6,0,P|435:183|481:276,1,170,2|8,0:0|0:0,0:0:0:0:
386,242,70948,2,0,P|339:229|296:242,2,85,0|2|0,3:0|0:0|3:0,0:0:0:0:
343,315,71466,2,0,P|301:323|261:310,1,85,8|0,0:0|3:0,0:0:0:0:
176,210,71810,6,0,P|189:166|174:122,1,85,2|0,0:0|3:0,0:0:0:0:
108,81,72155,1,8,0:0:0:0:
78,228,72328,2,0,L|60:317,2,85,0|2|0,3:0|0:0|3:0,0:0:0:0:
94,144,72845,1,8,0:0:0:0:
244,71,73017,1,0,3:0:0:0:
244,71,73190,6,0,P|265:70|288:77,3,42.5,2|0|0|0,0:0|0:0|0:0|0:0,0:0:0:0:
363,139,73534,2,0,P|342:146|319:145,3,42.5,8|0|0|0,0:0|0:0|0:0|0:0,0:0:0:0:
263,219,73879,2,0,P|255:199|257:175,3,42.5,2|0|0|0,0:0|0:0|0:0|0:0,0:0:0:0:
193,123,74224,1,8,0:0:0:0:
191,144,74310,1,0,0:0:0:0:
183,163,74396,1,0,0:0:0:0:
169,179,74482,1,0,0:0:0:0:
150,188,74569,6,0,P|95:187|60:85,1,170,2|8,0:0|0:0,0:0:0:0:
130,115,75086,2,0,P|75:174|87:261,1,170,0|0,3:0|3:0,0:0:0:0:
155,306,75603,1,8,0:0:0:0:
325,308,75948,6,0,L|363:325,2,42.5,2|0|0,0:0|0:0|3:0,0:0:0:0:
254,260,76293,2,0,P|242:211|266:167,1,85,8|0,0:0|3:0,0:0:0:0:
323,130,76638,2,0,L|280:107,2,42.5,2|0|0,0:0|0:0|3:0,0:0:0:0:
334,214,76983,2,0,P|366:240|408:243,1,85,8|0,0:0|3:0,0:0:0:0:
472,187,77328,6,0,P|481:162|474:123,3,42.5,2|0|0|0,0:0|0:0|3:0|0:0,0:0:0:0:
409,151,77672,2,0,P|404:124|378:94,3,42.5,8|0|0|0,0:0|0:0|0:0|0:0,0:0:0:0:
336,152,78017,2,0,P|318:131|281:118,3,42.5,2|0|0|0,0:0|0:0|0:0|0:0,0:0:0:0:
272,189,78362,2,0,P|247:179|214:183,3,42.5,8|0|0|0,0:0|0:0|0:0|0:0,0:0:0:0:
233,257,78707,6,0,P|206:261|176:287,15,42.5,2|0|0|0|8|0|0|0|2|0|0|0|10|2|2|2,0:0|3:0|3:0|3:0|0:0|3:0|3:0|3:0|0:0|3:0|3:0|3:0|0:0|0:0|0:0|0:0,0:0:0:0:
181,343,80086,37,6,0:0:0:0:
256,192,89741,12,0,90776,0:0:0:0:
384,62,91121,22,0,P|341:105|241:81,1,170,2|8,0:0|0:0,0:0:0:0:
307,27,91638,1,0,3:0:0:0:
264,163,91810,2,0,L|235:254,1,85,2|0,0:0|3:0,0:0:0:0:
155,265,92155,2,0,L|184:174,1,85,8|0,0:0|3:0,0:0:0:0:
340,155,92500,6,0,P|387:168|416:285,1,170,2|8,0:0|0:0,0:0:0:0:
342,241,93017,1,0,3:0:0:0:
227,310,93190,2,0,P|188:334|139:333,1,85,2|0,0:0|3:0,0:0:0:0:
52,233,93534,1,8,0:0:0:0:
166,253,93707,1,0,3:0:0:0:
105,158,93879,6,0,P|103:112|129:70,1,85,2|0,0:0|3:0,0:0:0:0:
259,45,94223,1,8,0:0:0:0:
185,133,94396,1,0,3:0:0:0:
310,121,94569,2,0,P|355:131|385:164,1,85,2|0,0:0|3:0,0:0:0:0:
239,260,94914,2,0,P|194:250|164:217,1,85,8|0,0:0|3:0,0:0:0:0:
381,237,95259,6,0,B|427:243|427:243|469:279,2,85,2|0|8,0:0|3:0|0:0,0:0:0:0:
381,322,95776,1,0,3:0:0:0:
381,157,95948,2,0,B|387:111|387:111|423:69,2,85,2|0|8,0:0|3:0|0:0,0:0:0:0:
466,163,96466,1,0,3:0:0:0:
315,90,96638,6,0,P|265:82|198:111,1,85,2|0,0:0|3:0,0:0:0:0:
166,144,96983,1,8,0:0:0:0:
356,158,97155,2,0,P|388:124|396:79,2,85,0|2|0,3:0|0:0|3:0,0:0:0:0:
232,210,97672,2,0,P|201:239|191:279,1,85,8|0,0:0|3:0,0:0:0:0:
273,148,98017,6,0,P|232:136|192:147,1,85,2|0,0:0|3:0,0:0:0:0:
123,199,98362,1,8,0:0:0:0:
263,276,98534,2,0,L|337:321,2,85,0|2|0,3:0|0:0|3:0,0:0:0:0:
153,279,99052,2,0,P|109:271|68:288,1,85,8|0,0:0|3:0,0:0:0:0:
145,190,99397,6,0,P|162:146|142:93,1,85,2|0,0:0|3:0,0:0:0:0:
84,61,99741,1,8,0:0:0:0:
233,160,99914,2,0,P|276:173|325:154,2,85,0|2|0,3:0|0:0|3:0,0:0:0:0:
370,86,100431,2,0,P|413:73|462:92,1,85,8|0,0:0|3:0,0:0:0:0:
470,182,100776,6,0,B|436:242|436:242|365:269,1,127.500004863739,2|8,0:0|0:0,0:0:0:0:
299,287,101293,1,0,3:0:0:0:
349,146,101466,2,0,L|373:75,1,63.7500024318696,2|0,0:0|3:0,0:0:0:0:
213,89,101810,2,0,L|153:90,3,42.5,2|2|2|2,0:0|0:0|0:0|0:0,0:0:0:0:
65,96,102155,6,0,P|119:118|140:166,1,97.7500018644333,2|0,0:0|3:0,0:0:0:0:
322,87,102500,2,0,P|268:65|247:17,1,97.7500018644333,8|0,0:0|3:0,0:0:0:0:
251,183,102845,1,2,0:0:0:0:
250,197,102931,1,0,0:0:0:0:
250,212,103017,1,0,3:0:0:0:
249,226,103103,1,0,0:0:0:0:
250,242,103190,2,0,L|250:295,3,48.8750009322167,8|0|0|0,0:0|0:0|3:0|0:0,0:0:0:0:
206,353,103534,6,0,P|304:310|379:353,1,195.500003728867,2|8,0:0|0:0,0:0:0:0:
447,280,104052,1,0,3:0:0:0:
447,280,104138,1,0,0:0:0:0:
447,280,104224,2,0,P|468:226|441:137,1,146.62500279665,2|0,0:0|0:0,0:0:0:0:
426,188,104569,2,0,P|377:159|368:92,1,97.7500018644333,8|0,0:0|0:0,0:0:0:0:
210,50,104914,6,0,P|182:106|130:119,1,97.7500018644333,2|0,0:0|3:0,0:0:0:0:
25,138,105259,1,8,0:0:0:0:
104,46,105431,1,0,3:0:0:0:
219,172,105603,2,0,L|254:204,3,48.8750009322167,2|0|0|0,0:0|3:0|3:0|3:0,0:0:0:0:
258,268,105948,2,0,P|280:256|304:253,3,48.8750009322167,8|0|0|0,0:0|3:0|3:0|3:0,0:0:0:0:
304,327,106293,6,0,P|252:344|188:296,1,127.500004863739,2|8,0:0|0:0,0:0:0:0:
148,238,106810,1,0,3:0:0:0:
213,194,106983,2,0,P|164:160|99:176,1,127.500004863739,2|8,0:0|0:0,0:0:0:0:
58,250,107500,1,0,3:0:0:0:
55,101,107672,6,0,P|61:50|86:18,1,85,2|0,0:0|3:0,0:0:0:0:
137,85,108017,1,8,0:0:0:0:
274,70,108190,2,0,P|319:60|367:76,2,85,0|2|0,3:0|0:0|3:0,0:0:0:0:
194,195,108707,2,0,P|149:205|101:189,1,85,8|0,0:0|3:0,0:0:0:0:
248,141,109052,6,0,P|270:188|259:235,1,85,2|0,0:0|3:0,0:0:0:0:
206,280,109397,1,8,0:0:0:0:
340,168,109569,2,0,P|383:155|426:168,2,85,0|2|0,3:0|0:0|3:0,0:0:0:0:
420,304,110086,1,8,0:0:0:0:
491,202,110259,1,0,3:0:0:0:
328,245,110431,6,0,L|277:258,3,42.5,2|0|0|0,0:0|0:0|0:0|0:0,0:0:0:0:
174,284,110776,2,0,P|197:266|211:232,3,42.5,8|0|0|0,0:0|0:0|0:0|0:0,0:0:0:0:
201,154,111121,6,0,P|178:172|164:206,3,42.5,2|0|0|0,0:0|0:0|0:0|0:0,0:0:0:0:
98,146,111466,2,0,L|60:129,3,42.5,8|0|0|0,0:0|0:0|0:0|0:0,0:0:0:0:
139,65,111810,5,2,0:0:0:0:
153,56,111896,1,2,0:0:0:0:
169,49,111982,1,2,0:0:0:0:
185,46,112068,1,2,0:0:0:0:
202,45,112154,5,2,0:0:0:0:
219,47,112241,1,2,0:0:0:0:
235,51,112327,1,2,0:0:0:0:
251,59,112413,1,2,0:0:0:0:
265,68,112500,5,2,0:0:0:0:
343,219,112845,2,0,P|331:242|302:268,3,42.5
256,192,113190,5,2,0:0:0:0:
256,192,113276,8,0,114569,0:0:0:0:
256,192,117328,12,6,118707,0:0:0:0:
