osu file format v14

[General]
AudioFilename: audio.mp3
AudioLeadIn: 0
PreviewTime: 90431
Countdown: 0
SampleSet: Soft
StackLeniency: 0.7
Mode: 0
LetterboxInBreaks: 0
WidescreenStoryboard: 0

[Editor]
Bookmarks: 1470,2849,11125,12504,22159,23538,31814,34573,35952,45607,46987,56642,58021,67676,69056,78711,80090,89745,91125,100780,102159,110435,112504,113194,114573,117328,118707
DistanceSpacing: 1.2
BeatDivisor: 4
GridSize: 4
TimelineZoom: 1.4

[Metadata]
Title:No.3
TitleUnicode:No.3
Artist:0mega
ArtistUnicode:0mega
Creator:Naxess
Version:Advanced
Source:東方Project
Tags:Touhou ZUN 少女さとり ~ 3rd eye Satori Maiden Stage 4 Boss Komeiji Theme Subterranean Animism 東方アレンジ BMS Instrumental Omega Progressive Baroque
BeatmapID:1005177
BeatmapSetID:467572

[Difficulty]
HPDrainRate:5
CircleSize:3.3
OverallDifficulty:5
ApproachRate:6.3
SliderMultiplier:1.3
SliderTickRate:1

[Events]
//Background and Video events
0,0,"bg.jpg",0,0
//Break Periods
2,80286,90117
2,114769,115948
//Storyboard Layer 0 (Background)
//Storyboard Layer 1 (Fail)
//Storyboard Layer 2 (Pass)
//Storyboard Layer 3 (Foreground)
//Storyboard Sound Samples

[TimingPoints]
1466,344.827586206897,4,2,1,80,1,0
5862,-100,4,2,1,5,0,0
5948,-100,4,2,1,80,0,0
11121,-100,4,2,1,70,0,0
12500,-100,4,2,1,80,0,0
17586,-100,4,2,1,5,0,0
17672,-100,4,2,1,80,0,0
22155,-100,4,2,1,70,0,0
23534,-111.111111111111,4,2,1,80,0,0
34569,-90.9090909090909,4,2,1,80,0,0
35948,-100,4,2,1,85,0,1
37241,-100,4,2,1,5,0,1
37328,-100,4,2,1,85,0,1
45517,-100,4,2,1,5,0,1
45603,-111.111111111111,4,2,1,75,0,1
46983,-100,4,2,1,85,0,1
56552,-100,4,2,1,5,0,1
56638,-111.111111111111,4,2,1,75,0,1
58017,-100,4,2,1,80,0,0
65862,-100,4,2,1,5,0,0
65948,-100,4,2,1,80,0,0
77586,-100,4,2,2,80,0,0
77759,-100,4,2,1,80,0,0
91121,-100,4,2,1,90,0,1
92414,-100,4,2,1,5,0,1
92500,-100,4,2,1,90,0,1
95259,-100,4,2,1,80,0,1
96638,-100,4,2,1,90,0,1
100776,-111.111111111111,4,2,1,80,0,1
101810,-100,4,2,1,90,0,1
102155,-90.9090909090909,4,2,1,95,0,1
102414,-90.9090909090909,4,2,1,5,0,1
102500,-90.9090909090909,4,2,1,95,0,1
103103,-90.9090909090909,4,2,1,5,0,1
103190,-90.9090909090909,4,2,1,95,0,1
104483,-90.9090909090909,4,2,1,5,0,1
104569,-90.9090909090909,4,2,1,95,0,1
106207,-90.9090909090909,4,2,1,5,0,1
106293,-111.111111111111,4,2,1,80,0,1
107672,-100,4,2,1,90,0,1
112414,-100,4,2,1,5,0,1
112500,-100,4,2,1,80,0,0

[Colours]
Combo1 : 192,213,187
Combo2 : 0,176,0
Combo3 : 250,231,165
Combo4 : 254,192,248

[HitObjects]
351,110,1466,5,4,0:0:0:0:
121,155,1983,1,4,0:0:0:0:
345,207,2500,2,0,L|412:226,1,65,2|2,0:0|0:0,0:0:0:0:
485,247,2845,6,0,B|449:301|449:301|375:323,1,130,2|0,0:0|0:0,0:0:0:0:
308,321,3362,1,0,3:0:0:0:
308,321,3534,2,0,P|246:298|176:313,1,130,2|0,0:0|0:0,0:0:0:0:
105,304,4052,1,0,3:0:0:0:
105,304,4224,6,0,L|55:356,2,65,2|0|0,0:0|3:0|0:0,0:0:0:0:
72,232,4741,1,0,3:0:0:0:
72,232,4914,2,0,P|81:184|125:147,2,97.5,2|0|0,0:0|0:0|0:0,0:0:0:0:
149,221,5603,6,0,P|203:198|227:152,1,97.5,2|0,0:0|0:0,0:0:0:0:
202,133,5948,2,0,L|260:95,1,65,0|0,0:0|3:0,0:0:0:0:
325,60,6293,2,0,B|359:117|359:117|348:194,1,130,2|2,0:0|0:0,0:0:0:0:
334,256,6810,1,2,0:0:0:0:
300,326,6983,6,0,P|230:346|161:321,1,130,6|0,0:0|0:0,0:0:0:0:
82,206,7672,2,0,P|76:156|123:103,2,97.5,6|6|6,0:0|0:0|0:0,0:0:0:0:
153,174,8362,6,0,L|224:170,1,65,2|0,0:0|3:0,0:0:0:0:
237,94,8707,2,0,L|300:126,1,65,0|0,0:0|3:0,0:0:0:0:
360,166,9052,2,0,P|407:238|365:344,1,195,2|0,0:0|3:0,0:0:0:0:
298,347,9741,6,0,B|262:341|262:341|224:315,1,65,2|0,0:0|3:0,0:0:0:0:
249,247,10086,2,0,B|225:230|225:230|189:224,1,65,0|0,0:0|3:0,0:0:0:0:
111,218,10431,1,2,0:0:0:0:
86,63,10776,2,0,L|164:73,1,65,0|0,0:0|0:0,0:0:0:0:
227,82,11121,6,0,P|297:58|405:128,1,195,2|0,0:0|3:0,0:0:0:0:
419,187,11810,2,0,P|354:222|276:200,1,130,2|2,0:0|0:0,0:0:0:0:
233,174,12328,1,2,0:0:0:0:
233,174,12500,6,0,L|209:317,1,130,6|8,0:0|0:0,0:0:0:0:
281,337,13017,1,0,3:0:0:0:
356,356,13190,2,0,P|394:307|384:226,1,130,2|8,0:0|0:0,0:0:0:0:
352,174,13707,1,0,3:0:0:0:
352,174,13879,6,0,L|439:162,2,65,2|0|8,0:0|3:0|0:0,0:0:0:0:
290,125,14397,1,0,0:0:0:0:
226,79,14569,2,0,P|163:60|85:86,1,130,2|8,0:0|0:0,0:0:0:0:
68,145,15086,1,0,0:0:0:0:
68,145,15259,6,0,P|31:138|4:113,2,65,2|0|8,0:0|3:0|0:0,0:0:0:0:
144,162,15776,1,0,3:0:0:0:
144,162,15948,2,0,P|110:199|106:256,2,97.5,2|0|0,0:0|0:0|3:0,0:0:0:0:
214,127,16638,6,0,P|282:148|350:124,1,130,2|8,0:0|0:0,0:0:0:0:
401,88,17155,1,0,3:0:0:0:
461,38,17328,2,0,P|451:96|481:142,1,97.5,2|0,0:0|0:0,0:0:0:0:
463,167,17672,2,0,L|416:219,1,65,10|2,0:0|0:0,0:0:0:0:
367,273,18017,6,0,P|307:249|239:259,1,130,2|8,0:0|0:0,0:0:0:0:
172,284,18534,1,0,3:0:0:0:
95,306,18707,2,0,B|95:256|95:256|65:205,2,97.5,2|0|0,0:0|0:0|3:0,0:0:0:0:
172,284,19397,6,0,L|208:342,1,65,2|0,0:0|3:0,0:0:0:0:
284,339,19741,2,0,L|318:283,1,65,8|0,0:0|3:0,0:0:0:0:
359,217,20086,2,0,P|285:218|244:182,1,130,2|8,0:0|0:0,0:0:0:0:
167,154,20603,1,0,3:0:0:0:
167,154,20776,6,0,L|233:86,1,65,2|0,0:0|3:0,0:0:0:0:
170,41,21121,2,0,L|261:15,1,65,8|0,0:0|3:0,0:0:0:0:
310,16,21466,2,0,P|351:71|324:140,1,130,2|8,0:0|0:0,0:0:0:0:
256,192,22155,12,0,23190,0:0:0:0:
198,286,23534,22,0,P|261:305|326:272,1,116.999996429443,6|8,0:0|0:0,0:0:0:0:
434,120,24397,2,0,L|359:119,1,58.4999982147217,0|8,0:0|0:0,0:0:0:0:
245,65,24914,5,2,0:0:0:0:
245,65,25086,2,0,L|183:92,1,58.4999982147217,0|8,3:0|0:0,0:0:0:0:
62,255,25776,2,0,L|122:226,1,58.4999982147217,0|8,0:0|0:0,0:0:0:0:
245,178,26293,6,0,P|284:216|301:286,1,116.999996429443,2|8,0:0|0:0,0:0:0:0:
100,337,27155,2,0,L|34:301,1,58.4999982147217,2|8,0:0|0:0,0:0:0:0:
96,177,27672,6,0,P|125:123|161:101,1,87.7499973220826,2|2,0:0|0:0,0:0:0:0:
179,98,28017,1,8,0:0:0:0:
385,57,28534,2,0,L|402:125,1,58.4999982147217,2|10,0:0|0:0,0:0:0:0:
429,251,29052,6,0,P|377:236|308:259,1,116.999996429443,6|8,0:0|0:0,0:0:0:0:
121,328,29914,2,0,L|93:266,1,58.4999982147217,2|8,0:0|0:0,0:0:0:0:
48,142,30431,5,6,0:0:0:0:
48,142,30603,2,0,P|96:141|124:127,1,58.4999982147217,2|8,0:0|0:0,0:0:0:0:
312,99,31293,2,0,L|367:69,2,58.4999982147217,2|8|0,0:0|0:0|3:0,0:0:0:0:
239,118,31810,6,0,P|151:88|108:101,1,116.999996429443,6|8,0:0|0:0,0:0:0:0:
62,123,32328,2,0,P|123:192|166:203,1,116.999996429443,0|2,3:0|0:0,0:0:0:0:
219,198,32845,1,8,0:0:0:0:
354,156,33190,6,0,P|403:186|430:237,1,116.999996429443,6|8,0:0|0:0,0:0:0:0:
430,313,33707,2,0,P|372:311|322:281,1,116.999996429443,0|2,3:0|0:0,0:0:0:0:
282,218,34224,1,8,0:0:0:0:
256,192,34569,12,0,35603,0:0:0:0:
294,98,35948,6,0,P|345:138|356:206,1,130,2|8,0:0|0:0,0:0:0:0:
263,324,36638,2,0,B|234:260,1,65,2|0,0:0|3:0,0:0:0:0:
174,312,36983,2,0,P|142:284|73:293,1,97.5,8|0,0:0|0:0,0:0:0:0:
54,302,37328,6,0,B|82:238|82:238|113:174,1,130,2|8,0:0|0:0,0:0:0:0:
178,44,38017,1,2,0:0:0:0:
242,186,38362,2,0,B|268:245,1,65,8|0,0:0|3:0,0:0:0:0:
327,297,38707,6,0,P|303:235|330:170,1,130,2|8,0:0|0:0,0:0:0:0:
383,127,39224,1,0,3:0:0:0:
383,127,39397,2,0,L|239:125,1,130,2|8,0:0|0:0,0:0:0:0:
97,125,40086,6,0,P|45:150|10:233,1,130,2|8,0:0|0:0,0:0:0:0:
142,296,40776,2,0,P|194:271|229:188,1,130,2|8,0:0|0:0,0:0:0:0:
247,133,41293,1,0,3:0:0:0:
247,133,41466,6,0,P|254:175|323:220,1,130,2|8,0:0|0:0,0:0:0:0:
325,141,41983,2,0,P|376:119|449:147,1,130,0|0,3:0|3:0,0:0:0:0:
489,205,42500,1,8,0:0:0:0:
372,308,42845,6,0,P|331:255|259:257,1,130,2|8,0:0|0:0,0:0:0:0:
297,324,43362,2,0,P|239:345|177:315,1,130,0|0,3:0|3:0,0:0:0:0:
151,244,43879,1,8,0:0:0:0:
38,135,44224,6,0,P|99:149|154:110,1,130,2|8,0:0|0:0,0:0:0:0:
85,71,44741,2,0,P|137:35|198:49,1,130,0|0,3:0|3:0,0:0:0:0:
277,45,45259,2,0,P|315:74|366:75,1,97.5,8|0,0:0|0:0,0:0:0:0:
393,58,45603,6,0,L|429:185,1,116.999996429443,2|8,0:0|0:0,0:0:0:0:
284,180,46293,2,0,L|259:310,1,116.999996429443,2|10,0:0|0:0,0:0:0:0:
185,295,46810,1,2,0:0:0:0:
110,283,46983,6,0,P|84:233|115:155,1,130,2|8,0:0|0:0,0:0:0:0:
254,122,47672,2,0,P|274:62|248:4,1,130,2|8,0:0|0:0,0:0:0:0:
98,48,48362,6,0,P|77:107|103:165,1,130,2|8,0:0|0:0,0:0:0:0:
272,199,49052,1,2,0:0:0:0:
443,233,49397,2,0,L|447:166,1,65,8|0,0:0|3:0,0:0:0:0:
458,91,49741,6,0,P|423:53|333:41,1,130,2|8,0:0|0:0,0:0:0:0:
276,59,50259,1,0,3:0:0:0:
276,59,50431,2,0,P|204:78|146:62,1,130,2|8,0:0|0:0,0:0:0:0:
5,8,51121,6,0,P|-4:75|21:144,1,130,2|8,0:0|0:0,0:0:0:0:
151,64,51810,2,0,P|169:125|159:189,1,130,2|8,0:0|0:0,0:0:0:0:
131,263,52328,1,0,3:0:0:0:
131,263,52500,6,0,P|190:227|257:255,1,130,2|8,0:0|0:0,0:0:0:0:
197,304,53017,2,0,P|252:336|316:331,1,130,0|0,3:0|3:0,0:0:0:0:
371,276,53534,1,8,0:0:0:0:
458,146,53879,6,0,P|433:90|359:72,1,130,2|8,0:0|0:0,0:0:0:0:
380,148,54397,2,0,P|328:159|257:114,1,130,0|0,3:0|3:0,0:0:0:0:
220,57,54914,1,8,0:0:0:0:
89,142,55259,6,0,P|138:157|171:226,1,130,2|8,0:0|0:0,0:0:0:0:
93,221,55776,2,0,P|89:260|149:327,1,130,0|0,3:0|3:0,0:0:0:0:
222,326,56293,2,0,P|259:316|316:330,1,97.5,8|0,0:0|0:0,0:0:0:0:
349,340,56638,6,0,B|347:276|347:276|381:221,1,116.999996429443,2|8,0:0|0:0,0:0:0:0:
478,326,57328,2,0,L|518:255,1,58.4999982147217,2|2,0:0|0:0,0:0:0:0:
475,207,57672,2,0,L|435:136,1,58.4999982147217,10|2,0:0|0:0,0:0:0:0:
406,93,58017,6,0,P|350:58|283:73,1,130,2|8,0:0|0:0,0:0:0:0:
222,29,58534,1,0,3:0:0:0:
154,67,58707,2,0,P|169:99|166:133,1,65,2|0,0:0|3:0,0:0:0:0:
242,149,59052,2,0,P|241:181|255:210,1,65,8|0,0:0|3:0,0:0:0:0:
305,269,59397,6,0,P|252:275|208:338,1,130,2|8,0:0|0:0,0:0:0:0:
169,264,59914,2,0,P|127:230|51:244,1,130,0|0,3:0|3:0,0:0:0:0:
1,292,60431,1,8,0:0:0:0:
1,292,60776,6,0,L|70:323,1,65,2|0,0:0|3:0,0:0:0:0:
132,347,61121,2,0,L|203:338,1,65,8|0,0:0|3:0,0:0:0:0:
274,326,61466,2,0,P|244:271|276:199,1,130,2|8,0:0|0:0,0:0:0:0:
329,168,61983,1,0,0:0:0:0:
397,131,62155,6,0,P|430:187|405:256,1,130,2|8,0:0|0:0,0:0:0:0:
263,210,62845,2,0,P|233:150|267:87,1,130,2|8,0:0|0:0,0:0:0:0:
405,51,63534,6,0,L|476:85,2,65,2|0|8,0:0|0:0|0:0,0:0:0:0:
256,95,64224,2,0,L|290:24,2,65,2|0|8,0:0|3:0|0:0,0:0:0:0:
140,200,64914,6,0,P|188:199|235:279,1,130,2|8,0:0|0:0,0:0:0:0:
374,330,65603,2,0,P|423:343|474:324,1,97.5,2|0,0:0|0:0,0:0:0:0:
457,291,65948,2,0,P|445:248|459:214,1,65,8|0,0:0|0:0,0:0:0:0:
475,155,66293,6,0,L|341:146,1,130,2|8,0:0|0:0,0:0:0:0:
192,112,66983,2,0,B|172:145|172:145|165:182,1,65,2|0,0:0|3:0,0:0:0:0:
234,209,67328,2,0,B|229:234|229:234|209:267,1,65,8|0,0:0|3:0,0:0:0:0:
149,318,67672,6,0,L|297:329,1,130,2|8,0:0|0:0,0:0:0:0:
431,294,68362,2,0,P|469:265|471:175,1,130,2|10,0:0|0:0,0:0:0:0:
408,150,68879,1,2,0:0:0:0:
337,116,69052,6,0,B|301:170|301:170|231:188,1,130,6|8,0:0|0:0,0:0:0:0:
159,186,69569,2,0,P|148:153|162:106,2,65,0|2|0,3:0|0:0|3:0,0:0:0:0:
200,252,70086,1,8,0:0:0:0:
246,314,70259,1,0,3:0:0:0:
246,314,70431,6,0,P|196:288|109:302,1,130,2|8,0:0|0:0,0:0:0:0:
46,296,70948,2,0,B|36:331|36:331|6:364,2,65,0|2|0,3:0|0:0|3:0,0:0:0:0:
61,218,71466,2,0,B|75:147,1,65,8|0,0:0|3:0,0:0:0:0:
90,78,71810,6,0,P|153:101|212:80,1,130,2|8,0:0|0:0,0:0:0:0:
276,39,72328,2,0,P|336:19|396:42,1,130,0|0,3:0|3:0,0:0:0:0:
442,105,72845,1,8,0:0:0:0:
476,174,73017,1,0,3:0:0:0:
476,174,73190,6,0,P|406:198|345:178,1,130,2|8,0:0|0:0,0:0:0:0:
317,335,73879,2,0,P|255:317|193:335,1,130,2|8,0:0|0:0,0:0:0:0:
37,333,74569,6,0,B|62:272|62:272|64:200,1,130,2|8,0:0|0:0,0:0:0:0:
65,129,75086,2,0,L|3:100,2,65,0|2|0,3:0|0:0|3:0,0:0:0:0:
139,151,75603,2,0,P|173:155|209:143,1,65,8|0,0:0|3:0,0:0:0:0:
269,106,75948,6,0,P|313:91|382:141,1,130,2|8,0:0|0:0,0:0:0:0:
503,228,76638,2,0,P|441:215|393:255,1,130,2|8,0:0|0:0,0:0:0:0:
277,360,77328,6,0,P|293:306|141:291,1,260,2|2,0:0|0:0,0:0:0:0:
277,360,78362,1,8,0:0:0:0:
256,192,78707,12,2,80086,0:0:0:0:
235,255,91121,22,0,B|298:252|298:252|357:222,1,130,2|8,0:0|0:0,0:0:0:0:
462,105,91810,2,0,L|380:115,1,65,2|0,0:0|3:0,0:0:0:0:
375,37,92155,2,0,P|308:52|272:27,1,97.5,8|0,0:0|0:0,0:0:0:0:
251,19,92500,6,0,B|274:156,1,130,2|8,0:0|0:0,0:0:0:0:
298,301,93190,1,2,0:0:0:0:
145,268,93534,2,0,L|77:254,1,65,8|0,0:0|3:0,0:0:0:0:
5,274,93879,6,0,P|33:239|23:153,1,130,2|8,0:0|0:0,0:0:0:0:
1,83,94397,1,0,3:0:0:0:
1,83,94569,2,0,L|129:112,1,130,2|8,0:0|0:0,0:0:0:0:
284,115,95259,6,0,P|344:127|392:180,1,130,2|8,0:0|0:0,0:0:0:0:
262,266,95948,2,0,P|199:252|156:205,1,130,2|8,0:0|0:0,0:0:0:0:
139,128,96466,1,0,3:0:0:0:
139,128,96638,6,0,P|195:139|251:98,1,130,2|8,0:0|0:0,0:0:0:0:
181,60,97155,2,0,P|206:26|293:17,1,130,0|0,3:0|3:0,0:0:0:0:
356,52,97672,1,8,0:0:0:0:
433,187,98017,6,0,P|378:164|313:199,1,130,2|8,0:0|0:0,0:0:0:0:
378,241,98534,2,0,P|344:288|262:292,1,130,0|0,3:0|3:0,0:0:0:0:
208,258,99052,1,8,0:0:0:0:
78,170,99397,6,0,P|36:212|42:284,1,130,2|8,0:0|0:0,0:0:0:0:
109,243,99914,2,0,P|149:211|157:131,1,130,0|0,3:0|3:0,0:0:0:0:
134,62,100431,1,8,0:0:0:0:
274,58,100776,6,0,B|333:85|333:85|370:138,1,116.999996429443,2|8,0:0|0:0,0:0:0:0:
439,245,101466,2,0,L|391:278,1,58.4999982147217,2|2,0:0|0:0,0:0:0:0:
411,352,101810,2,0,L|345:359,1,65,2|2,0:0|0:0,0:0:0:0:
274,336,102155,6,0,P|220:313|168:335,1,107.25000327301,2|0,0:0|0:0,0:0:0:0:
136,345,102500,2,0,L|119:253,1,71.5000021820069,8|0,0:0|3:0,0:0:0:0:
101,192,102845,2,0,P|167:207|217:183,1,107.25000327301,2|0,0:0|0:0,0:0:0:0:
240,173,103190,2,0,P|291:159|324:165,1,71.5000021820069,8|0,0:0|3:0,0:0:0:0:
380,207,103534,6,0,L|365:61,1,143.000004364014,2|8,0:0|0:0,0:0:0:0:
284,46,104052,1,0,3:0:0:0:
197,23,104224,2,0,P|196:107|163:129,1,107.25000327301,2|0,0:0|0:0,0:0:0:0:
142,130,104569,2,0,L|205:176,1,71.5000021820069,8|0,0:0|0:0,0:0:0:0:
275,212,104914,6,0,P|210:223|177:302,1,143.000004364014,2|8,0:0|0:0,0:0:0:0:
258,293,105431,1,0,3:0:0:0:
258,293,105603,2,0,L|362:292,1,71.5000021820069,2|0,0:0|3:0,0:0:0:0:
410,321,105948,2,0,P|397:263|418:207,1,107.25000327301,8|0,0:0|0:0,0:0:0:0:
424,185,106293,6,0,P|442:132|411:63,1,116.999996429443,2|8,0:0|0:0,0:0:0:0:
284,50,106983,2,0,P|266:103|297:172,1,116.999996429443,2|8,0:0|0:0,0:0:0:0:
214,156,107500,1,0,3:0:0:0:
136,147,107672,6,0,L|58:138,2,65,2|0|8,0:0|3:0|0:0,0:0:0:0:
186,207,108190,2,0,P|200:249|150:323,1,130,0|0,3:0|3:0,0:0:0:0:
86,346,108707,2,0,L|179:365,1,65,8|0,0:0|3:0,0:0:0:0:
227,361,109052,6,0,P|284:348|319:273,1,130,2|8,0:0|0:0,0:0:0:0:
311,211,109569,2,0,P|321:153|394:113,1,130,0|0,3:0|3:0,0:0:0:0:
454,109,110086,2,0,L|379:66,1,65,8|0,0:0|3:0,0:0:0:0:
326,43,110431,6,0,P|275:37|245:50,1,65,2|2,0:0|3:0,0:0:0:0:
191,74,110776,1,8,0:0:0:0:
145,136,110948,2,0,P|130:216|153:263,1,130,2|0,3:0|3:0,0:0:0:0:
214,301,111466,2,0,P|261:312|314:292,1,97.5,8|0,0:0|0:0,0:0:0:0:
337,272,111810,6,0,P|298:228|404:153,1,227.5,2|0,0:0|0:0,0:0:0:0:
421,185,112500,1,0,0:0:0:0:
256,192,113190,12,0,114569,0:0:0:0:
256,192,117328,12,6,118707,0:0:0:0:
