osu file format v14

[General]
AudioFilename: audio.mp3
AudioLeadIn: 0
PreviewTime: 100868
Countdown: 0
SampleSet: Soft
StackLeniency: 0.7
Mode: 0
LetterboxInBreaks: 0
WidescreenStoryboard: 1

[Editor]
Bookmarks: 13980,25197,36414,47631,50435,58848,70065,81281,95303,100911,106519,113968
DistanceSpacing: 0.7
BeatDivisor: 16
GridSize: 32
TimelineZoom: 2.799999

[Metadata]
Title:3v4cu4737h3d4nc3fl00rr3m1x
TitleUnicode:3v4cu4737h3d4nc3fl00rr3m1x
Artist:0d13stnks
ArtistUnicode:0d13stnks
Creator:wafer
Version:5ilv3r80x3r5in5an3
Source:
Tags:hyperpop dariacore daria core hyper pop electronic english instrumental break core breakcore GOOPERT KAMI NO KOTOBA cascada evacuate the dance floor mario kart deppyforce silverboxer moonpoint apo11o apollo ancel ancelysia ayel remix
BeatmapID:4205613
BeatmapSetID:2015722

[Difficulty]
HPDrainRate:5
CircleSize:3
OverallDifficulty:8
ApproachRate:8
SliderMultiplier:1.5
SliderTickRate:1

[Events]
//Background and Video events
0,0,"download.jpg",0,0
//Break Periods
2,106985,113222
//Storyboard Layer 0 (Background)
//Storyboard Layer 1 (Fail)
//Storyboard Layer 2 (Pass)
//Storyboard Layer 3 (Foreground)
//Storyboard Layer 4 (Overlay)
//Storyboard Sound Samples

[TimingPoints]
312,303.030303030303,4,2,0,50,1,0
615,315.789473684211,4,2,0,50,1,0
930,340.909090909091,4,2,0,50,1,0
930,-83.2571607110485,4,2,0,50,0,0
1611,327.153762268266,4,2,0,50,1,0
2674,350.549193736854,4,2,0,50,1,0
2761,350.549193736854,4,2,0,70,1,0
2761,-66.6666666666667,4,2,0,70,0,0
2880,-50,4,2,0,70,0,0
2924,-133.333333333333,4,2,0,70,0,0
3450,-133.333333333333,4,2,0,60,0,0
13965,-100,4,2,0,65,0,0
23605,-500,4,2,0,65,0,0
25182,-76.9230769230769,4,2,0,75,0,0
26409,-200,4,2,0,75,0,0
26935,-200,4,2,0,75,0,0
27986,-76.9230769230769,4,2,0,75,0,0
29213,-200,4,2,0,75,0,0
29739,-200,4,2,0,75,0,0
30265,-100,4,2,0,75,0,0
30791,-76.9230769230769,4,2,0,75,0,0
32017,-200,4,2,0,75,0,0
32543,-100,4,2,0,75,0,0
33595,-76.9230769230769,4,2,0,75,0,0
36399,-83.3333333333333,4,2,0,85,0,0
46039,-333.333333333333,4,2,0,85,0,0
47265,-66.6666666666667,4,2,0,75,0,0
47528,-66.6666666666667,4,2,0,5,0,0
47616,-66.6666666666667,4,2,0,55,0,0
50420,-66.6666666666667,4,2,0,65,0,0
58833,-100,4,2,0,65,0,0
81266,-100,4,2,0,75,0,0
94236,-100,4,2,0,80,0,0
94586,-100,4,2,0,85,0,0
94937,-66.6666666666667,4,2,1,100,0,0
94981,-66.6666666666667,4,2,1,100,0,0
95025,-66.6666666666667,4,2,1,100,0,0
95047,-66.6666666666667,4,2,2,5,0,0
95068,-66.6666666666667,4,2,1,100,0,0
95090,-66.6666666666667,4,2,2,5,0,0
95112,-66.6666666666667,4,2,1,100,0,0
95156,-66.6666666666667,4,2,1,100,0,0
95178,-66.6666666666667,4,2,2,5,0,0
95200,-66.6666666666667,4,2,1,100,0,0
95222,-66.6666666666667,4,2,2,5,0,0
95244,-66.6666666666667,4,2,1,100,0,0
95266,-66.6666666666667,4,2,2,5,0,0
95289,-50,4,2,2,100,0,0
95305,-50,4,2,2,100,0,1
95990,-66.6666666666667,4,2,2,100,0,1
96338,-66.6666666666667,4,2,1,100,0,1
96691,-50,4,2,1,100,0,1
97392,-66.6666666666667,4,2,1,100,0,1
98093,-50,4,2,1,100,0,1
98794,-66.6666666666667,4,2,1,100,0,1
99495,-50,4,2,1,100,0,1
99950,-50,4,2,1,100,0,0
100371,-66.6666666666667,4,2,1,100,0,0
100897,-50,4,2,1,100,0,0
100914,-50,4,2,1,100,0,1
106506,-133.333333333333,4,2,1,100,0,1
106767,-133.333333333333,4,2,1,5,0,1
106786,-133.333333333333,4,2,1,5,0,0
113972,394.736842105263,4,2,1,100,1,0
113972,-66.6666666666667,4,2,1,100,0,0

[Colours]
Combo1 : 224,224,224
Combo2 : 192,192,192

[HitObjects]
238,39,312,6,0,P|190:67|119:141,1,150,2|8,0:0|0:0,0:0:0:0:
154,47,930,2,0,B|156:69|156:93|225:106|352:73|374:84|378:103|243:140|212:168|211:186|284:176|305:174|305:174|278:213|328:209|416:172|321:257|367:325,1,532.710935866857,0|8,1:0|0:0,0:0:0:0:
134,274,2761,6,0,L|126:215,1,56.2500021457673,6|0,1:0|0:0,0:0:0:0:
140,280,2936,6,0,L|113:350,2,56.2500021457673,0|0|0,0:0|0:0|3:0,0:0:0:0:
215,263,3462,2,0,L|285:302,1,56.2500021457673,2|2,0:0|0:0,0:0:0:0:
327,213,3812,2,0,L|318:146,1,56.2500021457673,2|2,0:0|0:0,0:0:0:0:
251,253,4163,1,2,0:0:0:0:
338,339,4338,1,2,0:0:0:0:
457,246,4513,1,2,0:0:0:0:
508,356,4689,2,0,B|444:369|421:285|335:311,1,168.750006437302,2|0,0:0|0:0,0:0:0:0:
310,358,5740,6,0,L|298:287,2,56.2500021457673,2|2|2,0:0|0:0|0:0,0:0:0:0:
221,264,6266,2,0,L|179:320,1,56.2500021457673,0|0,3:0|3:0,0:0:0:0:
168,187,6617,2,0,L|151:108,1,56.2500021457673,2|2,0:0|0:0,0:0:0:0:
142,227,6967,1,2,0:0:0:0:
46,129,7142,1,2,0:0:0:0:
18,232,7318,1,2,0:0:0:0:
0,42,7493,2,0,P|11:99|59:212,1,168.750006437302,2|0,0:0|0:0,0:0:0:0:
140,170,8194,6,0,P|194:138|237:86,1,112.500004291535,2|2,0:1|0:0,0:0:0:0:
187,6,8720,2,0,P|169:32|159:62,1,56.2500021457673,2|2,0:0|0:0,0:0:0:0:
286,99,9070,2,0,P|324:100|356:89,1,56.2500021457673,6|6,0:0|0:0,0:0:0:0:
408,37,9421,1,6,0:0:0:0:
439,18,9771,1,2,0:0:0:0:
351,109,9947,1,2,0:0:0:0:
474,183,10122,1,2,0:0:0:0:
443,101,10297,2,0,B|358:120|398:180|304:213,1,168.750006437302,2|0,0:0|0:0,0:0:0:0:
154,198,10998,6,2,B|166:167|186:164|213:187,1,56.2500021457673,0|0,0:0|0:0,0:1:0:0:
122,254,11349,6,0,L|66:284,1,56.2500021457673,0|2,0:0|0:0,0:0:0:0:
206,210,11700,2,0,L|277:220,1,56.2500021457673,2|2,0:0|0:0,0:0:0:0:
340,266,12050,1,2,0:0:0:0:
370,345,12225,1,0,0:0:0:0:
436,205,12401,6,2,B|456:195|474:199|481:224,1,56.2500021457673,0|0,0:0|0:0,0:1:0:0:
432,248,12751,1,0,0:0:0:0:
344,224,12926,2,0,L|312:169,1,56.2500021457673,2|2,0:0|0:0,0:0:0:0:
246,127,13277,2,0,L|223:187,1,56.2500021457673,2|2,0:0|0:0,0:0:0:0:
118,182,13628,2,0,P|89:203|63:240,1,56.2500021457673,2|2,0:0|3:0,0:0:0:0:
93,253,13890,1,2,3:0:0:0:
101,273,13978,6,0,L|75:360,1,75,10|2,0:0|0:0,0:0:0:0:
211,175,14329,2,0,P|230:133|239:93,1,75,6|2,1:0|0:1,0:0:0:0:
142,174,14679,2,0,B|166:246|232:226|234:322,1,150,10|8,1:0|0:0,0:0:0:0:
231,321,15117,1,8,0:0:0:0:
210,348,15205,1,8,0:0:0:0:
346,350,15380,6,0,P|392:361|485:344,1,112.5,6|0,1:2|0:0,0:0:0:0:
477,336,15731,2,0,L|498:253,1,75,2|2,0:0|0:0,0:0:0:0:
404,265,15994,1,8,0:0:0:0:
399,238,16081,2,0,L|444:159,1,75,10|2,0:0|0:0,0:0:0:0:
323,197,16344,1,0,0:0:0:0:
306,174,16432,2,0,L|255:106,1,75,10|8,0:0|0:0,0:0:0:0:
146,23,16782,6,0,P|121:89|147:157,1,112.5,4|0,1:0|0:0,0:0:0:0:
227,217,17133,2,0,P|236:152|208:90,1,112.5,6|0,1:0|0:0,0:0:0:0:
143,103,17484,2,0,P|96:114|61:128,1,75,10|0,1:0|0:0,0:0:0:0:
6,207,17834,1,8,0:0:0:0:
20,231,17922,1,8,0:0:0:0:
39,239,18009,1,8,0:0:0:0:
139,304,18185,6,0,B|164:273|164:273|196:208|159:137,1,150,6|2,1:2|0:0,0:0:0:0:
77,113,18710,1,0,1:0:0:0:
139,260,18886,2,0,L|183:333,2,75,10|2|10,0:0|0:0|0:0,0:0:0:0:
9,169,19412,5,8,0:0:0:0:
31,191,19499,1,8,0:0:0:0:
63,195,19587,2,0,P|112:165|131:130,1,75,4|0,1:0|0:0,0:0:0:0:
306,193,19937,2,0,L|261:100,1,75,6|2,1:0|0:1,0:0:0:0:
186,243,20288,2,0,P|182:156|127:86,1,150,10|8,1:0|0:0,0:0:0:0:
79,45,20726,2,0,L|105:2,2,37.5,8|8|8,0:0|0:0|0:0,0:0:0:0:
19,81,20989,6,0,L|33:162,1,75,4|0,1:0|0:0,0:0:0:0:
94,272,21340,1,2,0:0:0:0:
179,205,21515,2,0,L|204:121,1,75,0|10,1:0|0:0,0:0:0:0:
304,171,21865,1,2,0:0:0:0:
304,171,21953,1,0,0:0:0:0:
304,171,22041,2,0,L|324:80,1,75,8|6,0:0|0:0,0:0:0:0:
420,68,22391,6,0,B|425:35|508:31|511:0,2,112.5,6|6|6,0:0|0:0|0:0,0:0:0:0:
332,103,23092,1,10,0:0:0:0:
405,181,23268,1,2,0:0:0:0:
340,267,23443,1,10,0:0:0:0:
328,299,23531,1,8,0:0:0:0:
348,324,23618,6,0,P|378:341|471:362,1,127.5,4|0,1:0|0:0,0:0:0:0:
493,334,25196,6,0,L|314:365,1,146.249993305207,4|0,1:0|0:0,0:0:0:0:
276,303,25546,2,0,P|208:277|109:251,1,146.249993305207,4|0,1:0|0:0,0:0:0:0:
275,344,25897,2,0,P|332:309|356:271,1,97.4999955368044,4|0,1:0|0:0,0:0:0:0:
245,251,26160,2,0,P|193:230|152:182,1,97.4999955368044,4|0,1:0|0:0,0:0:0:0:
310,270,26423,6,2,L|427:287,1,112.5,4|0,1:0|0:0,0:1:0:0:
435,296,28000,6,0,P|394:223|388:145,1,146.249993305207,4|0,1:0|0:0,0:0:0:0:
301,171,28351,2,0,P|276:101|236:36,1,146.249993305207,4|0,1:0|0:0,0:0:0:0:
350,186,28701,2,0,L|456:206,1,97.4999955368044,4|0,1:0|0:0,0:0:0:0:
243,111,28964,2,0,L|128:88,1,97.4999955368044,4|2,1:0|0:0,0:0:0:0:
249,245,29227,6,2,B|262:298|294:294|306:353,1,112.5,4|0,1:0|0:0,0:1:0:0:
303,342,30279,2,0,L|261:323,1,37.5
257,366,30454,2,0,P|162:329|124:326,1,112.5,8|0,0:0|3:0,0:0:0:0:
71,368,30804,6,0,P|23:327|25:217,1,146.249993305207,4|0,1:0|0:0,0:0:0:0:
143,318,31155,2,0,P|176:265|170:202,1,97.4999955368044,4|10,1:0|0:0,0:0:0:0:
155,183,31418,1,0,0:0:0:0:
115,172,31506,2,0,L|141:291,1,97.4999955368044,4|2,1:0|0:0,0:0:0:0:
198,120,31768,2,0,P|222:63|229:12,1,97.4999955368044,0|0,0:0|3:0,0:0:0:0:
271,155,32031,2,0,L|278:183,4,18.75,4|0|0|0|2,1:2|3:0|3:0|0:0|0:0,0:0:0:0:
348,50,32557,6,0,P|392:36|427:40,1,75,2|0,0:0|0:0,0:0:0:0:
447,48,32820,1,0,0:0:0:0:
479,62,32908,2,0,P|486:37|470:20,2,37.5,0|0|0,3:0|3:0|3:0,0:0:0:0:
431,163,33258,1,0,3:0:0:0:
407,177,33346,1,0,3:0:0:0:
382,178,33434,1,0,3:0:0:0:
371,195,33521,1,0,3:0:0:0:
355,197,33609,6,0,P|293:209|186:182,1,146.249993305207,4|0,1:0|0:0,0:0:0:0:
177,113,33959,2,0,P|117:93|22:136,1,146.249993305207,4|0,1:0|0:0,0:0:0:0:
183,162,34310,2,0,L|240:68,1,97.4999955368044,4|0,1:0|3:0,0:0:0:0:
100,217,34573,2,0,L|7:257,1,97.4999955368044,4|0,1:0|0:0,0:0:0:0:
158,264,34836,5,4,1:0:0:0:
236,346,35011,1,0,0:0:0:0:
270,335,35186,1,0,0:0:0:0:
319,230,35362,1,0,0:0:0:0:
333,185,35537,1,0,0:0:0:0:
360,306,35712,1,0,0:0:0:0:
367,327,35887,1,0,0:0:0:0:
453,336,36063,1,0,0:0:0:0:
458,343,36238,1,0,0:0:0:0:
493,369,36413,6,0,L|474:300,1,44.999998626709,4|0,1:0|0:0,0:0:0:0:
411,237,36588,1,8,0:0:0:0:
398,149,36764,2,0,L|392:253,1,89.9999972534181,4|8,1:0|0:0,0:0:0:0:
311,305,37114,1,4,1:0:0:0:
213,257,37290,1,8,0:0:0:0:
178,247,37377,2,0,P|115:228|71:223,1,89.9999972534181,0|0,3:0|0:0,0:0:0:0:
75,196,37640,2,0,L|114:342,1,134.999995880127,8|0,0:0|0:0,0:0:0:0:
29,219,37991,5,0,1:0:0:0:
3,307,38166,2,0,L|94:263,1,89.9999972534181,0|0,1:0|1:0,0:0:0:0:
147,345,38517,1,4,1:0:0:0:
219,268,38692,1,8,0:0:0:0:
224,232,38779,1,0,1:0:0:0:
336,82,39042,1,8,0:0:0:0:
414,12,39218,6,0,L|364:31,1,44.999998626709,4|0,1:0|0:0,0:0:0:0:
301,116,39393,1,8,0:0:0:0:
383,155,39568,2,0,L|265:133,1,89.9999972534181,4|8,1:0|0:0,0:0:0:0:
433,58,39919,1,4,1:0:0:0:
499,155,40094,1,8,0:0:0:0:
491,196,40182,2,0,P|474:247|433:302,1,89.9999972534181,0|0,3:0|0:0,0:0:0:0:
440,342,40445,2,0,L|424:224,1,89.9999972534181,14|0,0:0|0:0,0:0:0:0:
386,336,40707,5,0,1:0:0:0:
386,336,40795,1,14,0:0:0:0:
270,260,40970,2,0,P|315:282|346:316,1,89.9999972534181,2|10,1:2|0:0,0:0:0:0:
442,369,41321,2,0,P|479:317|492:268,1,89.9999972534181,2|0,1:2|1:0,0:0:0:0:
431,227,41584,2,0,P|451:293|492:365,1,134.999995880127,0|10,1:0|1:1,0:0:0:0:
352,319,42022,6,0,L|301:294,1,44.999998626709,4|0,1:0|0:0,0:0:0:0:
229,226,42197,1,8,0:0:0:0:
192,336,42373,2,0,L|212:228,1,89.9999972534181,4|8,1:0|0:0,0:0:0:0:
147,139,42723,1,4,1:0:0:0:
76,38,42898,1,8,0:0:0:0:
48,68,42986,2,2,L|116:172,1,89.9999972534181,0|0,1:0|0:0,0:1:0:0:
182,168,43249,2,0,P|211:109|236:21,1,134.999995880127,10|0,0:0|1:0,0:0:0:0:
137,204,43599,5,10,1:0:0:0:
248,243,43775,2,0,L|355:213,1,89.9999972534181,2|10,1:0|1:0,0:0:0:0:
431,239,44125,1,4,1:0:0:0:
475,132,44301,1,10,0:2:0:0:
496,94,44388,1,0,1:0:0:0:
396,14,44563,1,0,0:0:0:0:
398,58,44651,1,8,0:0:0:0:
486,3,44826,6,0,B|440:74|362:11|303:79,1,179.999994506836,4|8,1:0|0:0,0:0:0:0:
233,140,45352,1,2,0:0:0:0:
283,207,45528,2,2,P|314:147|293:50,1,134.999995880127,6|6,1:0|1:0,0:1:0:0:
264,34,45878,1,0,0:0:0:0:
107,3,46053,6,0,P|121:51|123:75,1,67.4999979400635,4|0,1:0|0:0,0:0:0:0:
96,102,46754,1,0,0:0:0:0:
36,167,46930,1,0,0:0:0:0:
3,176,47105,1,0,0:0:0:0:
105,219,47280,2,2,L|245:350,1,168.750006437302,0|0,0:0|0:0,1:0:0:0:
256,358,47631,5,2,0:1:0:0:
208,238,47981,1,2,0:1:0:0:
293,331,48332,1,2,0:1:0:0:
216,281,48595,1,2,0:1:0:0:
323,323,48858,1,2,0:1:0:0:
109,280,49208,1,2,0:1:0:0:
181,332,49471,2,0,L|15:267,2,168.750006437302,2|2|2,0:1|0:1|0:1,0:0:0:0:
382,367,50260,1,2,0:1:0:0:
444,242,50435,5,2,1:0:0:0:
265,160,50786,1,2,1:0:0:0:
416,222,51136,1,2,1:0:0:0:
284,187,51399,1,2,1:0:0:0:
442,195,51662,2,0,L|321:261,1,112.500004291535,2|0,1:0|1:0,0:0:0:0:
155,301,52013,1,2,0:1:0:0:
24,243,52188,1,0,1:0:0:0:
39,262,52276,1,2,0:1:0:0:
107,123,52538,2,0,L|115:304,2,168.750006437302,2|2|2,1:0|1:0|1:0,0:0:0:0:
9,161,53240,5,2,1:0:0:0:
68,187,53590,1,2,1:0:0:0:
28,182,53941,1,2,1:0:0:0:
192,140,54204,1,2,1:0:0:0:
362,102,54467,2,0,L|245:152,1,112.500004291535,2|0,1:0|1:0,0:0:0:0:
282,31,54817,1,2,0:1:0:0:
324,173,54992,1,0,1:0:0:0:
333,155,55080,1,2,0:1:0:0:
393,244,55343,2,0,L|504:381,2,168.750006437302,2|2|2,1:0|1:0|1:0,0:0:0:0:
454,130,56044,5,2,1:0:0:0:
331,42,56219,1,0,3:0:0:0:
331,42,56307,1,0,3:0:0:0:
331,42,56395,1,2,1:0:0:0:
455,177,56745,1,2,1:0:0:0:
336,101,57008,1,2,1:0:0:0:
427,133,57271,2,0,L|360:17,1,112.500004291535,2|0,1:0|1:0,0:0:0:0:
316,172,57621,1,2,0:1:0:0:
207,49,57797,1,0,1:0:0:0:
201,27,57884,1,2,0:1:0:0:
75,233,58147,2,0,P|38:302|20:348,1,112.500004291535,2|0,1:0|0:0,0:0:0:0:
71,175,58410,2,0,P|117:218|151:273,1,112.500004291535,2|0,1:0|0:0,0:0:0:0:
46,118,58673,2,0,L|0:162,1,56.2500021457673,2|0,1:0|0:0,0:0:0:0:
39,32,58848,6,0,L|1:17,3,37.5,2|0|0|0,1:0|3:0|3:0|3:0,0:0:0:0:
54,63,59199,2,0,P|101:90|159:137,1,112.5,2|0,1:0|0:0,0:0:0:0:
228,92,59549,2,0,P|241:45|240:0,1,75,2|0,1:0|0:0,0:0:0:0:
296,108,59812,2,0,L|336:25,1,75,2|0,1:0|0:0,0:0:0:0:
371,149,60075,2,0,L|376:211,1,37.5,2|0,1:0|0:0,0:0:0:0:
447,110,60251,6,0,L|492:105,3,37.5,2|0|2|0,1:0|0:0|0:1|3:0,0:0:0:0:
431,172,60601,2,0,P|364:203|306:243,1,112.5,2|0,1:0|3:0,0:0:0:0:
251,188,60952,2,0,L|208:164,1,37.5,2|0,1:0|0:0,0:0:0:0:
176,256,61127,1,0,0:0:0:0:
176,256,61215,2,0,L|222:244,1,37.5,2|0,1:0|3:0,3:0:0:0:
86,207,61390,1,0,3:0:0:0:
86,207,61477,2,0,L|48:170,1,37.5,0|0,1:0|0:0,0:0:0:0:
61,320,61653,6,0,L|31:283,3,37.5,2|0|0|0,1:0|3:0|3:0|3:0,0:0:0:0:
56,361,62003,2,0,L|39:237,1,112.5,2|0,1:0|3:0,0:0:0:0:
127,312,62354,2,0,P|132:258|132:216,1,75,2|0,1:0|0:0,0:0:0:0:
206,355,62617,2,0,L|232:273,1,75,2|0,1:0|0:0,0:0:0:0:
286,221,62880,2,0,L|298:170,1,37.5,2|0,1:0|0:0,0:0:0:0:
380,348,63055,6,0,L|396:383,3,37.5,2|0|2|0,1:0|0:0|0:1|3:0,0:0:0:0:
391,311,63406,2,0,P|432:342|501:363,1,112.5,2|0,1:0|3:0,0:0:0:0:
433,246,63756,2,0,P|397:228|354:219,1,75,2|0,1:0|3:0,0:0:0:0:
461,146,64019,2,0,P|419:150|383:163,1,75,2|0,1:0|3:0,0:0:0:0:
465,229,64282,2,0,L|515:240,1,37.5,2|0,1:0|0:0,0:0:0:0:
488,57,64457,6,0,L|501:13,3,37.5,2|0|0|0,1:0|3:0|3:0|3:0,0:0:0:0:
440,34,64808,1,2,1:0:0:0:
364,154,64983,1,2,0:1:0:0:
288,50,65158,2,0,L|263:101,1,37.5,2|0,1:0|0:0,0:0:0:0:
352,80,65334,1,0,0:0:0:0:
352,80,65421,2,0,P|345:30|338:0,1,75,2|0,1:0|0:0,0:0:0:0:
426,125,65684,2,0,P|437:173|444:192,1,37.5,2|0,1:0|0:0,0:0:0:0:
357,208,65859,6,0,L|337:251,3,37.5,2|0|0|0,1:0|0:0|0:0|0:0,0:0:0:0:
291,248,66210,2,0,L|254:282,1,37.5,2|0,1:0|3:0,0:0:0:0:
176,311,66385,2,0,L|164:347,1,37.5,0|0,3:0|3:0,0:0:0:0:
111,244,66560,2,0,L|124:304,1,37.5,2|0,1:0|0:0,0:0:0:0:
30,299,66736,1,0,0:0:0:0:
30,299,66823,2,0,P|10:343|-3:382,1,75,2|0,1:0|3:0,0:0:0:0:
60,227,67086,2,0,L|38:180,1,37.5,2|0,1:0|0:0,0:0:0:0:
11,115,67262,6,0,L|0:167,3,37.5,2|0|0|0,1:0|0:0|3:0|3:0,0:0:0:0:
68,82,67612,2,0,P|87:135|141:197,1,112.5,2|0,1:0|3:0,0:0:0:0:
178,122,67963,2,0,P|198:73|201:33,1,75,2|0,1:0|3:0,0:0:0:0:
220,156,68226,2,0,P|230:196|254:226,1,75,2|0,1:0|0:0,0:0:0:0:
166,66,68488,2,0,L|153:31,1,37.5,2|0,1:0|0:0,0:0:0:0:
264,41,68664,6,0,L|394:24,1,112.5,2|0,1:0|0:0,0:0:0:0:
439,100,69014,2,0,L|454:146,3,37.5,0|2|0|0,1:0|0:1|0:0|0:0,0:0:0:0:
491,141,69365,2,0,L|511:17,2,112.5,2|2|0,0:1|0:1|0:0,0:0:0:0:
412,197,70066,6,0,B|429:283|475:242|499:342,1,150,4|8,1:0|0:0,0:0:0:0:
503,303,70767,2,0,B|427:272|424:331|351:301,1,150,2|8,0:0|0:0,0:0:0:0:
269,233,71293,2,0,B|235:201|190:215|195:314|238:347,1,150,2|0,0:0|0:0,0:0:0:0:
255,278,71819,2,0,L|290:259,1,37.5,8|0,0:0|0:0,0:0:0:0:
376,217,71994,1,2,0:0:0:0:
211,201,72169,2,0,L|351:248,1,112.5,2|0,0:0|0:0,0:0:0:0:
146,232,72520,2,0,P|126:247|109:270,1,37.5,8|0,0:0|0:0,0:0:0:0:
26,223,72695,2,0,P|22:257|27:284,1,37.5
16,358,72870,6,0,B|29:286|97:313|116:235,1,150,2|8,0:0|0:0,0:0:0:0:
82,244,73571,2,0,B|115:325|134:271|176:368,1,150,2|8,0:0|0:0,0:0:0:0:
263,257,74097,2,0,P|271:197|233:98,1,150,2|0,0:0|0:0,0:0:0:0:
213,109,74623,2,0,L|157:118,1,37.5,10|0,0:0|0:0,0:0:0:0:
292,58,74798,1,0,0:0:0:0:
365,123,74974,2,0,L|232:86,1,112.5,2|0,0:0|0:0,0:0:0:0:
412,75,75324,2,0,P|396:51|391:32,1,37.5,8|0,0:0|0:0,0:0:0:0:
504,0,75499,2,0,P|499:18|498:37,1,37.5
505,135,75675,6,0,B|478:60|433:104|411:23,1,150,2|8,0:0|0:0,0:0:0:0:
461,136,76376,2,0,B|428:222|396:174|367:265,1,150,2|8,0:0|0:0,0:0:0:0:
443,347,76902,2,0,B|470:370|520:355|514:247|467:263,1,150,2|0,0:0|0:0,0:0:0:0:
451,302,77427,2,0,L|396:322,1,37.5,10|0,0:0|0:0,0:0:0:0:
306,277,77603,1,0,0:0:0:0:
315,371,77778,2,0,L|327:272,1,75,2|0,0:0|0:0,0:0:0:0:
247,202,78129,2,0,P|206:237|149:321,1,150,10|0,0:0|0:0,0:0:0:0:
76,369,78654,5,2,0:0:0:0:
32,355,78830,2,0,L|12:259,1,75,8|0,0:0|0:0,0:0:0:0:
106,181,79180,2,0,L|95:270,1,75,2|0,0:0|0:0,0:0:0:0:
6,228,79531,1,8,0:0:0:0:
105,285,79706,1,0,0:0:0:0:
204,156,79881,2,0,L|131:213,1,75,2|0,0:0|0:0,0:0:0:0:
214,192,80232,2,0,L|310:186,1,75,10|0,0:0|0:0,0:0:0:0:
377,243,80582,1,0,0:0:0:0:
451,161,80758,2,0,L|461:192,3,18.75,0|0|0|0,1:0|1:0|1:0|1:0,1:0:0:0:
491,175,80933,2,0,L|509:220,2,37.5,0|0|12,1:0|1:0|0:0,0:0:0:0:
501,78,81284,6,0,P|477:28|441:3,1,75,4|2,1:0|0:1,0:0:0:0:
295,111,81634,1,2,1:0:0:0:
424,67,81809,1,0,0:0:0:0:
301,18,81985,1,2,1:1:0:0:
376,174,82160,1,2,1:0:0:0:
247,105,82335,2,0,L|111:58,1,112.5,8|0,1:0|0:0,0:0:0:0:
108,15,82686,6,0,L|16:4,1,75,2|2,1:2|0:0,0:0:0:0:
117,127,83036,1,8,1:0:0:0:
209,21,83212,1,2,0:0:0:0:
193,209,83387,2,0,L|158:133,1,75,2|0,1:0|0:0,0:0:0:0:
310,127,83737,2,0,L|378:171,1,75,8|0,1:0|0:0,0:0:0:0:
250,217,84088,5,4,1:0:0:0:
105,136,84263,1,2,0:1:0:0:
21,234,84438,2,0,P|31:187|55:152,1,75,2|0,1:0|0:0,0:0:0:0:
201,316,84789,1,2,1:1:0:0:
124,275,84964,2,0,P|149:321|196:353,1,75,2|8,1:0|1:0,0:0:0:0:
266,200,85315,2,0,B|290:173|290:173|303:111|249:48,1,150,2|2,0:0|0:0,0:0:0:0:
213,215,85841,1,8,1:0:0:0:
331,310,86016,1,2,0:0:0:0:
216,373,86191,2,0,L|234:268,1,75,2|0,1:0|0:0,0:0:0:0:
273,97,86542,2,0,P|290:154|309:184,1,75,8|2,1:0|0:0,0:0:0:0:
391,256,86892,5,4,1:0:0:0:
249,185,87068,1,2,0:0:0:0:
394,136,87243,1,10,1:0:0:0:
286,298,87418,1,2,0:0:0:0:
140,166,87593,1,2,1:1:0:0:
283,128,87769,1,2,0:1:0:0:
327,300,87944,2,0,P|289:353|231:362,1,112.5,8|0,1:0|0:0,0:0:0:0:
201,361,88295,6,0,L|111:323,1,75,2|2,1:2|0:0,0:0:0:0:
0,179,88645,2,0,L|19:261,1,75,8|2,1:0|0:0,0:0:0:0:
6,378,88996,1,2,1:0:0:0:
43,253,89171,1,2,0:1:0:0:
36,94,89346,2,0,L|67:262,1,150,8|2,1:0|1:0,0:0:0:0:
136,328,89872,5,2,0:0:0:0:
317,299,90047,2,0,P|271:283|231:285,1,75,10|2,0:0|0:0,0:0:0:0:
368,340,90398,2,0,P|406:361|454:363,1,75,2|2,1:0|0:0,0:0:0:0:
240,336,90748,1,10,0:0:0:0:
444,261,90924,1,2,0:0:0:0:
257,207,91099,5,8,0:0:0:0:
409,235,91274,1,0,0:0:0:0:
232,202,91449,1,8,0:0:0:0:
384,230,91625,1,0,0:0:0:0:
206,199,91800,1,8,0:0:0:0:
358,227,91975,1,8,0:0:0:0:
147,222,92151,2,0,L|239:242,1,75,8|0,0:0|0:0,0:0:0:0:
269,161,92501,6,0,P|251:117|215:83,1,75,8|0,0:0|0:0,0:0:0:0:
260,251,92852,2,0,L|281:322,1,75,8|0,0:0|0:0,0:0:0:0:
356,150,93202,2,0,L|434:120,1,75,8|0,0:0|0:0,0:0:0:0:
218,155,93553,2,0,P|176:169|131:199,1,75,8|0,0:0|0:0,0:0:0:0:
320,202,93903,2,0,P|366:225|406:234,1,75,8|0,0:0|0:0,0:0:0:0:
248,120,94254,2,0,L|217:45,1,75,8|2,0:0|0:1,0:0:0:0:
182,197,94604,6,0,L|175:146,1,37.5,8|0,0:0|0:0,0:0:0:0:
85,156,94780,2,0,L|76:112,1,37.5,2|0,0:1|0:0,0:0:0:0:
31,203,94955,2,2,L|10:272,1,56.2500021457673,8|0,0:0|0:0,0:1:0:0:
109,70,95130,2,0,L|96:144,1,56.2500021457673
191,20,95305,6,2,B|202:11|250:13|255:175|256:200|273:199|269:123|318:58|326:111|320:170|404:109,1,300,4|0,1:0|0:0,1:1:0:0:
476,167,95831,1,0,3:0:0:0:
477,61,96007,1,0,3:0:0:0:
489,34,96094,1,0,3:0:0:0:
469,16,96182,1,0,3:0:0:0:
386,99,96357,2,0,B|335:100|337:157|288:172,1,112.500004291535
133,102,96708,6,0,B|63:93|97:19|24:-1,2,150,0|0|8,1:0|3:0|0:0,0:0:0:0:
4,93,97234,2,0,L|76:117,1,75
116,38,97409,1,0,1:0:0:0:
141,14,97496,1,0,1:0:0:0:
171,23,97584,1,0,1:0:0:0:
232,125,97759,2,0,B|238:171|277:220|311:201|297:162,1,112.500004291535,4|0,1:0|0:0,0:0:0:0:
288,19,98110,6,0,B|245:71|280:113|294:188|246:244|196:120|157:166|157:166|152:171|152:171|152:179|152:179|142:197,1,300,4|8,1:0|0:0,0:0:0:0:
51,213,98636,1,0,3:0:0:0:
155,312,98811,2,0,L|203:367,2,56.2500021457673,0|0|0,1:0|1:0|1:0,0:0:0:0:
23,322,99162,2,0,L|81:264,1,56.2500021457673,0|0,1:0|1:0,0:0:0:0:
151,207,99337,1,8,0:0:0:0:
235,289,99512,6,0,B|286:281|308:366|371:357,1,150,4|0,0:1|0:0,0:0:0:0:
396,372,99775,1,0,3:0:0:0:
423,369,99863,2,0,B|501:356|539:301|497:272,1,150,8|0,0:0|1:0,0:0:0:0:
367,218,100213,2,0,L|323:309,1,75,0|0,1:0|1:0,0:0:0:0:
270,282,100388,2,0,L|208:240,1,56.2500021457673,0|8,1:0|0:0,0:0:0:0:
162,307,100564,1,0,1:0:0:0:
162,307,100651,1,0,1:0:0:0:
162,307,100739,1,0,1:0:0:0:
162,307,100827,1,0,1:0:0:0:
162,307,100914,6,0,L|127:69,1,225,4|0,1:0|0:0,0:0:0:0:
68,150,101265,2,0,L|5:377,1,225,4|0,1:0|0:0,0:0:0:0:
136,202,101615,2,0,P|191:119|177:-4,1,225,4|0,1:0|0:0,0:0:0:0:
153,155,101966,2,0,P|170:234|281:326,1,225,4|0,1:0|0:0,0:0:0:0:
290,239,102316,6,0,L|513:206,1,225,4|0,1:0|0:0,0:0:0:0:
242,190,102667,2,0,L|13:148,1,225,4|0,1:0|0:0,0:0:0:0:
304,150,103018,2,0,P|346:255|296:350,1,225,4|0,1:0|0:0,0:0:0:0:
219,95,103368,2,0,P|174:140|204:298,1,225,4|0,1:0|0:0,0:0:0:0:
163,276,103719,6,0,L|-1:121,1,225,4|0,1:0|0:0,0:0:0:0:
65,0,104069,2,0,L|189:215,1,225,4|0,1:0|0:0,0:0:0:0:
239,160,104420,2,0,L|475:119,1,225,4|0,1:0|0:0,0:0:0:0:
505,15,104770,2,0,L|290:117,1,225,4|0,1:0|0:0,0:0:0:0:
266,46,105121,6,0,P|199:71|54:11,1,225,4|0,1:0|0:0,0:0:0:0:
332,107,105471,2,0,P|403:101|512:199,1,225,4|0,1:0|0:0,0:0:0:0:
300,21,105822,2,0,P|255:101|286:233,1,225,4|0,1:0|0:0,0:0:0:0:
387,325,106173,2,0,P|415:247|338:130,1,225,4|0,1:0|0:0,0:0:0:0:
286,211,106523,6,0,B|237:221|258:246|204:264,1,84.3750032186509
168,269,113972,6,0,L|148:183,1,56.2500021457673,0|0,1:0|0:0,1:0:0:0:
246,226,114169,2,0,L|282:364,2,112.500004291535,8|0|8,0:0|1:0|0:0,0:0:0:0:
414,116,114761,2,0,L|429:194,1,56.2500021457673,0|0,1:0|0:0,1:0:0:0:
339,159,114958,2,0,L|366:259,1,84.3750032186509,8|0,0:0|0:0,0:0:0:0:
408,272,115156,2,0,L|430:336,1,56.2500021457673,0|0,1:0|0:0,0:0:0:0:
