osu file format v14

[General]
AudioFilename: audio.mp3
AudioLeadIn: 0
PreviewTime: 1915
Countdown: 0
SampleSet: Normal
StackLeniency: 0.7
Mode: 3
LetterboxInBreaks: 0
SpecialStyle: 0
WidescreenStoryboard: 0

[Editor]
DistanceSpacing: 2.8
BeatDivisor: 2
GridSize: 4
TimelineZoom: 1.2

[Metadata]
Title:FUBUKI BAR
TitleUnicode:FUBUKI BAR
Artist:0_0 ch.
ArtistUnicode:0_0 ch.
Creator:DeltaNami
Version:Easy
Source:ゼルダの伝説 ムジュラの仮面
Tags:the legend of zelda majora's mask tloz densetsu majora no kamen 近藤浩治 koji kondo ミルクバー milk bar n64 nintendo 64 shirakami fubuki 白上フブキ フブキch。 白上フブキ ホロライブ hololive 1st generation gamers acapella virtual youtuber vtuber hororaibu cover カバー idol kitsune fox vocal sample sampling remix 音mad otomad ytp oto-mad 鬼畜 ytpmv 音MAD bgm novelty instrumental
BeatmapID:4393354
BeatmapSetID:2095325

[Difficulty]
HPDrainRate:7
CircleSize:7
OverallDifficulty:7
ApproachRate:5
SliderMultiplier:1.4
SliderTickRate:1

[Events]
//Background and Video events
0,0,"bg.jpg",0,0
//Break Periods
//Storyboard Layer 0 (Background)
//Storyboard Layer 1 (Fail)
//Storyboard Layer 2 (Pass)
//Storyboard Layer 3 (Foreground)
//Storyboard Layer 4 (Overlay)
//Storyboard Sound Samples

[TimingPoints]
225,422.535211267606,4,1,1,40,1,0
25577,422.535211267606,3,1,1,40,1,0
28112,422.535211267606,4,1,1,40,1,0
80506,422.535211267606,3,1,1,40,1,0
83041,422.535211267606,4,1,1,40,1,0

[HitObjects]
329,192,225,5,0,0:0:0:0:
109,192,436,1,0,0:0:0:0:
256,192,858,1,0,0:0:0:0:
402,192,1281,1,0,0:0:0:0:
36,192,1492,1,0,0:0:0:0:
109,192,1703,1,0,0:0:0:0:
182,192,1915,1,0,0:0:0:0:
329,192,1915,1,0,0:0:0:0:
402,192,2337,1,0,0:0:0:0:
36,192,2760,1,0,0:0:0:0:
109,192,2971,1,0,0:0:0:0:
182,192,3182,1,0,0:0:0:0:
256,192,3394,1,0,0:0:0:0:
475,192,3605,1,0,0:0:0:0:
402,192,3605,1,0,0:0:0:0:
329,192,4027,1,0,0:0:0:0:
36,192,4239,1,0,0:0:0:0:
329,192,4450,1,0,0:0:0:0:
36,192,4661,1,0,0:0:0:0:
182,192,4872,1,0,0:0:0:0:
475,192,5295,1,0,0:0:0:0:
402,192,5295,1,0,0:0:0:0:
329,192,5717,1,0,0:0:0:0:
182,192,5929,1,0,0:0:0:0:
36,192,6140,1,0,0:0:0:0:
256,192,6351,1,0,0:0:0:0:
36,192,6774,1,0,0:0:0:0:
402,192,6985,1,0,0:0:0:0:
475,192,6985,1,0,0:0:0:0:
182,192,7196,1,0,0:0:0:0:
36,192,7619,1,0,0:0:0:0:
109,192,7619,1,0,0:0:0:0:
256,192,7830,1,0,0:0:0:0:
475,192,8253,1,0,0:0:0:0:
182,192,8675,1,0,0:0:0:0:
36,192,8675,1,0,0:0:0:0:
109,192,9098,1,0,0:0:0:0:
475,192,9520,1,0,0:0:0:0:
329,192,9732,1,0,0:0:0:0:
36,192,9943,1,0,0:0:0:0:
109,192,10154,1,0,0:0:0:0:
475,192,10365,1,0,0:0:0:0:
256,192,10365,1,0,0:0:0:0:
402,192,10788,1,0,0:0:0:0:
182,192,10999,1,0,0:0:0:0:
402,192,11210,1,0,0:0:0:0:
182,192,11422,1,0,0:0:0:0:
256,192,11633,1,0,0:0:0:0:
36,192,12055,1,0,0:0:0:0:
109,192,12055,1,0,0:0:0:0:
329,192,12478,1,0,0:0:0:0:
109,192,12901,1,0,0:0:0:0:
182,192,12901,1,0,0:0:0:0:
475,192,13323,1,0,0:0:0:0:
402,192,13746,1,0,0:0:0:0:
109,192,13746,1,0,0:0:0:0:
256,192,13957,1,0,0:0:0:0:
109,192,14379,1,0,0:0:0:0:
182,192,14379,1,0,0:0:0:0:
402,192,14591,1,0,0:0:0:0:
256,192,15013,1,0,0:0:0:0:
36,192,15013,1,0,0:0:0:0:
475,192,15436,1,0,0:0:0:0:
329,192,15436,1,0,0:0:0:0:
256,192,15858,1,0,0:0:0:0:
36,192,16281,1,0,0:0:0:0:
182,192,16492,1,0,0:0:0:0:
329,192,16703,1,0,0:0:0:0:
182,192,16915,1,0,0:0:0:0:
475,192,17126,1,0,0:0:0:0:
402,192,17126,1,0,0:0:0:0:
109,192,17548,1,0,0:0:0:0:
329,192,17760,1,0,0:0:0:0:
109,192,17971,1,0,0:0:0:0:
329,192,18182,1,0,0:0:0:0:
256,192,18394,1,0,0:0:0:0:
475,192,18816,1,0,0:0:0:0:
402,192,18816,1,0,0:0:0:0:
36,192,19239,1,0,0:0:0:0:
109,192,19450,1,0,0:0:0:0:
182,192,19661,1,0,0:0:0:0:
256,192,19872,1,0,0:0:0:0:
402,192,20295,1,0,0:0:0:0:
182,192,20506,1,0,0:0:0:0:
109,192,20506,1,0,0:0:0:0:
329,192,20717,1,0,0:0:0:0:
36,192,21140,1,0,0:0:0:0:
109,192,21140,1,0,0:0:0:0:
256,192,21351,1,0,0:0:0:0:
402,192,21774,1,0,0:0:0:0:
475,192,21774,1,0,0:0:0:0:
182,192,22196,1,0,0:0:0:0:
109,192,22196,1,0,0:0:0:0:
256,192,22619,1,0,0:0:0:0:
475,192,23041,1,0,0:0:0:0:
329,192,23253,1,0,0:0:0:0:
36,192,23464,1,0,0:0:0:0:
182,192,23675,1,0,0:0:0:0:
475,192,23886,1,0,0:0:0:0:
402,192,23886,1,0,0:0:0:0:
329,192,24309,1,0,0:0:0:0:
36,192,24520,1,0,0:0:0:0:
256,192,24732,1,0,0:0:0:0:
36,192,24943,1,0,0:0:0:0:
402,192,25154,1,0,0:0:0:0:
256,192,25577,1,0,0:0:0:0:
36,192,25577,1,0,0:0:0:0:
402,192,26210,1,0,0:0:0:0:
109,192,26422,1,0,0:0:0:0:
182,192,26844,1,0,0:0:0:0:
402,192,26844,1,0,0:0:0:0:
109,192,27478,1,0,0:0:0:0:
402,192,27689,1,0,0:0:0:0:
182,192,28112,1,0,0:0:0:0:
475,192,28112,1,0,0:0:0:0:
256,192,28534,1,0,0:0:0:0:
36,192,28534,1,0,0:0:0:0:
109,192,28957,1,0,0:0:0:0:
329,192,28957,1,0,0:0:0:0:
182,192,29379,1,0,0:0:0:0:
402,192,29379,1,0,0:0:0:0:
475,192,29802,1,0,0:0:0:0:
256,192,29802,1,0,0:0:0:0:
182,192,30435,1,0,0:0:0:0:
475,192,30647,1,0,0:0:0:0:
109,192,30858,1,0,0:0:0:0:
109,192,31281,1,0,0:0:0:0:
402,192,31492,1,0,0:0:0:0:
475,192,31492,1,0,0:0:0:0:
36,192,31914,1,0,0:0:0:0:
109,192,32126,1,0,0:0:0:0:
182,192,32337,1,0,0:0:0:0:
256,192,32548,1,0,0:0:0:0:
109,192,32971,1,0,0:0:0:0:
475,192,33182,1,0,0:0:0:0:
402,192,33182,1,0,0:0:0:0:
182,192,33604,1,0,0:0:0:0:
329,192,34027,1,0,0:0:0:0:
402,192,34027,1,0,0:0:0:0:
182,192,34450,1,0,0:0:0:0:
475,192,34872,1,0,0:0:0:0:
36,192,34872,1,0,0:0:0:0:
182,192,35295,1,0,0:0:0:0:
256,192,35717,1,0,0:0:0:0:
329,192,36140,1,0,0:0:0:0:
402,192,36562,1,0,0:0:0:0:
475,192,36562,1,0,0:0:0:0:
256,192,37196,1,0,0:0:0:0:
475,192,37407,1,0,0:0:0:0:
182,192,37619,1,0,0:0:0:0:
256,192,38041,1,0,0:0:0:0:
475,192,38252,1,0,0:0:0:0:
402,192,38252,1,0,0:0:0:0:
329,192,38675,1,0,0:0:0:0:
256,192,38886,1,0,0:0:0:0:
182,192,39097,1,0,0:0:0:0:
109,192,39309,1,0,0:0:0:0:
36,192,39731,1,0,0:0:0:0:
329,192,39942,1,0,0:0:0:0:
402,192,39942,1,0,0:0:0:0:
109,192,40365,1,0,0:0:0:0:
329,192,40788,1,0,0:0:0:0:
475,192,40788,1,0,0:0:0:0:
256,192,41210,1,0,0:0:0:0:
402,192,41633,1,0,0:0:0:0:
475,192,41633,1,0,0:0:0:0:
36,192,42055,1,0,0:0:0:0:
109,192,42478,1,0,0:0:0:0:
182,192,42900,1,0,0:0:0:0:
256,192,43323,1,0,0:0:0:0:
402,192,43323,1,0,0:0:0:0:
182,192,43957,1,0,0:0:0:0:
256,192,44168,1,0,0:0:0:0:
329,192,44379,1,0,0:0:0:0:
402,192,44802,1,0,0:0:0:0:
36,192,45013,1,0,0:0:0:0:
109,192,45013,1,0,0:0:0:0:
475,192,45435,1,0,0:0:0:0:
402,192,45647,1,0,0:0:0:0:
329,192,45858,1,0,0:0:0:0:
256,192,46069,1,0,0:0:0:0:
109,192,46492,1,0,0:0:0:0:
256,192,46703,1,0,0:0:0:0:
475,192,46703,1,0,0:0:0:0:
109,192,47126,1,0,0:0:0:0:
402,192,47548,1,0,0:0:0:0:
256,192,47548,1,0,0:0:0:0:
109,192,47971,1,0,0:0:0:0:
475,192,48393,1,0,0:0:0:0:
402,192,48393,1,0,0:0:0:0:
329,192,48816,1,0,0:0:0:0:
109,192,49238,1,0,0:0:0:0:
182,192,49238,1,0,0:0:0:0:
329,192,49661,1,0,0:0:0:0:
36,192,50083,1,0,0:0:0:0:
109,192,50083,1,0,0:0:0:0:
182,192,50717,1,0,0:0:0:0:
256,192,50928,1,0,0:0:0:0:
329,192,51140,1,0,0:0:0:0:
402,192,51351,1,0,0:0:0:0:
475,192,51562,1,0,0:0:0:0:
36,192,51773,1,0,0:0:0:0:
109,192,51773,1,0,0:0:0:0:
402,192,52619,1,0,0:0:0:0:
329,192,52830,1,0,0:0:0:0:
256,192,53041,1,0,0:0:0:0:
182,192,53252,1,0,0:0:0:0:
36,192,53464,1,0,0:0:0:0:
109,192,53464,1,0,0:0:0:0:
475,192,53886,1,0,0:0:0:0:
329,192,54309,1,0,0:0:0:0:
182,192,54309,1,0,0:0:0:0:
256,192,54731,1,0,0:0:0:0:
36,192,55154,1,0,0:0:0:0:
475,192,55154,1,0,0:0:0:0:
329,192,55365,1,0,0:0:0:0:
36,192,55788,1,0,0:0:0:0:
475,192,55788,1,0,0:0:0:0:
109,192,56210,1,0,0:0:0:0:
182,192,56421,1,0,0:0:0:0:
256,192,56633,1,0,0:0:0:0:
329,192,56844,1,0,0:0:0:0:
475,192,56844,1,0,0:0:0:0:
109,192,57266,1,0,0:0:0:0:
475,192,57689,1,0,0:0:0:0:
402,192,57900,1,0,0:0:0:0:
329,192,58112,1,0,0:0:0:0:
256,192,58323,1,0,0:0:0:0:
36,192,58534,1,0,0:0:0:0:
109,192,58534,1,0,0:0:0:0:
182,192,58957,1,0,0:0:0:0:
475,192,59168,1,0,0:0:0:0:
182,192,59379,1,0,0:0:0:0:
475,192,59590,1,0,0:0:0:0:
329,192,59802,1,0,0:0:0:0:
36,192,60224,1,0,0:0:0:0:
109,192,60224,1,0,0:0:0:0:
182,192,60647,1,0,0:0:0:0:
329,192,60858,1,0,0:0:0:0:
475,192,61069,1,0,0:0:0:0:
256,192,61281,1,0,0:0:0:0:
475,192,61703,1,0,0:0:0:0:
109,192,61914,1,0,0:0:0:0:
36,192,61914,1,0,0:0:0:0:
329,192,62126,1,0,0:0:0:0:
475,192,62548,1,0,0:0:0:0:
402,192,62548,1,0,0:0:0:0:
256,192,62759,1,0,0:0:0:0:
36,192,63182,1,0,0:0:0:0:
329,192,63604,1,0,0:0:0:0:
475,192,63604,1,0,0:0:0:0:
402,192,64027,1,0,0:0:0:0:
36,192,64450,1,0,0:0:0:0:
182,192,64661,1,0,0:0:0:0:
475,192,64872,1,0,0:0:0:0:
402,192,65083,1,0,0:0:0:0:
36,192,65295,1,0,0:0:0:0:
256,192,65295,1,0,0:0:0:0:
109,192,65717,1,0,0:0:0:0:
329,192,65928,1,0,0:0:0:0:
109,192,66140,1,0,0:0:0:0:
329,192,66351,1,0,0:0:0:0:
256,192,66562,1,0,0:0:0:0:
475,192,66985,1,0,0:0:0:0:
402,192,66985,1,0,0:0:0:0:
182,192,67407,1,0,0:0:0:0:
402,192,67830,1,0,0:0:0:0:
329,192,67830,1,0,0:0:0:0:
36,192,68252,1,0,0:0:0:0:
109,192,68675,1,0,0:0:0:0:
402,192,68675,1,0,0:0:0:0:
256,192,68886,1,0,0:0:0:0:
402,192,69309,1,0,0:0:0:0:
329,192,69309,1,0,0:0:0:0:
109,192,69520,1,0,0:0:0:0:
256,192,69942,1,0,0:0:0:0:
475,192,69942,1,0,0:0:0:0:
36,192,70365,1,0,0:0:0:0:
182,192,70365,1,0,0:0:0:0:
256,192,70788,1,0,0:0:0:0:
475,192,71210,1,0,0:0:0:0:
329,192,71421,1,0,0:0:0:0:
182,192,71633,1,0,0:0:0:0:
329,192,71844,1,0,0:0:0:0:
36,192,72055,1,0,0:0:0:0:
109,192,72055,1,0,0:0:0:0:
402,192,72478,1,0,0:0:0:0:
182,192,72689,1,0,0:0:0:0:
402,192,72900,1,0,0:0:0:0:
182,192,73112,1,0,0:0:0:0:
256,192,73323,1,0,0:0:0:0:
36,192,73745,1,0,0:0:0:0:
109,192,73745,1,0,0:0:0:0:
475,192,74168,1,0,0:0:0:0:
402,192,74379,1,0,0:0:0:0:
329,192,74590,1,0,0:0:0:0:
256,192,74802,1,0,0:0:0:0:
109,192,75224,1,0,0:0:0:0:
329,192,75435,1,0,0:0:0:0:
402,192,75435,1,0,0:0:0:0:
182,192,75647,1,0,0:0:0:0:
475,192,76069,1,0,0:0:0:0:
402,192,76069,1,0,0:0:0:0:
256,192,76281,1,0,0:0:0:0:
109,192,76703,1,0,0:0:0:0:
36,192,76703,1,0,0:0:0:0:
329,192,77126,1,0,0:0:0:0:
402,192,77126,1,0,0:0:0:0:
256,192,77548,1,0,0:0:0:0:
36,192,77971,1,0,0:0:0:0:
182,192,78182,1,0,0:0:0:0:
475,192,78393,1,0,0:0:0:0:
329,192,78604,1,0,0:0:0:0:
36,192,78816,1,0,0:0:0:0:
109,192,78816,1,0,0:0:0:0:
182,192,79238,1,0,0:0:0:0:
475,192,79450,1,0,0:0:0:0:
256,192,79661,1,0,0:0:0:0:
475,192,79872,1,0,0:0:0:0:
109,192,80083,1,0,0:0:0:0:
256,192,80506,1,0,0:0:0:0:
475,192,80506,1,0,0:0:0:0:
109,192,81139,1,0,0:0:0:0:
402,192,81351,1,0,0:0:0:0:
329,192,81773,1,0,0:0:0:0:
109,192,81773,1,0,0:0:0:0:
402,192,82407,1,0,0:0:0:0:
109,192,82618,1,0,0:0:0:0:
329,192,83041,1,0,0:0:0:0:
36,192,83041,1,0,0:0:0:0:
256,192,83463,1,0,0:0:0:0:
475,192,83463,1,0,0:0:0:0:
402,192,83886,1,0,0:0:0:0:
182,192,83886,1,0,0:0:0:0:
329,192,84308,1,0,0:0:0:0:
109,192,84308,1,0,0:0:0:0:
36,192,84731,1,0,0:0:0:0:
256,192,84731,1,0,0:0:0:0:
329,192,85364,1,0,0:0:0:0:
36,192,85576,1,0,0:0:0:0:
402,192,85787,1,0,0:0:0:0:
402,192,86210,1,0,0:0:0:0:
109,192,86421,1,0,0:0:0:0:
36,192,86421,1,0,0:0:0:0:
475,192,86843,1,0,0:0:0:0:
402,192,87055,1,0,0:0:0:0:
329,192,87266,1,0,0:0:0:0:
256,192,87477,1,0,0:0:0:0:
402,192,87900,1,0,0:0:0:0:
36,192,88111,1,0,0:0:0:0:
109,192,88111,1,0,0:0:0:0:
329,192,88533,1,0,0:0:0:0:
182,192,88956,1,0,0:0:0:0:
109,192,88956,1,0,0:0:0:0:
329,192,89379,1,0,0:0:0:0:
36,192,89801,1,0,0:0:0:0:
475,192,89801,1,0,0:0:0:0:
329,192,90224,1,0,0:0:0:0:
256,192,90646,1,0,0:0:0:0:
182,192,91069,1,0,0:0:0:0:
109,192,91491,1,0,0:0:0:0:
36,192,91491,1,0,0:0:0:0:
256,192,92125,1,0,0:0:0:0:
36,192,92336,1,0,0:0:0:0:
329,192,92548,1,0,0:0:0:0:
256,192,92970,1,0,0:0:0:0:
36,192,93181,1,0,0:0:0:0:
109,192,93181,1,0,0:0:0:0:
182,192,93604,1,0,0:0:0:0:
256,192,93815,1,0,0:0:0:0:
329,192,94026,1,0,0:0:0:0:
402,192,94238,1,0,0:0:0:0:
475,192,94660,1,0,0:0:0:0:
182,192,94871,1,0,0:0:0:0:
109,192,94871,1,0,0:0:0:0:
402,192,95294,1,0,0:0:0:0:
182,192,95717,1,0,0:0:0:0:
36,192,95717,1,0,0:0:0:0:
256,192,96139,1,0,0:0:0:0:
109,192,96562,1,0,0:0:0:0:
36,192,96562,1,0,0:0:0:0:
475,192,96984,1,0,0:0:0:0:
402,192,97407,1,0,0:0:0:0:
329,192,97829,1,0,0:0:0:0:
256,192,98252,1,0,0:0:0:0:
109,192,98252,1,0,0:0:0:0:
329,192,98886,1,0,0:0:0:0:
256,192,99097,1,0,0:0:0:0:
182,192,99308,1,0,0:0:0:0:
109,192,99731,1,0,0:0:0:0:
475,192,99942,1,0,0:0:0:0:
402,192,99942,1,0,0:0:0:0:
36,192,100364,1,0,0:0:0:0:
109,192,100576,1,0,0:0:0:0:
182,192,100787,1,0,0:0:0:0:
256,192,100998,1,0,0:0:0:0:
402,192,101421,1,0,0:0:0:0:
256,192,101632,1,0,0:0:0:0:
36,192,101632,1,0,0:0:0:0:
402,192,102055,1,0,0:0:0:0:
109,192,102477,1,0,0:0:0:0:
256,192,102477,1,0,0:0:0:0:
402,192,102900,1,0,0:0:0:0:
36,192,103322,1,0,0:0:0:0:
109,192,103322,1,0,0:0:0:0:
182,192,103745,1,0,0:0:0:0:
402,192,104167,1,0,0:0:0:0:
329,192,104167,1,0,0:0:0:0:
182,192,104590,1,0,0:0:0:0:
475,192,105012,1,0,0:0:0:0:
402,192,105012,1,0,0:0:0:0:
329,192,105646,1,0,0:0:0:0:
256,192,105857,1,0,0:0:0:0:
182,192,106069,1,0,0:0:0:0:
109,192,106280,1,0,0:0:0:0:
36,192,106491,1,0,0:0:0:0:
475,192,106702,1,0,0:0:0:0:
402,192,106702,1,0,0:0:0:0:
109,192,107548,1,0,0:0:0:0:
182,192,107759,1,0,0:0:0:0:
256,192,107970,1,0,0:0:0:0:
329,192,108181,1,0,0:0:0:0:
475,192,108393,1,0,0:0:0:0:
402,192,108393,1,0,0:0:0:0:
36,192,108815,1,0,0:0:0:0:
182,192,109238,1,0,0:0:0:0:
329,192,109238,1,0,0:0:0:0:
256,192,109660,1,0,0:0:0:0:
475,192,110083,1,0,0:0:0:0:
36,192,110083,1,0,0:0:0:0:
182,192,110294,1,0,0:0:0:0:
475,192,110717,1,0,0:0:0:0:
36,192,110717,1,0,0:0:0:0:
402,192,111139,1,0,0:0:0:0:
329,192,111350,1,0,0:0:0:0:
256,192,111562,1,0,0:0:0:0:
