osu file format v14

[General]
AudioFilename: audio.mp3
AudioLeadIn: 0
PreviewTime: 1915
Countdown: 0
SampleSet: Normal
StackLeniency: 0.7
Mode: 3
LetterboxInBreaks: 0
SpecialStyle: 0
WidescreenStoryboard: 0

[Editor]
DistanceSpacing: 2.8
BeatDivisor: 2
GridSize: 4
TimelineZoom: 1.5

[Metadata]
Title:FUBUKI BAR
TitleUnicode:FUBUKI BAR
Artist:0_0 ch.
ArtistUnicode:0_0 ch.
Creator:DeltaNami
Version:Beginner
Source:ゼルダの伝説 ムジュラの仮面
Tags:the legend of zelda majora's mask tloz densetsu majora no kamen 近藤浩治 koji kondo ミルクバー milk bar n64 nintendo 64 shirakami fubuki 白上フブキ フブキch。 白上フブキ ホロライブ hololive 1st generation gamers acapella virtual youtuber vtuber hororaibu cover カバー idol kitsune fox vocal sample sampling remix 音mad otomad ytp oto-mad 鬼畜 ytpmv 音MAD bgm novelty instrumental
BeatmapID:4393352
BeatmapSetID:2095325

[Difficulty]
HPDrainRate:6.5
CircleSize:7
OverallDifficulty:7
ApproachRate:5
SliderMultiplier:1.4
SliderTickRate:1

[Events]
//Background and Video events
0,0,"bg.jpg",0,0
//Break Periods
//Storyboard Layer 0 (Background)
//Storyboard Layer 1 (Fail)
//Storyboard Layer 2 (Pass)
//Storyboard Layer 3 (Foreground)
//Storyboard Layer 4 (Overlay)
//Storyboard Sound Samples

[TimingPoints]
225,422.535211267606,4,1,1,40,1,0
25577,422.535211267606,3,1,1,40,1,0
28112,422.535211267606,4,1,1,40,1,0
80506,422.535211267606,3,1,1,40,1,0
83041,422.535211267606,4,1,1,40,1,0

[HitObjects]
329,192,225,5,0,0:0:0:0:
182,192,858,1,0,0:0:0:0:
329,192,1281,1,0,0:0:0:0:
475,192,1492,1,0,0:0:0:0:
182,192,1915,1,0,0:0:0:0:
36,192,2337,1,0,0:0:0:0:
256,192,2760,1,0,0:0:0:0:
329,192,2971,1,0,0:0:0:0:
402,192,3182,1,0,0:0:0:0:
475,192,3605,1,0,0:0:0:0:
109,192,4027,1,0,0:0:0:0:
329,192,4450,1,0,0:0:0:0:
109,192,4872,1,0,0:0:0:0:
475,192,5295,1,0,0:0:0:0:
182,192,5717,1,0,0:0:0:0:
182,192,6140,1,0,0:0:0:0:
329,192,6351,1,0,0:0:0:0:
109,192,6985,1,0,0:0:0:0:
402,192,7619,1,0,0:0:0:0:
256,192,8253,1,0,0:0:0:0:
475,192,8675,1,0,0:0:0:0:
329,192,9098,1,0,0:0:0:0:
182,192,9520,1,0,0:0:0:0:
109,192,9732,1,0,0:0:0:0:
36,192,9943,1,0,0:0:0:0:
256,192,10365,1,0,0:0:0:0:
402,192,10788,1,0,0:0:0:0:
256,192,11210,1,0,0:0:0:0:
402,192,11633,1,0,0:0:0:0:
109,192,12055,1,0,0:0:0:0:
256,192,12478,1,0,0:0:0:0:
402,192,13323,1,0,0:0:0:0:
182,192,13746,1,0,0:0:0:0:
329,192,13957,1,0,0:0:0:0:
182,192,14379,1,0,0:0:0:0:
475,192,14591,1,0,0:0:0:0:
329,192,15013,1,0,0:0:0:0:
256,192,15436,1,0,0:0:0:0:
36,192,15858,1,0,0:0:0:0:
182,192,16281,1,0,0:0:0:0:
256,192,16492,1,0,0:0:0:0:
329,192,16703,1,0,0:0:0:0:
109,192,17126,1,0,0:0:0:0:
475,192,17548,1,0,0:0:0:0:
109,192,17971,1,0,0:0:0:0:
475,192,18394,1,0,0:0:0:0:
329,192,18816,1,0,0:0:0:0:
182,192,19239,1,0,0:0:0:0:
329,192,19661,1,0,0:0:0:0:
182,192,19872,1,0,0:0:0:0:
475,192,20506,1,0,0:0:0:0:
36,192,20717,1,0,0:0:0:0:
182,192,21140,1,0,0:0:0:0:
329,192,21774,1,0,0:0:0:0:
182,192,22196,1,0,0:0:0:0:
329,192,22619,1,0,0:0:0:0:
109,192,23041,1,0,0:0:0:0:
182,192,23253,1,0,0:0:0:0:
256,192,23464,1,0,0:0:0:0:
36,192,23886,1,0,0:0:0:0:
256,192,24309,1,0,0:0:0:0:
402,192,24732,1,0,0:0:0:0:
256,192,25154,1,0,0:0:0:0:
475,192,25577,1,0,0:0:0:0:
109,192,26210,1,0,0:0:0:0:
475,192,26844,1,0,0:0:0:0:
109,192,27478,1,0,0:0:0:0:
329,192,28112,1,0,0:0:0:0:
109,192,28534,1,0,0:0:0:0:
182,192,28957,1,0,0:0:0:0:
256,192,29379,1,0,0:0:0:0:
329,192,29802,1,0,0:0:0:0:
182,192,30647,1,0,0:0:0:0:
475,192,31492,1,0,0:0:0:0:
329,192,31914,1,0,0:0:0:0:
182,192,32337,1,0,0:0:0:0:
36,192,32759,1,0,0:0:0:0:
256,192,33182,1,0,0:0:0:0:
402,192,34027,1,0,0:0:0:0:
36,192,34872,1,0,0:0:0:0:
182,192,35295,1,0,0:0:0:0:
256,192,35717,1,0,0:0:0:0:
329,192,36140,1,0,0:0:0:0:
475,192,36562,1,0,0:0:0:0:
256,192,37407,1,0,0:0:0:0:
402,192,38252,1,0,0:0:0:0:
109,192,38675,1,0,0:0:0:0:
256,192,39097,1,0,0:0:0:0:
402,192,39520,1,0,0:0:0:0:
109,192,39942,1,0,0:0:0:0:
329,192,40788,1,0,0:0:0:0:
109,192,41633,1,0,0:0:0:0:
182,192,42055,1,0,0:0:0:0:
256,192,42478,1,0,0:0:0:0:
329,192,42900,1,0,0:0:0:0:
36,192,43323,1,0,0:0:0:0:
256,192,44168,1,0,0:0:0:0:
36,192,45013,1,0,0:0:0:0:
329,192,45435,1,0,0:0:0:0:
256,192,45858,1,0,0:0:0:0:
182,192,46281,1,0,0:0:0:0:
109,192,46703,1,0,0:0:0:0:
402,192,47548,1,0,0:0:0:0:
182,192,48393,1,0,0:0:0:0:
475,192,49238,1,0,0:0:0:0:
256,192,50083,1,0,0:0:0:0:
402,192,50928,1,0,0:0:0:0:
256,192,51351,1,0,0:0:0:0:
109,192,51773,1,0,0:0:0:0:
182,192,52619,1,0,0:0:0:0:
329,192,53041,1,0,0:0:0:0:
475,192,53464,1,0,0:0:0:0:
36,192,54309,1,0,0:0:0:0:
402,192,55154,1,0,0:0:0:0:
109,192,55365,1,0,0:0:0:0:
256,192,55788,1,0,0:0:0:0:
182,192,56421,1,0,0:0:0:0:
329,192,56844,1,0,0:0:0:0:
475,192,57266,1,0,0:0:0:0:
256,192,57689,1,0,0:0:0:0:
182,192,57900,1,0,0:0:0:0:
109,192,58112,1,0,0:0:0:0:
36,192,58534,1,0,0:0:0:0:
402,192,58957,1,0,0:0:0:0:
182,192,59379,1,0,0:0:0:0:
402,192,59802,1,0,0:0:0:0:
36,192,60224,1,0,0:0:0:0:
329,192,60647,1,0,0:0:0:0:
329,192,61069,1,0,0:0:0:0:
182,192,61281,1,0,0:0:0:0:
402,192,61914,1,0,0:0:0:0:
109,192,62548,1,0,0:0:0:0:
256,192,63182,1,0,0:0:0:0:
36,192,63604,1,0,0:0:0:0:
182,192,64027,1,0,0:0:0:0:
329,192,64450,1,0,0:0:0:0:
402,192,64661,1,0,0:0:0:0:
475,192,64872,1,0,0:0:0:0:
256,192,65295,1,0,0:0:0:0:
109,192,65717,1,0,0:0:0:0:
256,192,66140,1,0,0:0:0:0:
109,192,66562,1,0,0:0:0:0:
402,192,66985,1,0,0:0:0:0:
256,192,67407,1,0,0:0:0:0:
109,192,68252,1,0,0:0:0:0:
329,192,68675,1,0,0:0:0:0:
182,192,68886,1,0,0:0:0:0:
329,192,69309,1,0,0:0:0:0:
36,192,69520,1,0,0:0:0:0:
182,192,69942,1,0,0:0:0:0:
256,192,70365,1,0,0:0:0:0:
475,192,70788,1,0,0:0:0:0:
329,192,71210,1,0,0:0:0:0:
256,192,71421,1,0,0:0:0:0:
182,192,71633,1,0,0:0:0:0:
402,192,72055,1,0,0:0:0:0:
36,192,72478,1,0,0:0:0:0:
402,192,72900,1,0,0:0:0:0:
36,192,73323,1,0,0:0:0:0:
182,192,73745,1,0,0:0:0:0:
329,192,74168,1,0,0:0:0:0:
182,192,74590,1,0,0:0:0:0:
329,192,74802,1,0,0:0:0:0:
36,192,75435,1,0,0:0:0:0:
475,192,75647,1,0,0:0:0:0:
329,192,76069,1,0,0:0:0:0:
182,192,76703,1,0,0:0:0:0:
329,192,77126,1,0,0:0:0:0:
182,192,77548,1,0,0:0:0:0:
402,192,77971,1,0,0:0:0:0:
329,192,78182,1,0,0:0:0:0:
256,192,78393,1,0,0:0:0:0:
475,192,78816,1,0,0:0:0:0:
256,192,79238,1,0,0:0:0:0:
109,192,79661,1,0,0:0:0:0:
256,192,80083,1,0,0:0:0:0:
36,192,80506,1,0,0:0:0:0:
402,192,81139,1,0,0:0:0:0:
36,192,81773,1,0,0:0:0:0:
402,192,82407,1,0,0:0:0:0:
182,192,83041,1,0,0:0:0:0:
402,192,83463,1,0,0:0:0:0:
329,192,83886,1,0,0:0:0:0:
256,192,84308,1,0,0:0:0:0:
182,192,84731,1,0,0:0:0:0:
329,192,85576,1,0,0:0:0:0:
36,192,86421,1,0,0:0:0:0:
182,192,86843,1,0,0:0:0:0:
329,192,87266,1,0,0:0:0:0:
475,192,87688,1,0,0:0:0:0:
256,192,88111,1,0,0:0:0:0:
109,192,88956,1,0,0:0:0:0:
475,192,89801,1,0,0:0:0:0:
329,192,90224,1,0,0:0:0:0:
256,192,90646,1,0,0:0:0:0:
182,192,91069,1,0,0:0:0:0:
36,192,91491,1,0,0:0:0:0:
256,192,92336,1,0,0:0:0:0:
109,192,93181,1,0,0:0:0:0:
402,192,93604,1,0,0:0:0:0:
256,192,94026,1,0,0:0:0:0:
109,192,94449,1,0,0:0:0:0:
402,192,94871,1,0,0:0:0:0:
182,192,95717,1,0,0:0:0:0:
402,192,96562,1,0,0:0:0:0:
329,192,96984,1,0,0:0:0:0:
256,192,97407,1,0,0:0:0:0:
182,192,97829,1,0,0:0:0:0:
475,192,98252,1,0,0:0:0:0:
256,192,99097,1,0,0:0:0:0:
475,192,99942,1,0,0:0:0:0:
182,192,100364,1,0,0:0:0:0:
256,192,100787,1,0,0:0:0:0:
329,192,101210,1,0,0:0:0:0:
402,192,101632,1,0,0:0:0:0:
109,192,102477,1,0,0:0:0:0:
329,192,103322,1,0,0:0:0:0:
36,192,104167,1,0,0:0:0:0:
256,192,105012,1,0,0:0:0:0:
109,192,105857,1,0,0:0:0:0:
256,192,106280,1,0,0:0:0:0:
402,192,106702,1,0,0:0:0:0:
329,192,107548,1,0,0:0:0:0:
182,192,107970,1,0,0:0:0:0:
36,192,108393,1,0,0:0:0:0:
475,192,109238,1,0,0:0:0:0:
109,192,110083,1,0,0:0:0:0:
402,192,110294,1,0,0:0:0:0:
256,192,110717,1,0,0:0:0:0:
329,192,111350,1,0,0:0:0:0:
