osu file format v14

[General]
AudioFilename: audio.mp3
AudioLeadIn: 0
PreviewTime: -1
Countdown: 1
SampleSet: Normal
StackLeniency: 0
Mode: 0
LetterboxInBreaks: 0
WidescreenStoryboard: 0

[Editor]
DistanceSpacing: 0.6
BeatDivisor: 1
GridSize: 4
TimelineZoom: 1

[Metadata]
Title:rog-unlimitation
TitleUnicode:rog-unlimitation
Artist:07th expansion
ArtistUnicode:07th expansion
Creator:blahpy
Version:the only 7 star CS1 map on osu! (also a super op farm map)
Source:
Tags:
BeatmapID:1256670
BeatmapSetID:594092

[Difficulty]
HPDrainRate:5
CircleSize:1
OverallDifficulty:5
ApproachRate:9
SliderMultiplier:1.4
SliderTickRate:1

[Events]
//Background and Video events
//Break Periods
//Storyboard Layer 0 (Background)
//Storyboard Layer 1 (Fail)
//Storyboard Layer 2 (Pass)
//Storyboard Layer 3 (Foreground)
//Storyboard Sound Samples

[TimingPoints]
380,272.727272727273,4,1,0,70,1,0
21925,-100,4,1,0,5,0,0
22061,-100,4,1,0,70,0,0
23289,-100,4,1,0,70,0,1
23323,-100,4,1,0,70,0,0
40402,-100,4,1,0,80,0,0
40607,-100,4,1,0,5,0,0
40675,-100,4,1,0,70,0,0
40743,-100,4,1,0,70,0,1
40777,-100,4,1,0,70,0,0
58198,-100,4,1,0,70,0,1
59289,-100,4,1,0,70,0,0
75380,-100,4,2,0,40,0,0
75516,-100,4,1,0,70,0,0
101698,-100,4,1,0,70,0,1
102925,-100,4,1,0,70,0,0
132301,-133.333333333333,4,1,0,40,0,0
132652,-133.333333333333,4,1,0,45,0,0
132925,-133.333333333333,4,1,0,50,0,0
133198,-133.333333333333,4,1,0,55,0,0
133470,-133.333333333333,4,1,0,60,0,0
133743,-133.333333333333,4,1,0,65,0,0
134016,-133.333333333333,4,1,0,70,0,0
134289,-133.333333333333,4,1,0,75,0,0
134561,-133.333333333333,4,1,0,80,0,0
135652,-133.333333333333,4,1,0,40,0,0
135925,-133.333333333333,4,1,0,30,0,0
136198,-133.333333333333,4,1,0,20,0,0
136470,-133.333333333333,4,1,0,10,0,0
136743,-133.333333333333,4,1,0,30,0,1
136880,-133.333333333333,4,1,0,5,0,0

[HitObjects]
232,220,380,5,0,0:0:0:0:
280,160,448,1,0,0:0:0:0:
232,220,516,1,0,0:0:0:0:
280,160,584,1,0,0:0:0:0:
232,220,652,1,0,0:0:0:0:
280,160,720,1,0,0:0:0:0:
232,220,788,1,0,0:0:0:0:
280,160,856,1,0,0:0:0:0:
232,220,925,1,0,0:0:0:0:
280,160,993,1,0,0:0:0:0:
232,220,1061,1,0,0:0:0:0:
280,160,1129,1,0,0:0:0:0:
232,220,1197,1,0,0:0:0:0:
280,160,1265,1,0,0:0:0:0:
232,220,1333,1,0,0:0:0:0:
280,160,1401,1,0,0:0:0:0:
232,220,1470,1,0,0:0:0:0:
280,160,1538,1,0,0:0:0:0:
232,220,1606,1,0,0:0:0:0:
280,160,1674,1,0,0:0:0:0:
232,220,1742,1,0,0:0:0:0:
280,160,1810,1,0,0:0:0:0:
232,220,1878,1,0,0:0:0:0:
280,160,1946,1,0,0:0:0:0:
232,220,2016,1,0,0:0:0:0:
280,160,2084,1,0,0:0:0:0:
232,220,2152,1,0,0:0:0:0:
280,160,2220,1,0,0:0:0:0:
232,220,2288,1,0,0:0:0:0:
280,160,2356,1,0,0:0:0:0:
232,220,2424,1,0,0:0:0:0:
280,160,2492,1,0,0:0:0:0:
232,220,2561,1,0,0:0:0:0:
280,160,2629,1,0,0:0:0:0:
232,220,2697,1,0,0:0:0:0:
280,160,2765,1,0,0:0:0:0:
232,220,2833,1,0,0:0:0:0:
280,160,2901,1,0,0:0:0:0:
232,220,2969,1,0,0:0:0:0:
280,160,3037,1,0,0:0:0:0:
232,220,3106,1,0,0:0:0:0:
280,160,3174,1,0,0:0:0:0:
232,220,3242,1,0,0:0:0:0:
280,160,3310,1,0,0:0:0:0:
232,220,3378,1,0,0:0:0:0:
280,160,3446,1,0,0:0:0:0:
232,220,3514,1,0,0:0:0:0:
280,160,3582,1,0,0:0:0:0:
232,220,3652,1,0,0:0:0:0:
280,160,3720,1,0,0:0:0:0:
232,220,3788,1,0,0:0:0:0:
280,160,3856,1,0,0:0:0:0:
232,220,3924,1,0,0:0:0:0:
280,160,3992,1,0,0:0:0:0:
232,220,4060,1,0,0:0:0:0:
280,160,4128,1,0,0:0:0:0:
232,220,4197,1,0,0:0:0:0:
280,160,4265,1,0,0:0:0:0:
232,220,4333,1,0,0:0:0:0:
280,160,4401,1,0,0:0:0:0:
232,220,4469,1,0,0:0:0:0:
280,160,4537,1,0,0:0:0:0:
232,220,4605,1,0,0:0:0:0:
280,160,4673,1,0,0:0:0:0:
232,220,4742,1,0,0:0:0:0:
280,160,4810,1,0,0:0:0:0:
232,220,4878,1,0,0:0:0:0:
280,160,4946,1,0,0:0:0:0:
232,220,5014,1,0,0:0:0:0:
280,160,5082,1,0,0:0:0:0:
232,220,5150,1,0,0:0:0:0:
280,160,5218,1,0,0:0:0:0:
232,220,5288,1,0,0:0:0:0:
280,160,5356,1,0,0:0:0:0:
232,220,5424,1,0,0:0:0:0:
280,160,5492,1,0,0:0:0:0:
232,220,5560,1,0,0:0:0:0:
280,160,5628,1,0,0:0:0:0:
232,220,5696,1,0,0:0:0:0:
280,160,5764,1,0,0:0:0:0:
232,220,5833,1,0,0:0:0:0:
280,160,5901,1,0,0:0:0:0:
232,220,5969,1,0,0:0:0:0:
280,160,6037,1,0,0:0:0:0:
232,220,6105,1,0,0:0:0:0:
280,160,6173,1,0,0:0:0:0:
232,220,6241,1,0,0:0:0:0:
280,160,6309,1,0,0:0:0:0:
232,220,6378,1,0,0:0:0:0:
280,160,6446,1,0,0:0:0:0:
232,220,6514,1,0,0:0:0:0:
280,160,6582,1,0,0:0:0:0:
232,220,6650,1,0,0:0:0:0:
280,160,6718,1,0,0:0:0:0:
232,220,6786,1,0,0:0:0:0:
280,160,6854,1,0,0:0:0:0:
232,220,6925,1,0,0:0:0:0:
280,160,6993,1,0,0:0:0:0:
232,220,7061,1,0,0:0:0:0:
280,160,7129,1,0,0:0:0:0:
232,220,7197,1,0,0:0:0:0:
280,160,7265,1,0,0:0:0:0:
232,220,7333,1,0,0:0:0:0:
280,160,7401,1,0,0:0:0:0:
232,220,7470,1,0,0:0:0:0:
280,160,7538,1,0,0:0:0:0:
232,220,7606,1,0,0:0:0:0:
280,160,7674,1,0,0:0:0:0:
232,220,7742,1,0,0:0:0:0:
280,160,7810,1,0,0:0:0:0:
232,220,7878,1,0,0:0:0:0:
280,160,7946,1,0,0:0:0:0:
232,220,8015,1,0,0:0:0:0:
280,160,8083,1,0,0:0:0:0:
232,220,8151,1,0,0:0:0:0:
280,160,8219,1,0,0:0:0:0:
232,220,8287,1,0,0:0:0:0:
280,160,8355,1,0,0:0:0:0:
232,220,8423,1,0,0:0:0:0:
280,160,8491,1,0,0:0:0:0:
232,220,8561,1,0,0:0:0:0:
280,160,8629,1,0,0:0:0:0:
232,220,8697,1,0,0:0:0:0:
280,160,8765,1,0,0:0:0:0:
232,220,8833,1,0,0:0:0:0:
280,160,8901,1,0,0:0:0:0:
232,220,8969,1,0,0:0:0:0:
280,160,9037,1,0,0:0:0:0:
232,220,9106,1,0,0:0:0:0:
280,160,9174,1,0,0:0:0:0:
232,220,9242,1,0,0:0:0:0:
280,160,9310,1,0,0:0:0:0:
232,220,9378,1,0,0:0:0:0:
280,160,9446,1,0,0:0:0:0:
232,220,9514,1,0,0:0:0:0:
280,160,9582,1,0,0:0:0:0:
232,220,9651,1,0,0:0:0:0:
280,160,9719,1,0,0:0:0:0:
232,220,9787,1,0,0:0:0:0:
280,160,9855,1,0,0:0:0:0:
232,220,9923,1,0,0:0:0:0:
280,160,9991,1,0,0:0:0:0:
232,220,10059,1,0,0:0:0:0:
280,160,10127,1,0,0:0:0:0:
232,220,10197,1,0,0:0:0:0:
280,160,10265,1,0,0:0:0:0:
232,220,10333,1,0,0:0:0:0:
280,160,10401,1,0,0:0:0:0:
232,220,10469,1,0,0:0:0:0:
280,160,10537,1,0,0:0:0:0:
232,220,10605,1,0,0:0:0:0:
280,160,10673,1,0,0:0:0:0:
232,220,10742,1,0,0:0:0:0:
280,160,10810,1,0,0:0:0:0:
232,220,10878,1,0,0:0:0:0:
280,160,10946,1,0,0:0:0:0:
232,220,11014,1,0,0:0:0:0:
280,160,11082,1,0,0:0:0:0:
232,220,11150,1,0,0:0:0:0:
280,160,11218,1,0,0:0:0:0:
232,220,11287,1,0,0:0:0:0:
280,160,11355,1,0,0:0:0:0:
232,220,11423,1,0,0:0:0:0:
280,160,11491,1,0,0:0:0:0:
232,220,11559,1,0,0:0:0:0:
280,160,11627,1,0,0:0:0:0:
232,220,11695,1,0,0:0:0:0:
280,160,11763,1,0,0:0:0:0:
232,220,11833,1,0,0:0:0:0:
280,160,11901,1,0,0:0:0:0:
232,220,11969,1,0,0:0:0:0:
280,160,12037,1,0,0:0:0:0:
232,220,12105,1,0,0:0:0:0:
280,160,12173,1,0,0:0:0:0:
232,220,12241,1,0,0:0:0:0:
280,160,12309,1,0,0:0:0:0:
232,220,12378,1,0,0:0:0:0:
280,160,12446,1,0,0:0:0:0:
232,220,12514,1,0,0:0:0:0:
280,160,12582,1,0,0:0:0:0:
232,220,12650,1,0,0:0:0:0:
280,160,12718,1,0,0:0:0:0:
232,220,12786,1,0,0:0:0:0:
280,160,12854,1,0,0:0:0:0:
232,220,12923,1,0,0:0:0:0:
280,160,12991,1,0,0:0:0:0:
232,220,13059,1,0,0:0:0:0:
280,160,13127,1,0,0:0:0:0:
232,220,13195,1,0,0:0:0:0:
280,160,13263,1,0,0:0:0:0:
232,220,13331,1,0,0:0:0:0:
280,160,13399,1,0,0:0:0:0:
232,220,13470,1,0,0:0:0:0:
280,160,13538,1,0,0:0:0:0:
232,220,13606,1,0,0:0:0:0:
280,160,13674,1,0,0:0:0:0:
232,220,13742,1,0,0:0:0:0:
280,160,13810,1,0,0:0:0:0:
232,220,13878,1,0,0:0:0:0:
280,160,13946,1,0,0:0:0:0:
232,220,14015,1,0,0:0:0:0:
280,160,14083,1,0,0:0:0:0:
232,220,14151,1,0,0:0:0:0:
280,160,14219,1,0,0:0:0:0:
232,220,14287,1,0,0:0:0:0:
280,160,14355,1,0,0:0:0:0:
232,220,14423,1,0,0:0:0:0:
280,160,14491,1,0,0:0:0:0:
232,220,14560,1,0,0:0:0:0:
280,160,14628,1,0,0:0:0:0:
232,220,14696,1,0,0:0:0:0:
280,160,14764,1,0,0:0:0:0:
232,220,14832,1,0,0:0:0:0:
280,160,14900,1,0,0:0:0:0:
232,220,14968,1,0,0:0:0:0:
280,160,15036,1,0,0:0:0:0:
232,220,15106,1,0,0:0:0:0:
280,160,15174,1,0,0:0:0:0:
232,220,15242,1,0,0:0:0:0:
280,160,15310,1,0,0:0:0:0:
232,220,15378,1,0,0:0:0:0:
280,160,15446,1,0,0:0:0:0:
232,220,15514,1,0,0:0:0:0:
280,160,15582,1,0,0:0:0:0:
232,220,15651,1,0,0:0:0:0:
280,160,15719,1,0,0:0:0:0:
232,220,15787,1,0,0:0:0:0:
280,160,15855,1,0,0:0:0:0:
232,220,15923,1,0,0:0:0:0:
280,160,15991,1,0,0:0:0:0:
232,220,16059,1,0,0:0:0:0:
280,160,16127,1,0,0:0:0:0:
232,220,16196,1,0,0:0:0:0:
280,160,16264,1,0,0:0:0:0:
232,220,16332,1,0,0:0:0:0:
280,160,16400,1,0,0:0:0:0:
232,220,16468,1,0,0:0:0:0:
280,160,16536,1,0,0:0:0:0:
232,220,16604,1,0,0:0:0:0:
280,160,16672,1,0,0:0:0:0:
232,220,16742,1,0,0:0:0:0:
280,160,16810,1,0,0:0:0:0:
232,220,16878,1,0,0:0:0:0:
280,160,16946,1,0,0:0:0:0:
232,220,17014,1,0,0:0:0:0:
280,160,17082,1,0,0:0:0:0:
232,220,17150,1,0,0:0:0:0:
280,160,17218,1,0,0:0:0:0:
232,220,17287,1,0,0:0:0:0:
280,160,17355,1,0,0:0:0:0:
232,220,17423,1,0,0:0:0:0:
280,160,17491,1,0,0:0:0:0:
232,220,17559,1,0,0:0:0:0:
280,160,17627,1,0,0:0:0:0:
232,220,17695,1,0,0:0:0:0:
280,160,17763,1,0,0:0:0:0:
232,220,17832,1,0,0:0:0:0:
280,160,17900,1,0,0:0:0:0:
232,220,17968,1,0,0:0:0:0:
280,160,18036,1,0,0:0:0:0:
232,220,18104,1,0,0:0:0:0:
280,160,18172,1,0,0:0:0:0:
232,220,18240,1,0,0:0:0:0:
280,160,18308,1,0,0:0:0:0:
232,220,18378,1,0,0:0:0:0:
280,160,18446,1,0,0:0:0:0:
232,220,18514,1,0,0:0:0:0:
280,160,18582,1,0,0:0:0:0:
232,220,18650,1,0,0:0:0:0:
280,160,18718,1,0,0:0:0:0:
232,220,18786,1,0,0:0:0:0:
280,160,18854,1,0,0:0:0:0:
232,220,18923,1,0,0:0:0:0:
280,160,18991,1,0,0:0:0:0:
232,220,19059,1,0,0:0:0:0:
280,160,19127,1,0,0:0:0:0:
232,220,19195,1,0,0:0:0:0:
280,160,19263,1,0,0:0:0:0:
232,220,19331,1,0,0:0:0:0:
280,160,19399,1,0,0:0:0:0:
232,220,19468,1,0,0:0:0:0:
280,160,19536,1,0,0:0:0:0:
232,220,19604,1,0,0:0:0:0:
280,160,19672,1,0,0:0:0:0:
232,220,19740,1,0,0:0:0:0:
280,160,19808,1,0,0:0:0:0:
232,220,19876,1,0,0:0:0:0:
280,160,19944,1,0,0:0:0:0:
232,220,20015,1,0,0:0:0:0:
280,160,20083,1,0,0:0:0:0:
232,220,20151,1,0,0:0:0:0:
280,160,20219,1,0,0:0:0:0:
232,220,20287,1,0,0:0:0:0:
280,160,20355,1,0,0:0:0:0:
232,220,20423,1,0,0:0:0:0:
280,160,20491,1,0,0:0:0:0:
232,220,20560,1,0,0:0:0:0:
280,160,20628,1,0,0:0:0:0:
232,220,20696,1,0,0:0:0:0:
280,160,20764,1,0,0:0:0:0:
232,220,20832,1,0,0:0:0:0:
280,160,20900,1,0,0:0:0:0:
232,220,20968,1,0,0:0:0:0:
280,160,21036,1,0,0:0:0:0:
232,220,21105,1,0,0:0:0:0:
280,160,21173,1,0,0:0:0:0:
232,220,21241,1,0,0:0:0:0:
280,160,21309,1,0,0:0:0:0:
232,220,21377,1,0,0:0:0:0:
280,160,21445,1,0,0:0:0:0:
232,220,21513,1,0,0:0:0:0:
280,160,21581,1,0,0:0:0:0:
232,220,21651,1,0,0:0:0:0:
280,160,21719,1,0,0:0:0:0:
232,220,21787,1,0,0:0:0:0:
280,160,21855,1,0,0:0:0:0:
232,220,21923,1,0,0:0:0:0:
280,160,21991,1,0,0:0:0:0:
232,220,22059,1,0,0:0:0:0:
280,160,22127,1,0,0:0:0:0:
232,220,22196,1,0,0:0:0:0:
280,160,22264,1,0,0:0:0:0:
232,220,22332,1,0,0:0:0:0:
280,160,22400,1,0,0:0:0:0:
232,220,22468,1,0,0:0:0:0:
280,160,22536,1,0,0:0:0:0:
232,220,22604,1,0,0:0:0:0:
280,160,22672,1,0,0:0:0:0:
232,220,22741,1,0,0:0:0:0:
280,160,22809,1,0,0:0:0:0:
232,220,22877,1,0,0:0:0:0:
280,160,22945,1,0,0:0:0:0:
232,220,23013,1,0,0:0:0:0:
280,160,23081,1,0,0:0:0:0:
232,220,23149,1,0,0:0:0:0:
280,160,23217,1,0,0:0:0:0:
232,220,23287,1,0,0:0:0:0:
280,160,23355,1,0,0:0:0:0:
232,220,23423,1,0,0:0:0:0:
280,160,23491,1,0,0:0:0:0:
232,220,23559,1,0,0:0:0:0:
280,160,23627,1,0,0:0:0:0:
232,220,23695,1,0,0:0:0:0:
280,160,23763,1,0,0:0:0:0:
232,220,23832,1,0,0:0:0:0:
280,160,23900,1,0,0:0:0:0:
232,220,23968,1,0,0:0:0:0:
280,160,24036,1,0,0:0:0:0:
232,220,24104,1,0,0:0:0:0:
280,160,24172,1,0,0:0:0:0:
232,220,24240,1,0,0:0:0:0:
280,160,24308,1,0,0:0:0:0:
232,220,24377,1,0,0:0:0:0:
280,160,24445,1,0,0:0:0:0:
232,220,24513,1,0,0:0:0:0:
280,160,24581,1,0,0:0:0:0:
232,220,24649,1,0,0:0:0:0:
280,160,24717,1,0,0:0:0:0:
232,220,24785,1,0,0:0:0:0:
280,160,24853,1,0,0:0:0:0:
232,220,24923,1,0,0:0:0:0:
280,160,24991,1,0,0:0:0:0:
232,220,25059,1,0,0:0:0:0:
280,160,25127,1,0,0:0:0:0:
232,220,25195,1,0,0:0:0:0:
280,160,25263,1,0,0:0:0:0:
232,220,25331,1,0,0:0:0:0:
280,160,25399,1,0,0:0:0:0:
232,220,25468,1,0,0:0:0:0:
280,160,25536,1,0,0:0:0:0:
232,220,25604,1,0,0:0:0:0:
280,160,25672,1,0,0:0:0:0:
232,220,25740,1,0,0:0:0:0:
280,160,25808,1,0,0:0:0:0:
232,220,25876,1,0,0:0:0:0:
280,160,25944,1,0,0:0:0:0:
232,220,26013,1,0,0:0:0:0:
280,160,26081,1,0,0:0:0:0:
232,220,26149,1,0,0:0:0:0:
280,160,26217,1,0,0:0:0:0:
232,220,26285,1,0,0:0:0:0:
280,160,26353,1,0,0:0:0:0:
232,220,26421,1,0,0:0:0:0:
280,160,26489,1,0,0:0:0:0:
