osu file format v14

[General]
AudioFilename: audio.mp3
AudioLeadIn: 0
PreviewTime: 38362
Countdown: 0
SampleSet: Normal
StackLeniency: 0.7
Mode: 0
LetterboxInBreaks: 0
WidescreenStoryboard: 1

[Editor]
Bookmarks: 13295,17562,26095,38895,53828,68762,87962
DistanceSpacing: 2.4
BeatDivisor: 4
GridSize: 8
TimelineZoom: 2.2

[Metadata]
Title:Utopia (TV Size)
TitleUnicode:Utopia (TV Size)
Artist:04 Limited Sazabyz
ArtistUnicode:04 Limited Sazabyz
Creator:Timu
Version:Extra
Source:Radiant S1
Tags:Rock JRock Radiant
BeatmapID:2467138
BeatmapSetID:1053937

[Difficulty]
HPDrainRate:6
CircleSize:4
OverallDifficulty:9
ApproachRate:9.7
SliderMultiplier:1.6
SliderTickRate:1

[Events]
//Background and Video events
0,0,"Konachan.com - 257015 bicycle brown_hair building clouds dark goroku hoodie landscape original pantyhose scenic school_uniform signed skirt sky sunset train water.jpg",0,0
//Break Periods
//Storyboard Layer 0 (Background)
//Storyboard Layer 1 (Fail)
//Storyboard Layer 2 (Pass)
//Storyboard Layer 3 (Foreground)
//Storyboard Layer 4 (Overlay)
//Storyboard Sound Samples

[TimingPoints]
494,-100,4,1,3,45,0,0
3695,266.666666666667,4,1,3,70,1,0
3695,-100,4,1,3,70,0,0
4762,266.666666666667,4,1,3,50,1,0
4762,-100,4,1,3,55,0,0
13295,-133.333333333333,4,1,3,55,0,0
15428,-100,4,1,3,60,0,0
16495,-181.818181818181,4,1,3,60,0,0
17562,-66.6666666666667,4,1,4,70,0,0
22362,-80,4,1,4,70,0,0
22628,-100,4,1,4,70,0,0
23962,-66.6666666666667,4,1,4,70,0,0
26095,-153.846153846153,4,1,4,70,0,0
26362,-133.333333333333,4,2,4,5,0,0
26628,-100,4,1,3,70,0,0
29828,-133.333333333333,4,2,3,70,0,0
30095,-100,4,1,3,70,0,0
31428,-133.333333333333,4,1,3,70,0,0
31695,-100,4,1,3,70,0,0
34628,-100,4,2,3,55,0,0
36762,-100,4,2,3,55,0,0
37828,-100,4,2,3,50,0,0
38028,-100,4,2,3,5,0,0
38095,-66.6666666666667,4,2,3,50,0,0
38295,-66.6666666666667,4,2,3,5,0,0
38362,-50,4,2,3,70,0,0
38562,-50,4,2,3,5,0,0
38628,-50,4,2,3,80,0,0
38895,-50,4,2,4,50,0,0
39028,-57.1428571428571,4,2,3,80,0,1
39162,-57.1428571428571,4,2,3,70,0,1
39428,-57.1428571428571,4,2,3,80,0,1
39695,-57.1428571428571,4,2,3,70,0,1
39962,-57.1428571428571,4,2,3,80,0,1
45295,-57.1428571428571,4,2,3,100,0,1
45428,-57.1428571428571,4,2,3,80,0,1
50628,-57.1428571428571,4,2,3,65,0,1
50895,-57.1428571428571,4,1,3,65,0,1
51695,-57.1428571428571,4,2,3,90,0,1
51828,-57.1428571428571,4,2,3,5,0,1
51962,-57.1428571428571,4,1,3,85,0,1
52095,-57.1428571428571,4,1,3,5,0,1
52228,-57.1428571428571,4,2,3,90,0,1
52362,-57.1428571428571,4,2,3,5,0,1
52495,-57.1428571428571,4,1,3,85,0,1
52628,-57.1428571428571,4,1,3,5,0,1
52762,-57.1428571428571,4,2,3,90,0,1
53828,-100,4,1,4,100,0,0
54095,-100,4,2,3,100,0,0
58095,-100,4,2,4,100,0,0
58362,-100,4,2,3,100,0,0
66628,-66.6666666666667,4,2,4,100,0,0
67162,-66.6666666666667,4,3,0,100,0,0
67295,-66.6666666666667,4,2,3,100,0,0
67562,-66.6666666666667,4,2,3,85,0,0
68228,-66.6666666666667,4,1,3,85,0,0
68762,-100,4,1,3,75,0,0
73028,-100,4,1,3,100,0,0
73162,-100,4,1,3,75,0,0
77562,-100,4,2,3,70,0,0
77828,-100,4,1,3,75,0,0
80895,-100,4,2,3,50,0,0
81162,-100,4,1,3,75,0,0
85828,-66.6666666666667,4,1,3,80,0,0
87428,-66.6666666666667,4,2,3,60,0,0
87695,-200,4,1,3,60,0,0

[Colours]
Combo1 : 114,141,140
Combo2 : 88,146,167
Combo3 : 255,162,117

[HitObjects]
256,192,500,12,0,3695,0:0:0:0:
244,123,4095,5,0,0:0:0:0:
244,123,4162,1,0,0:0:0:0:
244,123,4229,1,0,0:0:0:0:
346,84,4361,1,0,0:0:0:0:
361,218,4762,6,0,B|353:272|353:272|323:317,1,80
230,220,5028,1,0,0:0:0:0:
297,131,5162,1,0,0:0:0:0:
158,68,5295,2,0,B|161:136|161:136|170:166,1,80,8|0,0:0|0:0,0:0:0:0:
308,17,5562,5,0,0:0:0:0:
313,178,5695,1,0,0:0:0:0:
421,57,5828,1,8,0:0:0:0:
404,227,5962,1,0,0:0:0:0:
219,48,6095,1,0,0:0:0:0:
233,226,6228,1,0,0:0:0:0:
394,96,6362,6,0,B|459:117|459:117|514:197,1,160
417,341,6762,2,0,P|382:269|379:175,1,160
238,106,7162,5,0,0:0:0:0:
195,281,7295,1,0,0:0:0:0:
139,104,7428,2,0,B|52:116|52:116|70:140,1,80
303,49,7695,2,0,L|384:43,1,80
141,316,7962,6,0,L|128:223,1,80
233,37,8228,1,0,0:0:0:0:
220,208,8362,1,0,0:0:0:0:
93,25,8495,1,0,0:0:0:0:
121,178,8628,1,0,0:0:0:0:
351,23,8762,1,0,0:0:0:0:
351,23,8895,1,0,0:0:0:0:
200,20,9028,6,0,B|196:74|196:74|211:127,1,80
308,143,9295,1,0,0:0:0:0:
373,49,9428,1,0,0:0:0:0:
179,224,9562,6,0,B|263:249|263:249|342:224,1,160
406,103,9962,2,0,P|422:163|421:261,1,160
300,348,10362,6,0,B|260:332|260:332|204:335,1,80
129,191,10628,2,0,B|148:243|148:243|136:296,1,80
59,333,10895,1,0,0:0:0:0:
17,215,11028,6,0,B|12:143|12:143|56:50,1,160
213,282,11428,1,0,0:0:0:0:
179,121,11562,1,0,0:0:0:0:
300,180,11695,2,0,P|244:198|193:207,1,80
251,28,11962,2,0,L|261:113,1,80
406,62,12228,5,0,0:0:0:0:
392,219,12362,1,0,0:0:0:0:
485,208,12495,5,0,0:0:0:0:
328,116,12628,1,0,0:0:0:0:
285,268,12762,2,0,B|311:345|311:345|395:364,1,160
468,283,13162,5,0,0:0:0:0:
428,287,13228,1,0,0:0:0:0:
385,278,13295,2,0,B|354:239|354:239|339:165,1,120.000004577637
240,250,13695,5,0,0:0:0:0:
148,236,13828,1,0,0:0:0:0:
181,327,13962,1,0,0:0:0:0:
244,145,14095,1,0,0:0:0:0:
340,170,14228,1,0,0:0:0:0:
260,5,14362,6,0,B|251:50|251:50|251:73,1,60.0000022888184
346,32,14628,1,0,0:0:0:0:
147,11,14762,2,0,B|151:68|151:68|136:88,1,60.0000022888184
130,191,15028,1,0,0:0:0:0:
48,104,15162,1,0,0:0:0:0:
276,131,15428,6,0,P|280:181|267:249,1,120
217,298,15695,2,0,L|226:207,1,80
156,142,15962,1,0,0:0:0:0:
143,263,16095,1,0,0:0:0:0:
58,176,16228,1,0,0:0:0:0:
73,314,16362,1,0,0:0:0:0:
100,71,16495,6,0,L|147:57,1,44.0000013427735
252,113,16762,2,0,L|308:115,1,44.0000013427735
417,63,17028,2,0,L|474:55,1,44.0000013427735
380,252,17295,5,0,0:0:0:0:
115,301,17562,6,0,B|115:228|115:228|90:157,1,120.000004577637
223,338,17828,1,0,0:0:0:0:
312,191,17962,5,0,0:0:0:0:
315,204,18028,1,0,0:0:0:0:
315,221,18095,1,0,0:0:0:0:
386,103,18228,5,0,0:0:0:0:
396,115,18294,1,0,0:0:0:0:
405,133,18361,1,0,0:0:0:0:
439,5,18495,5,0,0:0:0:0:
453,9,18561,1,0,0:0:0:0:
473,22,18628,1,0,0:0:0:0:
270,97,18762,5,0,0:0:0:0:
260,85,18828,1,0,0:0:0:0:
251,67,18895,1,0,0:0:0:0:
123,69,19028,5,0,0:0:0:0:
132,57,19094,1,0,0:0:0:0:
141,39,19161,1,0,0:0:0:0:
205,260,19295,5,0,0:0:0:0:
382,155,19428,1,0,0:0:0:0:
294,336,19562,1,0,0:0:0:0:
264,127,19695,6,0,B|281:224|281:224|317:225,1,120.000004577637
458,80,19962,1,0,0:0:0:0:
399,286,20095,1,0,0:0:0:0:
374,66,20228,2,0,L|397:197,1,120.000004577637
506,282,20495,1,0,0:0:0:0:
316,224,20628,1,0,0:0:0:0:
444,55,20762,6,0,B|364:44|364:44|286:88,1,120.000004577637
222,241,21028,2,0,B|245:166|245:166|224:116,1,120.000004577637
279,330,21295,2,0,B|317:316|317:316|390:346,1,120.000004577637
476,150,21562,2,0,L|352:45,1,120.000004577637
106,103,21828,6,0,L|108:168,2,60.0000022888184
243,240,22095,2,0,B|216:185|216:185|205:110,1,120.000004577637
333,44,22362,2,0,B|302:115|302:115|304:165,1,100
407,199,22628,6,0,P|411:143|404:109,1,80
286,242,22895,2,0,P|290:301|303:340,1,80
415,284,23162,1,0,0:0:0:0:
199,320,23295,1,0,0:0:0:0:
398,278,23428,1,0,0:0:0:0:
186,307,23562,1,0,0:0:0:0:
346,203,23695,2,0,B|309:152|309:152|302:117,1,80
94,66,23962,6,0,B|99:119|99:119|128:203,1,120.000004577637
86,303,24228,1,0,0:0:0:0:
221,344,24362,1,0,0:0:0:0:
323,180,24495,6,0,P|271:218|212:219,1,120.000004577637
233,122,24762,1,0,0:0:0:0:
326,278,24895,1,0,0:0:0:0:
406,83,25028,6,0,B|427:154|427:154|416:213,1,120.000004577637
275,40,25295,2,0,B|236:109|236:109|247:162,1,120.000004577637
291,318,25562,1,0,0:0:0:0:
327,128,25695,1,0,0:0:0:0:
224,332,25828,1,0,0:0:0:0:
389,164,25962,1,0,0:0:0:0:
120,279,26095,6,0,P|62:259|136:192,1,207.999990478516
