osu file format v14

[General]
AudioFilename: audio.mp3
AudioLeadIn: 0
PreviewTime: -1
Countdown: 1
SampleSet: Soft
StackLeniency: 0.7
Mode: 0
LetterboxInBreaks: 0
EpilepsyWarning: 1
WidescreenStoryboard: 0

[Editor]
DistanceSpacing: 1.1
BeatDivisor: 4
GridSize: 32
TimelineZoom: 1

[Metadata]
Title:dream escape
TitleUnicode:dream escape
Artist:009 sound system
ArtistUnicode:009 sound system
Creator:Blue Dragon
Version:IMPOSIBLE
Source:youtube
Tags:
BeatmapID:1204058
BeatmapSetID:568156

[Difficulty]
HPDrainRate:5
CircleSize:5
OverallDifficulty:5
ApproachRate:5
SliderMultiplier:1.4
SliderTickRate:1

[Events]
//Background and Video events
0,0,"gA09IKUh.jpg",0,0
//Break Periods
//Storyboard Layer 0 (Background)
//Storyboard Layer 1 (Fail)
//Storyboard Layer 2 (Pass)
//Storyboard Layer 3 (Foreground)
//Storyboard Sound Samples

[TimingPoints]
3759,487.80487804878,4,2,0,100,1,0

[HitObjects]
64,64,3759,6,0,B|352:64|352:64|352:224,1,420
256,352,5710,2,0,P|96:256|160:192,1,350
224,192,7173,1,0,0:0:0:0:
384,192,7661,1,0,0:0:0:0:
288,0,8149,1,0,0:0:0:0:
64,64,8515,1,0,0:0:0:0:
128,288,9002,1,0,0:0:0:0:
384,96,9490,1,0,0:0:0:0:
128,64,10100,1,0,0:0:0:0:
128,320,10588,5,0,0:0:0:0:
256,128,10832,1,0,0:0:0:0:
288,320,11076,1,0,0:0:0:0:
448,128,11441,5,0,0:0:0:0:
128,160,11929,1,0,0:0:0:0:
224,320,12417,2,0,L|448:256,1,210
224,96,13515,2,0,P|64:256|288:288,1,560
320,64,15832,1,0,0:0:0:0:
128,192,16441,1,0,0:0:0:0:
384,320,16929,1,0,0:0:0:0:
416,64,17295,1,0,0:0:0:0:
64,128,17905,1,0,0:0:0:0:
256,320,18271,1,0,0:0:0:0:
320,96,18515,1,0,0:0:0:0:
416,192,19368,1,0,0:0:0:0:
96,224,19856,1,0,0:0:0:0:
256,320,20344,1,0,0:0:0:0:
352,96,20832,1,0,0:0:0:0:
448,288,21319,1,0,0:0:0:0:
64,224,21685,5,0,0:0:0:0:
224,64,22295,1,0,0:0:0:0:
224,352,22783,1,0,0:0:0:0:
480,320,23271,2,0,P|288:64|96:224,1,630
128,320,25588,1,0,0:0:0:0:
416,288,26198,1,0,0:0:0:0:
384,96,26441,1,0,0:0:0:0:
288,256,26685,1,0,0:0:0:0:
512,192,27051,1,0,0:0:0:0:
96,96,27661,5,0,0:0:0:0:
224,352,28027,1,0,0:0:0:0:
352,64,28637,1,0,0:0:0:0:
96,256,29124,1,0,0:0:0:0:
384,352,29612,1,0,0:0:0:0:
448,128,30100,1,0,0:0:0:0:
128,0,30588,1,0,0:0:0:0:
32,352,31076,5,0,0:0:0:0:
288,320,31563,2,0,B|512:96|96:96|64:160|384:192,2,525
128,320,35466,1,0,0:0:0:0:
32,256,35710,1,0,0:0:0:0:
32,160,35954,1,0,0:0:0:0:
192,96,36441,1,0,0:0:0:0:
320,96,36685,1,0,0:0:0:0:
416,320,37417,5,0,0:0:0:0:
224,320,37661,1,0,0:0:0:0:
448,160,37905,1,0,0:0:0:0:
128,96,38271,1,0,0:0:0:0:
128,256,38515,1,0,0:0:0:0:
352,320,39002,1,0,0:0:0:0:
480,224,39612,2,0,P|288:64|448:288,1,805
352,160,42661,1,0,0:0:0:0:
32,64,43271,1,0,0:0:0:0:
64,192,43515,1,0,0:0:0:0:
192,32,43758,1,0,0:0:0:0:
416,32,44246,1,0,0:0:0:0:
448,224,44490,1,0,0:0:0:0:
96,288,45100,5,0,0:0:0:0:
128,128,45466,1,0,0:0:0:0:
160,256,45710,1,0,0:0:0:0:
416,288,46076,5,0,0:0:0:0:
416,96,46441,1,0,0:0:0:0:
256,192,46929,12,0,48637,0:0:0:0:
256,192,48637,12,0,49368,0:0:0:0:
256,192,49734,12,0,49856,0:0:0:0:
256,192,49856,12,0,49978,0:0:0:0:
256,192,50100,12,0,50588,0:0:0:0:
192,192,51319,5,0,0:0:0:0:
352,96,51441,1,0,0:0:0:0:
384,256,51685,1,0,0:0:0:0:
192,224,52051,1,0,0:0:0:0:
64,224,52539,1,0,0:0:0:0:
128,96,53027,1,0,0:0:0:0:
320,96,53271,1,0,0:0:0:0:
384,256,53515,1,0,0:0:0:0:
160,288,54002,1,0,0:0:0:0:
160,160,54246,1,0,0:0:0:0:
352,224,54734,1,0,0:0:0:0:
256,192,55344,12,0,58393,0:0:0:0:
160,96,58880,5,0,0:0:0:0:
352,96,59124,1,0,0:0:0:0:
352,288,59368,1,0,0:0:0:0:
160,288,59612,1,0,0:0:0:0:
192,34,59856,5,0,0:0:0:0:
413,128,60100,1,0,0:0:0:0:
319,349,60344,1,0,0:0:0:0:
98,255,60588,1,0,0:0:0:0:
259,0,60832,5,0,0:0:0:0:
447,195,61076,1,0,0:0:0:0:
252,383,61320,1,0,0:0:0:0:
64,188,61564,1,0,0:0:0:0:
256,192,62905,12,4,65710,0:0:0:0:
128,64,66198,5,4,0:0:0:0:
416,256,66807,1,4,0:0:0:0:
128,320,67417,1,4,0:0:0:0:
256,96,67905,1,4,0:0:0:0:
416,224,68393,5,4,0:0:0:0:
384,320,68515,1,4,0:0:0:0:
128,256,68758,1,4,0:0:0:0:
416,96,69002,1,4,0:0:0:0:
480,288,69246,1,4,0:0:0:0:
256,0,69856,2,4,B|288:-192|288:-192|448:-128|352:0,1,350
160,288,72417,2,4,L|128:320,7,35
256,160,73880,1,4,0:0:0:0:
416,320,74734,1,4,0:0:0:0:
416,128,75222,1,4,0:0:0:0:
192,288,75588,1,4,0:0:0:0:
64,192,76076,1,4,0:0:0:0:
96,32,76319,1,0,0:0:0:0:
256,192,76563,1,0,0:0:0:0:
256,128,77051,1,0,0:0:0:0:
512,96,77295,1,0,0:0:0:0:
352,224,77661,1,0,0:0:0:0:
192,320,78149,1,0,0:0:0:0:
256,192,78515,12,0,79246,0:0:0:0:
256,192,79368,12,0,79490,0:0:0:0:
256,192,79856,12,0,79978,0:0:0:0:
256,192,79978,12,0,80466,0:0:0:0:
256,192,80710,12,0,81198,0:0:0:0:
128,128,81807,5,0,0:0:0:0:
416,128,82417,1,0,0:0:0:0:
256,320,83027,1,0,0:0:0:0:
256,32,83393,1,0,0:0:0:0:
128,256,83880,1,0,0:0:0:0:
384,256,84124,1,0,0:0:0:0:
320,32,84490,1,0,0:0:0:0:
192,256,84734,1,0,0:0:0:0:
352,384,84978,1,0,0:0:0:0:
448,64,85466,1,0,0:0:0:0:
160,128,85954,1,0,0:0:0:0:
32,256,87051,6,0,B|128:288|320:128|384:288|448:320,1,420
448,96,89002,1,0,0:0:0:0:
128,64,89612,1,0,0:0:0:0:
160,256,90222,1,0,0:0:0:0:
320,128,90710,1,0,0:0:0:0:
416,352,91198,1,0,0:0:0:0:
256,288,91685,1,0,0:0:0:0:
64,256,91929,1,0,0:0:0:0:
192,64,92173,1,0,0:0:0:0:
384,352,92417,1,0,0:0:0:0:
416,96,92783,1,0,0:0:0:0:
224,192,93149,1,0,0:0:0:0:
256,192,93515,12,0,96807,0:0:0:0:
288,160,96441,5,0,0:0:0:0:
64,160,97417,5,0,0:0:0:0:
448,224,98149,2,0,B|224:384|64:160|128:128|128:128|288:128|320:128|320:128|224:320|224:320|96:32|96:32|480:32,1,1540
320,224,103880,1,0,0:0:0:0:
160,256,104246,1,0,0:0:0:0:
160,64,104734,1,0,0:0:0:0:
448,32,105222,6,0,B|384:352|384:352|192:96|192:96|32:288|32:288|384:288|384:288|352:64|352:64|32:64|32:64|192:384|192:384|416:32,1,2555
192,96,114490,1,0,0:0:0:0:
160,256,115100,6,0,B|448:256|416:96|352:96|352:96|64:96|64:224|64:224|256:32|256:32|384:352,2,1295
64,160,124490,1,0,0:0:0:0:
96,64,125222,2,0,B|416:64|416:64|96:192|96:192|416:192|416:192|256:0|256:0|64:288|64:288|448:288,1,1960
480,192,132295,1,0,0:0:0:0:
256,64,136319,6,0,B|256:320|256:320|256:32|256:32|448:128|128:192,2,875
0,0,144124,5,0,0:0:0:0:
512,384,145100,1,0,0:0:0:0:
512,0,146198,1,0,0:0:0:0:
0,384,147905,1,0,0:0:0:0:
64,160,149734,5,0,0:0:0:0:
448,160,150222,1,0,0:0:0:0:
224,64,150710,1,0,0:0:0:0:
384,320,150954,1,0,0:0:0:0:
384,32,151319,1,0,0:0:0:0:
224,288,151807,1,0,0:0:0:0:
32,64,151929,1,0,0:0:0:0:
96,96,152905,6,0,B|352:192|384:224|384:224|128:288|288:32,1,665
256,96,155954,1,0,0:0:0:0:
256,288,156319,1,0,0:0:0:0:
256,96,156807,1,0,0:0:0:0:
256,288,157417,1,0,0:0:0:0:
256,96,157905,1,0,0:0:0:0:
256,320,158271,1,0,0:0:0:0:
96,128,158758,1,0,0:0:0:0:
384,288,158880,1,0,0:0:0:0:
256,192,159612,1,0,0:0:0:0:
416,96,159734,1,0,0:0:0:0:
64,128,160344,1,0,0:0:0:0:
128,320,160588,1,0,0:0:0:0:
320,64,160832,1,0,0:0:0:0:
448,128,161198,1,0,0:0:0:0:
352,288,161563,1,0,0:0:0:0:
128,320,162173,5,0,0:0:0:0:
32,64,162539,1,0,0:0:0:0:
384,224,163027,1,0,0:0:0:0:
192,160,163271,1,0,0:0:0:0:
96,320,163515,1,0,0:0:0:0:
416,96,163880,1,0,0:0:0:0:
256,192,164368,12,0,167539,0:0:0:0:
96,96,168027,5,0,0:0:0:0:
288,128,168271,1,0,0:0:0:0:
480,96,168515,1,0,0:0:0:0:
352,32,169002,1,0,0:0:0:0:
288,256,169246,1,0,0:0:0:0:
64,320,170100,1,0,0:0:0:0:
64,128,170344,1,0,0:0:0:0:
64,32,170588,1,0,0:0:0:0:
320,96,171076,1,0,0:0:0:0:
320,256,171319,1,0,0:0:0:0:
256,192,171685,12,0,172295,0:0:0:0:
256,192,172539,12,0,172783,0:0:0:0:
256,192,173027,12,0,173271,0:0:0:0:
256,192,173515,12,0,173758,0:0:0:0:
256,192,174002,12,0,174246,0:0:0:0:
256,192,174490,12,0,174734,0:0:0:0:
256,192,174978,12,0,175222,0:0:0:0:
96,128,175954,5,0,0:0:0:0:
224,128,176076,1,0,0:0:0:0:
416,128,176319,1,0,0:0:0:0:
320,320,176807,1,0,0:0:0:0:
96,320,177051,1,0,0:0:0:0:
96,64,177783,1,0,0:0:0:0:
352,64,178149,1,0,0:0:0:0:
416,160,178880,1,0,0:0:0:0:
288,288,179002,1,0,0:0:0:0:
96,288,179490,1,0,0:0:0:0:
256,192,179978,12,0,183149,0:0:0:0:
128,192,183758,5,0,0:0:0:0:
320,128,183880,1,0,0:0:0:0:
480,192,184246,1,0,0:0:0:0:
320,352,184734,1,0,0:0:0:0:
96,288,184978,1,0,0:0:0:0:
256,96,185588,1,0,0:0:0:0:
288,256,185832,1,0,0:0:0:0:
416,32,186198,1,0,0:0:0:0:
384,32,186685,1,0,0:0:0:0:
160,64,186929,1,0,0:0:0:0:
256,192,187417,12,0,187905,0:0:0:0:
256,192,188271,12,0,188393,0:0:0:0:
256,192,188637,12,0,188880,0:0:0:0:
256,192,189124,12,0,189368,0:0:0:0:
256,192,189612,12,0,189856,0:0:0:0:
256,192,190100,12,0,190344,0:0:0:0:
256,224,190954,5,0,0:0:0:0:
352,256,191076,1,0,0:0:0:0:
352,288,191319,1,0,0:0:0:0:
