osu file format v14

[General]
AudioFilename: audio.mp3
AudioLeadIn: 0
PreviewTime: 97234
Countdown: 0
SampleSet: Drum
StackLeniency: 0.7
Mode: 2
LetterboxInBreaks: 0
WidescreenStoryboard: 1

[Editor]
Bookmarks: 163,16163,32163,45877,59591,63020,76734,90448,97305,111020,124734
DistanceSpacing: 1.8
BeatDivisor: 4
GridSize: 16
TimelineZoom: 2.210003

[Metadata]
Title:Avontuure
TitleUnicode:Avontuure
Artist:0 K
ArtistUnicode:0 K
Creator:Deif
Version:Rain
Source:THE BMS OF FIGHTERS XVII -VISION THE RETRO FUTURE-
Tags:Greaper Absolute Zero Kelvin SOUND TEAM Adventure BOFXVII BOF2021 Orchestral Electronic Instrumental
BeatmapID:3336960
BeatmapSetID:1635006

[Difficulty]
HPDrainRate:5
CircleSize:4
OverallDifficulty:9
ApproachRate:9
SliderMultiplier:1.9
SliderTickRate:0.5

[Events]
//Background and Video events
0,0,"BG.jpg",0,0
//Break Periods
//Storyboard Layer 0 (Background)
//Storyboard Layer 1 (Fail)
//Storyboard Layer 2 (Pass)
//Storyboard Layer 3 (Foreground)
//Storyboard Layer 4 (Overlay)
//Storyboard Sound Samples

[TimingPoints]
163,285.714285714286,7,3,0,70,1,0
32163,285.714285714286,6,3,1,70,1,0
59020,-100,6,2,0,60,0,0
59210,-100,6,2,0,75,0,0
59401,-100,6,2,0,60,0,0
59591,-100,6,3,1,60,0,0
63020,285.714285714286,3,3,2,50,1,0
69877,-100,3,3,2,60,0,0
76734,-100,3,3,0,70,0,0
82734,-100,3,3,1,70,0,0
83591,-100,3,3,0,70,0,0
89591,-100,3,3,1,70,0,0
90448,-100,3,2,0,60,0,0
96448,-100,3,3,0,70,0,0
97305,-100,3,3,0,80,0,1
102448,-100,3,3,1,80,0,1
104020,-100,3,3,1,80,0,0
104162,-100,3,3,0,80,0,1
109305,-100,3,3,1,80,0,1
110734,-66.6666666666667,3,3,1,80,0,1
110877,-100,3,3,1,80,0,0
111020,-100,3,3,0,80,0,1
117734,-100,3,3,0,80,0,0
117877,-100,3,3,0,80,0,1
124734,285.714285714286,7,3,0,60,1,0
126734,292.682926829269,7,3,0,60,1,0
128782,300,7,3,0,60,1,0
130882,307.692307692308,7,3,0,60,1,0
133035,315.789473684211,7,3,0,60,1,0
135245,324.324324324325,7,3,0,60,1,0
137515,333.333333333334,7,3,0,60,1,0
139848,342.857142857143,7,3,0,60,1,0
140533,352.941176470589,7,3,0,60,1,0
141238,363.636363636364,7,3,0,60,1,0
141419,375,7,3,0,60,1,0
141606,387.096774193549,7,3,0,60,1,0
141799,400.000000000001,7,3,0,60,1,0
141999,-100,7,2,0,50,0,0

[Colours]
Combo1 : 213,213,0
Combo2 : 243,90,33
Combo3 : 112,196,193
Combo4 : 106,213,0

[HitObjects]
272,192,163,5,4,0:0:0:0:
416,128,305,2,0,L|224:128,2,190,2|0|0,0:0|0:0|0:0,0:0:0:0:
272,192,1020,2,0,L|464:192,1,190,2|0,0:0|0:0,0:0:0:0:
224,192,1591,2,0,P|192:224|224:352,1,190,2|0,2:0|0:0,0:0:0:0:
320,352,2020,1,8,0:0:0:0:
112,192,2163,5,4,0:0:0:0:
256,128,2305,2,0,L|64:128,2,190,2|0|0,0:0|0:0|0:0,0:0:0:0:
112,192,3020,2,0,L|304:192,1,190,2|0,0:0|0:0,0:0:0:0:
80,32,3591,2,0,P|80:128|144:192,1,190,2|0,2:0|0:0,0:0:0:0:
288,192,4020,1,8,0:0:0:0:
80,192,4163,5,4,0:0:0:0:
224,128,4305,2,0,L|32:128,2,190,2|0|0,0:0|0:0|0:0,0:0:0:0:
80,192,5020,2,0,L|272:192,1,190,2|0,0:0|0:0,0:0:0:0:
128,192,5448,1,2,2:0:0:0:
224,192,5591,2,0,L|224:96,1,95,0|0,0:0|0:0,0:0:0:0:
128,96,5877,1,2,0:0:0:0:
480,192,6163,6,0,L|384:192,1,95,4|0,0:0|0:0,0:0:0:0:
240,192,6448,2,0,L|336:192,1,95,2|0,0:0|0:0,0:0:0:0:
480,192,6734,2,0,L|480:96,1,95,2|0,0:0|0:0,0:0:0:0:
384,96,7020,2,0,L|192:96,2,190,2|0|0,2:0|0:0|0:0,0:0:0:0:
192,96,7877,2,0,L|192:192,1,95,8|0,0:0|0:0,0:0:0:0:
400,192,8163,5,4,0:0:0:0:
256,128,8305,2,0,L|448:128,2,190,2|0|0,0:0|0:0|0:0,0:0:0:0:
400,192,9020,2,0,L|256:192,1,142.5,2|0,0:0|0:0,0:0:0:0:
210,192,9305,1,0,0:0:0:0:
448,192,9591,2,0,P|480:224|448:352,1,190,2|0,2:0|0:0,0:0:0:0:
352,352,10020,1,8,0:0:0:0:
144,192,10163,5,4,0:0:0:0:
288,128,10305,2,0,L|96:128,2,190,2|0|0,0:0|0:0|0:0,0:0:0:0:
144,192,11020,2,0,L|336:192,1,190,2|0,0:0|0:0,0:0:0:0:
112,32,11591,2,0,P|80:64|112:192,1,190,2|0,2:0|0:0,0:0:0:0:
320,192,12020,2,0,L|320:144,1,47.5,8|0,0:0|0:0,0:0:0:0:
176,192,12163,5,4,0:0:0:0:
32,128,12305,2,0,L|224:128,2,190,2|0|0,0:0|0:0|0:0,0:0:0:0:
176,192,13020,2,0,L|368:192,1,190,2|0,0:0|0:0,0:0:0:0:
224,192,13448,1,2,2:0:0:0:
128,192,13591,1,0,0:0:0:0:
80,144,13734,1,0,0:0:0:0:
128,96,13877,1,2,0:0:0:0:
480,192,14163,6,0,L|384:192,1,95,4|0,0:0|0:0,0:0:0:0:
240,192,14448,2,0,L|336:192,1,95,2|8,0:0|0:0,0:0:0:0:
480,192,14734,1,2,0:0:0:0:
192,64,15020,2,0,L|96:64,1,95,10|0,0:0|0:0,0:0:0:0:
304,64,15305,2,0,L|320:160,1,95,2|0,2:0|0:0,0:0:0:0:
176,64,15591,2,0,L|192:160,1,95,10|0,0:0|0:0,0:0:0:0:
336,64,15877,2,0,L|384:64,1,47.5,8|0,0:0|0:0,0:0:0:0:
384,64,16020,2,0,L|336:64,1,47.5,2|0,0:0|0:0,0:0:0:0:
192,192,16163,6,0,L|384:192,1,190,4|2,0:0|0:0,0:0:0:0:
240,192,16591,2,0,P|208:160|240:32,1,190,8|2,0:0|0:0,0:0:0:0:
448,32,17020,2,0,L|448:128,1,95,10|0,0:0|0:0,0:0:0:0:
304,192,17305,2,0,L|400:192,1,95,8|0,0:0|0:0,0:0:0:0:
256,32,17591,2,0,L|448:32,1,190,2|2,2:0|0:0,0:0:0:0:
446,32,18020,1,8,0:0:0:0:
240,192,18163,6,0,P|224:176|240:112,1,95,4|2,0:0|0:0,0:0:0:0:
288,112,18377,1,0,0:0:0:0:
240,112,18448,1,2,0:0:0:0:
32,112,18591,2,0,L|224:112,1,190,8|0,0:0|0:0,0:0:0:0:
432,112,19020,2,0,L|336:112,1,95,10|0,0:0|0:0,0:0:0:0:
128,112,19305,2,0,L|112:208,1,95,8|0,0:0|0:0,0:0:0:0:
256,112,19591,2,0,L|240:208,1,95,2|0,2:0|0:0,0:0:0:0:
96,112,19877,2,0,L|192:112,1,95,2|8,0:0|0:0,0:0:0:0:
400,192,20163,6,0,L|208:192,1,190,4|2,0:0|0:0,0:0:0:0:
416,192,20591,2,0,P|448:160|416:32,1,190,8|0,0:0|0:0,0:0:0:0:
208,32,21020,2,0,L|192:128,1,95,10|0,0:0|0:0,0:0:0:0:
336,192,21305,2,0,L|240:192,1,95,8|2,0:0|2:0,0:0:0:0:
384,32,21591,2,0,L|192:32,1,190,8|2,0:0|0:0,0:0:0:0:
194,32,22020,1,0,0:0:0:0:
400,192,22163,6,0,L|496:192,2,95,4|0|2,0:0|0:0|0:0,0:0:0:0:
192,192,22591,2,0,P|160:160|192:32,1,190,8|0,0:0|0:0,0:0:0:0:
336,32,23020,2,0,L|144:32,2,190,2|8|0,2:0|0:0|0:0,0:0:0:0:
48,32,23877,2,0,L|48:128,1,95,8|0,0:0|0:0,0:0:0:0:
256,192,24163,6,0,L|160:192,2,95,4|2|2,1:0|0:0|0:0,0:0:0:0:
400,192,24591,2,0,P|432:160|400:32,1,190,8|0,0:0|0:0,0:0:0:0:
192,32,25020,2,0,L|192:128,1,95,10|0,0:0|0:0,0:0:0:0:
336,192,25305,2,0,L|240:192,1,95,8|0,0:0|0:0,0:0:0:0:
384,32,25591,2,0,L|192:32,1,190,2|2,2:0|0:0,0:0:0:0:
194,32,26020,1,8,0:0:0:0:
400,192,26163,6,0,P|416:176|400:112,1,95,4|2,0:0|0:0,0:0:0:0:
304,112,26448,1,2,0:0:0:0:
96,112,26591,2,0,L|288:112,1,190,8|0,0:0|0:0,0:0:0:0:
80,48,27020,2,0,L|176:48,1,95,10|0,0:0|0:0,0:0:0:0:
32,96,27305,2,0,L|48:192,1,95,8|0,0:0|0:0,0:0:0:0:
192,96,27591,2,0,L|208:192,1,95,2|0,2:0|0:0,0:0:0:0:
64,96,27877,2,0,L|160:96,1,95,2|8,0:0|0:0,0:0:0:0:
368,96,28163,6,0,L|464:96,2,95,4|2|2,0:0|0:0|0:0,0:0:0:0:
224,192,28591,2,0,P|192:160|224:32,1,190,8|0,0:0|0:0,0:0:0:0:
432,32,29020,2,0,L|448:128,1,95,10|0,0:0|0:0,0:0:0:0:
304,192,29305,2,0,L|400:192,1,95,8|2,0:0|2:0,0:0:0:0:
256,32,29591,2,0,L|448:32,1,190,0|2,0:0|0:0,0:0:0:0:
446,32,30020,1,0,0:0:0:0:
240,192,30163,6,0,P|192:144|240:48,1,190,4|2,0:0|0:0,0:0:0:0:
384,192,30591,2,0,P|432:144|384:48,1,190,8|2,0:0|0:0,0:0:0:0:
240,32,31020,2,0,L|432:32,1,190,8|2,0:0|2:0,0:0:0:0:
144,32,31591,1,8,0:0:0:0:
496,192,31877,2,0,L|400:192,1,95,0|2,0:0|0:0,0:0:0:0:
192,192,32163,6,0,P|176:176|192:112,1,95,4|0,1:0|0:0,0:0:0:0:
336,112,32448,1,0,0:0:0:0:
128,112,32591,2,0,L|32:112,2,95,2|0|0,2:0|0:0|0:0,0:0:0:0:
336,112,33020,2,0,L|432:112,1,95,8|0,0:0|0:0,0:0:0:0:
288,192,33305,2,0,P|272:208|288:272,1,95,2|0,0:0|0:0,0:0:0:0:
432,192,33591,2,0,P|448:208|432:272,1,95,8|0,0:0|0:0,0:0:0:0:
224,192,33877,6,0,P|208:176|224:112,1,95,8|0,0:0|0:0,0:0:0:0:
368,112,34163,1,0,0:0:0:0:
160,112,34305,2,0,L|64:112,2,95,2|0|0,2:0|0:0|0:0,0:0:0:0:
368,192,34734,2,0,P|384:176|368:112,1,95,8|0,0:0|0:0,0:0:0:0:
224,192,35020,2,0,P|208:208|224:272,1,95,2|0,0:0|2:0,0:0:0:0:
368,192,35305,2,0,L|464:192,1,95,8|0,0:0|0:0,0:0:0:0:
256,192,35591,6,0,P|240:176|256:112,1,95,8|0,0:0|0:0,0:0:0:0:
400,112,35877,1,0,0:0:0:0:
192,112,36020,2,0,L|96:112,2,95,2|0|0,2:0|0:0|0:0,0:0:0:0:
400,112,36448,2,0,L|496:112,2,95,8|0|0,0:0|0:0|0:0,0:0:0:0:
192,112,36877,1,2,0:0:0:0:
304,192,37020,1,8,0:0:0:0:
192,272,37163,1,2,0:0:0:0:
400,192,37305,6,0,P|416:176|400:112,1,95,8|0,0:0|0:0,0:0:0:0:
256,112,37591,1,0,0:0:0:0:
464,192,37734,2,0,P|480:176|464:112,1,95,2|0,2:0|0:0,0:0:0:0:
320,112,38020,1,0,0:0:0:0:
112,112,38163,2,0,L|16:112,1,95,8|2,0:0|0:0,0:0:0:0:
224,112,38448,2,0,L|320:112,1,95,8|2,0:0|0:0,0:0:0:0:
176,192,38734,2,0,P|160:176|176:112,1,95,8|2,0:0|0:0,0:0:0:0:
384,192,39020,6,0,P|400:208|384:272,1,95,8|0,0:0|0:0,0:0:0:0:
240,272,39305,1,0,0:0:0:0:
448,112,39448,2,0,P|464:128|448:192,1,95,2|0,2:0|0:0,0:0:0:0:
304,192,39734,1,0,0:0:0:0:
96,192,39877,2,0,P|74:152|96:112,1,95,8|0,0:0|0:0,0:0:0:0:
239,192,40163,2,0,L|144:192,1,95,2|0,0:0|0:0,0:0:0:0:
352,192,40448,2,0,P|373:152|351:112,1,95,8|0,0:0|0:0,0:0:0:0:
144,192,40734,6,0,P|128:208|144:272,1,95,8|0,0:0|0:0,0:0:0:0:
288,272,41020,1,0,0:0:0:0:
80,112,41163,2,0,P|64:128|80:192,1,95,2|0,2:0|0:0,0:0:0:0:
224,192,41448,1,0,0:0:0:0:
432,192,41591,2,0,P|453:152|431:112,1,95,8|0,0:0|0:0,0:0:0:0:
286,193,41877,2,0,L|191:193,1,95,2|0,0:0|0:0,0:0:0:0:
400,192,42163,2,0,P|421:152|399:112,1,95,8|0,0:0|0:0,0:0:0:0:
192,112,42448,6,0,L|96:112,2,95,8|0|0,0:0|0:0|0:0,0:0:0:0:
400,112,42877,2,0,L|304:112,2,95,2|0|0,2:0|0:0|0:0,0:0:0:0:
192,112,43305,2,0,P|171:152|193:192,1,95,8|0,0:0|0:0,0:0:0:0:
336,192,43591,2,0,L|240:192,1,95,2|0,0:0|0:0,0:0:0:0:
384,112,43877,2,0,P|405:152|383:192,1,95,8|0,0:0|0:0,0:0:0:0:
176,112,44163,5,8,0:0:0:0:
320,112,44305,2,0,P|341:152|319:192,1,95,2|0,0:0|0:0,0:0:0:0:
112,112,44591,2,0,P|91:152|113:192,1,95,8|0,0:0|0:0,0:0:0:0:
256,192,44877,1,2,0:0:0:0:
48,112,45020,2,0,P|27:152|49:192,1,95,8|0,0:0|0:0,0:0:0:0:
256,192,45305,2,0,L|352:192,1,95,8|2,0:0|0:0,0:0:0:0:
144,112,45591,2,0,P|128:160|128:208,1,95,8|2,0:0|0:0,0:0:0:0:
176,208,45805,1,0,0:0:0:0:
320,192,45877,6,0,P|336:176|320:112,1,95,4|0,1:0|0:0,0:0:0:0:
176,112,46163,1,0,0:0:0:0:
384,112,46305,2,0,L|480:112,2,95,2|0|0,2:0|0:0|0:0,0:0:0:0:
176,112,46734,2,0,L|80:112,1,95,8|0,0:0|0:0,0:0:0:0:
224,192,47020,2,0,P|240:208|224:272,1,95,2|0,0:0|0:0,0:0:0:0:
80,192,47305,2,0,P|64:208|80:272,1,95,8|0,0:0|0:0,0:0:0:0:
288,192,47591,6,0,P|304:176|288:112,1,95,8|0,0:0|0:0,0:0:0:0:
144,112,47877,1,0,0:0:0:0:
352,112,48020,2,0,L|448:112,2,95,2|0|0,2:0|0:0|0:0,0:0:0:0:
144,192,48448,2,0,P|128:176|144:112,1,95,8|0,0:0|0:0,0:0:0:0:
288,192,48734,2,0,P|304:176|288:112,1,95,2|0,0:0|0:0,0:0:0:0:
80,192,49020,2,0,P|64:176|80:112,1,95,8|0,0:0|0:0,0:0:0:0:
288,192,49305,6,0,P|304:176|288:112,1,95,8|0,0:0|0:0,0:0:0:0:
144,112,49591,1,0,0:0:0:0:
352,144,49734,2,0,P|368:128|352:64,1,95,2|0,2:0|0:0,0:0:0:0:
208,64,50020,1,0,0:0:0:0:
352,64,50163,2,0,L|448:64,2,95,8|0|0,0:0|0:0|0:0,0:0:0:0:
208,192,50591,2,0,L|304:192,2,95,2|8|2,0:0|0:0|0:0,0:0:0:0:
416,192,51020,6,0,P|432:176|416:112,1,95,8|0,0:0|0:0,0:0:0:0:
272,112,51305,1,0,0:0:0:0:
64,192,51448,2,0,L|160:192,2,95,2|0|0,2:0|0:0|0:0,0:0:0:0:
208,192,51877,1,8,0:0:0:0:
416,192,52020,2,0,L|320:192,2,95,2|8|2,0:0|0:0|0:0,0:0:0:0:
272,192,52448,2,0,L|176:192,1,95,8|2,0:0|0:0,0:0:0:0:
384,192,52734,6,0,P|400:208|384:272,1,95,8|0,0:0|0:0,0:0:0:0:
240,272,53020,1,0,0:0:0:0:
32,192,53163,2,0,P|16:208|32:272,1,95,2|0,2:0|0:0,0:0:0:0:
176,272,53448,1,0,0:0:0:0:
384,192,53591,2,0,P|406:152|384:112,1,95,8|0,0:0|0:0,0:0:0:0:
240,112,53877,2,0,L|143:112,1,95,2|0,0:0|0:0,0:0:0:0:
352,192,54163,2,0,P|374:152|352:112,1,95,8|0,0:0|0:0,0:0:0:0:
144,192,54448,6,0,P|128:208|144:272,1,95,8|0,0:0|0:0,0:0:0:0:
288,272,54734,1,0,0:0:0:0:
496,192,54877,2,0,P|512:208|496:272,1,95,2|0,2:0|0:0,0:0:0:0:
352,272,55163,1,0,0:0:0:0:
144,192,55305,2,0,P|122:152|144:112,1,95,8|0,0:0|0:0,0:0:0:0:
288,112,55591,2,0,L|385:112,1,95,2|0,0:0|0:0,0:0:0:0:
176,192,55877,2,0,P|154:152|176:112,1,95,8|0,0:0|0:0,0:0:0:0:
384,112,56163,6,0,L|480:112,2,95,8|0|0,0:0|0:0|0:0,0:0:0:0:
176,112,56591,2,0,L|272:112,2,95,2|0|0,2:0|0:0|0:0,0:0:0:0:
384,112,57020,2,0,P|405:152|383:192,1,95,8|0,0:0|0:0,0:0:0:0:
240,192,57305,2,0,L|336:192,1,95,2|0,0:0|0:0,0:0:0:0:
192,112,57591,2,0,P|171:152|193:192,1,95,8|0,0:0|0:0,0:0:0:0:
400,112,57877,6,0,L|496:112,2,95,8|0|2,0:0|0:0|0:0,0:0:0:0:
192,112,58305,2,0,L|288:112,2,95,8|0|2,0:0|0:0|0:0,0:0:0:0:
400,112,58734,2,0,P|421:152|399:192,1,95,8|0,0:0|0:0,0:0:0:0:
192,192,59020,2,0,L|320:192,2,126.666666666667,10|10|10,0:0|0:0|0:0,0:0:0:0:
448,288,59591,6,0,B|448:96|448:96|256:96|256:96|256:288|256:288|448:288|448:288|448:96|448:96|256:96,1,1140,6|0,0:0|0:0,0:0:0:0:
128,368,63020,6,0,P|92:308|128:16,1,380,8|2,0:0|0:0,0:0:0:0:
272,16,63877,2,0,P|288:40|272:192,1,190,8|0,0:0|0:0,0:0:0:0:
128,192,64448,1,2,0:0:0:0:
272,192,64734,6,0,L|288:0,1,190,8|0,0:0|0:0,0:0:0:0:
144,192,65305,1,2,0:0:0:0:
240,192,65448,1,0,0:0:0:0:
336,192,65591,2,0,L|471:56,2,190,8|0|2,0:0|0:0|0:0,0:0:0:0:
192,192,66448,6,0,L|176:0,1,190,8|0,0:0|0:0,0:0:0:0:
320,192,67020,1,0,0:0:0:0:
176,192,67305,2,0,L|160:0,1,190,8|0,0:0|0:0,0:0:0:0:
304,192,67877,1,0,0:0:0:0:
160,192,68162,5,8,0:0:0:0:
16,192,68448,1,0,0:0:0:0:
160,192,68734,1,2,0:0:0:0:
304,192,69020,2,0,P|335:104|303:16,1,190,8|2,0:0|0:0,0:0:0:0:
224,16,69448,1,2,2:0:0:0:
304,16,69591,2,0,L|304:112,1,95,8|2,0:0|2:0,0:0:0:0:
160,96,69877,6,0,P|96:144|160:208,1,190,8|0,0:0|0:0,0:0:0:0:
240,208,70305,1,0,0:0:0:0:
160,208,70448,1,2,2:0:0:0:
320,96,70734,2,0,P|384:144|320:208,1,190,8|0,0:0|0:0,0:0:0:0:
160,96,71305,1,2,2:0:0:0:
320,96,71591,6,0,L|486:192,2,190,8|0|2,0:0|0:0|2:0,0:0:0:0:
240,96,72305,1,0,0:0:0:0:
320,96,72448,2,0,L|154:192,2,190,8|0|2,0:0|0:0|2:0,0:0:0:0:
160,96,73305,6,0,L|326:192,2,190,8|0|2,0:0|0:0|2:0,0:0:0:0:
320,288,74162,2,0,L|486:192,2,190,8|0|2,0:0|0:0|2:0,0:0:0:0:
160,288,75020,6,0,L|352:288,1,190,8|2,0:0|0:0,0:0:0:0:
192,224,75591,1,2,2:0:0:0:
432,96,75877,2,0,L|266:192,2,190,8|2|10,0:0|0:0|2:0,0:0:0:0:
80,192,76734,6,0,P|80:288|144:352,1,190,12|2,0:0|0:0,0:0:0:0:
352,352,77162,1,8,0:0:0:0:
224,352,77448,1,2,0:0:0:0:
432,192,77591,2,0,L|240:192,2,190,8|2|0,0:0|0:0|0:0,0:0:0:0:
80,32,78448,6,0,P|15:98|17:191,1,190,4|2,0:0|0:0,0:0:0:0:
224,32,78877,1,8,0:0:0:0:
352,32,79162,1,2,0:0:0:0:
144,192,79305,2,0,L|310:96,2,190,8|2|0,0:0|0:0|0:0,0:0:0:0:
495,190,80162,6,0,P|496:97|432:32,1,190,8|2,0:0|0:0,0:0:0:0:
288,352,80591,2,0,P|222:286|224:193,1,190,8|2,0:0|0:0,0:0:0:0:
432,192,81020,2,0,P|433:99|369:34,1,190,8|2,0:0|0:0,0:0:0:0:
225,354,81448,2,0,P|159:288|161:195,1,190,8|2,0:0|0:0,0:0:0:0:
368,192,81877,6,0,L|176:192,2,190,8|2|0,0:0|0:0|0:0,0:0:0:0:
80,192,82734,2,0,L|64:96,1,95,8|0,0:0|0:0,0:0:0:0:
208,192,83020,2,0,L|224:96,1,95,8|0,0:0|0:0,0:0:0:0:
80,192,83305,1,8,0:0:0:0:
224,192,83448,1,0,0:0:0:0:
432,192,83591,6,0,P|432:288|368:352,1,190,12|2,0:0|0:0,0:0:0:0:
160,352,84020,1,8,0:0:0:0:
288,352,84305,1,2,0:0:0:0:
80,192,84448,2,0,L|272:192,2,190,8|2|0,0:0|0:0|0:0,0:0:0:0:
432,32,85305,6,0,P|497:98|495:191,1,190,8|2,0:0|0:0,0:0:0:0:
288,32,85734,1,8,0:0:0:0:
160,32,86020,1,2,0:0:0:0:
368,192,86162,2,0,L|176:192,2,190,8|2|0,0:0|0:0|0:0,0:0:0:0:
17,190,87020,6,0,P|16:97|80:32,1,190,8|2,0:0|0:0,0:0:0:0:
224,351,87448,2,0,P|289:286|288:194,1,190,8|2,0:0|0:0,0:0:0:0:
80,32,87877,2,0,P|14:97|16:190,1,190,8|2,0:0|0:0,0:0:0:0:
159,352,88305,2,0,P|224:286|224:194,1,190,8|2,0:0|0:0,0:0:0:0:
16,192,88734,6,0,L|208:192,1,190,8|2,0:0|0:0,0:0:0:0:
206,192,89162,1,0,0:0:0:0:
64,192,89305,1,2,0:0:0:0:
352,192,89591,2,0,L|368:96,1,95,8|0,0:0|0:0,0:0:0:0:
224,192,89877,2,0,L|208:96,1,95,8|0,0:0|0:0,0:0:0:0:
352,192,90162,1,8,0:0:0:0:
208,192,90305,1,0,0:0:0:0:
64,320,90448,6,0,L|198:185,2,190,2|0|2,0:0|0:0|0:0,0:0:0:0:
256,320,91305,2,0,L|390:185,1,190,2|0,0:0|0:0,0:0:0:0:
192,80,91877,1,2,0:0:0:0:
390,198,92162,6,0,L|256:64,1,190,2|0,0:0|0:0,0:0:0:0:
448,64,92734,2,0,L|448:160,1,95,2|0,0:0|0:0,0:0:0:0:
320,160,93020,2,0,L|464:304,1,190,2|0,0:0|0:0,0:0:0:0:
256,320,93591,2,0,L|256:224,1,95,2|0,0:0|0:0,0:0:0:0:
384,224,93877,6,0,L|240:80,2,190,2|0|2,0:0|0:0|0:0,0:0:0:0:
192,224,94734,2,0,L|336:80,2,190,2|0|2,0:0|0:0|0:0,0:0:0:0:
384,192,95591,5,2,0:0:0:0:
240,192,95877,1,2,0:0:0:0:
96,192,96162,1,2,0:0:0:0:
384,192,96448,2,0,L|192:192,2,190,8|2|8,0:0|0:0|0:0,0:0:0:0:
32,192,97305,6,0,P|32:288|80:368,1,190,4|2,1:0|0:0,0:0:0:0:
288,352,97734,2,0,L|384:352,2,95,8|0|2,0:0|0:0|0:0,0:0:0:0:
80,192,98162,2,0,L|270:192,1,190,8|2,0:0|2:0,0:0:0:0:
270,192,98591,1,0,0:0:0:0:
128,192,98734,1,8,0:0:0:0:
480,192,99020,6,0,P|480:288|432:368,1,190,4|2,0:0|0:0,0:0:0:0:
224,352,99448,2,0,L|128:352,2,95,8|0|2,0:0|0:0|0:0,0:0:0:0:
432,192,99877,2,0,L|242:192,1,190,8|2,0:0|0:0,0:0:0:0:
448,192,100305,2,0,L|448:96,1,95,2|0,2:0|0:0,0:0:0:0:
304,96,100591,1,8,0:0:0:0:
240,96,100662,1,0,0:0:0:0:
96,96,100734,6,0,L|288:96,1,190,8|2,0:0|0:0,0:0:0:0:
80,96,101162,2,0,P|32:177|33:270,1,190,8|2,0:0|0:0,0:0:0:0:
272,288,101591,2,0,L|80:288,1,190,8|2,0:0|0:0,0:0:0:0:
288,288,102020,2,0,P|335:206|334:113,1,190,8|2,0:0|0:0,0:0:0:0:
128,112,102448,6,0,L|32:112,1,95,8|2,0:0|0:0,0:0:0:0:
240,112,102734,2,0,L|256:208,1,95,8|0,0:0|0:0,0:0:0:0:
184,224,102948,1,0,0:0:0:0:
112,208,103020,1,8,0:0:0:0:
256,208,103162,1,2,0:0:0:0:
48,112,103305,2,0,L|32:208,1,95,8|0,0:0|0:0,0:0:0:0:
240,112,103591,2,0,L|224:208,1,95,8|0,0:0|0:0,0:0:0:0:
16,112,103877,1,8,0:0:0:0:
88,112,103948,1,0,0:0:0:0:
160,112,104020,1,2,0:0:0:0:
400,368,104162,6,0,P|401:274|354:192,1,190,4|2,1:0|0:0,0:0:0:0:
144,352,104591,2,0,L|48:352,2,95,8|0|2,0:0|0:0|0:0,0:0:0:0:
352,192,105020,2,0,L|162:192,1,190,8|2,0:0|2:0,0:0:0:0:
368,192,105448,2,0,L|272:192,2,95,0|8|0,0:0|0:0|0:0,0:0:0:0:
162,192,105877,6,0,P|114:272|115:366,1,190,4|2,0:0|0:0,0:0:0:0:
320,352,106305,2,0,L|416:352,2,95,8|0|2,0:0|0:0|0:0,0:0:0:0:
112,192,106734,2,0,L|302:192,1,190,8|2,0:0|2:0,0:0:0:0:
302,192,107162,1,0,0:0:0:0:
160,96,107305,1,8,0:0:0:0:
304,96,107448,1,2,0:0:0:0:
240,96,107520,1,0,0:0:0:0:
96,96,107591,6,0,L|80:192,1,95,8|0,0:0|0:0,0:0:0:0:
224,192,107877,1,2,0:0:0:0:
430,192,108020,2,0,L|240:192,1,190,8|2,0:0|0:0,0:0:0:0:
240,192,108377,1,0,0:0:0:0:
384,96,108448,6,0,L|400:192,1,95,8|0,0:0|0:0,0:0:0:0:
256,192,108734,1,2,0:0:0:0:
50,192,108877,2,0,L|240:192,1,190,8|2,0:0|0:0,0:0:0:0:
240,192,109234,1,0,0:0:0:0:
96,96,109305,6,0,L|80:192,1,95,8|2,0:0|0:0,0:0:0:0:
288,96,109591,2,0,L|272:192,1,95,8|0,0:0|0:0,0:0:0:0:
128,96,109877,2,0,L|112:192,1,95,8|2,0:0|0:0,0:0:0:0:
320,96,110162,2,0,L|336:192,1,95,8|0,0:0|0:0,0:0:0:0:
128,96,110448,2,0,L|224:96,1,95,8|0,0:0|0:0,0:0:0:0:
432,96,110734,2,0,L|288:96,1,142.500005435944,8|2,0:0|0:0,0:0:0:0:
80,192,111020,6,0,L|272:192,2,190,4|10|10,1:0|0:0|0:0,0:0:0:0:
224,192,111734,1,2,2:0:0:0:
432,192,111877,2,0,L|240:192,2,190,10|10|10,0:0|0:0|0:0,0:0:0:0:
288,192,112591,1,2,2:0:0:0:
80,192,112734,6,0,L|246:96,2,190,10|10|10,0:0|0:0|0:0,0:0:0:0:
224,192,113448,1,2,2:0:0:0:
432,192,113591,2,0,L|265:96,2,190,10|10|10,0:0|0:0|0:0,0:0:0:0:
288,192,114305,1,2,2:0:0:0:
80,192,114448,6,0,L|64:96,1,95,8|0,0:0|0:0,0:0:0:0:
208,192,114734,2,0,L|224:96,1,95,2|8,0:0|0:0,0:0:0:0:
16,96,115020,1,2,0:0:0:0:
160,96,115162,1,2,2:0:0:0:
368,192,115305,2,0,L|384:96,1,95,8|0,0:0|0:0,0:0:0:0:
240,192,115591,2,0,L|224:96,1,95,2|8,0:0|0:0,0:0:0:0:
432,96,115877,1,2,0:0:0:0:
288,96,116020,1,2,2:0:0:0:
80,192,116162,6,0,L|272:192,2,190,10|10|10,0:0|0:0|0:0,0:0:0:0:
432,192,117020,2,0,L|240:192,1,190,10|10,0:0|0:0,0:0:0:0:
240,112,117448,1,0,0:0:0:0:
304,112,117520,1,0,0:0:0:0:
368,112,117591,1,10,0:0:0:0:
224,112,117734,1,0,0:0:0:0:
432,192,117877,6,0,L|240:192,2,190,4|10|10,1:0|0:0|0:0,0:0:0:0:
288,192,118591,1,2,2:0:0:0:
80,192,118734,2,0,L|272:192,2,190,10|10|10,0:0|0:0|0:0,0:0:0:0:
224,192,119448,1,2,2:0:0:0:
432,192,119591,6,0,L|266:96,2,190,10|10|10,0:0|0:0|0:0,0:0:0:0:
288,192,120305,1,2,2:0:0:0:
80,192,120448,2,0,L|247:96,2,190,10|10|10,0:0|0:0|0:0,0:0:0:0:
224,192,121162,1,2,2:0:0:0:
432,192,121305,6,0,L|448:96,1,95,8|0,0:0|0:0,0:0:0:0:
304,192,121591,1,2,0:0:0:0:
96,64,121734,2,0,L|179:112,2,95,8|2|2,0:0|0:0|2:0,0:0:0:0:
304,192,122162,2,0,L|320:96,1,95,8|0,0:0|0:0,0:0:0:0:
176,192,122448,1,2,0:0:0:0:
384,192,122591,2,0,L|467:144,2,95,8|2|2,0:0|0:0|2:0,0:0:0:0:
176,192,123020,6,0,L|368:192,2,190,10|10|10,0:0|0:0|0:0,0:0:0:0:
464,192,123877,2,0,L|480:96,1,95,10|0,0:0|0:0,0:0:0:0:
336,192,124162,2,0,L|320:96,1,95,10|0,0:0|0:0,0:0:0:0:
392,192,124377,1,0,0:0:0:0:
464,192,124448,2,0,L|480:96,1,95,10|0,0:0|0:0,0:0:0:0:
272,96,124734,5,4,1:0:0:0:
256,192,125019,12,0,126162,0:0:0:0:
352,192,126734,5,8,0:0:0:0:
208,128,126880,2,0,L|400:128,2,190,2|0|0,0:0|0:0|0:0,0:0:0:0:
352,192,127612,2,0,L|160:192,1,190,2|0,0:0|0:0,0:0:0:0:
384,32,128197,2,0,P|416:64|384:192,1,190,2|0,2:0|0:0,0:0:0:0:
288,192,128636,1,0,0:0:0:0:
432,192,128782,5,8,0:0:0:0:
288,128,128932,2,0,L|480:128,2,190,2|0|0,0:0|0:0|0:0,0:0:0:0:
432,192,129682,2,0,L|240:192,1,190,2|0,0:0|0:0,0:0:0:0:
384,192,130132,1,0,0:0:0:0:
288,192,130282,2,0,L|288:96,1,95,2|0,2:0|0:0,0:0:0:0:
384,96,130582,1,2,0:0:0:0:
112,192,130882,6,0,L|208:192,1,95,8|0,0:0|0:0,0:0:0:0:
352,192,131189,2,0,L|256:192,1,95,2|0,0:0|0:0,0:0:0:0:
112,192,131497,2,0,L|112:96,1,95,2|0,0:0|0:0,0:0:0:0:
208,96,131805,2,0,L|400:96,2,190,2|0|0,2:0|0:0|0:0,0:0:0:0:
400,96,132728,1,2,0:0:0:0:
128,192,133035,5,8,0:0:0:0:
272,128,133192,2,0,L|80:128,2,190,2|0|0,0:0|0:0|0:0,0:0:0:0:
128,192,133982,2,0,L|272:192,1,142.5,2|0,0:0|0:0,0:0:0:0:
318,192,134298,1,0,0:0:0:0:
80,192,134613,2,0,P|48:224|80:352,1,190,2|0,2:0|0:0,0:0:0:0:
368,192,135245,5,8,0:0:0:0:
224,128,135407,2,0,L|416:128,2,190,2|0|0,0:0|0:0|0:0,0:0:0:0:
368,192,136217,2,0,L|176:192,1,190,2|0,0:0|0:0,0:0:0:0:
400,32,136866,2,0,P|432:64|400:192,1,190,2|0,2:0|0:0,0:0:0:0:
192,192,137353,2,0,L|192:144,1,47.5,2|0,0:0|0:0,0:0:0:0:
272,192,137515,5,8,0:0:0:0:
416,128,137681,2,0,L|224:128,2,190,2|0|0,0:0|0:0|0:0,0:0:0:0:
272,192,138515,2,0,L|80:192,1,190,2|0,0:0|0:0,0:0:0:0:
224,192,139015,1,0,0:0:0:0:
320,192,139181,1,2,2:0:0:0:
368,144,139348,1,0,0:0:0:0:
320,96,139515,1,2,0:0:0:0:
32,192,139848,6,0,L|128:192,1,95,8|0,0:0|0:0,0:0:0:0:
272,192,140190,2,0,L|176:192,1,95,2|0,0:0|0:0,0:0:0:0:
32,192,140533,1,2,2:0:0:0:
320,64,140885,2,0,L|416:64,1,95,8|0,0:0|0:0,0:0:0:0:
272,64,141238,2,0,L|256:160,1,95,2|0,0:0|0:0,0:0:0:0:
400,64,141606,2,0,L|384:160,1,95,2|0,2:0|0:0,0:0:0:0:
240,64,141999,5,12,0:0:0:0:
256,192,142199,12,0,144599,0:0:0:0:
