osu file format v14

[General]
AudioFilename: audio.ogg
AudioLeadIn: 0
PreviewTime: 2124
Countdown: 0
SampleSet: Soft
StackLeniency: 0.1
Mode: 0
LetterboxInBreaks: 0
WidescreenStoryboard: 0

[Editor]
Bookmarks: 9400,16673,31219,38491,45764,53037,60310
DistanceSpacing: 1.1
BeatDivisor: 4
GridSize: 16
TimelineZoom: 2.5

[Metadata]
Title:run dev -- -u
TitleUnicode:run dev — -u
Artist:.new label
ArtistUnicode:.new label
Creator:TWEEKER
Version:6426225^2-(sqrt(6421156)+6426154^2+912513839+267x9)-1
Source:東方Project
Tags:-80538738812075974³+80435758145817515³+12602123297335631³ askey_ as key_ clapia 衛星トリフネ Satellite TORIFUNE Maribel Hearn Renko Usami 宇佐見 蓮子 鳥船遺跡 ~ Trojan Green Asteroid _bazaar records gygy Patchouli-R Jayblue nnamae bgm16 lkx_shore atlust necho zun team shanghai alice 2hu ARTS10 touhou project electronic instrumental
BeatmapID:4407829
BeatmapSetID:2101141

[Difficulty]
HPDrainRate:5.5
CircleSize:5.5
OverallDifficulty:8
ApproachRate:9
SliderMultiplier:1.9
SliderTickRate:1

[Events]
//Background and Video events
0,0,"53ae78ba-0fa4-45bf-9151-cdce02314d9a.png",0,0
//Break Periods
//Storyboard Layer 0 (Background)
//Storyboard Layer 1 (Fail)
//Storyboard Layer 2 (Pass)
//Storyboard Layer 3 (Foreground)
//Storyboard Layer 4 (Overlay)
//Storyboard Sound Samples

[TimingPoints]
306,454.545454545455,4,2,0,50,1,0
306,-30.3030303030303,4,2,0,50,0,0
2124,-111.111111111111,4,2,0,65,0,0
15987,-111.111111111111,4,2,0,70,0,0
16669,-90.9090909090909,4,2,0,70,0,0
30874,-50,4,2,0,75,0,0
30931,-50,4,2,0,5,0,0
30987,-50,4,2,0,75,0,0
31044,-50,4,2,0,5,0,0
31101,-50,4,2,0,75,0,0
31158,-50,4,2,0,5,0,0
31215,-71.4285714285714,4,2,0,75,0,0
45760,-71.4285714285714,4,2,0,60,0,0
46669,-125,4,2,0,60,0,0
51215,-83.3333333333333,4,2,0,60,0,0
54851,-83.3333333333333,4,2,0,65,0,0
56669,-83.3333333333333,4,2,0,70,0,0
58487,-83.3333333333333,4,2,0,80,0,0

[Colours]
Combo1 : 219,228,33
Combo2 : 220,129,254

[HitObjects]
507,368,306,6,0,B|549:345|549:345|284:299|284:299|258:374|160:362|160:362|-20:328,1,627.000005979538,6|0,0:1|0:0,0:0:0:0:
256,192,1442,12,0,2010,0:0:0:0:
294,384,2124,6,0,B|327:262|394:143|394:143|349:165|295:160,1,341.999989562989,4|8,3:2|0:0,0:0:0:0:
128,32,3260,5,2,3:0:0:0:
368,32,3601,1,2,3:0:0:0:
218,384,3942,2,0,B|185:262|118:143|118:143|163:165|217:160,1,341.999989562989,4|8,3:2|0:0,0:0:0:0:
368,32,5078,6,0,L|416:32,2,42.7499986953736,2|4|4,3:0|3:0|3:0,0:0:0:0:
128,32,5419,2,0,L|85:32,1,42.7499986953736,2|4,3:0|3:0,0:0:0:0:
294,384,5760,2,0,B|349:270|438:166|438:166|389:179|337:164,1,341.999989562989,4|8,3:2|0:0,0:0:0:0:
128,32,6896,5,2,3:0:0:0:
368,32,7237,1,2,3:0:0:0:
218,384,7578,2,0,B|162:270|73:166|73:166|122:179|174:164,1,341.999989562989,4|8,3:2|0:0,0:0:0:0:
256,48,8715,5,2,3:0:0:0:
256,48,8828,1,0,3:0:0:0:
256,48,8942,1,4,3:0:0:0:
256,128,9056,1,2,3:0:0:0:
256,128,9169,1,0,3:0:0:0:
256,128,9283,1,4,3:0:0:0:
256,208,9396,1,4,3:2:0:0:
256,192,9510,12,8,10306,0:0:0:0:
368,352,10533,6,0,L|416:352,2,42.7499986953736,2|4|4,3:0|3:0|3:0,3:0:0:0:
128,352,10874,2,0,L|85:352,1,42.7499986953736,2|4,3:0|3:0,3:0:0:0:
256,128,11215,1,4,3:2:0:0:
256,192,11328,12,8,12124,0:0:0:0:
368,352,12351,5,2,3:0:0:0:
368,352,12465,2,0,L|411:352,1,42.7499986953736,4|4,3:0|3:0,3:0:0:0:
128,352,12692,2,0,L|85:352,1,42.7499986953736,2|4,3:0|3:0,3:0:0:0:
256,128,13033,1,4,3:2:0:0:
256,192,13146,12,8,13942,0:0:0:0:
368,352,14169,6,0,L|416:352,2,42.7499986953736,2|4|4,3:0|3:0|3:0,3:0:0:0:
128,352,14510,2,0,L|85:352,1,42.7499986953736,2|4,3:0|3:0,3:0:0:0:
256,128,14851,1,4,3:2:0:0:
256,192,14965,12,8,15760,0:0:0:0:
389,352,15987,5,2,3:0:0:0:
484,352,16101,1,8,3:0:0:0:
122,352,16328,1,2,3:0:0:0:
27,352,16442,1,4,3:0:0:0:
27,352,16669,5,4,1:0:0:0:
76,294,17010,1,0,1:0:0:0:
76,294,17124,1,8,0:0:0:0:
154,293,17351,1,8,0:3:0:0:
454,296,17578,6,0,P|403:304|353:319,1,104.500003189087,2|0,1:2|0:0,0:0:0:0:
320,378,17919,1,2,0:0:0:0:
291,361,18033,1,8,0:0:0:0:
172,384,18260,1,2,0:2:0:0:
0,204,18487,6,0,P|54:173|96:159,1,104.500003189087,6|0,1:2|0:0,0:0:0:0:
156,167,18828,1,2,0:0:0:0:
190,126,18942,1,8,0:0:0:0:
175,271,19169,1,2,0:0:0:0:
349,130,19396,6,0,P|405:147|429:209,1,104.500003189087,2|0,1:2|0:0,0:0:0:0:
489,190,19737,2,0,P|450:224|415:272,1,104.500003189087,2|0,0:0|0:0,0:0:0:0:
392,323,20078,1,2,0:0:0:0:
245,7,20306,6,0,P|256:64|276:188,2,156.750004783631,6|2|2,1:2|0:0|0:0,0:0:0:0:
245,7,21215,2,0,L|188:26,1,52.2500015945435,0|0,1:0|0:0,0:0:0:0:
64,18,21442,1,8,0:3:0:0:
67,42,21556,1,8,0:0:0:0:
156,80,21783,1,8,0:0:0:0:
153,99,21897,1,8,0:3:0:0:
153,99,22124,6,0,P|81:124|-1:139,1,156.750004783631,6|0,1:2|1:0,0:0:0:0:
53,231,22578,2,0,P|132:239|203:311,1,156.750004783631,10|0,0:2|1:0,0:0:0:0:
321,157,23033,2,0,P|246:197|173:226,1,156.750004783631,2|2,1:2|0:0,0:0:0:0:
274,291,23487,2,0,P|351:319|393:395,1,156.750004783631,10|0,0:2|0:0,0:0:0:0:
506,222,23942,6,0,P|452:283|403:268,1,104.500003189087,6|0,1:2|0:0,0:0:0:0:
378,263,24283,2,0,P|353:192|331:154,1,104.500003189087,2|0,0:0|0:0,0:0:0:0:
290,122,24624,1,2,0:0:0:0:
168,242,24851,2,0,P|123:279|71:309,1,104.500003189087,2|0,1:2|0:0,0:0:0:0:
23,294,25192,1,2,0:0:0:0:
1,280,25306,1,8,0:0:0:0:
274,351,25533,1,2,0:0:0:0:
10,154,25760,6,0,P|54:181|104:199,1,104.500003189087,6|0,1:2|0:0,0:0:0:0:
175,176,26101,1,2,0:0:0:0:
236,153,26215,1,8,0:0:0:0:
357,109,26442,1,2,0:0:0:0:
200,0,26669,6,0,P|158:29|160:83,1,104.500003189087,2|0,1:2|0:0,0:0:0:0:
283,260,27010,1,2,1:2:0:0:
365,243,27124,2,0,P|406:214|407:164,1,104.500003189087,10|4,0:2|3:0,0:0:0:0:
139,314,27578,6,0,P|236:354|318:410,2,156.750004783631,6|2|2,1:2|0:0|0:0,0:0:0:0:
30,246,28487,1,2,1:2:0:0:
14,267,28601,1,2,0:2:0:0:
10,299,28715,1,2,0:2:0:0:
27,336,28828,1,2,1:2:0:0:
70,357,28942,1,10,0:2:0:0:
70,357,29056,1,2,0:0:0:0:
177,233,29396,6,0,P|149:130|114:50,1,156.750004783631,6|0,1:2|1:0,0:0:0:0:
2,23,29851,1,10,0:2:0:0:
5,84,29965,1,2,0:2:0:0:
36,118,30078,1,2,0:2:0:0:
72,124,30192,1,2,0:2:0:0:
130,83,30306,1,2,1:2:0:0:
170,68,30419,1,2,0:2:0:0:
191,68,30533,1,2,0:2:0:0:
203,74,30646,2,0,L|232:82,2,26.1250007972718,0|0|0,1:2|1:2|1:2,1:2:0:0:
303,29,30874,6,0,L|312:112,1,47.5,8|0,0:3|0:3,0:3:0:0:
331,138,30987,6,0,L|325:90,1,47.5,4|0,0:3|0:3,0:3:0:0:
296,23,31101,6,0,L|305:106,1,47.5,4|0,0:3|0:3,0:3:0:0:
411,139,31215,6,0,P|486:159|487:222,1,132.999995941162,6|0,1:2|0:0,0:0:0:0:
320,382,31669,2,0,P|339:348|431:348,1,132.999995941162,10|8,0:0|0:3,0:0:0:0:
512,277,32010,2,0,P|469:352|426:325,1,132.999995941162,2|0,0:0|0:0,0:0:0:0:
370,297,32351,1,2,0:0:0:0:
345,289,32465,1,8,0:3:0:0:
259,384,32578,1,10,0:0:0:0:
222,287,32806,1,2,0:0:0:0:
4,223,33033,6,0,P|46:285|81:352,1,132.999995941162,6|0,1:2|0:0,0:0:0:0:
252,144,33487,1,10,0:0:0:0:
206,212,33601,1,2,0:0:0:0:
160,52,33828,2,0,P|88:108|35:100,1,132.999995941162,2|0,0:0|0:0,0:0:0:0:
0,66,34169,1,2,0:0:0:0:
65,100,34283,1,4,0:3:0:0:
55,171,34396,2,0,P|49:237|-2:202,1,132.999995941162,2|8,1:2|0:3,0:0:0:0:
205,108,34851,6,0,P|273:120|310:58,1,132.999995941162,6|0,1:2|0:0,0:0:0:0:
495,224,35306,2,0,P|429:189|407:135,1,132.999995941162,10|8,0:0|0:3,0:0:0:0:
426,67,35646,2,0,P|433:19|360:41,1,132.999995941162,2|0,0:0|0:0,0:0:0:0:
316,64,35987,1,2,0:0:0:0:
306,76,36101,1,8,0:3:0:0:
348,171,36215,1,10,0:0:0:0:
470,124,36442,1,2,0:0:0:0:
217,384,36669,6,0,P|241:329|261:223,1,132.999995941162,6|0,1:2|0:0,0:0:0:0:
166,184,37048,1,2,0:0:0:0:
140,149,37124,2,0,P|115:90|94:14,1,132.999995941162,10|0,0:0|0:0,0:0:0:0:
267,0,37502,1,2,0:0:0:0:
298,60,37578,2,0,P|279:134|246:188,1,132.999995941162,2|0,1:2|0:0,0:0:0:0:
107,234,37919,1,2,0:0:0:0:
107,234,38260,6,0,L|252:250,2,132.999995941162,2|0|0,0:0|1:0|0:0,0:0:0:0:
301,379,38942,2,0,P|356:388|367:324,1,132.999995941162,10|0,0:2|0:0,0:0:0:0:
474,296,39283,2,0,P|449:267|419:344,1,132.999995941162,2|0,0:0|0:0,0:0:0:0:
237,384,39624,1,2,0:0:0:0:
196,323,39737,1,2,0:0:0:0:
232,258,39851,1,10,0:0:0:0:
148,145,40078,1,2,0:0:0:0:
0,364,40306,6,0,P|61:334|101:317,1,66.4999979705811,6|0,1:2|0:0,0:0:0:0:
290,292,40533,2,0,P|243:273|218:260,1,66.4999979705811,2|0,0:0|0:0,0:0:0:0:
153,149,40760,1,10,0:0:0:0:
188,92,40874,1,2,0:0:0:0:
0,9,41101,1,2,0:0:0:0:
20,73,41215,2,0,P|80:85|108:30,1,132.999995941162,0|2,1:0|0:0,0:0:0:0:
250,81,41556,1,2,0:0:0:0:
309,47,41669,1,10,0:0:0:0:
250,16,41896,1,2,0:0:0:0:
194,252,42124,6,0,P|281:246|287:210,1,132.999995941162,6|0,1:2|0:0,0:0:0:0:
391,44,42578,2,0,P|335:87|367:131,1,132.999995941162,10|0,0:0|0:0,0:0:0:0:
494,109,42919,2,0,P|411:103|373:152,1,132.999995941162,2|0,0:0|0:0,0:0:0:0:
320,227,43260,2,0,P|362:204|404:190,1,66.4999979705811,2|2,0:0|0:0,0:0:0:0:
486,237,43487,1,10,0:0:0:0:
502,364,43715,1,2,0:0:0:0:
300,164,43942,6,0,P|215:190|137:197,1,132.999995941162,6|0,1:2|0:0,0:0:0:0:
19,169,44283,1,2,0:0:0:0:
58,15,44396,2,0,P|76:116|99:190,1,132.999995941162,10|0,0:0|0:0,0:0:0:0:
206,330,44737,1,2,0:0:0:0:
234,249,44851,2,0,P|162:324|137:381,1,132.999995941162,2|0,1:2|0:0,0:0:0:0:
0,228,45306,1,10,0:2:0:0:
51,265,45419,1,2,0:0:0:0:
72,248,45533,2,0,L|91:250,4,16.6249994926453,0|0|2|0|0,1:2|0:0|0:0|0:0|0:0,0:0:0:0:
144,357,45760,5,4,1:0:0:0:
256,192,45874,12,8,46442,0:3:0:0:
256,128,46669,6,0,L|256:48,1,76,2|0,1:2|0:0,0:0:0:0:
256,256,47010,2,0,L|256:332,1,76,2|0,0:0|0:0,0:0:0:0:
256,52,47351,1,2,1:2:0:0:
256,192,47578,5,4,1:0:0:0:
256,192,47692,12,8,48260,0:3:0:0:
320,192,48487,6,0,L|400:192,1,76,2|0,1:2|0:0,0:0:0:0:
192,192,48828,2,0,L|116:192,1,76,2|0,0:0|0:0,0:0:0:0:
396,192,49169,1,2,1:2:0:0:
256,192,49396,5,4,0:1:0:0:
256,192,49510,12,8,50078,0:3:0:0:
256,256,50306,6,0,L|256:336,1,76,2|0,1:2|0:0,0:0:0:0:
256,128,50646,2,0,L|256:52,1,76,2|0,0:0|0:0,0:0:0:0:
256,332,50988,1,2,1:2:0:0:
256,192,51215,6,0,L|10:192,1,227.999993041992,4|8,0:1|0:0,0:0:0:0:
28,192,51821,5,2,0:0:0:0:
28,192,51896,1,2,0:0:0:0:
192,192,52275,5,2,0:0:0:0:
192,192,52351,1,2,0:0:0:0:
256,144,52578,5,10,0:0:0:0:
352,256,52730,5,2,0:0:0:0:
416,176,52881,5,2,0:0:0:0:
480,192,53033,5,12,0:0:0:0:
256,32,53487,1,8,0:0:0:0:
256,352,53942,1,8,0:0:0:0:
32,192,54396,1,8,0:0:0:0:
32,128,54510,1,8,0:0:0:0:
32,256,54624,1,8,0:0:0:0:
480,192,54851,5,12,0:0:0:0:
256,352,55306,1,8,0:0:0:0:
256,32,55760,1,8,0:0:0:0:
32,192,56215,1,8,0:0:0:0:
32,128,56329,1,8,0:0:0:0:
32,256,56443,1,8,0:0:0:0:
256,352,56669,5,12,0:0:0:0:
256,192,56896,1,8,0:0:0:0:
256,32,57123,1,8,0:0:0:0:
256,352,57578,5,8,0:0:0:0:
256,32,57805,1,8,0:0:0:0:
256,192,58033,1,8,0:0:0:0:
320,192,58147,1,8,0:0:0:0:
192,192,58261,1,8,0:0:0:0:
480,192,58487,5,12,1:0:0:0:
480,256,58601,1,8,0:0:0:0:
480,320,58715,2,0,L|416:320,1,56.9999982604981,8|8,0:0|0:0,0:0:0:0:
32,192,58942,5,12,1:0:0:0:
32,128,59056,1,8,0:0:0:0:
32,64,59169,2,0,L|96:64,1,56.9999982604981,8|8,0:0|0:0,0:0:0:0:
256,0,59396,5,8,1:0:0:0:
256,64,59510,2,0,L|256:128,1,56.9999982604981,4|8,0:3|0:3,0:0:0:0:
320,352,59737,1,8,0:3:0:0:
192,352,59851,1,8,0:0:0:0:
384,192,60078,5,4,0:3:0:0:
128,192,60192,1,4,0:3:0:0:
256,192,60306,1,12,1:0:0:0:
