osu file format v14

[General]
AudioFilename: audio.mp3
AudioLeadIn: 0
PreviewTime: 146045
Countdown: 0
SampleSet: Soft
StackLeniency: 1
Mode: 2
LetterboxInBreaks: 0
WidescreenStoryboard: 0

[Editor]
DistanceSpacing: 0.9
BeatDivisor: 2
GridSize: 16
TimelineZoom: 2.500004

[Metadata]
Title:El'na dia
TitleUnicode:El'na dia
Artist:-LostFairy-
ArtistUnicode:-LostFairy-
Creator:Zileni
Version:Princess of the Abyss
Source:
Tags:lost fairy lostfairy エル・ナ・ディア幻想譚 ~闇の邂逅~ Gensoutan ~Yami no Kaikou~ あとりえーぬ Atelier-N サリア・ノワール リゼ rize 敦紫 atsushi 琴羽しらす kotohashirasu 海璃律 ritsukairi ラナ・グリーン Phantasma elna Sariah Noir vtuber virtual youtuber 夢姫 Yumehime 沙悠 Sayu Noël Noel ArsMagnA Ariabl'eyeS AriableyeS japanese gothic rock j-rock jrock 4 four digit united states catch cup 2 two 2024 24 usa 4uscc2 4uscc24 grand finals grandfinals gf tiebreaker tb nevertary
BeatmapID:4521408
BeatmapSetID:2146500

[Difficulty]
HPDrainRate:6
CircleSize:4.3
OverallDifficulty:9.5
ApproachRate:9.5
SliderMultiplier:1.8
SliderTickRate:2

[Events]
//Background and Video events
0,0,"BG.jpg",0,0
//Break Periods
//Storyboard Layer 0 (Background)
//Storyboard Layer 1 (Fail)
//Storyboard Layer 2 (Pass)
//Storyboard Layer 3 (Foreground)
//Storyboard Layer 4 (Overlay)
//Storyboard Sound Samples

[TimingPoints]
1066,472.44094488189,3,2,3,30,1,0
1066,-90.9090909090909,3,2,3,30,0,0
13821,-100,3,2,3,5,0,0
14176,236.220472440945,4,2,2,65,1,0
14294,236.220472440945,4,2,2,65,1,0
14294,-100,4,2,2,65,0,0
16183,-100,4,2,1,75,0,0
46419,-100,4,2,1,70,0,0
49195,-100,4,2,1,50,0,0
49254,-100,4,2,1,70,0,0
50140,-100,4,2,1,50,0,0
50199,-125,4,2,2,50,0,0
51026,-125,4,2,2,50,0,0
51144,-125,4,2,2,50,0,0
57640,-125,4,2,2,50,0,0
57758,-125,4,2,2,50,0,0
58585,-125,4,2,2,50,0,0
58703,-125,4,2,2,50,0,0
63427,-166.666666666667,4,2,2,50,0,0
65317,-125,4,2,2,65,0,0
66026,-125,4,2,2,65,0,0
66262,-125,4,2,2,65,0,0
66971,-125,4,2,2,65,0,0
67207,-100,4,2,1,75,0,0
82325,-100,4,2,2,70,0,0
99333,-100,4,2,2,65,0,0
99510,-100,4,2,2,5,0,0
99569,-100,4,2,2,65,0,0
101400,-100,4,2,2,65,0,0
101459,-100,4,2,2,65,0,0
103290,-100,4,2,2,65,0,0
103349,-100,4,2,2,65,0,0
105179,-100,4,2,2,65,0,0
105238,-100,4,2,2,65,0,0
107069,-100,4,2,2,65,0,0
107128,-100,4,2,2,65,0,0
108959,-100,4,2,2,65,0,0
109018,-100,4,2,2,65,0,0
110671,-100,4,2,2,75,0,0
112561,-166.666666666667,4,2,2,75,0,0
114215,-100,4,2,2,65,0,0
114333,-100,4,2,2,75,0,0
114451,-100,4,2,2,75,0,0
115396,-100,4,2,2,65,0,0
115475,-100,4,2,2,50,0,0
116341,-100,4,2,1,80,0,1
116518,-100,4,2,1,80,0,1
116577,-100,4,2,1,80,0,1
122010,-100,4,2,1,80,0,0
122423,-100,4,2,1,80,0,0
122482,-100,4,2,1,80,0,0
122660,-100,4,2,1,80,0,0
122719,-100,4,2,1,80,0,0
122896,-100,4,2,1,80,0,0
122955,-100,4,2,1,80,0,0
123841,-100,4,2,1,80,0,0
123900,-100,4,2,1,80,0,1
124077,-100,4,2,1,80,0,1
124136,-100,4,2,1,80,0,1
131636,-100,4,2,1,80,0,1
131695,-100,4,2,1,80,0,1
137128,-100,4,2,1,80,0,0
137542,-100,4,2,1,80,0,0
137601,-100,4,2,1,80,0,0
137778,-100,4,2,1,80,0,0
137837,-100,4,2,1,80,0,0
138014,-100,4,2,1,80,0,0
138073,-100,4,2,1,80,0,0
138959,-100,4,2,1,80,0,0
139018,-100,4,2,1,80,0,1
139195,-100,4,2,1,80,0,1
139254,-100,4,2,1,80,0,1
140849,-100,4,2,1,80,0,1
140908,-100,4,2,1,80,0,1
145632,-100,4,2,1,80,0,0
146577,-100,4,2,1,80,0,1
161695,-100,4,2,1,75,0,0
176813,-166.666666666667,4,2,2,60,0,0
178585,-166.666666666667,4,2,2,60,0,0
178703,-166.666666666667,4,2,2,60,0,0
180475,-166.666666666667,4,2,2,60,0,0
180593,-200,4,2,2,60,0,0
182482,-200,4,2,2,60,0,0
184372,-100,4,2,2,65,0,0
184845,-111.111111111111,4,2,2,65,0,0
189923,-100,4,2,2,65,0,0
190042,-100,4,2,2,70,0,0
190986,-100,4,2,2,75,0,0
191931,-100,4,2,1,80,0,0
208939,-100,4,2,2,65,0,0
209116,-100,4,2,2,65,0,0
209175,-100,4,2,2,65,0,0
211006,-100,4,2,2,65,0,0
211065,-100,4,2,2,65,0,0
212896,-100,4,2,2,65,0,0
212955,-100,4,2,2,65,0,0
214786,-100,4,2,2,65,0,0
214845,-100,4,2,2,65,0,0
216675,-100,4,2,2,65,0,0
216734,-100,4,2,2,65,0,0
218565,-100,4,2,2,65,0,0
218624,-100,4,2,2,65,0,0
220278,-100,4,2,2,75,0,0
222168,-166.666666666667,4,2,2,75,0,0
224057,-100,4,2,2,75,0,0
225947,-100,4,2,3,60,0,0
227246,-100,4,2,3,60,0,0
227364,-100,4,2,3,60,0,0
228073,-100,4,2,3,60,0,0
228191,-100,4,2,3,60,0,0
228427,-100,4,2,3,60,0,0
228545,-100,4,2,3,60,0,0
228664,-100,4,2,3,60,0,0
228782,-100,4,2,3,60,0,0
230671,-100,4,2,2,40,0,0
230750,-100,4,2,2,45,0,0
230829,-100,4,2,2,50,0,0
230908,-100,4,2,2,55,0,0
230986,-100,4,2,2,60,0,0
231065,-100,4,2,2,65,0,0
231144,-100,4,2,2,70,0,0
231616,-100,4,2,2,60,0,0
232561,-100,4,2,2,75,0,0
233447,-100,4,2,2,75,0,0
233506,-100,4,2,1,80,0,1
233683,-100,4,2,1,80,0,1
233742,-100,4,2,1,80,0,1
241242,-100,4,2,1,80,0,1
241301,-100,4,2,1,80,0,1
246734,-100,4,2,1,80,0,0
247148,-100,4,2,1,80,0,0
247207,-100,4,2,1,80,0,0
247384,-100,4,2,1,80,0,0
247443,-100,4,2,1,80,0,0
247620,-100,4,2,1,80,0,0
247679,-100,4,2,1,80,0,0
248565,-100,4,2,1,80,0,0
248624,-100,4,2,1,80,0,1
248801,-100,4,2,1,80,0,1
248860,-100,4,2,1,80,0,1
250455,-100,4,2,1,80,0,1
250514,-100,4,2,1,80,0,1
255238,-100,4,2,1,80,0,0
256183,-100,4,2,1,80,0,1
274136,-125,4,2,1,80,0,1
275081,-100,4,2,1,80,0,0
305317,-100,4,2,1,70,0,0
307916,-100,4,2,1,70,0,0
308093,-100,4,2,1,70,0,0
308152,-100,4,2,1,65,0,0
309097,-100,4,2,1,50,0,0
309569,-100,4,2,1,80,0,0
316656,-100,4,2,1,5,0,0

[Colours]
Combo1 : 192,98,255
Combo2 : 95,40,255
Combo3 : 169,40,255
Combo4 : 125,102,255

[HitObjects]
157,238,1066,6,0,P|88:179|171:148,1,198.000006042481,2|0,0:0|0:0,0:0:0:0:
254,143,2010,2,0,L|117:138,1,99.0000030212403,2|2,0:0|0:0,0:0:0:0:
353,150,2483,2,0,L|352:291,1,99.0000030212403,2|0,0:0|0:0,0:0:0:0:
257,258,2955,2,0,L|135:258,2,99.0000030212403,0|2|2,0:0|0:0|0:0,0:0:0:0:
110,185,3900,6,0,L|110:325,1,99.0000030212403,2|0,0:0|0:0,0:0:0:0:
215,297,4373,2,0,L|349:296,2,99.0000030212403,0|2|2,0:0|0:0|0:0,0:0:0:0:
407,252,5317,2,0,L|408:135,1,99.0000030212403,2|0,0:0|0:0,0:0:0:0:
284,113,5790,1,0,0:0:0:0:
160,141,6262,2,0,L|160:273,1,99.0000030212403,2|2,0:0|0:0,0:0:0:0:
358,245,6735,6,0,P|420:213|337:147,1,198.000006042481,2|0,0:0|0:0,0:0:0:0:
160,135,7443,2,0,L|276:135,1,99.0000030212403,2|2,0:0|0:0,0:0:0:0:
152,194,7916,2,0,L|102:192,1,49.5000015106202,0|0,0:0|0:0,0:0:0:0:
286,266,8152,2,0,P|349:206|246:161,1,198.000006042481,2|0,0:0|0:0,0:0:0:0:
175,135,8861,1,2,0:0:0:0:
303,144,9097,2,0,L|303:21,1,99.0000030212403,2|0,0:0|0:0,0:0:0:0:
119,43,9569,6,0,L|119:70,1,24.7500007553101,2|0,0:0|0:0,0:0:0:0:
119,91,9688,2,0,B|119:339|119:339|119:30,1,544.500016616822,0|0,0:0|0:0,0:0:0:0:
256,192,11223,12,0,13821,0:0:0:0:
203,185,14176,6,0,L|266:185,1,45,0|0,1:0|1:0,0:0:0:0:
391,182,14294,1,8,0:0:0:0:
203,185,14412,2,0,L|322:185,1,90,8|0,0:0|1:0,0:0:0:0:
117,208,14648,6,0,P|61:144|138:96,1,180,12|0,0:0|1:0,0:0:0:0:
163,92,14943,1,0,1:0:0:0:
310,167,15002,2,0,L|310:233,1,45,12|0,0:0|0:0,0:0:0:0:
192,211,15120,2,0,L|135:211,1,45,0|0,1:0|1:0,0:0:0:0:
310,167,15238,6,0,L|383:167,1,60,8|8,0:0|0:3,0:0:0:0:
370,167,15396,1,8,0:3:0:0:
147,211,15475,2,0,L|147:137,1,45,4|0,0:3|0:0,0:0:0:0:
310,167,15593,2,0,L|384:166,2,45,0|0|8,0:0|0:0|0:0,0:0:0:0:
144,192,15790,1,8,0:0:0:0:
92,169,15868,1,8,0:0:0:0:
92,113,15947,1,8,0:0:0:0:
206,75,16065,1,8,0:0:0:0:
387,101,16183,6,0,L|386:214,1,90,14|2,1:0|0:0,0:0:0:0:
161,208,16419,2,0,P|114:125|189:124,1,180,10|2,0:0|1:2,0:0:0:0:
252,134,16774,1,0,0:0:0:0:
434,174,16892,6,0,L|434:320,1,90,8|0,0:0|0:0,0:0:0:0:
243,280,17128,2,0,L|369:281,1,90,0|0,1:0|1:0,0:0:0:0:
143,236,17364,2,0,P|87:188|176:127,1,180,10|2,0:0|0:0,0:0:0:0:
222,149,17719,1,0,1:0:0:0:
409,216,17837,2,0,L|277:215,1,90,10|0,0:0|0:0,0:0:0:0:
86,148,18073,6,0,L|307:145,1,180,6|8,1:2|0:0,0:0:0:0:
86,215,18427,1,0,0:0:0:0:
176,215,18545,2,0,L|73:215,1,90,0|0,1:0|1:0,0:0:0:0:
332,107,18782,6,0,L|119:108,1,180,10|0,0:0|1:0,0:0:0:0:
238,202,19136,1,0,1:0:0:0:
456,206,19254,2,0,L|456:96,1,90,10|0,0:0|1:0,0:0:0:0:
345,224,19490,2,0,L|346:330,1,90,2|0,0:0|1:0,0:0:0:0:
159,209,19727,2,0,L|158:89,1,90,10|8,0:0|0:0,0:0:0:0:
344,124,19963,6,0,L|133:81,2,180,6|8|0,1:2|0:0|1:0,0:0:0:0:
254,189,20553,1,0,1:0:0:0:
344,179,20671,2,0,L|343:54,1,90,8|0,0:0|0:0,0:0:0:0:
254,81,20908,2,0,L|140:82,1,90,0|0,1:0|1:0,0:0:0:0:
354,162,21144,6,0,P|356:251|250:268,1,180,10|2,0:0|0:0,0:0:0:0:
195,248,21498,1,0,1:0:0:0:
398,237,21616,1,8,0:0:0:0:
465,183,21734,1,0,0:0:0:0:
455,97,21852,1,2,1:2:0:0:
377,60,21970,1,2,0:0:0:0:
183,89,22089,6,0,L|72:85,1,90,10|0,0:0|0:0,0:0:0:0:
187,170,22325,2,0,L|288:166,1,90,2|2,1:2|1:2,0:0:0:0:
56,174,22561,1,10,0:0:0:0:
31,257,22679,1,0,0:0:0:0:
76,332,22797,1,2,1:2:0:0:
162,349,22915,1,0,1:0:0:0:
397,229,23034,6,0,L|279:223,1,90,10|0,0:0|1:0,0:0:0:0:
106,183,23270,2,0,L|105:70,1,90,10|0,0:0|1:0,0:0:0:0:
286,92,23506,1,8,0:0:0:0:
371,149,23624,2,0,L|371:232,1,45,8|8,0:0|0:0,0:0:0:0:
210,221,23742,6,0,L|99:221,1,90,6|0,1:2|0:0,0:0:0:0:
338,241,23979,2,0,P|394:200|312:146,1,180,8|0,0:0|1:0,0:0:0:0:
245,168,24333,1,0,1:0:0:0:
461,187,24451,2,0,L|461:306,1,90,10|0,0:0|0:0,0:0:0:0:
200,284,24687,6,0,P|239:164|311:159,1,180,2|8,1:2|0:0,0:0:0:0:
363,205,25042,1,0,1:0:0:0:
461,169,25160,2,0,L|462:68,1,90,0|0,0:0|1:0,0:0:0:0:
260,78,25396,2,0,L|384:78,1,90,8|0,0:0|0:0,0:0:0:0:
159,146,25632,6,0,P|97:177|174:227,1,180,6|8,1:2|0:0,0:0:0:0:
363,224,25986,1,2,0:0:0:0:
457,185,26105,2,0,L|457:85,1,90,0|0,1:0|1:0,0:0:0:0:
206,89,26341,2,0,L|338:83,1,90,10|0,0:0|0:0,0:0:0:0:
96,144,26577,6,0,P|32:187|103:231,1,180,2|8,1:2|0:0,0:0:0:0:
187,225,26931,1,0,1:0:0:0:
274,169,27049,2,0,L|173:165,1,90,0|0,0:0|1:0,0:0:0:0:
407,156,27286,2,0,L|406:273,1,90,10|8,0:0|0:0,0:0:0:0:
361,245,27463,1,8,0:0:0:0:
196,226,27522,6,0,P|133:172|220:127,1,180,6|8,1:2|0:0,0:0:0:0:
282,135,27876,1,2,0:0:0:0:
375,180,27994,2,0,L|374:294,1,90,0|0,1:0|1:0,0:0:0:0:
272,280,28231,2,0,L|164:279,1,90,10|0,0:0|0:0,0:0:0:0:
415,240,28467,6,0,L|416:127,1,90,2|0,1:2|1:0,0:0:0:0:
325,149,28703,2,0,L|451:150,1,90,8|2,0:0|1:2,0:0:0:0:
229,69,28939,2,0,L|122:69,1,90,0|0,0:0|1:0,0:0:0:0:
348,123,29175,2,0,L|348:243,1,90,10|0,0:0|1:0,0:0:0:0:
154,204,29412,5,14,0:0:0:0:
348,197,29530,1,0,1:0:0:0:
154,151,29648,2,0,L|285:150,1,90,0|0,1:0|1:0,0:0:0:0:
431,120,29884,2,0,L|302:119,1,90,14|0,0:0|1:0,0:0:0:0:
154,97,30120,1,0,1:0:0:0:
337,124,30238,1,0,1:0:0:0:
154,151,30356,6,0,L|154:258,1,90,14|0,0:0|1:0,0:0:0:0:
336,240,30593,1,12,0:0:0:0:
154,241,30711,2,0,L|224:241,1,45,2|0,1:2|0:0,0:0:0:0:
336,176,30829,1,12,0:0:0:0:
154,151,30947,2,0,L|154:87,1,45,8|8,0:0|0:0,0:0:0:0:
336,86,31065,2,0,L|336:207,1,90,14|8,0:0|0:0,0:0:0:0:
147,134,31301,6,0,L|147:262,1,90,14|2,1:0|0:0,0:0:0:0:
334,229,31538,2,0,L|446:228,1,90,10|0,0:0|0:0,0:0:0:0:
173,180,31774,2,0,P|116:209|187:271,1,180,2|8,1:2|0:0,0:0:0:0:
268,254,32128,1,0,0:0:0:0:
365,213,32246,6,0,L|364:97,1,90,0|0,1:0|1:0,0:0:0:0:
265,111,32482,2,0,L|139:109,1,90,10|0,0:0|1:0,0:0:0:0:
414,142,32719,2,0,L|413:275,1,90,2|0,0:0|1:0,0:0:0:0:
232,234,32955,2,0,L|112:234,1,90,10|0,0:0|0:0,0:0:0:0:
325,207,33191,6,0,P|385:166|314:112,1,180,6|8,1:2|0:0,0:0:0:0:
237,141,33545,1,0,0:0:0:0:
143,188,33664,2,0,L|143:306,1,90,0|0,1:0|1:0,0:0:0:0:
377,283,33900,6,0,P|430:253|353:200,1,180,10|0,0:0|1:0,0:0:0:0:
281,174,34254,1,0,1:0:0:0:
467,146,34372,2,0,L|467:29,1,90,10|0,0:0|1:0,0:0:0:0:
276,49,34608,2,0,L|162:47,1,90,2|0,0:0|1:0,0:0:0:0:
276,137,34845,2,0,L|375:136,1,90,10|8,0:0|0:0,0:0:0:0:
128,172,35081,6,0,P|71:212|147:268,1,180,6|8,1:2|0:0,0:0:0:0:
216,273,35435,1,0,0:0:0:0:
399,229,35553,2,0,L|399:128,1,90,0|0,1:0|1:0,0:0:0:0:
290,146,35790,2,0,L|289:41,1,90,8|0,0:0|0:0,0:0:0:0:
403,165,36026,6,0,L|402:290,1,90,0|0,1:0|1:0,0:0:0:0:
283,194,36262,2,0,L|283:81,1,90,10|0,0:0|1:0,0:0:0:0:
463,204,36498,2,0,L|464:100,1,90,2|0,0:0|1:0,0:0:0:0:
283,93,36734,2,0,L|176:93,1,90,8|0,0:0|0:0,0:0:0:0:
449,158,36971,6,0,L|349:158,3,90,2|2|10|0,1:2|0:0|0:0|0:0,0:0:0:0:
176,215,37443,2,0,L|294:214,3,90,2|2|10|0,1:2|1:2|0:0|0:0,0:0:0:0:
58,160,37916,5,2,1:2:0:0:
33,243,38034,1,0,1:0:0:0:
78,318,38152,1,10,0:0:0:0:
164,335,38270,1,0,1:0:0:0:
355,230,38388,2,0,L|356:141,1,90,10|0,0:0|1:0,0:0:0:0:
165,234,38624,1,8,0:0:0:0:
355,230,38742,1,8,0:0:0:0:
162,200,38860,6,0,P|169:123|271:77,1,180,6|8,1:2|0:0,0:0:0:0:
351,102,39215,2,0,L|354:228,1,90,2|0,0:0|1:0,0:0:0:0:
242,229,39451,1,0,1:0:0:0:
36,198,39569,2,0,L|37:72,1,90,10|0,0:0|0:0,0:0:0:0:
215,91,39805,6,0,P|291:89|340:187,2,180,2|8|0,1:2|0:0|0:0,0:0:0:0:
396,192,40396,1,0,1:0:0:0:
493,167,40514,2,0,L|493:65,1,90,8|0,0:0|0:0,0:0:0:0:
256,101,40750,6,0,P|199:150|277:203,1,180,6|8,1:2|0:0,0:0:0:0:
352,175,41105,1,2,0:0:0:0:
441,211,41223,2,0,L|441:311,1,90,0|0,1:0|1:0,0:0:0:0:
214,304,41459,2,0,L|335:303,1,90,10|0,0:0|0:0,0:0:0:0:
93,247,41695,6,0,P|104:153|189:123,1,180,2|8,1:2|0:0,0:0:0:0:
266,145,42049,1,0,1:0:0:0:
172,169,42168,2,0,L|172:270,1,90,0|0,0:0|1:0,0:0:0:0:
379,257,42404,2,0,L|271:255,1,90,10|8,0:0|0:0,0:0:0:0:
87,191,42640,6,0,L|289:187,1,180,6|8,1:2|0:0,0:0:0:0:
180,271,42994,1,2,0:0:0:0:
386,229,43112,2,0,L|386:127,1,90,0|0,1:0|1:0,0:0:0:0:
292,141,43349,2,0,L|396:140,1,90,10|0,0:0|0:0,0:0:0:0:
207,85,43585,6,0,L|14:83,1,180,2|8,1:2|0:0,0:0:0:0:
112,180,43939,1,2,1:2:0:0:
324,178,44057,2,0,L|325:292,1,90,0|0,0:0|1:0,0:0:0:0:
140,275,44294,2,0,L|21:275,1,90,10|0,0:0|1:0,0:0:0:0:
50,275,44471,1,0,1:0:0:0:
208,183,44530,6,0,L|336:179,1,90,14|0,0:0|1:0,0:0:0:0:
92,184,44766,2,0,L|91:61,1,90,0|0,1:0|1:0,0:0:0:0:
282,84,45002,1,14,0:0:0:0:
91,94,45120,1,0,1:0:0:0:
283,171,45238,2,0,L|179:170,1,90,0|0,1:0|1:0,0:0:0:0:
369,184,45475,6,0,L|369:301,1,90,14|0,0:0|1:0,0:0:0:0:
189,273,45711,2,0,L|59:274,1,90,12|2,0:0|1:2,0:0:0:0:
283,171,45947,1,12,0:0:0:0:
90,174,46065,2,0,L|150:175,1,45,8|8,0:0|0:0,0:0:0:0:
283,171,46183,1,14,0:0:0:0:
90,174,46301,1,8,0:0:0:0:
283,171,46419,5,6,1:2:0:0:
256,192,46656,12,0,49018,0:0:0:0:
256,192,49254,5,6,1:2:0:0:
256,192,49490,12,0,49963,0:0:0:0:
347,337,50199,6,0,P|462:125|322:36,1,432,2|0,0:0|0:0,0:0:0:0:
172,94,51144,2,0,P|55:173|62:236,2,216,2|2|2,0:0|0:0|0:0,0:0:0:0:
309,162,52089,1,2,0:0:0:0:
164,299,52443,1,2,0:0:0:0:
381,199,52797,1,2,0:0:0:0:
173,298,53034,6,0,P|128:248|355:257,1,576,2|0,0:0|0:0,0:0:0:0:
221,288,54215,1,2,0:0:0:0:
405,193,54451,1,0,0:0:0:0:
219,117,54687,1,2,0:0:0:0:
363,160,54923,6,0,P|480:239|473:302,2,216,2|2|2,0:0|0:0|0:0,0:0:0:0:
236,176,55868,1,2,0:0:0:0:
399,101,56223,1,2,0:0:0:0:
399,101,56577,1,2,0:0:0:0:
231,187,56813,6,0,P|240:274|314:122,1,504,2|0,0:0|0:0,0:0:0:0:
244,123,57758,1,2,0:0:0:0:
167,160,57876,2,0,P|158:250|332:148,1,432,0|0,0:0|0:0,0:0:0:0:
259,124,58703,6,0,P|165:133|135:253,2,216,2|2|2,0:0|0:0|0:0,0:0:0:0:
93,181,59648,1,2,0:0:0:0:
246,107,60002,1,2,0:0:0:0:
93,181,60356,1,2,0:0:0:0:
284,266,60593,6,0,P|340:70|197:234,1,576,2|0,0:0|0:0,0:0:0:0:
317,269,61774,1,2,0:0:0:0:
179,186,62010,1,0,0:0:0:0:
179,186,62246,1,2,0:0:0:0:
318,105,62482,2,0,P|221:100|184:217,2,216,2|2|2,0:0|0:0|0:0,0:0:0:0:
406,169,63427,6,0,P|349:321|296:82,1,647.99998022461,2|0,0:0|0:0,0:0:0:0:
142,81,65317,2,0,P|77:175|274:121,1,504,4|0,1:2|0:0,0:0:0:0:
96,79,66262,2,0,P|37:226|298:258,1,504,4|0,1:2|0:0,0:0:0:0:
97,209,67207,6,0,L|97:84,1,90,14|2,1:0|0:0,0:0:0:0:
282,98,67443,2,0,L|388:98,1,90,10|2,0:0|0:0,0:0:0:0:
282,131,67679,2,0,L|282:240,1,90,2|0,1:2|0:0,0:0:0:0:
374,232,67916,2,0,L|373:351,1,90,8|0,0:0|0:0,0:0:0:0:
284,333,68152,2,0,L|172:332,1,90,0|0,1:0|1:0,0:0:0:0:
395,266,68388,6,0,L|396:149,1,90,10|0,0:0|1:0,0:0:0:0:
189,151,68624,2,0,L|71:150,1,90,2|0,0:0|1:0,0:0:0:0:
190,229,68860,2,0,L|315:229,1,90,10|0,0:0|0:0,0:0:0:0:
59,194,69097,6,0,L|59:80,1,90,6|0,1:2|0:0,0:0:0:0:
277,87,69333,2,0,L|177:84,1,90,8|0,0:0|0:0,0:0:0:0:
281,104,69569,2,0,L|281:226,1,90,0|0,1:0|1:0,0:0:0:0:
104,195,69805,6,0,P|59:234|151:289,1,180,10|0,0:0|1:0,0:0:0:0:
217,271,70160,1,0,1:0:0:0:
416,174,70278,2,0,L|300:174,1,90,10|0,0:0|1:0,0:0:0:0:
235,200,70514,2,0,L|233:315,1,90,2|0,0:0|1:0,0:0:0:0:
331,189,70750,2,0,L|333:70,1,90,10|8,0:0|0:0,0:0:0:0:
136,81,70986,6,0,P|76:102|88:212,1,180,6|8,1:2|0:0,0:0:0:0:
156,243,71341,1,0,0:0:0:0:
353,189,71459,2,0,L|224:188,1,90,0|0,1:0|1:0,0:0:0:0:
63,194,71695,6,0,L|62:90,1,90,8|0,0:0|0:0,0:0:0:0:
159,100,71931,2,0,L|56:101,1,90,0|0,1:0|1:0,0:0:0:0:
280,163,72168,2,0,L|187:161,1,90,10|0,0:0|1:0,0:0:0:0:
370,173,72404,6,0,P|370:286|287:293,1,180,2|8,0:0|0:0,0:0:0:0:
230,273,72758,1,0,0:0:0:0:
413,223,72876,2,0,L|413:119,1,90,2|2,1:2|0:0,0:0:0:0:
231,120,73112,2,0,L|140:120,1,90,10|0,0:0|0:0,0:0:0:0:
234,68,73349,2,0,L|350:68,1,90,2|2,1:2|1:2,0:0:0:0:
98,127,73585,5,10,0:0:0:0:
80,212,73703,1,0,0:0:0:0:
131,283,73821,1,2,1:2:0:0:
218,291,73939,1,0,1:0:0:0:
437,202,74057,2,0,L|333:199,1,90,10|0,0:0|1:0,0:0:0:0:
127,194,74294,2,0,L|126:82,1,90,10|0,0:0|1:0,0:0:0:0:
323,96,74530,1,8,0:0:0:0:
402,154,74648,2,0,L|346:153,1,45,8|8,0:0|0:0,0:0:0:0:
160,160,74766,6,0,P|110:197|197:254,1,180,6|8,1:2|0:0,0:0:0:0:
264,243,75120,1,2,0:0:0:0:
353,192,75238,2,0,L|253:192,1,90,0|0,1:0|1:0,0:0:0:0:
76,194,75475,2,0,L|76:96,1,90,10|0,0:0|0:0,0:0:0:0:
287,107,75711,6,0,P|341:144|263:207,1,180,2|8,1:2|0:0,0:0:0:0:
188,211,76065,1,0,1:0:0:0:
98,211,76183,2,0,L|215:211,1,90,0|0,0:0|1:0,0:0:0:0:
377,152,76419,2,0,L|488:151,1,90,8|0,0:0|0:0,0:0:0:0:
286,235,76656,6,0,P|235:184|324:139,1,180,6|8,1:2|0:0,0:0:0:0:
125,133,77010,1,2,0:0:0:0:
38,168,77128,2,0,L|39:275,1,90,0|0,1:0|1:0,0:0:0:0:
250,259,77364,2,0,L|381:261,1,90,10|0,0:0|0:0,0:0:0:0:
141,225,77601,6,0,P|82:176|172:117,1,180,2|8,1:2|0:0,0:0:0:0:
229,130,77955,1,0,1:0:0:0:
446,176,78073,2,0,L|446:286,1,90,0|0,0:0|1:0,0:0:0:0:
264,279,78309,1,10,0:0:0:0:
447,247,78427,1,8,0:0:0:0:
264,225,78545,6,0,L|265:120,1,90,6|0,1:2|0:0,0:0:0:0:
352,121,78782,2,0,L|464:115,1,90,8|2,0:0|0:0,0:0:0:0:
352,126,79018,2,0,L|351:226,1,90,0|0,1:0|1:0,0:0:0:0:
453,221,79254,2,0,L|454:327,1,90,10|0,0:0|0:0,0:0:0:0:
255,307,79490,6,0,P|158:272|176:207,1,180,2|8,1:2|0:0,0:0:0:0:
277,195,79845,1,2,1:2:0:0:
378,162,79963,2,0,L|377:60,1,90,0|0,0:0|1:0,0:0:0:0:
188,53,80199,2,0,L|81:52,1,90,10|0,0:0|1:0,0:0:0:0:
141,97,80376,1,0,1:0:0:0:
308,112,80435,5,14,0:0:0:0:
383,146,80553,1,0,1:0:0:0:
384,229,80671,1,0,1:0:0:0:
310,265,80789,1,0,1:0:0:0:
119,262,80908,1,14,0:0:0:0:
310,265,81026,1,0,1:0:0:0:
119,262,81144,6,0,L|120:157,1,90,0|0,1:0|1:0,0:0:0:0:
308,112,81380,2,0,L|407:112,1,90,14|0,0:0|1:0,0:0:0:0:
213,149,81616,2,0,L|213:270,1,90,12|2,0:0|1:2,0:0:0:0:
258,235,81794,1,0,0:0:0:0:
398,112,81853,1,12,0:0:0:0:
213,149,81971,2,0,L|146:149,2,45,8|8|14,0:0|0:0|0:0,0:0:0:0:
398,112,82207,1,8,0:0:0:0:
213,239,82325,6,0,P|206:146|296:109,1,180,6|8,1:2|0:0,0:0:0:0:
355,164,82679,1,0,0:0:0:0:
254,225,82797,2,0,L|158:267,1,90,0|0,1:0|1:0,0:0:0:0:
354,188,83034,2,0,L|355:80,1,90,8|0,0:0|0:0,0:0:0:0:
146,89,83270,6,0,P|96:138|177:186,1,180,2|8,1:2|0:0,0:0:0:0:
257,174,83624,1,2,1:2:0:0:
367,209,83742,2,0,L|368:313,1,90,0|0,0:0|1:0,0:0:0:0:
254,310,83979,2,0,L|154:309,1,90,10|0,0:0|0:0,0:0:0:0:
425,260,84215,6,0,P|441:159|350:139,1,180,6|8,1:2|0:0,0:0:0:0:
287,175,84569,1,2,0:0:0:0:
197,175,84687,2,0,L|300:174,1,90,0|0,1:0|1:0,0:0:0:0:
96,193,84923,2,0,L|97:300,1,90,10|0,0:0|0:0,0:0:0:0:
282,291,85160,6,0,P|352:255|275:200,1,180,2|8,1:2|0:0,0:0:0:0:
206,176,85514,1,2,0:0:0:0:
297,226,85632,2,0,L|405:273,1,90,0|0,1:0|1:0,0:0:0:0:
140,211,85868,2,0,L|140:86,1,90,10|0,0:0|0:0,0:0:0:0:
346,109,86105,6,0,L|133:108,1,180,4|10,1:2|0:0,0:0:0:0:
252,201,86459,1,0,0:0:0:0:
348,163,86577,2,0,L|351:50,1,90,2|0,1:2|1:0,0:0:0:0:
173,68,86813,2,0,L|65:68,1,90,10|0,0:0|0:0,0:0:0:0:
345,172,87049,6,0,L|139:170,1,180,6|8,1:2|0:0,0:0:0:0:
165,170,87404,1,2,1:2:0:0:
263,220,87522,2,0,L|263:326,1,90,0|0,0:0|1:0,0:0:0:0:
165,221,87758,2,0,L|54:222,1,90,10|0,0:0|0:0,0:0:0:0:
295,134,87994,6,0,L|420:133,1,90,6|0,1:2|0:0,0:0:0:0:
184,222,88231,2,0,L|90:220,1,90,8|2,0:0|0:0,0:0:0:0:
184,208,88467,2,0,L|185:80,1,90,0|0,1:0|1:0,0:0:0:0:
87,234,88703,2,0,L|86:341,1,90,10|0,0:0|0:0,0:0:0:0:
318,309,88939,6,0,P|373:270|300:207,1,180,6|8,1:2|0:0,0:0:0:0:
209,199,89294,1,0,1:0:0:0:
30,199,89412,1,8,0:0:0:0:
209,199,89530,1,0,1:0:0:0:
30,199,89648,2,0,L|30:109,1,90,8|8,0:0|0:0,0:0:0:0:
74,107,89825,1,8,0:0:0:0:
241,78,89884,6,0,L|449:78,1,180,6|8,1:2|0:0,0:0:0:0:
421,78,90238,1,0,0:0:0:0:
322,136,90356,2,0,L|324:250,1,90,0|0,1:0|1:0,0:0:0:0:
418,235,90593,2,0,L|419:343,1,90,8|0,0:0|0:0,0:0:0:0:
236,284,90829,6,0,L|116:283,1,90,2|0,1:2|0:0,0:0:0:0:
338,199,91065,2,0,L|338:88,1,90,8|2,0:0|1:2,0:0:0:0:
257,94,91301,2,0,L|152:94,1,90,0|0,0:0|1:0,0:0:0:0:
257,94,91538,2,0,L|257:211,1,90,10|0,0:0|0:0,0:0:0:0:
83,234,91774,6,0,P|50:240|91:332,1,180,6|8,1:2|0:0,0:0:0:0:
299,255,92128,1,2,0:0:0:0:
206,223,92246,2,0,L|206:121,1,90,0|0,1:0|1:0,0:0:0:0:
382,107,92482,2,0,L|507:107,1,90,10|0,0:0|0:0,0:0:0:0:
258,137,92719,6,0,L|259:244,1,90,2|2,1:2|0:0,0:0:0:0:
340,247,92955,2,0,L|481:248,1,90,8|2,0:0|1:2,0:0:0:0:
194,166,93191,2,0,L|315:166,1,90,0|0,0:0|1:0,0:0:0:0:
90,196,93427,2,0,L|90:312,1,90,10|0,0:0|0:0,0:0:0:0:
316,294,93664,6,0,P|376:222|292:184,1,180,4|10,1:2|0:0,0:0:0:0:
129,175,94018,1,0,0:0:0:0:
37,213,94136,2,0,L|37:312,1,90,2|0,1:2|1:0,0:0:0:0:
229,313,94372,2,0,L|337:313,1,90,10|0,0:0|0:0,0:0:0:0:
89,238,94608,6,0,P|65:160|173:121,1,180,6|8,1:2|0:0,0:0:0:0:
320,153,94963,1,2,1:2:0:0:
418,195,95081,2,0,L|418:320,1,90,0|0,0:0|1:0,0:0:0:0:
221,282,95317,2,0,L|126:283,1,90,10|0,0:0|0:0,0:0:0:0:
346,261,95553,6,0,P|375:182|297:132,1,180,6|8,1:2|0:0,0:0:0:0:
211,135,95908,1,0,0:0:0:0:
308,131,96026,2,0,L|306:7,1,90,0|0,1:0|1:0,0:0:0:0:
211,200,96262,2,0,L|110:200,1,90,10|0,0:0|0:0,0:0:0:0:
355,205,96498,6,0,L|353:85,1,90,0|0,1:0|1:0,0:0:0:0:
252,224,96734,2,0,L|252:335,1,90,10|0,0:0|1:0,0:0:0:0:
356,214,96971,2,0,L|354:111,1,90,2|0,0:0|1:0,0:0:0:0:
253,96,97207,2,0,L|143:94,1,90,8|0,0:0|1:0,0:0:0:0:
201,142,97384,1,0,1:0:0:0:
354,174,97443,6,0,P|391:210|309:273,1,180,14|0,0:0|1:0,0:0:0:0:
134,280,97797,2,0,P|78:234|157:157,1,180,14|0,0:0|1:0,0:0:0:0:
307,171,98152,2,0,L|308:69,1,90,14|0,0:0|0:0,0:0:0:0:
111,79,98388,5,8,0:0:0:0:
307,81,98506,1,8,0:0:0:0:
407,146,98624,2,0,L|408:252,1,90,0|0,1:0|0:0,0:0:0:0:
224,148,98860,2,0,L|223:34,1,90,0|0,1:0|0:0,0:0:0:0:
43,211,99097,2,0,L|43:322,1,90,0|0,1:0|0:0,0:0:0:0:
251,231,99333,6,0,L|369:215,1,90,6|0,1:2|0:0,0:0:0:0:
340,218,99569,1,8,0:0:0:0:
251,231,99687,1,2,1:2:0:0:
81,231,100042,2,0,L|80:126,1,90,8|0,0:0|0:0,0:0:0:0:
271,124,100278,6,0,L|386:123,1,90,6|0,1:2|1:0,0:0:0:0:
270,206,100514,2,0,L|154:205,1,90,8|2,0:0|1:2,0:0:0:0:
359,280,100986,2,0,L|449:240,1,90,8|0,0:0|0:0,0:0:0:0:
204,244,101223,6,0,P|160:202|253:156,1,180,6|8,1:2|0:0,0:0:0:0:
327,186,101577,1,2,1:2:0:0:
138,222,101931,2,0,L|139:341,1,90,8|0,0:0|0:0,0:0:0:0:
323,278,102168,6,0,L|217:276,1,90,6|0,1:2|1:0,0:0:0:0:
42,277,102404,2,0,L|42:165,1,90,8|0,0:0|1:0,0:0:0:0:
219,159,102640,2,0,L|324:158,1,90,6|0,1:2|1:0,0:0:0:0:
80,166,102876,2,0,L|80:275,1,90,10|8,0:0|0:0,0:0:0:0:
170,256,103112,6,0,L|55:256,1,90,6|0,1:2|0:0,0:0:0:0:
367,244,103349,2,0,P|413:216|331:155,1,180,8|0,0:0|0:0,0:0:0:0:
263,175,103703,1,0,0:0:0:0:
349,143,103821,1,8,0:0:0:0:
44,136,104057,6,0,L|44:246,1,90,6|0,1:2|1:0,0:0:0:0:
128,235,104294,2,0,L|240:235,1,90,8|2,0:0|1:2,0:0:0:0:
128,160,104766,2,0,L|128:268,1,90,8|0,0:0|0:0,0:0:0:0:
340,240,105002,6,0,L|340:118,1,90,6|0,1:2|0:0,0:0:0:0:
241,126,105238,2,0,L|140:126,1,90,8|2,0:0|1:2,0:0:0:0:
394,184,105711,2,0,L|394:290,1,90,8|0,0:0|0:0,0:0:0:0:
189,266,105947,6,0,L|85:266,1,90,6|0,1:2|1:0,0:0:0:0:
308,200,106183,2,0,L|418:200,1,90,8|0,0:0|1:0,0:0:0:0:
195,207,106419,2,0,L|195:86,1,90,14|8,0:0|0:0,0:0:0:0:
309,115,106656,2,0,L|309:11,1,90,2|0,1:2|1:0,0:0:0:0:
119,135,106892,6,0,P|40:197|110:250,1,180,6|8,1:2|0:0,0:0:0:0:
172,282,107246,1,2,1:2:0:0:
383,213,107601,2,0,L|288:213,1,90,8|0,0:0|0:0,0:0:0:0:
85,220,107837,6,0,P|78:141|176:89,1,180,6|8,1:2|0:0,0:0:0:0:
249,122,108191,1,2,1:2:0:0:
430,184,108545,2,0,L|430:307,1,90,8|0,0:0|0:0,0:0:0:0:
192,183,108782,6,0,L|72:183,1,90,6|0,1:2|0:0,0:0:0:0:
192,183,109018,2,0,L|297:182,1,90,8|2,0:0|1:2,0:0:0:0:
47,174,109490,2,0,L|49:303,1,90,8|0,0:0|0:0,0:0:0:0:
263,257,109727,6,0,L|367:260,1,90,6|0,1:2|1:0,0:0:0:0:
263,257,109963,2,0,L|263:154,1,90,8|0,0:0|1:0,0:0:0:0:
445,171,110199,2,0,L|445:78,1,90,14|0,0:0|1:0,0:0:0:0:
221,81,110435,2,0,L|330:81,1,90,10|0,0:0|1:0,0:0:0:0:
85,219,110671,6,0,L|86:333,1,90,14|0,0:0|1:0,0:0:0:0:
131,309,110849,1,0,0:0:0:0:
279,304,110908,2,0,L|376:303,1,90,8|0,0:0|1:0,0:0:0:0:
126,254,111144,2,0,L|125:150,1,90,10|0,0:0|1:0,0:0:0:0:
230,146,111380,2,0,L|361:145,1,90,8|0,0:0|1:0,0:0:0:0:
101,173,111616,6,0,L|101:275,1,90,14|0,0:0|1:0,0:0:0:0:
146,261,111794,1,0,0:0:0:0:
296,249,111853,2,0,L|397:249,1,90,8|0,0:0|1:0,0:0:0:0:
164,236,112089,2,0,L|164:132,1,90,10|8,0:0|0:3,0:0:0:0:
344,136,112325,2,0,L|450:137,1,90,8|4,0:3|0:3,0:0:0:0:
230,304,112561,6,0,P|134:240|268:303,1,755.999976928712,6|0,1:2|0:0,0:0:0:0:
97,188,114333,2,0,L|167:188,1,45,0|0,1:0|1:0,0:0:0:0:
256,186,114451,1,10,0:0:0:0:
435,185,114569,2,0,L|377:185,1,45,0|0,1:0|1:0,0:0:0:0:
240,100,114687,1,8,0:0:0:0:
160,151,114805,2,0,L|160:230,1,45,0|0,1:0|1:0,0:0:0:0:
329,193,114923,2,0,L|329:93,1,90,8|0,0:0|1:0,0:0:0:0:
148,93,115160,1,10,0:0:0:0:
329,103,115278,1,10,0:0:0:0:
145,205,115396,6,0,L|63:205,2,60,6|0|0,1:2|0:0|0:0,0:0:0:0:
193,170,115632,2,0,L|196:65,2,60,2|0|0,0:0|0:0|0:0,0:0:0:0:
141,209,115868,2,0,L|51:209,1,60,2|0,0:0|0:0,0:0:0:0:
232,173,116026,2,0,L|310:171,1,60,0|2,0:0|0:0,0:0:0:0:
129,144,116183,2,0,L|129:56,1,60,0|0,0:0|0:0,0:0:0:0:
326,84,116341,6,0,P|387:121|306:174,1,180,12|10,1:0|0:0,0:0:0:0:
246,186,116695,1,0,0:0:0:0:
39,182,116813,1,2,1:2:0:0:
246,186,116931,2,0,L|246:296,1,90,2|8,1:2|0:0,0:0:0:0:
140,297,117168,1,0,0:0:0:0:
379,239,117286,6,0,P|433:164|344:160,1,180,2|8,1:2|0:0,0:0:0:0:
158,161,117640,1,2,1:2:0:0:
262,203,117758,2,0,L|261:304,1,90,0|0,0:0|1:0,0:0:0:0:
65,283,117994,1,10,0:0:0:0:
262,293,118112,1,0,0:0:0:0:
65,283,118231,6,0,P|11:210|88:192,1,180,6|8,1:2|0:0,0:0:0:0:
152,189,118585,1,2,0:0:0:0:
345,237,118703,2,0,L|345:355,1,90,0|0,1:0|1:0,0:0:0:0:
152,324,118939,1,10,0:0:0:0:
345,237,119057,1,0,0:0:0:0:
152,189,119175,6,0,L|257:189,1,90,2|0,1:2|1:0,0:0:0:0:
421,134,119412,2,0,L|420:251,1,90,8|0,0:0|1:0,0:0:0:0:
198,192,119648,2,0,L|198:296,1,90,0|0,0:0|1:0,0:0:0:0:
286,168,119884,2,0,L|410:168,1,90,10|10,0:0|0:0,0:0:0:0:
136,125,120120,6,0,P|74:176|155:225,1,180,6|8,1:2|0:0,0:0:0:0:
304,220,120475,1,2,0:0:0:0:
199,176,120593,2,0,L|199:58,1,90,0|0,1:0|1:0,0:0:0:0:
399,64,120829,1,10,0:0:0:0:
200,63,120947,1,0,0:0:0:0:
401,144,121065,6,0,L|214:143,1,180,6|8,1:2|0:0,0:0:0:0:
137,140,121419,1,2,1:2:0:0:
344,239,121538,2,0,L|344:107,1,90,0|0,1:0|1:0,0:0:0:0:
154,118,121774,2,0,L|54:118,2,60,10|8|4,0:0|0:3|0:3,0:0:0:0:
311,121,122010,1,0,1:0:0:0:
170,180,122246,6,0,P|127:149|197:117,1,135,6|0,1:2|0:0,0:0:0:0:
328,149,122482,2,0,P|374:195|328:233,1,135,6|0,1:2|0:0,0:0:0:0:
160,257,122719,2,0,P|103:224|157:181,1,135,6|0,1:2|0:0,0:0:0:0:
286,157,122955,5,10,0:0:0:0:
364,115,123073,2,0,L|364:58,1,45,0|0,1:0|1:0,0:0:0:0:
200,71,123191,1,8,0:0:0:0:
104,68,123309,2,0,L|45:68,1,45,0|0,1:0|1:0,0:0:0:0:
215,155,123427,1,8,0:0:0:0:
305,203,123545,2,0,L|305:269,1,45,0|0,1:0|1:0,0:0:0:0:
158,250,123664,2,0,L|52:251,1,90,12|0,0:0|0:0,0:0:0:0:
305,203,123900,6,0,L|306:81,1,90,12|0,1:0|0:0,0:0:0:0:
127,113,124136,1,10,0:0:0:0:
306,114,124254,1,0,0:0:0:0:
127,113,124372,2,0,L|128:236,1,90,2|2,1:2|1:2,0:0:0:0:
306,250,124608,1,8,0:0:0:0:
127,202,124727,1,0,0:0:0:0:
304,220,124845,6,0,P|357:148|291:126,1,180,2|8,1:2|0:0,0:0:0:0:
213,142,125199,1,2,1:2:0:0:
125,187,125317,2,0,L|124:276,1,90,0|0,0:0|1:0,0:0:0:0:
309,277,125553,2,0,L|418:276,1,90,10|0,0:0|0:0,0:0:0:0:
170,236,125790,6,0,P|101:184|175:142,1,180,6|8,1:2|0:0,0:0:0:0:
379,207,126144,1,2,0:0:0:0:
276,168,126262,2,0,L|277:54,1,90,0|0,1:0|1:0,0:0:0:0:
458,68,126498,1,10,0:0:0:0:
276,78,126616,1,0,0:0:0:0:
456,142,126734,6,0,P|509:214|433:219,1,180,2|8,1:2|0:0,0:0:0:0:
269,235,127089,2,0,L|147:236,1,90,0|0,1:0|0:0,0:0:0:0:
269,235,127325,1,0,1:0:0:0:
74,201,127443,2,0,L|139:200,1,45,10|0,0:0|0:0,0:0:0:0:
248,191,127561,1,10,0:0:0:0:
444,192,127679,6,0,L|444:313,1,90,6|0,1:2|0:0,0:0:0:0:
252,299,127916,2,0,L|148:294,1,90,8|2,0:0|0:0,0:0:0:0:
253,284,128152,2,0,L|253:176,1,90,0|0,1:0|1:0,0:0:0:0:
156,183,128388,2,0,L|154:89,1,90,10|0,0:0|0:0,0:0:0:0:
335,98,128624,6,0,L|120:93,1,180,6|8,1:2|0:0,0:0:0:0:
155,93,128979,1,2,1:2:0:0:
247,153,129097,2,0,L|247:260,1,90,8|0,0:0|1:0,0:0:0:0:
150,259,129333,2,0,L|149:364,1,90,10|0,0:0|1:0,0:0:0:0:
194,347,129510,1,0,1:0:0:0:
325,215,129569,6,0,L|444:215,1,90,14|2,0:0|1:2,0:0:0:0:
156,174,129805,2,0,L|155:68,1,90,2|0,1:2|1:0,0:0:0:0:
329,58,130042,2,0,L|461:58,1,90,14|0,0:0|1:0,0:0:0:0:
165,123,130278,2,0,L|164:246,1,90,2|0,1:2|1:0,0:0:0:0:
341,202,130514,5,14,0:0:0:0:
164,212,130632,1,0,1:0:0:0:
341,202,130750,2,0,L|341:87,1,90,12|0,0:0|1:0,0:0:0:0:
142,215,130986,2,0,L|142:324,1,90,12|0,0:0|1:0,0:0:0:0:
366,204,131223,2,0,L|367:106,1,90,12|0,0:0|0:0,0:0:0:0:
180,153,131459,6,0,L|78:153,1,90,12|0,1:0|0:0,0:0:0:0:
265,108,131695,2,0,L|370:106,1,90,10|0,0:0|0:0,0:0:0:0:
265,39,131931,2,0,L|141:39,1,90,2|2,1:2|1:2,0:0:0:0:
430,136,132168,2,0,L|428:261,1,90,8|0,0:0|0:0,0:0:0:0:
215,218,132404,6,0,P|239:133|338:117,1,180,2|8,1:2|0:0,0:0:0:0:
235,139,132758,1,2,1:2:0:0:
135,196,132876,2,0,L|135:299,1,90,0|0,0:0|1:0,0:0:0:0:
238,311,133112,2,0,L|352:310,1,90,10|0,0:0|0:0,0:0:0:0:
71,223,133349,6,0,L|278:220,1,180,6|8,1:2|0:0,0:0:0:0:
157,138,133703,1,2,0:0:0:0:
71,223,133821,2,0,L|74:346,1,90,0|0,1:0|1:0,0:0:0:0:
296,293,134057,2,0,L|173:290,1,90,10|0,0:0|0:0,0:0:0:0:
421,268,134294,6,0,P|478:233|405:174,1,180,2|8,1:2|0:0,0:0:0:0:
323,182,134648,1,0,1:0:0:0:
138,201,134766,2,0,L|138:327,1,90,0|0,0:0|1:0,0:0:0:0:
360,283,135002,2,0,L|264:283,1,90,10|10,0:0|0:0,0:0:0:0:
37,245,135238,6,0,L|36:131,1,90,6|0,1:2|0:0,0:0:0:0:
272,124,135475,2,0,L|63:118,1,180,8|0,0:0|1:0,0:0:0:0:
175,202,135829,1,0,1:0:0:0:
274,229,135947,2,0,L|275:324,1,90,10|0,0:0|0:0,0:0:0:0:
67,247,136183,6,0,L|189:246,1,90,6|0,1:2|1:0,0:0:0:0:
386,225,136419,2,0,L|386:115,1,90,8|2,0:0|1:2,0:0:0:0:
274,229,136656,2,0,L|274:333,1,90,8|0,0:0|1:0,0:0:0:0:
452,322,136892,2,0,L|513:322,2,60,10|8|4,0:0|0:3|0:3,0:0:0:0:
258,216,137128,1,0,1:0:0:0:
133,181,137364,6,0,P|95:157|159:108,1,135,6|0,1:2|0:0,0:0:0:0:
300,108,137601,2,0,P|341:147|280:186,1,135,6|0,1:2|0:0,0:0:0:0:
126,182,137837,2,0,P|85:163|153:116,1,135,6|0,1:2|0:0,0:0:0:0:
253,78,138073,5,10,0:0:0:0:
343,169,138191,2,0,L|409:169,1,45,0|0,1:0|1:0,0:0:0:0:
249,174,138309,1,8,0:0:0:0:
154,81,138427,2,0,L|87:81,1,45,0|0,1:0|1:0,0:0:0:0:
251,270,138545,1,8,0:0:0:0:
344,226,138664,2,0,L|344:170,1,45,0|0,1:0|1:0,0:0:0:0:
195,142,138782,2,0,L|97:142,1,90,12|0,0:0|0:0,0:0:0:0:
303,238,139018,6,0,L|94:234,1,180,12|10,1:0|0:0,0:0:0:0:
123,234,139372,1,0,0:0:0:0:
218,157,139490,2,0,L|341:159,1,90,2|2,1:2|1:2,0:0:0:0:
92,151,139727,2,0,L|92:41,1,90,8|0,0:0|0:0,0:0:0:0:
271,66,139963,5,2,1:2:0:0:
169,105,140081,2,0,L|169:225,1,90,0|8,1:0|0:0,0:0:0:0:
349,226,140317,1,2,1:2:0:0:
254,176,140435,2,0,L|253:80,1,90,0|0,0:0|1:0,0:0:0:0:
437,87,140671,1,10,0:0:0:0:
253,86,140790,1,0,0:0:0:0:
437,194,140908,6,0,L|340:191,1,90,6|0,1:2|0:0,0:0:0:0:
165,183,141144,1,10,0:0:0:0:
272,226,141262,2,0,L|273:345,1,90,2|0,0:0|1:0,0:0:0:0:
93,232,141498,1,0,1:0:0:0:
198,269,141616,2,0,L|200:373,1,90,10|0,0:0|0:0,0:0:0:0:
14,238,141853,6,0,L|128:236,1,90,2|0,1:2|1:0,0:0:0:0:
290,214,142089,2,0,L|423:213,1,90,8|0,0:0|1:0,0:0:0:0:
286,207,142325,2,0,L|286:88,1,90,0|0,0:0|1:0,0:0:0:0:
393,118,142561,2,0,L|394:18,1,90,10|10,0:0|0:0,0:0:0:0:
217,118,142797,6,0,P|163:150|251:198,1,180,6|8,1:2|0:0,0:0:0:0:
318,201,143152,1,2,0:0:0:0:
224,245,143270,2,0,L|225:361,1,90,0|0,1:0|1:0,0:0:0:0:
317,336,143506,2,0,L|417:337,1,90,10|0,0:0|0:0,0:0:0:0:
189,211,143742,6,0,L|78:213,2,90,6|0|8,1:2|1:0|0:0,0:0:0:0:
368,209,144097,1,2,1:2:0:0:
189,211,144215,2,0,L|190:108,1,90,8|0,0:0|1:0,0:0:0:0:
281,114,144451,2,0,L|403:115,1,90,10|0,0:0|1:0,0:0:0:0:
330,156,144628,1,0,1:0:0:0:
187,188,144687,6,0,L|88:188,2,90,14|2|2,0:0|1:2|1:2,0:0:0:0:
367,193,145042,1,0,1:0:0:0:
266,242,145160,2,0,L|266:336,1,90,14|0,0:0|1:0,0:0:0:0:
479,327,145396,2,0,L|380:323,1,90,2|0,1:2|1:0,0:0:0:0:
180,283,145632,6,0,P|121:228|211:186,1,180,14|0,0:0|1:0,0:0:0:0:
361,210,145986,1,12,0:0:0:0:
258,161,146105,2,0,L|259:51,1,90,0|0,0:0|1:0,0:0:0:0:
303,70,146282,1,0,1:0:0:0:
452,70,146341,2,0,L|347:70,1,90,14|0,0:0|0:0,0:0:0:0:
101,128,146577,6,0,L|102:257,1,90,12|0,1:0|0:0,0:0:0:0:
305,210,146813,1,8,0:0:0:0:
99,186,146931,1,2,1:2:0:0:
305,131,147049,1,8,0:0:0:0:
202,197,147168,2,0,L|202:301,1,90,0|10,1:0|0:0,0:0:0:0:
422,281,147404,1,0,1:0:0:0:
212,202,147522,6,0,L|308:201,1,90,14|0,0:0|1:0,0:0:0:0:
99,163,147758,2,0,L|97:60,1,90,8|2,0:0|1:2,0:0:0:0:
303,61,147994,1,8,0:0:0:0:
98,74,148112,1,0,1:0:0:0:
303,144,148231,2,0,L|206:144,1,90,10|0,0:0|1:0,0:0:0:0:
444,224,148467,5,14,0:0:0:0:
246,227,148585,2,0,L|247:328,1,90,0|8,1:0|0:0,0:0:0:0:
445,318,148821,1,2,1:2:0:0:
247,317,148939,1,8,0:0:0:0:
444,239,149057,2,0,L|313:238,1,90,0|10,1:0|0:0,0:0:0:0:
142,239,149294,1,0,1:0:0:0:
354,238,149412,6,0,L|353:126,1,90,12|0,0:0|1:0,0:0:0:0:
141,121,149648,1,8,0:0:0:0:
353,141,149766,1,0,1:0:0:0:
143,194,149884,2,0,L|259:194,1,90,14|0,0:0|1:0,0:0:0:0:
432,159,150120,2,0,L|327:159,1,90,10|0,0:0|1:0,0:0:0:0:
163,164,150356,6,0,L|382:159,1,180,14|8,0:0|0:0,0:0:0:0:
160,275,150711,1,2,1:2:0:0:
347,235,150829,2,0,L|344:137,1,90,8|0,0:0|1:0,0:0:0:0:
161,116,151065,2,0,L|49:116,1,90,10|0,0:0|1:0,0:0:0:0:
260,182,151301,5,14,0:0:0:0:
161,218,151419,2,0,L|160:326,1,90,0|8,1:0|0:0,0:0:0:0:
383,304,151656,1,2,1:2:0:0:
174,238,151774,2,0,L|292:238,1,90,8|0,0:0|1:0,0:0:0:0:
46,174,152010,2,0,L|161:174,1,90,10|0,0:0|1:0,0:0:0:0:
365,170,152246,6,0,L|177:168,1,180,14|8,0:0|0:0,0:0:0:0:
99,165,152601,1,0,1:0:0:0:
289,236,152719,2,0,L|400:237,1,90,10|0,0:0|1:0,0:0:0:0:
182,161,152955,1,8,0:0:0:0:
377,134,153073,1,0,1:0:0:0:
183,206,153191,6,0,L|182:326,1,90,12|0,0:0|1:0,0:0:0:0:
377,298,153427,1,8,0:0:0:0:
182,217,153545,1,0,1:0:0:0:
378,173,153664,2,0,L|277:171,1,90,12|8,0:0|0:0,0:0:0:0:
96,141,153900,2,0,L|227:141,1,90,10|10,0:0|0:0,0:0:0:0:
377,134,154136,5,12,1:0:0:0:
182,188,154254,2,0,L|181:288,1,90,0|8,0:0|0:0,0:0:0:0:
377,303,154490,1,2,0:0:0:0:
177,235,154608,2,0,L|280:235,1,90,0|0,1:0|1:0,0:0:0:0:
60,183,154845,2,0,L|58:82,1,90,10|0,0:0|0:0,0:0:0:0:
301,102,155081,6,0,P|360:133|286:190,1,180,6|8,1:2|0:0,0:0:0:0:
115,209,155435,1,2,1:2:0:0:
223,167,155553,2,0,L|222:54,1,90,0|0,0:0|1:0,0:0:0:0:
40,183,155790,2,0,L|41:292,1,90,10|0,0:0|0:0,0:0:0:0:
282,278,156026,6,0,L|99:269,1,180,6|10,1:2|0:0,0:0:0:0:
102,269,156380,1,2,1:2:0:0:
338,191,156498,1,0,0:0:0:0:
248,189,156616,1,0,1:0:0:0:
158,188,156734,1,10,0:0:0:0:
68,187,156852,1,0,0:0:0:0:
283,327,156971,6,0,P|331:313|262:233,1,180,6|8,1:2|0:0,0:0:0:0:
206,216,157325,1,0,1:0:0:0:
394,202,157443,2,0,L|394:89,1,90,8|0,0:0|1:0,0:0:0:0:
218,102,157679,2,0,L|105:102,1,90,10|10,0:0|0:0,0:0:0:0:
171,154,157856,1,8,0:0:0:0:
397,147,157916,6,0,L|397:258,1,90,6|0,1:2|0:0,0:0:0:0:
307,237,158152,2,0,L|409:236,1,90,8|2,0:0|0:0,0:0:0:0:
206,173,158388,2,0,L|205:56,1,90,0|0,1:0|1:0,0:0:0:0:
298,79,158624,2,0,L|400:79,1,90,10|0,0:0|0:0,0:0:0:0:
137,173,158860,5,6,1:2:0:0:
226,171,158978,1,0,1:0:0:0:
316,169,159096,1,8,0:0:0:0:
406,167,159214,1,2,1:2:0:0:
209,303,159333,2,0,P|155:274|228:204,1,180,0|10,0:0|0:0,0:0:0:0:
407,196,159687,1,0,1:0:0:0:
202,206,159805,6,0,L|406:198,1,180,14|0,0:0|1:0,0:0:0:0:
193,134,160160,2,0,L|394:127,1,180,12|0,0:0|1:0,0:0:0:0:
465,148,160514,2,0,L|338:148,1,90,8|0,0:0|1:0,0:0:0:0:
330,148,160691,1,0,1:0:0:0:
200,164,160750,6,0,P|158:205|259:255,1,180,8|8,0:0|0:0,0:0:0:0:
312,239,161105,1,0,1:0:0:0:
134,194,161223,2,0,L|133:79,1,90,8|8,0:0|0:0,0:0:0:0:
178,101,161400,1,8,0:0:0:0:
320,96,161459,2,0,L|416:96,1,90,8|8,0:0|0:0,0:0:0:0:
134,194,161695,6,0,L|134:322,1,90,14|2,1:0|0:0,0:0:0:0:
224,284,161931,2,0,L|112:284,1,90,10|2,0:0|0:0,0:0:0:0:
312,216,162168,2,0,L|93:203,1,180,2|8,1:2|0:0,0:0:0:0:
225,130,162522,1,0,0:0:0:0:
45,154,162640,2,0,L|45:265,1,90,0|0,1:0|1:0,0:0:0:0:
136,260,162876,6,0,L|257:259,1,90,10|0,0:0|1:0,0:0:0:0:
43,209,163112,2,0,L|232:205,1,180,2|10,0:0|0:0,0:0:0:0:
133,119,163467,1,0,0:0:0:0:
327,132,163585,6,0,P|389:166|323:230,1,180,6|8,1:2|0:0,0:0:0:0:
248,255,163939,1,0,0:0:0:0:
159,256,164057,2,0,L|158:143,1,90,0|0,1:0|1:0,0:0:0:0:
346,147,164294,2,0,L|346:34,1,90,10|0,0:0|0:0,0:0:0:0:
251,51,164530,2,0,L|145:50,1,90,0|0,1:0|1:0,0:0:0:0:
363,126,164766,5,10,0:0:0:0:
265,182,164884,2,0,L|265:297,1,90,0|2,1:0|0:0,0:0:0:0:
452,281,165120,1,0,1:0:0:0:
264,234,165238,2,0,L|366:232,1,90,10|8,0:0|0:0,0:0:0:0:
134,211,165475,6,0,P|76:173|158:103,1,180,6|8,1:2|0:0,0:0:0:0:
216,109,165829,1,0,0:0:0:0:
411,158,165947,2,0,L|410:275,1,90,0|0,1:0|1:0,0:0:0:0:
228,249,166183,5,8,0:0:0:0:
330,204,166301,2,0,L|329:106,1,90,0|0,0:0|1:0,0:0:0:0:
127,98,166538,1,0,1:0:0:0:
220,153,166656,2,0,L|221:261,1,90,10|0,0:0|1:0,0:0:0:0:
128,262,166892,2,0,L|12:261,1,90,2|0,0:0|1:0,0:0:0:0:
258,188,167128,6,0,L|351:187,3,90,8|0|2|2,0:0|0:0|1:2|0:0,0:0:0:0:
159,228,167601,1,10,0:0:0:0:
122,149,167719,1,0,0:0:0:0:
165,74,167837,1,2,1:2:0:0:
251,66,167955,1,2,1:2:0:0:
67,143,168073,6,0,L|68:268,1,90,10|0,0:0|0:0,0:0:0:0:
159,228,168309,2,0,L|51:228,1,90,2|0,1:2|1:0,0:0:0:0:
284,159,168545,2,0,L|401:161,1,90,10|0,0:0|1:0,0:0:0:0:
161,171,168782,2,0,L|160:297,1,90,10|0,0:0|1:0,0:0:0:0:
354,151,169018,2,0,L|352:274,1,90,8|8,0:0|0:0,0:0:0:0:
307,239,169195,1,8,0:0:0:0:
94,183,169254,6,0,L|221:183,1,90,6|0,1:2|0:0,0:0:0:0:
365,138,169490,2,0,L|236:137,1,90,8|2,0:0|0:0,0:0:0:0:
64,162,169727,2,0,L|64:272,1,90,0|0,1:0|0:0,0:0:0:0:
154,252,169963,2,0,L|52:252,1,90,10|0,0:0|0:0,0:0:0:0:
312,258,170199,6,0,P|364:228|287:161,1,180,2|8,1:2|0:0,0:0:0:0:
127,183,170553,1,0,1:0:0:0:
226,143,170671,2,0,L|225:42,1,90,0|0,0:0|1:0,0:0:0:0:
48,184,170908,2,0,L|49:294,1,90,8|0,0:0|0:0,0:0:0:0:
292,265,171144,6,0,L|396:266,2,90,6|0|8,1:2|0:0|0:0,0:0:0:0:
98,269,171498,1,2,0:0:0:0:
200,221,171616,2,0,L|199:108,1,90,0|0,1:0|1:0,0:0:0:0:
99,123,171853,2,0,L|98:24,1,90,10|0,0:0|0:0,0:0:0:0:
317,123,172089,6,0,P|378:179|298:215,1,180,2|8,1:2|0:0,0:0:0:0:
234,249,172443,1,0,1:0:0:0:
144,293,172561,2,0,L|269:294,1,90,0|0,0:0|1:0,0:0:0:0:
48,257,172797,2,0,L|45:149,1,90,10|10,0:0|0:0,0:0:0:0:
250,153,173034,6,0,L|120:148,2,90,6|0|8,1:2|0:0|0:0,0:0:0:0:
438,163,173388,1,2,0:0:0:0:
250,153,173506,1,0,1:0:0:0:
348,205,173624,2,0,L|349:319,1,90,0|10,1:0|0:0,0:0:0:0:
156,297,173860,1,0,0:0:0:0:
332,238,173979,6,0,L|215:235,1,90,2|0,1:2|1:0,0:0:0:0:
242,235,174215,1,8,0:0:0:0:
432,192,174333,2,0,L|432:96,1,90,2|0,1:2|0:0,0:0:0:0:
336,96,174569,1,0,1:0:0:0:
124,137,174687,1,10,0:0:0:0:
43,205,174805,2,0,L|120:204,1,45,0|0,1:0|1:0,0:0:0:0:
254,272,174923,5,14,0:0:0:0:
331,227,175041,1,0,1:0:0:0:
327,144,175159,1,0,1:0:0:0:
253,112,175277,1,0,1:0:0:0:
45,168,175396,2,0,L|46:283,1,90,14|0,0:0|1:0,0:0:0:0:
258,265,175632,2,0,L|349:264,1,90,0|0,1:0|1:0,0:0:0:0:
123,192,175868,6,0,L|235:192,1,90,14|0,0:0|0:0,0:0:0:0:
390,145,176105,2,0,L|278:145,2,90,0|14|0,1:0|0:0|0:0,0:0:0:0:
135,96,176459,2,0,L|231:96,2,90,0|14|0,1:0|0:0|0:0,0:0:0:0:
337,52,176813,6,0,P|458:198|187:95,1,809.999975280762,6|0,1:2|0:0,0:0:0:0:
350,342,178703,2,0,P|424:267|92:245,1,809.999975280762,6|0,1:2|0:0,0:0:0:0:
322,347,180593,6,0,P|396:285|96:214,2,720,6|2|6,1:2|0:0|1:2,0:0:0:0:
150,303,184845,6,0,L|332:232,1,161.999995056153,2|0,0:0|1:0,0:0:0:0:
162,299,185317,2,0,P|145:186|334:78,1,323.999990112305,10|2,0:0|0:0,0:0:0:0:
218,92,186262,6,0,P|121:158|220:299,1,323.999990112305,6|0,1:2|0:0,0:0:0:0:
343,311,186971,1,2,1:2:0:0:
463,309,187207,2,0,P|469:200|285:90,1,323.999990112305,8|0,0:0|0:0,0:0:0:0:
119,280,188152,6,0,P|79:148|253:92,1,323.999990112305,6|2,1:2|0:0,0:0:0:0:
346,128,188860,1,0,1:0:0:0:
481,297,189097,2,0,P|490:170|307:76,1,323.999990112305,10|2,0:0|0:0,0:0:0:0:
122,98,189923,2,0,L|122:178,1,45,0|0,1:0|1:0,0:0:0:0:
279,194,190042,6,0,L|391:194,2,90,14|0|0,0:0|0:0|0:0,0:0:0:0:
160,190,190396,2,0,L|235:190,1,45,0|0,1:0|1:0,0:0:0:0:
344,192,190514,2,0,P|403:237|333:294,1,180,14|0,0:0|0:0,0:0:0:0:
158,285,190868,2,0,L|158:223,1,45,0|0,1:0|1:0,0:0:0:0:
317,174,190986,6,0,L|413:175,1,90,14|0,0:0|1:0,0:0:0:0:
191,106,191223,2,0,L|71:105,1,90,14|0,0:0|1:0,0:0:0:0:
305,163,191459,1,10,0:0:0:0:
380,217,191577,2,0,L|317:216,1,45,8|8,0:0|0:0,0:0:0:0:
192,176,191695,2,0,L|117:175,1,45,10|0,0:0|0:0,0:0:0:0:
312,126,191813,2,0,L|379:127,1,45,8|0,0:0|0:0,0:0:0:0:
186,189,191931,6,0,P|125:236|211:283,1,180,12|8,1:0|0:0,0:0:0:0:
289,292,192286,1,2,0:0:0:0:
87,247,192404,2,0,L|86:134,1,90,0|0,1:0|1:0,0:0:0:0:
261,147,192640,2,0,L|377:146,1,90,10|0,0:0|0:0,0:0:0:0:
123,250,192876,2,0,L|124:355,1,90,0|0,1:0|1:0,0:0:0:0:
312,297,193112,6,0,L|405:296,1,90,8|0,0:0|1:0,0:0:0:0:
164,242,193349,2,0,L|164:112,1,90,2|0,0:0|1:0,0:0:0:0:
358,115,193585,2,0,L|477:115,1,90,10|0,0:0|0:0,0:0:0:0:
199,250,193821,6,0,P|137:198|213:149,1,180,6|8,1:2|0:0,0:0:0:0:
292,182,194175,1,2,0:0:0:0:
200,134,194294,2,0,L|99:80,1,90,0|0,1:0|1:0,0:0:0:0:
316,110,194530,2,0,L|410:83,1,90,10|0,0:0|0:0,0:0:0:0:
195,157,194766,6,0,P|138:226|220:257,1,180,0|8,1:0|0:0,0:0:0:0:
286,221,195120,1,0,1:0:0:0:
463,183,195238,2,0,L|464:83,1,90,2|0,0:0|1:0,0:0:0:0:
284,74,195475,2,0,L|186:74,1,90,10|0,0:0|0:0,0:0:0:0:
369,140,195711,6,0,L|369:256,1,90,6|0,1:2|0:0,0:0:0:0:
270,263,195947,2,0,L|161:262,1,90,8|2,0:0|0:0,0:0:0:0:
272,236,196183,2,0,L|272:130,1,90,0|0,1:0|1:0,0:0:0:0:
372,172,196419,2,0,L|372:55,1,90,10|0,0:0|0:0,0:0:0:0:
158,74,196656,6,0,L|355:69,1,180,6|8,1:2|0:0,0:0:0:0:
253,159,197010,1,2,1:2:0:0:
158,207,197128,2,0,L|157:322,1,90,0|0,0:0|1:0,0:0:0:0:
364,302,197364,2,0,L|263:300,1,90,10|0,0:0|0:0,0:0:0:0:
74,288,197601,5,6,1:2:0:0:
253,232,197719,1,0,0:0:0:0:
431,178,197837,2,0,L|432:62,1,90,8|0,0:0|0:0,0:0:0:0:
254,82,198073,1,2,1:2:0:0:
76,134,198191,1,0,1:0:0:0:
252,171,198309,2,0,L|253:285,1,90,8|0,0:0|0:0,0:0:0:0:
72,261,198545,6,0,L|278:260,1,180,6|10,1:2|0:0,0:0:0:0:
305,259,198860,2,0,L|305:175,1,60
98,224,199018,2,0,L|97:351,1,90,14|0,0:0|1:0,0:0:0:0:
276,345,199254,1,10,0:0:0:0:
379,304,199372,2,0,L|380:243,1,45,8|8,0:0|0:0,0:0:0:0:
224,224,199490,6,0,P|165:166|258:139,1,180,12|8,1:0|0:0,0:0:0:0:
409,211,199845,1,2,0:0:0:0:
194,176,199963,2,0,L|309:173,1,90,0|0,1:0|1:0,0:0:0:0:
98,232,200199,2,0,P|80:159|182:117,1,180,10|0,0:0|1:0,0:0:0:0:
247,143,200553,1,0,1:0:0:0:
435,198,200671,2,0,L|340:197,1,90,10|0,0:0|1:0,0:0:0:0:
94,152,200908,2,0,L|220:152,1,90,2|0,0:0|1:0,0:0:0:0:
378,149,201144,2,0,L|498:148,1,90,10|0,0:0|0:0,0:0:0:0:
249,266,201380,6,0,P|187:216|268:172,1,180,6|8,1:2|0:0,0:0:0:0:
346,191,201734,1,2,0:0:0:0:
245,163,201853,2,0,L|247:35,1,90,0|0,1:0|1:0,0:0:0:0:
346,191,202089,2,0,L|347:304,1,90,10|0,0:0|0:0,0:0:0:0:
247,309,202325,2,0,L|149:307,1,90,0|0,1:0|1:0,0:0:0:0:
339,243,202561,6,0,L|339:136,1,90,10|0,0:0|1:0,0:0:0:0:
165,110,202797,2,0,L|56:109,1,90,2|0,0:0|1:0,0:0:0:0:
307,126,203034,2,0,L|306:247,1,90,10|0,0:0|1:0,0:0:0:0:
261,214,203211,1,0,1:0:0:0:
74,223,203270,6,0,L|75:337,1,90,14|0,0:0|1:0,0:0:0:0:
264,310,203506,2,0,L|369:310,1,90,0|0,1:0|1:0,0:0:0:0:
110,221,203742,2,0,L|111:107,1,90,10|0,0:0|1:0,0:0:0:0:
296,116,203979,2,0,L|415:114,1,90,0|0,1:0|1:0,0:0:0:0:
138,221,204215,6,0,L|138:320,1,90,14|0,0:0|1:0,0:0:0:0:
325,305,204451,1,0,1:0:0:0:
139,272,204569,1,2,1:2:0:0:
324,215,204687,2,0,L|324:102,1,90,8|0,0:0|1:0,0:0:0:0:
141,110,204923,1,2,1:2:0:0:
324,80,205042,1,0,1:0:0:0:
139,188,205160,6,0,L|241:187,1,90,14|0,0:0|1:0,0:0:0:0:
431,147,205396,2,0,L|323:147,1,90,10|0,0:0|1:0,0:0:0:0:
155,146,205632,2,0,L|46:145,1,90,10|0,0:0|1:0,0:0:0:0:
298,89,205868,2,0,L|401:89,1,90,10|0,0:0|1:0,0:0:0:0:
167,148,206105,6,0,L|167:251,1,90,14|0,0:0|1:0,0:0:0:0:
373,228,206341,2,0,L|374:329,1,90,8|0,0:0|1:0,0:0:0:0:
103,216,206577,2,0,L|102:112,1,90,8|0,0:0|1:0,0:0:0:0:
328,165,206813,2,0,L|326:55,1,90,8|0,0:0|1:0,0:0:0:0:
145,60,207049,5,14,0:0:0:0:
326,57,207168,2,0,L|282:56,1,45,0|0,1:0|0:0,0:0:0:0:
143,148,207286,2,0,L|263:149,1,90,8|0,0:0|1:0,0:0:0:0:
435,195,207522,2,0,L|327:192,1,90,8|0,0:0|1:0,0:0:0:0:
297,191,207699,1,0,0:0:0:0:
110,188,207758,1,8,0:0:0:0:
297,191,207876,1,0,1:0:0:0:
110,196,207994,6,0,L|109:318,1,90,14|0,0:0|1:0,0:0:0:0:
297,191,208231,2,0,L|193:191,1,90,8|0,0:0|1:0,0:0:0:0:
410,164,208467,2,0,L|409:103,1,45,8|0,0:0|0:0,0:0:0:0:
268,96,208585,1,8,0:0:0:0:
65,145,208703,2,0,L|168:144,1,90,0|0,1:0|1:0,0:0:0:0:
360,203,208939,6,0,L|464:169,1,90,6|0,1:2|0:0,0:0:0:0:
445,175,209175,1,8,0:0:0:0:
360,203,209293,1,2,1:2:0:0:
142,207,209648,2,0,L|141:102,1,90,8|0,0:0|0:0,0:0:0:0:
358,92,209884,2,0,L|243:91,1,90,6|0,1:2|1:0,0:0:0:0:
175,119,210120,2,0,L|175:248,1,90,8|2,0:0|1:2,0:0:0:0:
326,229,210592,6,0,L|208:230,1,90,8|0,0:0|0:0,0:0:0:0:
412,171,210829,2,0,L|191:168,1,180,6|8,1:2|0:0,0:0:0:0:
315,241,211183,1,2,1:2:0:0:
218,241,211537,2,0,L|219:360,1,90,8|0,0:0|0:0,0:0:0:0:
394,289,211774,6,0,L|498:290,1,90,6|0,1:2|1:0,0:0:0:0:
296,204,212010,2,0,L|398:206,1,90,8|0,0:0|1:0,0:0:0:0:
196,132,212246,2,0,L|95:132,1,90,6|0,1:2|1:0,0:0:0:0:
386,54,212482,2,0,L|385:186,1,90,10|8,0:0|0:0,0:0:0:0:
197,156,212719,6,0,L|197:258,1,90,6|0,1:2|0:0,0:0:0:0:
371,235,212955,2,0,P|423:182|341:121,1,180,8|0,0:0|0:0,0:0:0:0:
274,122,213309,2,0,L|172:138,1,90,0|8,0:0|0:0,0:0:0:0:
487,132,213663,6,0,L|487:248,1,90,6|0,1:2|1:0,0:0:0:0:
401,232,213900,2,0,L|306:232,1,90,8|2,0:0|1:2,0:0:0:0:
176,136,214372,2,0,L|176:244,1,90,8|0,0:0|0:0,0:0:0:0:
375,220,214608,6,0,L|375:98,1,90,6|0,1:2|0:0,0:0:0:0:
285,110,214844,2,0,L|184:110,1,90,8|2,0:0|1:2,0:0:0:0:
430,159,215317,2,0,L|430:265,1,90,8|0,0:0|0:0,0:0:0:0:
225,241,215553,2,0,L|121:241,1,90,6|0,1:2|1:0,0:0:0:0:
223,172,215789,2,0,L|333:172,1,90,8|0,0:0|1:0,0:0:0:0:
118,166,216025,2,0,L|118:45,1,90,14|8,0:0|0:0,0:0:0:0:
211,47,216262,2,0,L|317:47,1,90,2|0,1:2|1:0,0:0:0:0:
114,183,216498,6,0,P|58:250|128:303,1,180,6|8,1:2|0:0,0:0:0:0:
195,307,216852,1,2,1:2:0:0:
419,188,217207,2,0,L|324:188,1,90,8|0,0:0|0:0,0:0:0:0:
121,195,217443,2,0,P|114:116|212:64,1,180,6|8,1:2|0:0,0:0:0:0:
285,97,217797,1,2,1:2:0:0:
466,159,218151,6,0,L|466:282,1,90,8|0,0:0|0:0,0:0:0:0:
254,229,218388,2,0,L|143:218,1,90,6|0,1:2|0:0,0:0:0:0:
254,157,218624,2,0,L|361:166,1,90,8|2,0:0|1:2,0:0:0:0:
83,149,219096,6,0,L|85:278,1,90,8|0,0:0|0:0,0:0:0:0:
264,244,219333,2,0,L|374:240,1,90,6|0,1:2|1:0,0:0:0:0:
264,168,219569,2,0,L|162:169,1,90,8|0,0:0|1:0,0:0:0:0:
454,128,219805,2,0,L|453:255,1,90,14|0,0:0|1:0,0:0:0:0:
274,212,220042,2,0,L|171:211,1,90,10|0,0:0|1:0,0:0:0:0:
231,163,220219,1,0,1:0:0:0:
477,102,220278,6,0,L|477:218,1,90,14|0,0:0|1:0,0:0:0:0:
281,249,220514,2,0,L|385:247,1,90,8|0,0:0|1:0,0:0:0:0:
172,232,220750,2,0,L|381:213,1,180,10|8,0:0|0:0,0:0:0:0:
172,214,221105,1,0,1:0:0:0:
351,215,221223,6,0,L|351:108,1,90,14|0,0:0|1:0,0:0:0:0:
172,108,221459,1,8,0:0:0:0:
351,125,221577,1,0,1:0:0:0:
172,119,221695,1,10,0:0:0:0:
82,164,221813,1,8,0:3:0:0:
81,250,221931,1,8,0:3:0:0:
169,299,222049,1,4,0:3:0:0:
357,288,222168,6,0,P|405:201|230:321,1,755.999976928712,6|0,1:2|0:0,0:0:0:0:
298,320,224057,5,0,0:0:0:0:
204,331,225947,6,0,P|104:160|224:64,1,360,6|0,1:2|0:0,0:0:0:0:
333,146,226656,1,0,1:0:0:0:
190,156,226892,2,0,P|187:253|329:343,1,270,2|0,1:2|0:0,0:0:0:0:
398,339,227364,2,0,P|305:319|258:232,1,180,8|0,0:1|0:0,0:0:0:0:
385,232,227837,6,0,P|437:156|372:141,1,180,2|0,1:2|0:0,0:0:0:0:
280,161,228191,1,2,1:2:0:0:
381,203,228309,2,0,L|382:311,1,90,0|0,0:0|0:0,0:0:0:0:
289,307,228545,2,0,L|193:307,1,90,2|0,1:2|0:0,0:0:0:0:
289,183,228782,6,0,P|359:188|405:285,2,180,2|0|8,1:2|0:0|0:1,0:0:0:0:
192,180,229490,2,0,L|310:164,1,90,2|0,0:0|0:0,0:0:0:0:
460,169,229727,6,0,L|252:157,1,180,6|0,1:2|0:0,0:0:0:0:
369,249,230081,1,2,0:0:0:0:
457,221,230199,2,0,L|458:105,1,90,0|0,0:0|0:0,0:0:0:0:
249,91,230435,2,0,L|145:88,1,90,2|0,1:2|0:0,0:0:0:0:
344,189,230671,6,0,L|411:176,2,60,2|0|0,1:2|1:0|1:0,0:0:0:0:
286,214,230908,2,0,L|206:229,2,60,0|0|0,1:0|1:0|1:0,0:0:0:0:
434,116,231144,2,0,L|522:102,2,60,10|8|8,0:0|0:0|0:0,0:0:0:0:
286,214,231380,2,0,L|205:227,2,60,8|8|8,0:0|0:0|0:0,0:0:0:0:
496,169,231616,5,0,1:0:0:0:
256,144,232561,5,8,0:0:0:0:
164,143,232679,2,0,L|116:143,1,45,0|0,1:0|1:0,0:0:0:0:
256,224,232797,1,8,0:0:0:0:
352,192,232916,2,0,L|352:128,1,45,0|0,1:0|1:0,0:0:0:0:
226,102,233034,1,8,0:0:0:0:
48,144,233152,2,0,L|48:208,1,45,0|0,1:0|1:0,0:0:0:0:
192,240,233270,2,0,L|320:240,1,90,12|0,0:0|0:0,0:0:0:0:
481,187,233506,6,0,L|354:186,1,90,12|0,1:0|0:0,0:0:0:0:
185,133,233742,2,0,L|288:133,2,90,10|0|2,0:0|0:0|1:2,0:0:0:0:
412,165,234097,1,2,1:2:0:0:
311,217,234215,2,0,L|309:338,1,90,8|0,0:0|0:0,0:0:0:0:
495,315,234451,5,2,1:2:0:0:
274,238,234569,2,0,L|387:238,1,90,0|8,1:0|0:0,0:0:0:0:
157,166,234805,1,2,1:2:0:0:
362,151,234923,2,0,L|362:55,1,90,0|0,0:0|1:0,0:0:0:0:
185,58,235160,2,0,L|55:57,1,90,10|0,0:0|0:0,0:0:0:0:
367,133,235396,6,0,L|366:252,1,90,6|0,1:2|0:0,0:0:0:0:
151,244,235632,2,0,L|281:245,1,90,8|2,0:0|0:0,0:0:0:0:
45,169,235868,2,0,L|46:69,1,90,0|0,1:0|1:0,0:0:0:0:
239,64,236105,2,0,L|364:67,1,90,10|0,0:0|0:0,0:0:0:0:
140,164,236341,6,0,L|353:158,1,180,2|8,1:2|0:0,0:0:0:0:
319,158,236695,1,0,1:0:0:0:
223,196,236813,2,0,L|223:314,1,90,0|0,0:0|1:0,0:0:0:0:
321,312,237049,2,0,L|425:313,1,90,10|10,0:0|0:0,0:0:0:0:
146,240,237286,6,0,L|347:240,1,180,6|8,1:2|0:0,0:0:0:0:
144,161,237640,1,2,0:0:0:0:
241,122,237758,2,0,L|241:7,1,90,0|0,1:0|1:0,0:0:0:0:
145,22,237994,2,0,L|31:21,1,90,10|0,0:0|0:0,0:0:0:0:
285,108,238231,6,0,L|405:109,2,90,6|0|8,1:2|1:0|0:0,0:0:0:0:
91,107,238585,1,2,1:2:0:0:
286,125,238703,2,0,L|285:241,1,90,8|0,0:0|1:0,0:0:0:0:
185,241,238939,2,0,L|52:241,1,90,10|0,0:0|1:0,0:0:0:0:
138,198,239116,1,0,1:0:0:0:
309,190,239175,6,0,L|398:191,1,90,14|2,0:0|1:2,0:0:0:0:
197,115,239412,2,0,L|91:113,1,90,2|0,1:2|1:0,0:0:0:0:
309,177,239648,2,0,L|308:296,1,90,14|0,0:0|1:0,0:0:0:0:
109,133,239884,2,0,L|108:262,1,90,2|0,1:2|1:0,0:0:0:0:
287,97,240120,5,14,0:0:0:0:
187,146,240238,2,0,L|187:245,1,90,0|12,1:0|0:0,0:0:0:0:
372,148,240475,1,0,1:0:0:0:
272,197,240593,2,0,L|272:295,1,90,12|0,0:0|1:0,0:0:0:0:
456,253,240829,1,12,0:0:0:0:
271,254,240947,2,0,L|272:349,1,90,0|12,0:0|1:0,0:0:0:0:
89,341,241183,1,0,0:0:0:0:
271,254,241301,6,0,L|156:254,1,90,10|0,0:0|0:0,0:0:0:0:
359,213,241538,2,0,L|358:105,1,90,2|2,1:2|1:2,0:0:0:0:
271,90,241774,2,0,L|161:89,1,90,8|0,0:0|0:0,0:0:0:0:
398,151,242010,6,0,P|390:268|343:271,1,180,2|8,1:2|0:0,0:0:0:0:
258,258,242364,1,2,1:2:0:0:
349,214,242482,2,0,L|457:185,1,90,0|0,0:0|1:0,0:0:0:0:
241,100,242719,2,0,L|125:100,1,90,10|0,0:0|0:0,0:0:0:0:
335,155,242955,6,0,P|333:246|239:269,1,180,6|8,1:2|0:0,0:0:0:0:
164,266,243309,1,2,0:0:0:0:
257,228,243427,2,0,L|256:119,1,90,0|0,1:0|1:0,0:0:0:0:
166,110,243664,2,0,L|63:105,1,90,10|0,0:0|0:0,0:0:0:0:
296,142,243900,6,0,P|344:171|272:239,1,180,2|8,1:2|0:0,0:0:0:0:
193,217,244254,1,0,1:0:0:0:
100,162,244372,2,0,L|213:162,1,90,0|0,0:0|1:0,0:0:0:0:
417,114,244608,2,0,L|321:112,1,90,10|10,0:0|0:0,0:0:0:0:
127,203,244845,6,0,L|309:202,1,180,6|8,1:2|0:0,0:0:0:0:
125,181,245199,2,0,P|68:147|140:87,1,180,2|0,0:0|1:0,0:0:0:0:
354,143,245553,2,0,L|353:257,1,90,10|0,0:0|0:0,0:0:0:0:
140,239,245790,6,0,P|91:184|184:138,1,180,6|8,1:2|0:0,0:0:0:0:
353,165,246144,2,0,L|150:143,1,180,2|0,1:2|1:0,0:0:0:0:
353,132,246498,2,0,L|431:130,2,60,10|8|4,0:0|0:3|0:3,0:0:0:0:
177,134,246734,1,0,1:0:0:0:
334,186,246971,6,0,P|376:230|310:260,1,135,6|0,1:2|0:0,0:0:0:0:
162,252,247207,2,0,P|120:225|189:182,1,135,6|0,1:2|0:0,0:0:0:0:
325,176,247443,2,0,P|369:143|316:100,1,135,6|0,1:2|0:0,0:0:0:0:
179,98,247679,5,8,0:0:0:0:
97,159,247797,2,0,L|155:158,1,45,0|0,1:0|1:0,0:0:0:0:
272,153,247916,1,8,0:0:0:0:
371,150,248034,2,0,L|427:149,1,45,0|0,1:0|1:0,0:0:0:0:
273,224,248152,1,8,0:0:0:0:
168,166,248270,2,0,L|168:118,1,45,0|0,1:0|1:0,0:0:0:0:
300,109,248388,2,0,L|405:109,1,90,12|0,0:0|0:0,0:0:0:0:
154,251,248624,6,0,L|153:140,1,90,12|0,1:0|0:0,0:0:0:0:
334,159,248860,1,10,0:0:0:0:
238,198,248979,2,0,L|239:302,1,90,0|2,0:0|1:2,0:0:0:0:
419,276,249215,1,2,1:2:0:0:
236,238,249333,2,0,L|235:127,1,90,8|0,0:0|0:0,0:0:0:0:
58,134,249569,5,2,1:2:0:0:
157,174,249687,2,0,L|158:274,1,90,0|8,1:3|0:0,0:0:0:0:
60,305,249923,1,2,1:2:0:0:
266,199,250042,2,0,L|371:198,1,90,0|0,0:0|1:0,0:0:0:0:
150,181,250278,2,0,L|149:62,1,90,10|0,0:0|0:0,0:0:0:0:
334,75,250514,6,0,L|137:66,1,180,6|10,1:2|0:0,0:0:0:0:
335,161,250868,1,2,0:0:0:0:
235,203,250986,2,0,L|236:301,1,90,0|0,1:0|1:0,0:0:0:0:
433,310,251223,1,10,0:0:0:0:
238,320,251341,1,0,0:3:0:0:
431,230,251459,6,0,L|241:222,1,180,2|8,1:2|0:0,0:0:0:0:
251,222,251813,1,0,1:0:0:0:
341,169,251931,2,0,L|342:59,1,90,0|0,0:0|1:0,0:0:0:0:
249,50,252168,2,0,L|141:50,1,90,10|10,0:0|0:0,0:0:0:0:
384,131,252404,6,0,P|448:188|360:209,1,180,6|8,1:2|0:0,0:0:0:0:
214,222,252758,1,2,0:0:0:0:
37,181,252876,2,0,L|36:71,1,90,0|0,0:0|1:0,0:0:0:0:
262,78,253112,2,0,L|136:79,1,90,10|0,0:0|0:3,0:0:0:0:
368,165,253349,6,0,L|158:163,1,180,6|8,1:2|0:0,0:0:0:0:
276,262,253703,2,0,P|337:223|259:175,1,180,2|0,1:2|1:0,0:0:0:0:
100,155,254057,2,0,L|209:155,1,90,10|0,0:0|1:0,0:0:0:0:
234,155,254234,1,0,1:0:0:0:
391,154,254294,6,0,L|286:154,1,90,14|0,0:0|0:0,0:0:0:0:
58,164,254530,2,0,L|58:65,1,90,2|0,1:2|1:0,0:0:0:0:
261,174,254766,2,0,L|262:275,1,90,14|0,0:0|1:0,0:0:0:0:
55,276,255002,2,0,L|103:276,1,45,2|0,1:2|0:0,0:0:0:0:
223,277,255120,1,0,1:0:0:0:
399,223,255238,6,0,P|458:168|368:126,1,180,14|0,0:0|1:0,0:0:0:0:
198,167,255592,1,12,0:0:0:0:
302,152,255711,2,0,L|301:42,1,90,0|0,0:0|1:0,0:0:0:0:
256,63,255888,1,0,1:0:0:0:
88,61,255947,2,0,L|200:60,1,90,12|0,0:0|0:0,0:0:0:0:
459,119,256183,6,0,L|458:248,1,90,12|0,1:0|0:0,0:0:0:0:
258,205,256419,1,8,0:0:0:0:
458,177,256537,1,2,1:2:0:0:
257,115,256655,1,0,0:0:0:0:
362,165,256774,2,0,L|362:269,1,90,0|10,1:0|0:0,0:0:0:0:
148,256,257010,1,0,1:0:0:0:
347,197,257128,6,0,L|251:196,1,90,14|0,0:0|1:0,0:0:0:0:
473,149,257364,2,0,L|474:48,1,90,8|2,0:0|1:2,0:0:0:0:
265,50,257600,1,8,0:0:0:0:
473,59,257718,1,0,1:0:0:0:
266,134,257837,2,0,L|363:134,1,90,10|0,0:0|1:0,0:0:0:0:
165,190,258073,5,14,0:0:0:0:
272,225,258191,2,0,L|271:326,1,90,0|8,1:0|0:0,0:0:0:0:
73,309,258427,1,2,1:2:0:0:
272,225,258545,1,8,0:0:0:0:
72,221,258663,2,0,L|204:218,1,90,0|10,1:0|0:0,0:0:0:0:
355,220,258900,1,0,1:0:0:0:
161,218,259018,6,0,L|162:106,1,90,12|0,0:0|1:0,0:0:0:0:
357,110,259254,1,8,0:0:0:0:
162,67,259372,1,0,1:0:0:0:
355,189,259490,2,0,L|239:189,1,90,14|0,0:0|1:0,0:0:0:0:
77,153,259726,2,0,L|194:154,1,90,10|0,0:0|1:0,0:0:0:0:
386,161,259962,6,0,L|167:156,1,180,14|8,0:0|0:0,0:0:0:0:
390,235,260317,2,0,L|506:238,2,90,2|8|0,1:2|0:0|1:0,0:0:0:0:
199,179,260671,2,0,L|301:175,1,90,10|0,0:0|1:0,0:0:0:0:
74,216,260908,6,0,L|75:328,1,90,14|0,0:0|1:0,0:0:0:0:
321,288,261144,2,0,L|203:288,1,90,8|2,0:0|1:2,0:0:0:0:
431,239,261380,2,0,L|431:108,1,90,8|0,0:0|1:0,0:0:0:0:
242,121,261616,2,0,L|123:119,1,90,10|0,0:0|1:0,0:0:0:0:
333,197,261853,6,0,P|330:281|224:314,1,180,14|8,0:0|0:0,0:0:0:0:
162,318,262207,1,0,1:0:0:0:
339,248,262325,1,10,0:0:0:0:
240,205,262443,2,0,L|239:93,1,90,0|8,1:0|0:0,0:0:0:0:
433,98,262679,1,0,1:0:0:0:
238,150,262797,6,0,L|238:262,1,90,12|0,0:0|1:0,0:0:0:0:
61,230,263034,1,8,0:0:0:0:
248,150,263152,2,0,L|136:150,1,90,0|12,1:0|0:0,0:0:0:0:
352,89,263388,1,8,0:0:0:0:
256,134,263506,2,0,L|256:230,1,90,10|10,0:0|0:0,0:0:0:0:
441,237,263742,6,0,L|441:349,1,90,12|0,1:0|0:0,0:0:0:0:
256,224,263979,2,0,L|128:224,1,90,8|2,0:0|0:0,0:0:0:0:
368,160,264215,2,0,L|256:160,1,90,0|0,1:0|1:0,0:0:0:0:
64,112,264451,2,0,L|176:112,1,90,10|0,0:0|0:0,0:0:0:0:
335,125,264687,6,0,P|397:156|320:209,1,180,6|8,1:2|0:0,0:0:0:0:
158,217,265042,1,2,1:2:0:0:
335,125,265160,2,0,L|336:240,1,90,0|0,0:0|1:0,0:0:0:0:
245,223,265396,2,0,L|133:223,1,90,10|0,0:0|0:0,0:0:0:0:
355,186,265632,6,0,P|407:168|334:105,1,180,6|10,1:2|0:0,0:0:0:0:
261,108,265986,1,2,1:2:0:0:
80,208,266105,1,0,0:0:0:0:
170,208,266223,1,0,1:0:0:0:
260,208,266341,1,10,0:0:0:0:
350,208,266459,1,0,0:0:0:0:
149,281,266577,5,6,1:2:0:0:
75,238,266695,1,0,1:0:0:0:
82,153,266813,1,8,0:0:0:0:
163,125,266931,1,0,1:0:0:0:
357,153,267049,2,0,L|355:257,1,90,8|0,0:0|1:0,0:0:0:0:
261,260,267286,2,0,L|147:260,1,90,10|10,0:0|0:0,0:0:0:0:
356,136,267522,6,0,L|355:265,1,90,6|0,1:2|0:0,0:0:0:0:
171,219,267758,1,0,0:0:0:0:
358,194,267876,1,2,0:0:0:0:
172,145,267994,1,0,1:0:0:0:
278,189,268113,2,0,L|278:293,1,90,0|10,1:0|0:0,0:0:0:0:
67,279,268349,1,0,0:0:0:0:
257,219,268467,6,0,L|161:218,1,90,6|0,1:2|1:0,0:0:0:0:
371,165,268703,2,0,L|373:62,1,90,8|2,0:0|1:2,0:0:0:0:
182,68,268939,1,0,0:0:0:0:
373,75,269057,1,0,1:0:0:0:
181,149,269176,2,0,L|278:149,1,90,10|0,0:0|0:0,0:0:0:0:
90,189,269412,5,6,1:2:0:0:
188,236,269530,2,0,L|188:340,1,90,0|8,0:0|0:0,0:0:0:0:
89,229,269766,2,0,L|89:107,1,90,0|2,0:0|1:2,0:0:0:0:
263,261,270002,2,0,L|389:261,1,90,0|8,1:0|0:0,0:0:0:0:
353,261,270238,1,0,0:0:0:0:
121,226,270356,2,0,L|121:129,1,90,2|0,1:2|1:0,0:0:0:0:
398,192,270593,6,0,L|301:193,1,90,8|0,0:0|1:0,0:0:0:0:
121,125,270829,1,2,0:0:0:0:
211,123,270947,1,0,1:0:0:0:
301,122,271065,1,8,0:0:0:0:
391,121,271183,1,0,0:0:0:0:
137,128,271301,6,0,P|91:141|156:219,1,180,4|8,1:2|0:0,0:0:0:0:
224,222,271656,1,0,0:0:0:0:
410,194,271774,2,0,L|410:321,1,90,2|0,1:2|1:0,0:0:0:0:
207,285,272010,2,0,L|84:285,1,90,8|0,0:0|1:0,0:0:0:0:
159,249,272187,1,0,1:0:0:0:
336,248,272246,6,0,P|388:216|319:143,1,180,14|8,0:0|0:3,0:0:0:0:
244,143,272601,1,0,0:0:0:0:
154,174,272719,1,8,0:3:0:0:
332,187,272955,2,0,L|334:302,1,90,4|4,0:3|0:3,0:0:0:0:
138,285,273191,6,0,P|61:259|63:152,1,180,6|0,1:2|0:0,0:0:0:0:
150,157,273545,1,2,0:0:0:0:
242,135,273664,2,0,L|243:24,1,90,0|0,0:0|0:0,0:0:0:0:
146,41,273900,2,0,L|37:41,1,90,2|0,0:0|0:0,0:0:0:0:
312,108,274136,6,0,P|389:120|458:242,2,216,6|2|2,1:2|0:0|0:0,0:0:0:0:
151,142,275081,6,0,L|151:266,1,90,14|2,1:0|0:0,0:0:0:0:
245,241,275317,2,0,L|370:242,1,90,10|2,0:0|0:0,0:0:0:0:
129,211,275553,2,0,P|71:169|147:112,1,180,2|8,1:2|0:0,0:0:0:0:
347,155,275908,1,0,0:0:0:0:
437,194,276026,2,0,L|436:299,1,90,0|0,1:0|1:0,0:0:0:0:
211,273,276262,6,0,L|96:272,1,90,10|0,0:0|1:0,0:0:0:0:
332,229,276498,2,0,P|325:144|222:122,1,180,2|10,0:0|0:0,0:0:0:0:
161,137,276853,1,0,0:0:0:0:
355,211,276971,6,0,L|223:209,1,90,6|0,1:2|0:0,0:0:0:0:
459,177,277207,2,0,L|460:57,1,90,8|0,0:0|0:0,0:0:0:0:
369,87,277443,2,0,L|502:87,1,90,0|0,1:0|1:0,0:0:0:0:
256,135,277679,6,0,P|249:213|351:255,1,180,10|0,0:0|1:0,0:0:0:0:
416,254,278034,1,0,1:0:0:0:
226,180,278152,2,0,L|353:180,1,90,10|0,0:0|1:0,0:0:0:0:
412,178,278388,2,0,L|412:66,1,90,2|0,0:0|1:0,0:0:0:0:
318,75,278624,2,0,L|424:77,1,90,10|8,0:0|0:0,0:0:0:0:
178,130,278860,6,0,P|113:180|202:223,1,180,6|8,1:2|0:0,0:0:0:0:
253,254,279215,1,0,0:0:0:0:
434,222,279333,2,0,L|433:116,1,90,0|0,1:0|1:0,0:0:0:0:
252,118,279569,2,0,L|135:110,1,90,8|0,0:0|0:0,0:0:0:0:
338,195,279805,1,0,1:0:0:0:
158,193,279923,1,0,1:0:0:0:
338,168,280042,6,0,L|339:60,1,90,10|0,0:0|1:0,0:0:0:0:
247,71,280278,2,0,L|143:69,1,90,2|0,0:0|1:0,0:0:0:0:
386,121,280514,2,0,L|385:244,1,90,8|0,0:0|0:0,0:0:0:0:
165,261,280750,1,2,1:2:0:0:
88,212,280868,1,2,0:0:0:0:
88,118,280986,1,10,0:0:0:0:
171,62,281104,1,0,0:0:0:0:
361,148,281223,6,0,L|245:143,1,90,2|2,1:2|1:2,0:0:0:0:
182,143,281459,2,0,L|308:144,1,90,10|0,0:0|0:0,0:0:0:0:
82,186,281695,2,0,L|83:294,1,90,2|0,1:2|1:0,0:0:0:0:
265,296,281931,2,0,L|367:295,1,90,10|0,0:0|1:0,0:0:0:0:
110,234,282168,2,0,L|176:234,1,45,10|0,0:0|0:0,0:0:0:0:
272,230,282286,1,0,1:0:0:0:
451,210,282404,2,0,L|452:107,1,90,8|8,0:0|0:0,0:0:0:0:
406,120,282581,1,8,0:0:0:0:
206,102,282640,6,0,L|114:102,1,90,6|0,1:2|0:0,0:0:0:0:
324,171,282876,2,0,L|220:171,1,90,8|2,0:0|0:0,0:0:0:0:
234,171,283112,1,0,1:0:0:0:
414,171,283231,1,0,1:0:0:0:
324,171,283349,2,0,L|440:171,1,90,10|0,0:0|0:0,0:0:0:0:
161,85,283585,6,0,P|102:115|182:170,1,180,2|8,1:2|0:0,0:0:0:0:
257,169,283939,1,0,1:0:0:0:
346,170,284057,2,0,L|238:168,1,90,0|0,0:0|1:0,0:0:0:0:
72,162,284294,2,0,L|73:279,1,90,8|0,0:0|0:0,0:0:0:0:
313,252,284530,6,0,L|112:239,1,180,6|8,1:2|0:0,0:0:0:0:
224,167,284884,1,2,0:0:0:0:
133,240,285002,2,0,L|133:138,1,90,0|0,1:0|1:0,0:0:0:0:
310,64,285238,2,0,L|431:62,1,90,10|0,0:0|0:0,0:0:0:0:
197,120,285475,6,0,P|140:152|209:218,1,180,2|8,1:2|0:0,0:0:0:0:
294,207,285829,1,0,1:0:0:0:
94,171,285947,2,0,L|202:170,1,90,0|0,0:0|1:0,0:0:0:0:
405,170,286183,2,0,L|403:298,1,90,10|10,0:0|0:0,0:0:0:0:
359,254,286360,1,8,0:0:0:0:
181,224,286419,6,0,L|72:223,1,90,6|0,1:2|0:0,0:0:0:0:
289,280,286656,1,8,0:0:0:0:
367,237,286774,1,2,0:0:0:0:
366,146,286892,1,0,1:0:0:0:
288,108,287010,1,0,1:0:0:0:
108,148,287128,2,0,L|241:148,1,90,10|0,0:0|0:0,0:0:0:0:
429,122,287364,6,0,L|304:121,1,90,2|0,1:2|1:0,0:0:0:0:
151,124,287601,1,8,0:0:0:0:
241,124,287719,2,0,L|128:124,1,90,2|0,1:2|0:0,0:0:0:0:
352,247,287955,1,0,1:0:0:0:
254,211,288073,2,0,L|254:90,1,90,10|0,0:0|1:0,0:0:0:0:
434,115,288309,5,14,0:0:0:0:
254,105,288427,1,0,1:0:0:0:
77,158,288545,2,0,L|78:266,1,90,0|0,1:0|1:0,0:0:0:0:
262,266,288782,2,0,L|366:266,1,90,14|0,0:0|1:0,0:0:0:0:
159,184,289018,1,0,1:0:0:0:
348,149,289136,1,0,1:0:0:0:
159,184,289254,6,0,L|159:290,1,90,14|0,0:0|1:0,0:0:0:0:
351,292,289490,1,12,0:0:0:0:
436,234,289608,2,0,L|372:233,1,45,2|0,1:2|0:0,0:0:0:0:
229,226,289727,2,0,L|131:226,1,90,12|8,0:0|0:0,0:0:0:0:
139,226,289904,1,8,0:0:0:0:
269,165,289963,2,0,L|334:165,1,45,14|0,0:0|0:0,0:0:0:0:
431,164,290081,1,8,0:0:0:0:
253,112,290199,6,0,L|150:112,2,90,14|2|10,1:0|0:0|0:0,0:0:0:0:
431,114,290553,1,2,0:0:0:0:
333,167,290671,2,0,L|332:272,1,90,2|0,1:2|0:0,0:0:0:0:
431,164,290908,2,0,L|431:44,1,90,8|0,0:0|0:0,0:0:0:0:
243,62,291144,6,0,L|134:62,1,90,0|0,1:0|1:0,0:0:0:0:
334,103,291380,2,0,L|332:214,1,90,10|0,0:0|1:0,0:0:0:0:
241,206,291616,2,0,L|139:204,1,90,2|0,0:0|1:0,0:0:0:0:
331,140,291853,2,0,L|458:138,1,90,10|0,0:0|0:0,0:0:0:0:
229,180,292089,6,0,P|228:255|322:252,1,180,6|8,1:2|0:0,0:0:0:0:
135,236,292443,1,0,0:0:0:0:
39,191,292561,2,0,L|38:87,1,90,0|0,1:0|1:0,0:0:0:0:
307,96,292797,2,0,P|367:126|287:179,1,180,10|0,0:0|1:0,0:0:0:0:
213,188,293152,1,0,1:0:0:0:
405,188,293270,6,0,L|405:78,1,90,10|0,0:0|1:0,0:0:0:0:
218,84,293506,2,0,L|333:80,1,90,2|0,0:0|1:0,0:0:0:0:
105,149,293742,2,0,L|106:250,1,90,10|8,0:0|0:0,0:0:0:0:
317,269,293979,6,0,P|378:229|302:172,1,180,6|8,1:2|0:0,0:0:0:0:
139,158,294333,1,0,0:0:0:0:
246,81,294451,2,0,L|246:197,1,90,0|0,1:0|1:0,0:0:0:0:
68,286,294687,1,8,0:0:0:0:
246,81,294805,1,0,0:0:0:0:
68,198,294923,6,0,L|67:99,1,90,0|0,1:0|1:0,0:0:0:0:
246,81,295160,1,10,0:0:0:0:
432,40,295278,1,0,1:0:0:0:
246,81,295396,2,0,L|246:187,1,90,2|0,0:0|1:0,0:0:0:0:
344,255,295632,2,0,L|445:255,1,90,8|0,0:0|0:0,0:0:0:0:
246,238,295868,5,2,1:2:0:0:
164,184,295986,1,2,0:0:0:0:
165,99,296104,1,10,0:0:0:0:
246,51,296222,1,0,0:0:0:0:
436,156,296341,2,0,L|320:154,1,90,2|2,1:2|1:2,0:0:0:0:
130,124,296577,2,0,L|237:125,1,90,10|0,0:0|0:0,0:0:0:0:
411,169,296813,6,0,L|409:271,1,90,2|0,1:2|1:0,0:0:0:0:
314,263,297049,2,0,L|430:262,1,90,10|0,0:0|1:0,0:0:0:0:
161,198,297286,2,0,L|239:199,1,45,10|0,0:0|0:0,0:0:0:0:
343,198,297404,1,0,1:0:0:0:
161,198,297522,1,8,0:0:0:0:
343,198,297640,2,0,L|277:197,1,45,8|8,0:0|0:0,0:0:0:0:
161,198,297758,6,0,L|161:67,1,90,6|0,1:2|0:0,0:0:0:0:
348,85,297994,2,0,L|226:85,1,90,8|2,0:0|0:0,0:0:0:0:
160,192,298231,2,0,L|160:288,1,90,0|0,1:0|1:0,0:0:0:0:
348,268,298467,2,0,L|462:271,1,90,10|0,0:0|0:0,0:0:0:0:
203,238,298703,6,0,P|149:174|224:142,1,180,2|8,1:2|0:0,0:0:0:0:
397,161,299057,1,0,1:0:0:0:
300,198,299175,2,0,L|301:304,1,90,0|0,0:0|1:0,0:0:0:0:
395,314,299412,2,0,L|490:313,1,90,8|0,0:0|0:0,0:0:0:0:
223,285,299648,6,0,P|162:258|240:219,1,180,6|8,1:2|0:0,0:0:0:0:
401,173,300002,1,2,0:0:0:0:
498,212,300120,2,0,L|497:307,1,90,0|0,1:0|1:0,0:0:0:0:
255,289,300356,2,0,L|147:289,1,90,10|0,0:0|0:0,0:0:0:0:
384,243,300593,6,0,P|446:189|361:174,1,180,2|8,1:2|0:0,0:0:0:0:
203,149,300947,1,0,1:0:0:0:
300,198,301065,2,0,L|301:292,1,90,0|0,0:0|1:0,0:0:0:0:
109,286,301301,2,0,L|-12:286,1,90,10|10,0:0|0:0,0:0:0:0:
212,221,301538,6,0,L|317:221,2,90,6|0|8,1:2|0:0|0:0,0:0:0:0:
389,222,301892,1,2,0:0:0:0:
294,161,302010,2,0,L|294:30,1,90,0|0,1:0|1:0,0:0:0:0:
474,77,302246,1,10,0:0:0:0:
295,48,302364,1,0,0:0:0:0:
474,170,302482,6,0,L|474:300,1,90,2|0,1:2|1:0,0:0:0:0:
294,256,302719,1,8,0:0:0:0:
473,201,302837,2,0,L|474:104,1,90,2|0,1:2|0:0,0:0:0:0:
384,110,303073,1,0,1:0:0:0:
201,146,303191,1,10,0:0:0:0:
110,153,303309,2,0,L|110:217,1,45,0|0,1:0|1:0,0:0:0:0:
271,233,303427,6,0,L|387:232,1,90,14|0,0:0|1:0,0:0:0:0:
128,185,303664,2,0,L|128:73,1,90,0|0,1:0|0:0,0:0:0:0:
305,83,303900,1,14,0:0:0:0:
480,38,304018,1,0,1:0:0:0:
305,83,304136,2,0,L|304:196,1,90,0|0,1:0|1:0,0:0:0:0:
480,251,304372,6,0,L|480:362,1,90,14|0,0:0|1:0,0:0:0:0:
282,326,304608,1,12,0:0:0:0:
83,286,304727,1,2,1:2:0:0:
282,267,304845,2,0,L|282:148,1,90,12|8,0:0|0:0,0:0:0:0:
83,134,305081,1,14,0:0:0:0:
282,77,305199,1,8,0:0:0:0:
83,134,305317,5,6,1:2:0:0:
256,192,305553,12,0,307915,0:0:0:0:
256,192,308152,5,6,1:2:0:0:
256,192,308388,12,0,309097,0:0:0:0:
256,192,309569,5,12,1:0:0:0:
256,192,309805,12,0,316656,0:0:0:0:
