osu file format v14

[General]
AudioFilename: audio.mp3
AudioLeadIn: 0
PreviewTime: 88417
Countdown: 0
SampleSet: Normal
StackLeniency: 0.7
Mode: 3
LetterboxInBreaks: 0
SpecialStyle: 0
WidescreenStoryboard: 1

[Editor]
DistanceSpacing: 1
BeatDivisor: 16
GridSize: 16
TimelineZoom: 4.599998

[Metadata]
Title:Yomotsu Hirasaka CORRUPTION (Cut Ver.)
TitleUnicode:黄泉津比良坂CORRUPTION (Cut Ver.)
Artist:-45
ArtistUnicode:-45
Creator:[Crz]FolAH1217
Version:Phase 7-1
Source:うみねこのなく頃に散
Tags:umineko no naku koro ni chiru 07th expansion ln density
BeatmapID:4556335
BeatmapSetID:2160667

[Difficulty]
HPDrainRate:8
CircleSize:4
OverallDifficulty:7
ApproachRate:5
SliderMultiplier:1.4
SliderTickRate:1

[Events]
//Background and Video events
0,0,"bg.jpg",0,0
//Break Periods
//Storyboard Layer 0 (Background)
//Storyboard Layer 1 (Fail)
//Storyboard Layer 2 (Pass)
//Storyboard Layer 3 (Foreground)
//Storyboard Layer 4 (Overlay)
//Storyboard Sound Samples

[TimingPoints]
3126,444.444444444444,4,1,0,6,1,0

[HitObjects]
192,192,3126,128,0,3237:0:0:0:0:
448,192,3126,128,0,3237:0:0:0:0:
64,192,3237,128,0,3348:0:0:0:0:
320,192,3348,128,0,3459:0:0:0:0:
64,192,3459,128,0,3570:0:0:0:0:
192,192,3570,128,0,3681:0:0:0:0:
64,192,3681,128,0,3792:0:0:0:0:
320,192,3792,128,0,3903:0:0:0:0:
448,192,3903,128,0,4014:0:0:0:0:
192,192,4014,128,0,4126:0:0:0:0:
320,192,4126,128,0,4237:0:0:0:0:
64,192,4237,128,0,4348:0:0:0:0:
320,192,4348,128,0,4459:0:0:0:0:
192,192,4459,128,0,4570:0:0:0:0:
448,192,4570,128,0,4681:0:0:0:0:
64,192,4681,128,0,4792:0:0:0:0:
448,192,4792,128,0,4903:0:0:0:0:
320,192,4903,128,0,5014:0:0:0:0:
192,192,4903,128,0,5014:0:0:0:0:
64,192,5014,128,0,5125:0:0:0:0:
320,192,5125,128,0,5237:0:0:0:0:
192,192,5237,128,0,5348:0:0:0:0:
64,192,5348,128,0,5459:0:0:0:0:
448,192,5459,128,0,5570:0:0:0:0:
192,192,5570,128,0,5681:0:0:0:0:
448,192,5681,128,0,5792:0:0:0:0:
64,192,5792,128,0,5903:0:0:0:0:
320,192,5903,128,0,6014:0:0:0:0:
192,192,6014,128,0,6125:0:0:0:0:
448,192,6125,128,0,6237:0:0:0:0:
64,192,6237,128,0,6348:0:0:0:0:
320,192,6348,128,0,6459:0:0:0:0:
448,192,6459,128,0,6570:0:0:0:0:
192,192,6459,128,0,6570:0:0:0:0:
64,192,6570,128,0,6681:0:0:0:0:
320,192,6570,128,0,6681:0:0:0:0:
448,192,6681,128,0,6792:0:0:0:0:
192,192,6681,128,0,6792:0:0:0:0:
64,192,6792,128,0,6903:0:0:0:0:
320,192,6903,128,0,7014:0:0:0:0:
192,192,7014,128,0,7125:0:0:0:0:
320,192,7125,128,0,7237:0:0:0:0:
64,192,7237,128,0,7348:0:0:0:0:
448,192,7348,128,0,7459:0:0:0:0:
192,192,7459,128,0,7570:0:0:0:0:
64,192,7570,128,0,7681:0:0:0:0:
320,192,7681,128,0,7792:0:0:0:0:
448,192,7792,128,0,7903:0:0:0:0:
64,192,7903,128,0,8014:0:0:0:0:
448,192,8014,128,0,8125:0:0:0:0:
192,192,8014,128,0,8125:0:0:0:0:
320,192,8125,128,0,8237:0:0:0:0:
192,192,8237,128,0,8348:0:0:0:0:
64,192,8348,128,0,8459:0:0:0:0:
320,192,8459,128,0,8570:0:0:0:0:
448,192,8459,128,0,8570:0:0:0:0:
64,192,8570,128,0,8681:0:0:0:0:
448,192,8681,128,0,8792:0:0:0:0:
192,192,8792,128,0,8903:0:0:0:0:
320,192,8903,128,0,9014:0:0:0:0:
64,192,9014,128,0,9125:0:0:0:0:
320,192,9125,128,0,9237:0:0:0:0:
192,192,9237,128,0,9348:0:0:0:0:
64,192,9348,128,0,9459:0:0:0:0:
320,192,9459,128,0,9570:0:0:0:0:
448,192,9570,128,0,9681:0:0:0:0:
192,192,9681,128,0,9792:0:0:0:0:
320,192,9792,128,0,9903:0:0:0:0:
192,192,9903,128,0,10014:0:0:0:0:
448,192,10014,128,0,10125:0:0:0:0:
64,192,10014,128,0,10125:0:0:0:0:
192,192,10125,128,0,10237:0:0:0:0:
320,192,10125,128,0,10237:0:0:0:0:
64,192,10237,128,0,10348:0:0:0:0:
448,192,10237,128,0,10348:0:0:0:0:
320,192,10348,128,0,10459:0:0:0:0:
64,192,10459,128,0,10570:0:0:0:0:
320,192,10570,128,0,10681:0:0:0:0:
192,192,10681,128,0,10792:0:0:0:0:
448,192,10792,128,0,10903:0:0:0:0:
64,192,10903,128,0,11014:0:0:0:0:
320,192,11014,128,0,11125:0:0:0:0:
448,192,11125,128,0,11237:0:0:0:0:
64,192,11125,128,0,11237:0:0:0:0:
320,192,11237,128,0,11348:0:0:0:0:
192,192,11348,128,0,11459:0:0:0:0:
64,192,11459,128,0,11570:0:0:0:0:
448,192,11570,128,0,11681:0:0:0:0:
192,192,11681,128,0,11792:0:0:0:0:
448,192,11792,128,0,11903:0:0:0:0:
320,192,11903,128,0,12014:0:0:0:0:
192,192,12014,128,0,12125:0:0:0:0:
320,192,12125,128,0,12237:0:0:0:0:
64,192,12237,128,0,12348:0:0:0:0:
192,192,12348,128,0,12459:0:0:0:0:
64,192,12459,128,0,12570:0:0:0:0:
448,192,12459,128,0,12570:0:0:0:0:
320,192,12570,128,0,12681:0:0:0:0:
192,192,12681,128,0,12792:0:0:0:0:
320,192,12792,128,0,12903:0:0:0:0:
64,192,12903,128,0,13014:0:0:0:0:
192,192,12903,128,0,13014:0:0:0:0:
448,192,13014,128,0,13125:0:0:0:0:
64,192,13125,128,0,13237:0:0:0:0:
320,192,13237,128,0,13348:0:0:0:0:
192,192,13348,128,0,13459:0:0:0:0:
64,192,13348,128,0,13459:0:0:0:0:
448,192,13459,128,0,13570:0:0:0:0:
192,192,13570,128,0,13681:0:0:0:0:
320,192,13681,128,0,13792:0:0:0:0:
448,192,13792,128,0,13903:0:0:0:0:
192,192,13792,128,0,13903:0:0:0:0:
320,192,13903,128,0,14014:0:0:0:0:
64,192,14014,128,0,14125:0:0:0:0:
320,192,14125,128,0,14237:0:0:0:0:
64,192,14237,128,0,14348:0:0:0:0:
192,192,14348,128,0,14459:0:0:0:0:
448,192,14459,128,0,14570:0:0:0:0:
192,192,14570,128,0,14681:0:0:0:0:
64,192,14681,128,0,14792:0:0:0:0:
192,192,14792,128,0,14903:0:0:0:0:
448,192,14903,128,0,15014:0:0:0:0:
320,192,15014,128,0,15125:0:0:0:0:
64,192,15125,128,0,15237:0:0:0:0:
320,192,15237,128,0,15348:0:0:0:0:
448,192,15348,128,0,15459:0:0:0:0:
64,192,15459,128,0,15570:0:0:0:0:
192,192,15570,128,0,15792:0:0:0:0:
448,192,15570,128,0,15681:0:0:0:0:
64,192,15681,128,0,15792:0:0:0:0:
320,192,15792,128,0,16014:0:0:0:0:
192,192,15903,128,0,16014:0:0:0:0:
448,192,16014,128,0,16237:0:0:0:0:
320,192,16125,128,0,16237:0:0:0:0:
64,192,16237,128,0,16459:0:0:0:0:
448,192,16348,128,0,16459:0:0:0:0:
192,192,16459,128,0,16681:0:0:0:0:
320,192,16459,128,0,16570:0:0:0:0:
64,192,16570,128,0,16681:0:0:0:0:
320,192,16681,128,0,16903:0:0:0:0:
448,192,16792,128,0,16903:0:0:0:0:
64,192,16903,128,0,17125:0:0:0:0:
320,192,17014,128,0,17348:0:0:0:0:
192,192,17125,128,0,17237:0:0:0:0:
448,192,17237,128,0,17348:0:0:0:0:
192,192,17348,128,0,17570:0:0:0:0:
64,192,17348,128,0,17459:0:0:0:0:
320,192,17459,1,0,0:0:0:0:
64,192,17570,128,0,17792:0:0:0:0:
448,192,17681,1,0,0:0:0:0:
320,192,17792,128,0,17903:0:0:0:0:
64,192,17903,1,0,0:0:0:0:
320,192,18014,128,0,18125:0:0:0:0:
192,192,18125,128,0,18237:0:0:0:0:
448,192,18237,128,0,18459:0:0:0:0:
192,192,18348,1,0,0:0:0:0:
64,192,18459,128,0,18681:0:0:0:0:
448,192,18570,1,0,0:0:0:0:
320,192,18681,128,0,18903:0:0:0:0:
64,192,18792,1,0,0:0:0:0:
192,192,18903,128,0,19014:0:0:0:0:
320,192,19014,128,0,19125:0:0:0:0:
448,192,19125,128,0,19348:0:0:0:0:
320,192,19237,1,0,0:0:0:0:
192,192,19348,128,0,19570:0:0:0:0:
64,192,19459,1,0,0:0:0:0:
320,192,19570,128,0,19792:0:0:0:0:
192,192,19681,1,0,0:0:0:0:
64,192,19792,128,0,19903:0:0:0:0:
192,192,19903,128,0,20014:0:0:0:0:
448,192,20014,128,0,20237:0:0:0:0:
192,192,20125,1,0,0:0:0:0:
320,192,20237,128,0,20348:0:0:0:0:
64,192,20348,128,0,20459:0:0:0:0:
192,192,20459,128,0,20681:0:0:0:0:
448,192,20570,1,0,0:0:0:0:
320,192,20681,128,0,20792:0:0:0:0:
192,192,20792,128,0,20903:0:0:0:0:
64,192,20903,128,0,21125:0:0:0:0:
448,192,20903,128,0,21014:0:0:0:0:
192,192,21014,1,0,0:0:0:0:
320,192,21125,128,0,21348:0:0:0:0:
64,192,21237,1,0,0:0:0:0:
448,192,21348,128,0,21570:0:0:0:0:
320,192,21459,1,0,0:0:0:0:
64,192,21570,128,0,21681:0:0:0:0:
192,192,21681,128,0,21792:0:0:0:0:
320,192,21792,128,0,22014:0:0:0:0:
448,192,21903,1,0,0:0:0:0:
192,192,22014,128,0,22237:0:0:0:0:
64,192,22125,1,0,0:0:0:0:
448,192,22237,128,0,22459:0:0:0:0:
320,192,22348,1,0,0:0:0:0:
64,192,22459,128,0,22681:0:0:0:0:
192,192,22459,128,0,22570:0:0:0:0:
320,192,22570,128,0,22681:0:0:0:0:
192,192,22681,128,0,22903:0:0:0:0:
448,192,22681,128,0,22792:0:0:0:0:
64,192,22792,128,0,22903:0:0:0:0:
448,192,22903,128,0,23125:0:0:0:0:
192,192,23014,128,0,23125:0:0:0:0:
320,192,23125,128,0,23348:0:0:0:0:
192,192,23237,128,0,23348:0:0:0:0:
64,192,23348,128,0,23570:0:0:0:0:
320,192,23459,128,0,23570:0:0:0:0:
192,192,23570,128,0,23792:0:0:0:0:
448,192,23570,128,0,23681:0:0:0:0:
320,192,23681,128,0,23792:0:0:0:0:
64,192,23792,128,0,24014:0:0:0:0:
448,192,23903,128,0,24014:0:0:0:0:
320,192,24014,128,0,24237:0:0:0:0:
192,192,24014,128,0,24125:0:0:0:0:
64,192,24125,128,0,24237:0:0:0:0:
448,192,24237,128,0,24459:0:0:0:0:
320,192,24348,128,0,24459:0:0:0:0:
192,192,24459,128,0,24681:0:0:0:0:
64,192,24459,128,0,24570:0:0:0:0:
320,192,24570,1,0,0:0:0:0:
64,192,24681,128,0,24903:0:0:0:0:
192,192,24792,1,0,0:0:0:0:
320,192,24903,128,0,25125:0:0:0:0:
448,192,25014,1,0,0:0:0:0:
64,192,25125,128,0,25237:0:0:0:0:
192,192,25125,128,0,25237:0:0:0:0:
320,192,25237,128,0,25348:0:0:0:0:
448,192,25348,128,0,25570:0:0:0:0:
64,192,25348,128,0,25570:0:0:0:0:
320,192,25459,1,0,0:0:0:0:
192,192,25570,128,0,25792:0:0:0:0:
320,192,25681,1,0,0:0:0:0:
448,192,25792,128,0,26014:0:0:0:0:
192,192,25903,1,0,0:0:0:0:
320,192,26014,128,0,26125:0:0:0:0:
64,192,26125,128,0,26237:0:0:0:0:
320,192,26237,128,0,26459:0:0:0:0:
192,192,26237,1,0,0:0:0:0:
448,192,26348,1,0,0:0:0:0:
192,192,26459,128,0,26681:0:0:0:0:
64,192,26570,1,0,0:0:0:0:
448,192,26681,128,0,26903:0:0:0:0:
192,192,26792,1,0,0:0:0:0:
320,192,26903,128,0,27014:0:0:0:0:
192,192,27014,128,0,27125:0:0:0:0:
64,192,27125,128,0,27348:0:0:0:0:
320,192,27125,128,0,27348:0:0:0:0:
448,192,27237,1,0,0:0:0:0:
192,192,27348,128,0,27459:0:0:0:0:
64,192,27459,128,0,27570:0:0:0:0:
320,192,27570,128,0,27792:0:0:0:0:
448,192,27570,128,0,27681:0:0:0:0:
64,192,27681,1,0,0:0:0:0:
192,192,27792,128,0,27903:0:0:0:0:
320,192,27903,128,0,28014:0:0:0:0:
192,192,28014,128,0,28125:0:0:0:0:
64,192,28014,128,0,28237:0:0:0:0:
448,192,28125,1,0,0:0:0:0:
320,192,28237,128,0,28459:0:0:0:0:
192,192,28348,1,0,0:0:0:0:
448,192,28459,128,0,28681:0:0:0:0:
64,192,28570,1,0,0:0:0:0:
320,192,28681,128,0,28792:0:0:0:0:
64,192,28792,128,0,28903:0:0:0:0:
448,192,28903,128,0,29125:0:0:0:0:
192,192,28903,128,0,29125:0:0:0:0:
64,192,29014,1,0,0:0:0:0:
320,192,29125,128,0,29348:0:0:0:0:
192,192,29237,1,0,0:0:0:0:
64,192,29348,128,0,29459:0:0:0:0:
320,192,29459,1,0,0:0:0:0:
64,192,29570,128,0,29681:0:0:0:0:
192,192,29681,128,0,29792:0:0:0:0:
448,192,29792,128,0,30014:0:0:0:0:
320,192,29792,128,0,29903:0:0:0:0:
64,192,29903,1,0,0:0:0:0:
192,192,30014,128,0,30237:0:0:0:0:
320,192,30014,128,0,30125:0:0:0:0:
448,192,30125,1,0,0:0:0:0:
320,192,30237,128,0,30459:0:0:0:0:
64,192,30237,128,0,30348:0:0:0:0:
192,192,30348,1,0,0:0:0:0:
64,192,30459,128,0,30681:0:0:0:0:
448,192,30459,128,0,30570:0:0:0:0:
192,192,30570,1,0,0:0:0:0:
320,192,30681,128,0,30792:0:0:0:0:
448,192,30681,128,0,30903:0:0:0:0:
64,192,30792,1,0,0:0:0:0:
320,192,30903,128,0,31125:0:0:0:0:
192,192,31014,128,0,31125:0:0:0:0:
64,192,31125,128,0,31348:0:0:0:0:
448,192,31125,128,0,31237:0:0:0:0:
320,192,31237,1,0,0:0:0:0:
192,192,31348,128,0,31459:0:0:0:0:
64,192,31459,1,0,0:0:0:0:
320,192,31570,128,0,31681:0:0:0:0:
192,192,31570,128,0,31792:0:0:0:0:
448,192,31570,128,0,31681:0:0:0:0:
64,192,31681,1,0,0:0:0:0:
320,192,31792,128,0,32014:0:0:0:0:
448,192,31903,1,0,0:0:0:0:
64,192,32014,128,0,32125:0:0:0:0:
192,192,32014,128,0,32237:0:0:0:0:
320,192,32125,1,0,0:0:0:0:
64,192,32237,128,0,32348:0:0:0:0:
192,192,32348,128,0,32459:0:0:0:0:
320,192,32459,128,0,32681:0:0:0:0:
448,192,32459,128,0,32570:0:0:0:0:
192,192,32570,1,0,0:0:0:0:
64,192,32681,128,0,32903:0:0:0:0:
448,192,32792,1,0,0:0:0:0:
320,192,32903,128,0,33125:0:0:0:0:
192,192,32903,128,0,33014:0:0:0:0:
64,192,33014,1,0,0:0:0:0:
448,192,33125,128,0,33237:0:0:0:0:
192,192,33237,128,0,33348:0:0:0:0:
448,192,33348,128,0,33570:0:0:0:0:
64,192,33348,128,0,33459:0:0:0:0:
192,192,33459,1,0,0:0:0:0:
64,192,33570,128,0,33792:0:0:0:0:
320,192,33681,1,0,0:0:0:0:
448,192,33792,128,0,34014:0:0:0:0:
192,192,33792,128,0,33903:0:0:0:0:
320,192,33903,1,0,0:0:0:0:
64,192,34014,128,0,34125:0:0:0:0:
192,192,34125,128,0,34237:0:0:0:0:
320,192,34237,128,0,34459:0:0:0:0:
448,192,34237,128,0,34348:0:0:0:0:
192,192,34348,1,0,0:0:0:0:
448,192,34459,128,0,34570:0:0:0:0:
320,192,34570,128,0,34681:0:0:0:0:
192,192,34681,128,0,34903:0:0:0:0:
64,192,34681,128,0,34792:0:0:0:0:
448,192,34792,1,0,0:0:0:0:
320,192,34903,128,0,35125:0:0:0:0:
192,192,35014,128,0,35125:0:0:0:0:
64,192,35125,128,0,35348:0:0:0:0:
448,192,35125,128,0,35237:0:0:0:0:
320,192,35237,1,0,0:0:0:0:
192,192,35348,128,0,35570:0:0:0:0:
64,192,35459,1,0,0:0:0:0:
320,192,35570,128,0,35792:0:0:0:0:
448,192,35570,128,0,35681:0:0:0:0:
192,192,35681,1,0,0:0:0:0:
64,192,35792,128,0,35903:0:0:0:0:
192,192,35903,128,0,36014:0:0:0:0:
448,192,36014,128,0,36237:0:0:0:0:
320,192,36014,128,0,36125:0:0:0:0:
192,192,36125,1,0,0:0:0:0:
320,192,36237,128,0,36459:0:0:0:0:
64,192,36348,1,0,0:0:0:0:
192,192,36459,128,0,36681:0:0:0:0:
448,192,36459,128,0,36570:0:0:0:0:
64,192,36570,1,0,0:0:0:0:
320,192,36681,128,0,36792:0:0:0:0:
64,192,36792,128,0,36903:0:0:0:0:
448,192,36903,128,0,37125:0:0:0:0:
192,192,36903,128,0,37014:0:0:0:0:
320,192,37014,1,0,0:0:0:0:
192,192,37125,128,0,37348:0:0:0:0:
448,192,37237,1,0,0:0:0:0:
64,192,37348,128,0,37570:0:0:0:0:
320,192,37348,128,0,37459:0:0:0:0:
192,192,37459,1,0,0:0:0:0:
448,192,37570,128,0,37681:0:0:0:0:
64,192,37681,128,0,37792:0:0:0:0:
192,192,37792,128,0,38014:0:0:0:0:
320,192,37792,128,0,37903:0:0:0:0:
448,192,37903,1,0,0:0:0:0:
64,192,38014,128,0,38237:0:0:0:0:
192,192,38125,1,0,0:0:0:0:
320,192,38237,128,0,38459:0:0:0:0:
448,192,38237,128,0,38348:0:0:0:0:
64,192,38348,1,0,0:0:0:0:
448,192,38459,128,0,38681:0:0:0:0:
320,192,38570,128,0,38681:0:0:0:0:
192,192,38681,128,0,38903:0:0:0:0:
64,192,38681,128,0,38792:0:0:0:0:
448,192,38792,1,0,0:0:0:0:
64,192,38903,128,0,39125:0:0:0:0:
320,192,39014,1,0,0:0:0:0:
448,192,39125,128,0,39348:0:0:0:0:
192,192,39125,128,0,39237:0:0:0:0:
320,192,39237,1,0,0:0:0:0:
64,192,39348,128,0,39459:0:0:0:0:
320,192,39459,128,0,39570:0:0:0:0:
192,192,39570,128,0,39681:0:0:0:0:
64,192,39570,128,0,39792:0:0:0:0:
448,192,39681,1,0,0:0:0:0:
320,192,39792,128,0,40014:0:0:0:0:
64,192,39903,1,0,0:0:0:0:
448,192,40014,128,0,40237:0:0:0:0:
192,192,40014,128,0,40125:0:0:0:0:
64,192,40125,1,0,0:0:0:0:
320,192,40237,128,0,40348:0:0:0:0:
192,192,40348,128,0,40459:0:0:0:0:
64,192,40459,128,0,40681:0:0:0:0:
448,192,40459,128,0,40570:0:0:0:0:
320,192,40570,1,0,0:0:0:0:
192,192,40681,128,0,40903:0:0:0:0:
64,192,40792,1,0,0:0:0:0:
448,192,40903,128,0,41125:0:0:0:0:
320,192,40903,128,0,41014:0:0:0:0:
64,192,41014,1,0,0:0:0:0:
192,192,41125,128,0,41237:0:0:0:0:
448,192,41237,128,0,41348:0:0:0:0:
192,192,41348,128,0,41570:0:0:0:0:
320,192,41348,128,0,41459:0:0:0:0:
448,192,41459,1,0,0:0:0:0:
64,192,41570,128,0,41681:0:0:0:0:
192,192,41681,128,0,41792:0:0:0:0:
64,192,41792,128,0,42014:0:0:0:0:
320,192,41792,128,0,41903:0:0:0:0:
448,192,41903,1,0,0:0:0:0:
192,192,42014,128,0,42125:0:0:0:0:
320,192,42125,128,0,42237:0:0:0:0:
448,192,42237,128,0,42459:0:0:0:0:
64,192,42237,128,0,42348:0:0:0:0:
192,192,42348,1,0,0:0:0:0:
64,192,42459,128,0,42681:0:0:0:0:
320,192,42570,1,0,0:0:0:0:
448,192,42681,128,0,42903:0:0:0:0:
192,192,42681,128,0,42792:0:0:0:0:
64,192,42792,1,0,0:0:0:0:
320,192,42903,128,0,43014:0:0:0:0:
448,192,43014,128,0,43125:0:0:0:0:
192,192,43125,128,0,43348:0:0:0:0:
64,192,43125,128,0,43237:0:0:0:0:
448,192,43237,1,0,0:0:0:0:
320,192,43348,128,0,43570:0:0:0:0:
192,192,43459,1,0,0:0:0:0:
64,192,43570,128,0,43792:0:0:0:0:
448,192,43570,128,0,43681:0:0:0:0:
192,192,43681,1,0,0:0:0:0:
320,192,43792,128,0,43903:0:0:0:0:
64,192,43903,128,0,44014:0:0:0:0:
448,192,44014,128,0,44237:0:0:0:0:
320,192,44014,128,0,44125:0:0:0:0:
192,192,44125,1,0,0:0:0:0:
64,192,44237,128,0,44459:0:0:0:0:
192,192,44348,128,0,44459:0:0:0:0:
320,192,44459,128,0,44681:0:0:0:0:
448,192,44459,128,0,44570:0:0:0:0:
64,192,44570,1,0,0:0:0:0:
448,192,44681,128,0,44903:0:0:0:0:
64,192,44792,128,0,44903:0:0:0:0:
320,192,44903,128,0,45125:0:0:0:0:
192,192,44903,128,0,45014:0:0:0:0:
448,192,45014,1,0,0:0:0:0:
192,192,45125,128,0,45348:0:0:0:0:
64,192,45237,128,0,45348:0:0:0:0:
448,192,45348,128,0,45570:0:0:0:0:
320,192,45348,128,0,45459:0:0:0:0:
192,192,45459,1,0,0:0:0:0:
64,192,45570,128,0,45681:0:0:0:0:
320,192,45570,128,0,45681:0:0:0:0:
448,192,45681,1,0,0:0:0:0:
64,192,45792,128,0,45903:0:0:0:0:
192,192,45792,128,0,46014:0:0:0:0:
320,192,45792,128,0,45903:0:0:0:0:
448,192,45903,1,0,0:0:0:0:
64,192,46014,128,0,46237:0:0:0:0:
192,192,46125,1,0,0:0:0:0:
320,192,46237,128,0,46459:0:0:0:0:
448,192,46237,128,0,46348:0:0:0:0:
192,192,46348,1,0,0:0:0:0:
64,192,46459,128,0,46681:0:0:0:0:
192,192,46570,128,0,46681:0:0:0:0:
320,192,46681,128,0,46792:0:0:0:0:
448,192,46681,128,0,46903:0:0:0:0:
64,192,46792,1,0,0:0:0:0:
192,192,46903,128,0,47125:0:0:0:0:
448,192,47014,1,0,0:0:0:0:
320,192,47125,128,0,47348:0:0:0:0:
64,192,47125,128,0,47237:0:0:0:0:
192,192,47237,1,0,0:0:0:0:
64,192,47348,128,0,47570:0:0:0:0:
320,192,47459,128,0,47570:0:0:0:0:
448,192,47570,128,0,47792:0:0:0:0:
192,192,47570,128,0,47681:0:0:0:0:
64,192,47681,1,0,0:0:0:0:
192,192,47792,128,0,48014:0:0:0:0:
320,192,47903,1,0,0:0:0:0:
448,192,48014,128,0,48237:0:0:0:0:
64,192,48014,128,0,48125:0:0:0:0:
320,192,48125,1,0,0:0:0:0:
64,192,48237,128,0,48459:0:0:0:0:
320,192,48348,128,0,48459:0:0:0:0:
448,192,48459,128,0,48681:0:0:0:0:
192,192,48459,128,0,48570:0:0:0:0:
64,192,48570,1,0,0:0:0:0:
320,192,48681,128,0,48903:0:0:0:0:
192,192,48792,128,0,48903:0:0:0:0:
64,192,48903,128,0,49125:0:0:0:0:
448,192,48903,128,0,49014:0:0:0:0:
320,192,49014,1,0,0:0:0:0:
448,192,49125,128,0,49348:0:0:0:0:
320,192,49237,128,0,49348:0:0:0:0:
64,192,49348,128,0,49570:0:0:0:0:
192,192,49348,128,0,49459:0:0:0:0:
320,192,49459,1,0,0:0:0:0:
192,192,49570,128,0,49792:0:0:0:0:
448,192,49681,1,0,0:0:0:0:
320,192,49792,128,0,50014:0:0:0:0:
64,192,49792,128,0,49903:0:0:0:0:
192,192,49903,1,0,0:0:0:0:
64,192,50014,1,0,0:0:0:0:
192,192,50125,128,0,50237:0:0:0:0:
448,192,50237,128,0,50459:0:0:0:0:
320,192,50237,128,0,50348:0:0:0:0:
192,192,50348,1,0,0:0:0:0:
320,192,50459,128,0,50681:0:0:0:0:
64,192,50570,1,0,0:0:0:0:
192,192,50681,128,0,50903:0:0:0:0:
448,192,50681,128,0,50792:0:0:0:0:
64,192,50792,1,0,0:0:0:0:
448,192,50903,128,0,51125:0:0:0:0:
64,192,51014,128,0,51125:0:0:0:0:
320,192,51125,128,0,51348:0:0:0:0:
192,192,51125,128,0,51237:0:0:0:0:
448,192,51237,1,0,0:0:0:0:
192,192,51348,128,0,51570:0:0:0:0:
320,192,51459,1,0,0:0:0:0:
64,192,51570,128,0,51792:0:0:0:0:
448,192,51570,128,0,51681:0:0:0:0:
192,192,51681,1,0,0:0:0:0:
448,192,51792,128,0,52014:0:0:0:0:
64,192,51903,1,0,0:0:0:0:
192,192,52014,128,0,52237:0:0:0:0:
320,192,52014,128,0,52125:0:0:0:0:
448,192,52125,1,0,0:0:0:0:
64,192,52237,128,0,52459:0:0:0:0:
320,192,52348,1,0,0:0:0:0:
192,192,52459,128,0,52681:0:0:0:0:
448,192,52459,128,0,52570:0:0:0:0:
64,192,52570,1,0,0:0:0:0:
320,192,52681,128,0,52903:0:0:0:0:
192,192,52792,1,0,0:0:0:0:
448,192,52903,128,0,53125:0:0:0:0:
64,192,52903,128,0,53014:0:0:0:0:
320,192,53014,1,0,0:0:0:0:
64,192,53125,128,0,53348:0:0:0:0:
448,192,53237,1,0,0:0:0:0:
320,192,53348,128,0,53570:0:0:0:0:
192,192,53348,128,0,53459:0:0:0:0:
448,192,53459,1,0,0:0:0:0:
192,192,53570,128,0,53792:0:0:0:0:
64,192,53681,128,0,53792:0:0:0:0:
320,192,53792,128,0,54014:0:0:0:0:
448,192,53792,128,0,53903:0:0:0:0:
64,192,53903,1,0,0:0:0:0:
192,192,54014,128,0,54237:0:0:0:0:
320,192,54125,1,0,0:0:0:0:
448,192,54237,128,0,54459:0:0:0:0:
64,192,54237,128,0,54348:0:0:0:0:
320,192,54348,1,0,0:0:0:0:
192,192,54459,128,0,54681:0:0:0:0:
448,192,54570,128,0,54681:0:0:0:0:
64,192,54681,128,0,54903:0:0:0:0:
320,192,54681,128,0,54792:0:0:0:0:
192,192,54792,1,0,0:0:0:0:
320,192,54903,128,0,55125:0:0:0:0:
64,192,55014,1,0,0:0:0:0:
192,192,55125,128,0,55348:0:0:0:0:
448,192,55125,128,0,55237:0:0:0:0:
64,192,55237,1,0,0:0:0:0:
320,192,55348,128,0,55570:0:0:0:0:
192,192,55459,128,0,55570:0:0:0:0:
64,192,55570,128,0,55792:0:0:0:0:
448,192,55570,128,0,55681:0:0:0:0:
192,192,55681,1,0,0:0:0:0:
448,192,55792,128,0,56014:0:0:0:0:
320,192,55903,128,0,56014:0:0:0:0:
64,192,56014,128,0,56237:0:0:0:0:
192,192,56014,128,0,56125:0:0:0:0:
320,192,56125,1,0,0:0:0:0:
192,192,56237,128,0,56459:0:0:0:0:
320,192,56348,128,0,56459:0:0:0:0:
64,192,56459,128,0,56681:0:0:0:0:
448,192,56459,128,0,56570:0:0:0:0:
192,192,56570,1,0,0:0:0:0:
320,192,56681,128,0,56903:0:0:0:0:
192,192,56792,1,0,0:0:0:0:
448,192,56903,128,0,57125:0:0:0:0:
64,192,56903,128,0,57014:0:0:0:0:
320,192,57014,1,0,0:0:0:0:
192,192,57125,128,0,57348:0:0:0:0:
64,192,57237,128,0,57348:0:0:0:0:
320,192,57348,128,0,57570:0:0:0:0:
448,192,57348,128,0,57459:0:0:0:0:
64,192,57459,1,0,0:0:0:0:
448,192,57570,128,0,57792:0:0:0:0:
192,192,57681,1,0,0:0:0:0:
320,192,57792,128,0,58014:0:0:0:0:
64,192,57792,128,0,57903:0:0:0:0:
448,192,57903,1,0,0:0:0:0:
64,192,58014,128,0,58237:0:0:0:0:
192,192,58125,128,0,58237:0:0:0:0:
320,192,58237,128,0,58459:0:0:0:0:
448,192,58237,128,0,58348:0:0:0:0:
64,192,58348,1,0,0:0:0:0:
192,192,58459,128,0,58681:0:0:0:0:
320,192,58570,1,0,0:0:0:0:
64,192,58681,128,0,58903:0:0:0:0:
448,192,58681,128,0,58792:0:0:0:0:
192,192,58792,1,0,0:0:0:0:
448,192,58903,128,0,59125:0:0:0:0:
64,192,59014,1,0,0:0:0:0:
192,192,59125,128,0,59348:0:0:0:0:
320,192,59125,128,0,59237:0:0:0:0:
448,192,59237,1,0,0:0:0:0:
320,192,59348,1,0,0:0:0:0:
192,192,59459,1,0,0:0:0:0:
448,192,59570,128,0,59681:0:0:0:0:
320,192,59570,128,0,59792:0:0:0:0:
64,192,59570,128,0,59681:0:0:0:0:
192,192,59681,1,0,0:0:0:0:
64,192,59792,128,0,59903:0:0:0:0:
448,192,59903,1,0,0:0:0:0:
64,192,60014,128,0,60459:0:0:0:0:
192,192,60014,128,0,60125:0:0:0:0:
320,192,60014,128,0,60125:0:0:0:0:
448,192,60125,128,0,60237:0:0:0:0:
192,192,60237,128,0,60348:0:0:0:0:
320,192,60348,128,0,60459:0:0:0:0:
448,192,60459,128,0,60903:0:0:0:0:
192,192,60459,128,0,60570:0:0:0:0:
64,192,60570,128,0,60681:0:0:0:0:
320,192,60681,128,0,60792:0:0:0:0:
64,192,60792,128,0,60903:0:0:0:0:
192,192,60903,128,0,61348:0:0:0:0:
320,192,60903,128,0,61014:0:0:0:0:
448,192,61014,128,0,61125:0:0:0:0:
64,192,61125,128,0,61237:0:0:0:0:
448,192,61237,128,0,61348:0:0:0:0:
320,192,61348,128,0,61792:0:0:0:0:
64,192,61348,128,0,61459:0:0:0:0:
192,192,61459,128,0,61570:0:0:0:0:
448,192,61570,128,0,61681:0:0:0:0:
192,192,61681,128,0,61792:0:0:0:0:
64,192,61792,128,0,62237:0:0:0:0:
448,192,61792,128,0,61903:0:0:0:0:
320,192,61903,128,0,62014:0:0:0:0:
448,192,62014,128,0,62125:0:0:0:0:
192,192,62125,128,0,62237:0:0:0:0:
320,192,62237,128,0,62681:0:0:0:0:
448,192,62237,128,0,62348:0:0:0:0:
192,192,62348,128,0,62459:0:0:0:0:
64,192,62459,128,0,62570:0:0:0:0:
448,192,62570,128,0,62681:0:0:0:0:
192,192,62681,128,0,63125:0:0:0:0:
64,192,62681,128,0,62792:0:0:0:0:
448,192,62792,128,0,62903:0:0:0:0:
320,192,62903,128,0,63014:0:0:0:0:
64,192,63014,128,0,63125:0:0:0:0:
448,192,63125,128,0,63570:0:0:0:0:
320,192,63125,128,0,63237:0:0:0:0:
192,192,63237,128,0,63348:0:0:0:0:
64,192,63348,128,0,63459:0:0:0:0:
320,192,63459,128,0,63570:0:0:0:0:
192,192,63570,128,0,64014:0:0:0:0:
64,192,63570,128,0,63681:0:0:0:0:
320,192,63681,128,0,63792:0:0:0:0:
64,192,63792,128,0,63903:0:0:0:0:
448,192,63903,128,0,64014:0:0:0:0:
320,192,64014,128,0,64459:0:0:0:0:
64,192,64014,128,0,64125:0:0:0:0:
192,192,64125,128,0,64237:0:0:0:0:
448,192,64237,128,0,64348:0:0:0:0:
192,192,64348,128,0,64459:0:0:0:0:
448,192,64459,128,0,64903:0:0:0:0:
64,192,64459,128,0,64570:0:0:0:0:
320,192,64570,128,0,64681:0:0:0:0:
192,192,64681,128,0,64792:0:0:0:0:
320,192,64792,128,0,64903:0:0:0:0:
64,192,64903,128,0,65348:0:0:0:0:
192,192,64903,128,0,65014:0:0:0:0:
448,192,65014,128,0,65125:0:0:0:0:
320,192,65125,128,0,65237:0:0:0:0:
192,192,65237,128,0,65348:0:0:0:0:
320,192,65348,128,0,65792:0:0:0:0:
448,192,65348,128,0,65459:0:0:0:0:
64,192,65459,128,0,65570:0:0:0:0:
192,192,65570,128,0,65681:0:0:0:0:
64,192,65681,128,0,65792:0:0:0:0:
192,192,65792,128,0,66237:0:0:0:0:
448,192,65792,128,0,65903:0:0:0:0:
320,192,65903,128,0,66014:0:0:0:0:
64,192,66014,128,0,66125:0:0:0:0:
448,192,66125,128,0,66237:0:0:0:0:
64,192,66237,128,0,66681:0:0:0:0:
320,192,66237,128,0,66348:0:0:0:0:
448,192,66348,128,0,66459:0:0:0:0:
192,192,66459,128,0,66570:0:0:0:0:
448,192,66570,128,0,66681:0:0:0:0:
192,192,66681,128,0,66792:0:0:0:0:
320,192,66681,128,0,66903:0:0:0:0:
64,192,66792,128,0,66903:0:0:0:0:
448,192,66903,128,0,67014:0:0:0:0:
192,192,66903,128,0,67125:0:0:0:0:
320,192,67014,128,0,67125:0:0:0:0:
448,192,67125,128,0,67570:0:0:0:0:
64,192,67125,128,0,67237:0:0:0:0:
320,192,67237,128,0,67348:0:0:0:0:
64,192,67348,128,0,67459:0:0:0:0:
320,192,67459,128,0,67570:0:0:0:0:
64,192,67570,128,0,68014:0:0:0:0:
192,192,67570,128,0,67681:0:0:0:0:
448,192,67681,128,0,67792:0:0:0:0:
320,192,67792,128,0,67903:0:0:0:0:
448,192,67903,128,0,68014:0:0:0:0:
320,192,68014,128,0,68459:0:0:0:0:
192,192,68014,128,0,68125:0:0:0:0:
64,192,68125,128,0,68237:0:0:0:0:
448,192,68237,128,0,68348:0:0:0:0:
64,192,68348,128,0,68459:0:0:0:0:
192,192,68459,128,0,68903:0:0:0:0:
448,192,68459,128,0,68570:0:0:0:0:
320,192,68570,128,0,68681:0:0:0:0:
64,192,68681,128,0,68792:0:0:0:0:
320,192,68792,128,0,68903:0:0:0:0:
64,192,68903,128,0,69348:0:0:0:0:
448,192,68903,128,0,69014:0:0:0:0:
192,192,69014,128,0,69125:0:0:0:0:
320,192,69125,128,0,69237:0:0:0:0:
448,192,69237,128,0,69348:0:0:0:0:
192,192,69348,128,0,69792:0:0:0:0:
320,192,69348,128,0,69459:0:0:0:0:
448,192,69459,128,0,69570:0:0:0:0:
64,192,69570,128,0,69681:0:0:0:0:
448,192,69681,128,0,69792:0:0:0:0:
320,192,69792,128,0,70237:0:0:0:0:
64,192,69792,128,0,69903:0:0:0:0:
192,192,69903,128,0,70014:0:0:0:0:
448,192,70014,128,0,70125:0:0:0:0:
64,192,70125,128,0,70237:0:0:0:0:
448,192,70237,128,0,70681:0:0:0:0:
192,192,70237,128,0,70348:0:0:0:0:
64,192,70348,128,0,70459:0:0:0:0:
320,192,70459,128,0,70570:0:0:0:0:
192,192,70570,128,0,70681:0:0:0:0:
64,192,70681,128,0,71125:0:0:0:0:
320,192,70681,128,0,70792:0:0:0:0:
192,192,70792,128,0,70903:0:0:0:0:
448,192,70903,128,0,71014:0:0:0:0:
320,192,71014,128,0,71125:0:0:0:0:
448,192,71125,128,0,71570:0:0:0:0:
192,192,71125,128,0,71237:0:0:0:0:
320,192,71237,128,0,71348:0:0:0:0:
64,192,71348,128,0,71459:0:0:0:0:
192,192,71459,128,0,71570:0:0:0:0:
320,192,71570,128,0,72014:0:0:0:0:
64,192,71570,128,0,71681:0:0:0:0:
192,192,71681,128,0,71792:0:0:0:0:
448,192,71792,128,0,71903:0:0:0:0:
64,192,71903,128,0,72014:0:0:0:0:
192,192,72014,128,0,72459:0:0:0:0:
448,192,72014,128,0,72125:0:0:0:0:
320,192,72125,128,0,72237:0:0:0:0:
64,192,72237,128,0,72348:0:0:0:0:
320,192,72348,128,0,72459:0:0:0:0:
448,192,72459,128,0,72903:0:0:0:0:
64,192,72459,128,0,72570:0:0:0:0:
320,192,72570,128,0,72681:0:0:0:0:
192,192,72681,128,0,72792:0:0:0:0:
64,192,72792,128,0,72903:0:0:0:0:
320,192,72903,128,0,73348:0:0:0:0:
192,192,72903,128,0,73014:0:0:0:0:
448,192,73014,128,0,73125:0:0:0:0:
64,192,73125,128,0,73237:0:0:0:0:
448,192,73237,128,0,73348:0:0:0:0:
192,192,73348,128,0,73792:0:0:0:0:
64,192,73348,128,0,73459:0:0:0:0:
320,192,73459,128,0,73570:0:0:0:0:
64,192,73570,128,0,73681:0:0:0:0:
320,192,73681,128,0,73792:0:0:0:0:
448,192,73792,128,0,73903:0:0:0:0:
64,192,73792,128,0,74014:0:0:0:0:
320,192,73903,128,0,74014:0:0:0:0:
192,192,74014,128,0,74125:0:0:0:0:
448,192,74014,128,0,74237:0:0:0:0:
64,192,74125,128,0,74237:0:0:0:0:
320,192,74237,128,0,74459:0:0:0:0:
192,192,74237,128,0,74348:0:0:0:0:
448,192,74348,128,0,74459:0:0:0:0:
64,192,74459,128,0,74681:0:0:0:0:
192,192,74459,128,0,74570:0:0:0:0:
320,192,74570,128,0,74681:0:0:0:0:
448,192,74681,128,0,74903:0:0:0:0:
192,192,74681,128,0,74792:0:0:0:0:
320,192,74792,128,0,74903:0:0:0:0:
192,192,74903,128,0,75125:0:0:0:0:
64,192,74903,128,0,75014:0:0:0:0:
448,192,75014,128,0,75125:0:0:0:0:
64,192,75125,128,0,75348:0:0:0:0:
320,192,75125,128,0,75237:0:0:0:0:
192,192,75237,128,0,75348:0:0:0:0:
320,192,75348,128,0,75570:0:0:0:0:
448,192,75348,128,0,75459:0:0:0:0:
64,192,75459,128,0,75570:0:0:0:0:
448,192,75570,128,0,75792:0:0:0:0:
192,192,75570,128,0,75681:0:0:0:0:
320,192,75681,128,0,75792:0:0:0:0:
192,192,75792,128,0,76014:0:0:0:0:
64,192,75792,128,0,75903:0:0:0:0:
448,192,75903,128,0,76014:0:0:0:0:
64,192,76014,128,0,76237:0:0:0:0:
320,192,76014,128,0,76125:0:0:0:0:
192,192,76125,128,0,76237:0:0:0:0:
320,192,76237,128,0,76459:0:0:0:0:
448,192,76237,128,0,76348:0:0:0:0:
192,192,76348,128,0,76459:0:0:0:0:
448,192,76459,128,0,76681:0:0:0:0:
64,192,76459,128,0,76570:0:0:0:0:
320,192,76570,128,0,76681:0:0:0:0:
64,192,76681,128,0,76903:0:0:0:0:
192,192,76681,128,0,76792:0:0:0:0:
320,192,76792,128,0,76903:0:0:0:0:
448,192,76903,128,0,77125:0:0:0:0:
192,192,76903,128,0,77014:0:0:0:0:
320,192,77014,128,0,77125:0:0:0:0:
192,192,77125,128,0,77348:0:0:0:0:
64,192,77125,128,0,77237:0:0:0:0:
448,192,77237,128,0,77348:0:0:0:0:
320,192,77348,128,0,77570:0:0:0:0:
64,192,77348,128,0,77459:0:0:0:0:
448,192,77459,128,0,77570:0:0:0:0:
192,192,77570,128,0,77792:0:0:0:0:
64,192,77570,128,0,77681:0:0:0:0:
320,192,77681,128,0,77792:0:0:0:0:
64,192,77792,128,0,77903:0:0:0:0:
448,192,77792,128,0,77903:0:0:0:0:
192,192,77903,128,0,78014:0:0:0:0:
64,192,78014,128,0,78237:0:0:0:0:
448,192,78014,128,0,78125:0:0:0:0:
192,192,78125,128,0,78237:0:0:0:0:
320,192,78237,128,0,78459:0:0:0:0:
448,192,78237,128,0,78348:0:0:0:0:
192,192,78348,128,0,78459:0:0:0:0:
448,192,78459,128,0,78681:0:0:0:0:
64,192,78459,128,0,78570:0:0:0:0:
320,192,78570,128,0,78681:0:0:0:0:
64,192,78681,128,0,78903:0:0:0:0:
192,192,78681,128,0,78792:0:0:0:0:
320,192,78792,128,0,78903:0:0:0:0:
448,192,78903,128,0,79125:0:0:0:0:
192,192,78903,128,0,79014:0:0:0:0:
64,192,79014,128,0,79125:0:0:0:0:
192,192,79125,128,0,79348:0:0:0:0:
320,192,79125,128,0,79237:0:0:0:0:
448,192,79237,128,0,79348:0:0:0:0:
64,192,79348,128,0,79570:0:0:0:0:
320,192,79348,128,0,79459:0:0:0:0:
192,192,79459,128,0,79570:0:0:0:0:
320,192,79570,128,0,79792:0:0:0:0:
448,192,79570,128,0,79681:0:0:0:0:
192,192,79681,128,0,79792:0:0:0:0:
448,192,79792,128,0,79903:0:0:0:0:
64,192,79792,128,0,79903:0:0:0:0:
320,192,79903,128,0,80014:0:0:0:0:
448,192,80014,128,0,80237:0:0:0:0:
64,192,80014,128,0,80125:0:0:0:0:
192,192,80125,128,0,80237:0:0:0:0:
320,192,80237,128,0,80459:0:0:0:0:
64,192,80237,128,0,80348:0:0:0:0:
192,192,80348,128,0,80459:0:0:0:0:
64,192,80459,128,0,80681:0:0:0:0:
448,192,80459,128,0,80570:0:0:0:0:
320,192,80570,128,0,80681:0:0:0:0:
192,192,80681,128,0,80903:0:0:0:0:
448,192,80681,128,0,80792:0:0:0:0:
320,192,80792,128,0,80903:0:0:0:0:
64,192,80903,128,0,81125:0:0:0:0:
448,192,80903,128,0,81014:0:0:0:0:
192,192,81014,128,0,81125:0:0:0:0:
448,192,81125,128,0,81348:0:0:0:0:
320,192,81125,128,0,81237:0:0:0:0:
64,192,81237,128,0,81348:0:0:0:0:
192,192,81348,128,0,81570:0:0:0:0:
320,192,81348,128,0,81459:0:0:0:0:
64,192,81459,128,0,81570:0:0:0:0:
448,192,81570,128,0,81792:0:0:0:0:
320,192,81570,128,0,81681:0:0:0:0:
64,192,81681,128,0,81792:0:0:0:0:
320,192,81792,128,0,82014:0:0:0:0:
192,192,81792,128,0,81903:0:0:0:0:
448,192,81903,128,0,82014:0:0:0:0:
192,192,82014,128,0,82237:0:0:0:0:
64,192,82014,128,0,82125:0:0:0:0:
320,192,82125,128,0,82237:0:0:0:0:
448,192,82237,128,0,82459:0:0:0:0:
64,192,82237,128,0,82348:0:0:0:0:
320,192,82348,128,0,82459:0:0:0:0:
64,192,82459,128,0,82681:0:0:0:0:
192,192,82459,128,0,82570:0:0:0:0:
320,192,82570,128,0,82681:0:0:0:0:
448,192,82681,128,0,82903:0:0:0:0:
192,192,82681,128,0,82792:0:0:0:0:
64,192,82792,128,0,82903:0:0:0:0:
320,192,82903,128,0,83125:0:0:0:0:
192,192,82903,128,0,83014:0:0:0:0:
448,192,83014,128,0,83125:0:0:0:0:
192,192,83125,128,0,83348:0:0:0:0:
64,192,83125,128,0,83237:0:0:0:0:
320,192,83237,128,0,83348:0:0:0:0:
448,192,83348,128,0,83570:0:0:0:0:
64,192,83348,128,0,83459:0:0:0:0:
192,192,83459,128,0,83570:0:0:0:0:
64,192,83570,128,0,83792:0:0:0:0:
320,192,83570,128,0,83681:0:0:0:0:
448,192,83681,128,0,83792:0:0:0:0:
320,192,83792,128,0,84014:0:0:0:0:
192,192,83792,128,0,83903:0:0:0:0:
448,192,83903,128,0,84014:0:0:0:0:
64,192,84014,128,0,84237:0:0:0:0:
192,192,84014,128,0,84125:0:0:0:0:
320,192,84125,128,0,84237:0:0:0:0:
448,192,84237,128,0,84459:0:0:0:0:
192,192,84237,128,0,84348:0:0:0:0:
64,192,84348,128,0,84459:0:0:0:0:
192,192,84459,128,0,84681:0:0:0:0:
320,192,84459,128,0,84570:0:0:0:0:
64,192,84570,128,0,84681:0:0:0:0:
320,192,84681,128,0,84903:0:0:0:0:
448,192,84681,128,0,84792:0:0:0:0:
192,192,84792,128,0,84903:0:0:0:0:
64,192,84903,128,0,85014:0:0:0:0:
448,192,84903,128,0,85014:0:0:0:0:
320,192,85014,128,0,85125:0:0:0:0:
448,192,85125,128,0,85348:0:0:0:0:
64,192,85125,128,0,85237:0:0:0:0:
320,192,85237,128,0,85348:0:0:0:0:
64,192,85348,128,0,85570:0:0:0:0:
192,192,85348,128,0,85459:0:0:0:0:
320,192,85459,128,0,85570:0:0:0:0:
448,192,85570,128,0,85792:0:0:0:0:
192,192,85570,128,0,85681:0:0:0:0:
64,192,85681,128,0,85792:0:0:0:0:
192,192,85792,128,0,86014:0:0:0:0:
320,192,85792,128,0,85903:0:0:0:0:
64,192,85903,128,0,86014:0:0:0:0:
320,192,86014,128,0,86237:0:0:0:0:
448,192,86014,128,0,86125:0:0:0:0:
192,192,86125,128,0,86237:0:0:0:0:
448,192,86237,128,0,86459:0:0:0:0:
64,192,86237,128,0,86348:0:0:0:0:
192,192,86348,128,0,86459:0:0:0:0:
320,192,86459,128,0,86681:0:0:0:0:
64,192,86459,128,0,86570:0:0:0:0:
448,192,86570,128,0,86681:0:0:0:0:
192,192,86681,128,0,86903:0:0:0:0:
64,192,86681,128,0,86792:0:0:0:0:
320,192,86792,128,0,86903:0:0:0:0:
64,192,86903,128,0,87014:0:0:0:0:
448,192,86903,128,0,87014:0:0:0:0:
192,192,87014,128,0,87125:0:0:0:0:
448,192,87125,128,0,87237:0:0:0:0:
64,192,87125,128,0,87348:0:0:0:0:
320,192,87237,128,0,87348:0:0:0:0:
192,192,87348,128,0,87570:0:0:0:0:
448,192,87348,128,0,87459:0:0:0:0:
320,192,87459,128,0,87570:0:0:0:0:
448,192,87570,128,0,87792:0:0:0:0:
64,192,87570,128,0,87681:0:0:0:0:
192,192,87681,128,0,87792:0:0:0:0:
320,192,87792,128,0,88014:0:0:0:0:
64,192,87792,128,0,87903:0:0:0:0:
192,192,87903,128,0,88014:0:0:0:0:
64,192,88014,128,0,88237:0:0:0:0:
448,192,88014,128,0,88125:0:0:0:0:
320,192,88125,128,0,88237:0:0:0:0:
448,192,88237,128,0,88348:0:0:0:0:
192,192,88237,128,0,88348:0:0:0:0:
64,192,88348,128,0,88459:0:0:0:0:
448,192,88459,128,0,88570:0:0:0:0:
192,192,88459,128,0,88681:0:0:0:0:
320,192,88459,128,0,88570:0:0:0:0:
64,192,88570,128,0,88681:0:0:0:0:
320,192,88681,128,0,88903:0:0:0:0:
192,192,88792,128,0,88903:0:0:0:0:
448,192,88903,128,0,89125:0:0:0:0:
64,192,88903,1,0,0:0:0:0:
320,192,89014,128,0,89125:0:0:0:0:
64,192,89125,128,0,89348:0:0:0:0:
448,192,89237,128,0,89348:0:0:0:0:
192,192,89348,128,0,89570:0:0:0:0:
320,192,89348,1,0,0:0:0:0:
64,192,89459,128,0,89570:0:0:0:0:
320,192,89570,128,0,89792:0:0:0:0:
192,192,89681,128,0,89792:0:0:0:0:
448,192,89792,128,0,90014:0:0:0:0:
64,192,89792,1,0,0:0:0:0:
320,192,89903,128,0,90014:0:0:0:0:
64,192,90014,128,0,90237:0:0:0:0:
448,192,90125,128,0,90237:0:0:0:0:
320,192,90237,128,0,90459:0:0:0:0:
192,192,90237,1,0,0:0:0:0:
448,192,90348,128,0,90459:0:0:0:0:
192,192,90459,128,0,90681:0:0:0:0:
320,192,90570,128,0,90681:0:0:0:0:
64,192,90681,128,0,90903:0:0:0:0:
448,192,90681,1,0,0:0:0:0:
192,192,90792,128,0,90903:0:0:0:0:
448,192,90903,128,0,91125:0:0:0:0:
64,192,91014,128,0,91125:0:0:0:0:
320,192,91125,128,0,91348:0:0:0:0:
192,192,91125,1,0,0:0:0:0:
448,192,91237,128,0,91348:0:0:0:0:
192,192,91348,128,0,91570:0:0:0:0:
320,192,91459,128,0,91570:0:0:0:0:
64,192,91570,128,0,91681:0:0:0:0:
448,192,91570,1,0,0:0:0:0:
192,192,91681,128,0,91792:0:0:0:0:
64,192,91792,128,0,92014:0:0:0:0:
448,192,91903,128,0,92014:0:0:0:0:
192,192,92014,128,0,92237:0:0:0:0:
320,192,92014,1,0,0:0:0:0:
64,192,92125,128,0,92237:0:0:0:0:
320,192,92237,128,0,92459:0:0:0:0:
192,192,92348,128,0,92459:0:0:0:0:
448,192,92459,128,0,92681:0:0:0:0:
64,192,92459,1,0,0:0:0:0:
320,192,92570,128,0,92681:0:0:0:0:
64,192,92681,128,0,92903:0:0:0:0:
448,192,92792,128,0,92903:0:0:0:0:
192,192,92903,128,0,93125:0:0:0:0:
320,192,92903,1,0,0:0:0:0:
64,192,93014,128,0,93125:0:0:0:0:
320,192,93125,128,0,93348:0:0:0:0:
192,192,93237,128,0,93348:0:0:0:0:
448,192,93348,128,0,93570:0:0:0:0:
64,192,93348,1,0,0:0:0:0:
320,192,93459,128,0,93681:0:0:0:0:
64,192,93570,128,0,93792:0:0:0:0:
448,192,93681,128,0,93792:0:0:0:0:
320,192,93792,128,0,94014:0:0:0:0:
192,192,93792,1,0,0:0:0:0:
448,192,93903,128,0,94014:0:0:0:0:
192,192,94014,128,0,94237:0:0:0:0:
320,192,94125,128,0,94237:0:0:0:0:
64,192,94237,128,0,94459:0:0:0:0:
448,192,94237,1,0,0:0:0:0:
192,192,94348,128,0,94459:0:0:0:0:
448,192,94459,128,0,94681:0:0:0:0:
64,192,94570,128,0,94681:0:0:0:0:
320,192,94681,128,0,94903:0:0:0:0:
192,192,94681,1,0,0:0:0:0:
448,192,94792,128,0,94903:0:0:0:0:
192,192,94903,128,0,95125:0:0:0:0:
320,192,95014,128,0,95125:0:0:0:0:
64,192,95125,128,0,95237:0:0:0:0:
448,192,95125,1,0,0:0:0:0:
192,192,95237,128,0,95348:0:0:0:0:
320,192,95348,1,0,0:0:0:0:
64,192,95348,128,0,95570:0:0:0:0:
448,192,95459,128,0,95570:0:0:0:0:
192,192,95570,128,0,95792:0:0:0:0:
320,192,95570,1,0,0:0:0:0:
64,192,95681,128,0,95792:0:0:0:0:
320,192,95792,128,0,96014:0:0:0:0:
192,192,95903,128,0,96014:0:0:0:0:
448,192,96014,128,0,96237:0:0:0:0:
64,192,96014,1,0,0:0:0:0:
320,192,96125,128,0,96237:0:0:0:0:
64,192,96237,128,0,96459:0:0:0:0:
448,192,96348,128,0,96459:0:0:0:0:
192,192,96459,128,0,96681:0:0:0:0:
320,192,96459,1,0,0:0:0:0:
64,192,96570,128,0,96681:0:0:0:0:
320,192,96681,128,0,96903:0:0:0:0:
192,192,96792,128,0,97014:0:0:0:0:
448,192,96903,128,0,97125:0:0:0:0:
64,192,96903,1,0,0:0:0:0:
320,192,97014,128,0,97237:0:0:0:0:
64,192,97125,128,0,97348:0:0:0:0:
448,192,97237,128,0,97348:0:0:0:0:
320,192,97348,128,0,97570:0:0:0:0:
192,192,97348,1,0,0:0:0:0:
448,192,97459,128,0,97681:0:0:0:0:
192,192,97570,128,0,97792:0:0:0:0:
320,192,97681,128,0,97903:0:0:0:0:
64,192,97792,128,0,98014:0:0:0:0:
448,192,97792,1,0,0:0:0:0:
192,192,97903,128,0,98014:0:0:0:0:
448,192,98014,128,0,98237:0:0:0:0:
64,192,98125,128,0,98237:0:0:0:0:
320,192,98237,128,0,98459:0:0:0:0:
192,192,98237,1,0,0:0:0:0:
448,192,98348,128,0,98459:0:0:0:0:
192,192,98459,128,0,98681:0:0:0:0:
320,192,98570,128,0,98681:0:0:0:0:
64,192,98681,128,0,98792:0:0:0:0:
448,192,98681,1,0,0:0:0:0:
192,192,98792,128,0,98903:0:0:0:0:
64,192,98903,128,0,99125:0:0:0:0:
448,192,99014,128,0,99125:0:0:0:0:
320,192,99125,128,0,99348:0:0:0:0:
192,192,99125,1,0,0:0:0:0:
64,192,99237,128,0,99348:0:0:0:0:
192,192,99348,128,0,99570:0:0:0:0:
64,192,99459,128,0,99570:0:0:0:0:
320,192,99570,128,0,99792:0:0:0:0:
448,192,99570,1,0,0:0:0:0:
192,192,99681,128,0,99792:0:0:0:0:
448,192,99792,128,0,99903:0:0:0:0:
320,192,99903,128,0,100014:0:0:0:0:
192,192,100014,128,0,100237:0:0:0:0:
448,192,100014,1,0,0:0:0:0:
64,192,100125,128,0,100348:0:0:0:0:
320,192,100237,128,0,100459:0:0:0:0:
192,192,100348,128,0,100570:0:0:0:0:
448,192,100459,128,0,100681:0:0:0:0:
64,192,100459,1,0,0:0:0:0:
320,192,100570,128,0,100792:0:0:0:0:
64,192,100681,128,0,100903:0:0:0:0:
448,192,100792,128,0,100903:0:0:0:0:
320,192,100903,128,0,101125:0:0:0:0:
192,192,100903,1,0,0:0:0:0:
448,192,101014,128,0,101237:0:0:0:0:
192,192,101125,128,0,101348:0:0:0:0:
320,192,101237,128,0,101459:0:0:0:0:
64,192,101348,128,0,101570:0:0:0:0:
448,192,101348,1,0,0:0:0:0:
192,192,101459,128,0,101681:0:0:0:0:
448,192,101570,128,0,101792:0:0:0:0:
64,192,101681,128,0,101792:0:0:0:0:
320,192,101792,128,0,102014:0:0:0:0:
192,192,101792,1,0,0:0:0:0:
448,192,101903,128,0,102014:0:0:0:0:
192,192,102014,128,0,102237:0:0:0:0:
320,192,102125,128,0,102237:0:0:0:0:
64,192,102237,128,0,102348:0:0:0:0:
448,192,102237,1,0,0:0:0:0:
192,192,102348,128,0,102459:0:0:0:0:
64,192,102459,128,0,102681:0:0:0:0:
320,192,102459,1,0,0:0:0:0:
448,192,102570,128,0,102681:0:0:0:0:
320,192,102681,1,0,0:0:0:0:
192,192,102681,128,0,102903:0:0:0:0:
64,192,102792,128,0,102903:0:0:0:0:
320,192,102903,128,0,103125:0:0:0:0:
192,192,103014,128,0,103125:0:0:0:0:
448,192,103125,128,0,103348:0:0:0:0:
320,192,103237,128,0,103348:0:0:0:0:
64,192,103348,128,0,103570:0:0:0:0:
448,192,103459,128,0,103570:0:0:0:0:
192,192,103570,128,0,103792:0:0:0:0:
64,192,103681,128,0,103792:0:0:0:0:
320,192,103792,128,0,104014:0:0:0:0:
192,192,103903,128,0,104014:0:0:0:0:
448,192,104014,128,0,104237:0:0:0:0:
320,192,104125,128,0,104237:0:0:0:0:
64,192,104237,128,0,104459:0:0:0:0:
448,192,104348,128,0,104459:0:0:0:0:
320,192,104459,128,0,104681:0:0:0:0:
448,192,104570,128,0,104681:0:0:0:0:
192,192,104681,128,0,104903:0:0:0:0:
320,192,104792,128,0,104903:0:0:0:0:
64,192,104903,128,0,105125:0:0:0:0:
192,192,105014,128,0,105125:0:0:0:0:
448,192,105125,128,0,105348:0:0:0:0:
64,192,105237,128,0,105348:0:0:0:0:
320,192,105348,128,0,105570:0:0:0:0:
448,192,105459,128,0,105570:0:0:0:0:
192,192,105570,128,0,105792:0:0:0:0:
320,192,105681,128,0,105792:0:0:0:0:
64,192,105792,128,0,106014:0:0:0:0:
192,192,105903,128,0,106014:0:0:0:0:
448,192,106014,128,0,106237:0:0:0:0:
320,192,106014,1,0,0:0:0:0:
64,192,106125,128,0,106237:0:0:0:0:
320,192,106237,128,0,106459:0:0:0:0:
192,192,106237,1,0,0:0:0:0:
64,192,106348,128,0,106459:0:0:0:0:
448,192,106459,128,0,106681:0:0:0:0:
192,192,106570,128,0,106681:0:0:0:0:
320,192,106681,128,0,106903:0:0:0:0:
192,192,106792,128,0,106903:0:0:0:0:
448,192,106903,128,0,107125:0:0:0:0:
320,192,107014,128,0,107125:0:0:0:0:
64,192,107125,128,0,107348:0:0:0:0:
320,192,107237,128,0,107348:0:0:0:0:
192,192,107348,128,0,107570:0:0:0:0:
448,192,107459,128,0,107570:0:0:0:0:
320,192,107570,128,0,107792:0:0:0:0:
448,192,107681,128,0,107792:0:0:0:0:
64,192,107792,128,0,108014:0:0:0:0:
448,192,107903,128,0,108014:0:0:0:0:
320,192,108014,128,0,108237:0:0:0:0:
448,192,108125,128,0,108237:0:0:0:0:
192,192,108237,128,0,108459:0:0:0:0:
320,192,108348,128,0,108459:0:0:0:0:
64,192,108459,128,0,108681:0:0:0:0:
192,192,108570,128,0,108681:0:0:0:0:
448,192,108681,128,0,108903:0:0:0:0:
64,192,108792,128,0,109014:0:0:0:0:
320,192,108903,128,0,109125:0:0:0:0:
448,192,109014,128,0,109125:0:0:0:0:
192,192,109125,128,0,109348:0:0:0:0:
320,192,109237,128,0,109348:0:0:0:0:
64,192,109348,128,0,109459:0:0:0:0:
192,192,109459,128,0,109570:0:0:0:0:
64,192,109570,128,0,109792:0:0:0:0:
320,192,109570,1,0,0:0:0:0:
448,192,109681,128,0,109792:0:0:0:0:
192,192,109792,128,0,110014:0:0:0:0:
320,192,109792,1,0,0:0:0:0:
64,192,109903,128,0,110014:0:0:0:0:
320,192,110014,128,0,110237:0:0:0:0:
192,192,110125,128,0,110237:0:0:0:0:
448,192,110237,128,0,110459:0:0:0:0:
320,192,110348,128,0,110459:0:0:0:0:
64,192,110459,128,0,110681:0:0:0:0:
448,192,110570,128,0,110681:0:0:0:0:
192,192,110681,128,0,110903:0:0:0:0:
448,192,110792,128,0,110903:0:0:0:0:
320,192,110903,128,0,111125:0:0:0:0:
448,192,111014,128,0,111125:0:0:0:0:
64,192,111125,128,0,111348:0:0:0:0:
320,192,111237,128,0,111459:0:0:0:0:
448,192,111348,128,0,111570:0:0:0:0:
64,192,111459,128,0,111570:0:0:0:0:
320,192,111570,128,0,111792:0:0:0:0:
448,192,111681,128,0,111792:0:0:0:0:
192,192,111792,128,0,112014:0:0:0:0:
320,192,111903,128,0,112014:0:0:0:0:
64,192,112014,128,0,112237:0:0:0:0:
192,192,112125,128,0,112237:0:0:0:0:
448,192,112237,128,0,112459:0:0:0:0:
64,192,112348,128,0,112570:0:0:0:0:
320,192,112459,128,0,112681:0:0:0:0:
448,192,112570,128,0,112681:0:0:0:0:
192,192,112681,128,0,112903:0:0:0:0:
320,192,112792,128,0,112903:0:0:0:0:
64,192,112903,128,0,113014:0:0:0:0:
192,192,113014,128,0,113125:0:0:0:0:
64,192,113125,128,0,113348:0:0:0:0:
320,192,113125,1,0,0:0:0:0:
448,192,113237,128,0,113348:0:0:0:0:
320,192,113348,128,0,113570:0:0:0:0:
192,192,113348,1,0,0:0:0:0:
64,192,113459,128,0,113570:0:0:0:0:
192,192,113570,128,0,113792:0:0:0:0:
64,192,113681,128,0,113792:0:0:0:0:
320,192,113792,128,0,114014:0:0:0:0:
192,192,113903,128,0,114014:0:0:0:0:
448,192,114014,128,0,114237:0:0:0:0:
320,192,114125,128,0,114237:0:0:0:0:
192,192,114237,128,0,114459:0:0:0:0:
64,192,114348,128,0,114570:0:0:0:0:
320,192,114459,128,0,114681:0:0:0:0:
192,192,114570,128,0,114792:0:0:0:0:
448,192,114681,128,0,114903:0:0:0:0:
320,192,114792,128,0,115014:0:0:0:0:
64,192,114903,128,0,115125:0:0:0:0:
448,192,115014,128,0,115125:0:0:0:0:
320,192,115125,128,0,115348:0:0:0:0:
448,192,115237,128,0,115459:0:0:0:0:
192,192,115348,128,0,115570:0:0:0:0:
320,192,115459,128,0,115681:0:0:0:0:
64,192,115570,128,0,115792:0:0:0:0:
192,192,115681,128,0,115903:0:0:0:0:
448,192,115792,128,0,116014:0:0:0:0:
64,192,115903,128,0,116014:0:0:0:0:
320,192,116014,128,0,116237:0:0:0:0:
192,192,116125,128,0,116237:0:0:0:0:
64,192,116237,128,0,116348:0:0:0:0:
320,192,116348,128,0,116570:0:0:0:0:
192,192,116459,128,0,116570:0:0:0:0:
64,192,116459,128,0,116681:0:0:0:0:
448,192,116570,128,0,116681:0:0:0:0:
192,192,116681,1,0,0:0:0:0:
320,192,116681,128,0,116792:0:0:0:0:
64,192,116792,128,0,117014:0:0:0:0:
320,192,116903,128,0,118681:0:0:0:0:
192,192,116903,128,0,117014:0:0:0:0:
448,192,117014,128,0,117125:0:0:0:0:
64,192,117125,128,0,117237:0:0:0:0:
448,192,117237,128,0,117348:0:0:0:0:
192,192,117348,128,0,117459:0:0:0:0:
64,192,117459,128,0,117570:0:0:0:0:
192,192,117570,128,0,117681:0:0:0:0:
448,192,117681,128,0,117792:0:0:0:0:
64,192,117792,128,0,117903:0:0:0:0:
448,192,117903,128,0,118014:0:0:0:0:
192,192,118014,128,0,118125:0:0:0:0:
448,192,118125,128,0,118237:0:0:0:0:
64,192,118237,128,0,118348:0:0:0:0:
192,192,118348,128,0,118570:0:0:0:0:
64,192,118459,128,0,118570:0:0:0:0:
448,192,118570,128,0,118681:0:0:0:0:
64,192,118681,128,0,119570:0:0:0:0:
192,192,118681,128,0,118903:0:0:0:0:
448,192,118792,128,0,118903:0:0:0:0:
320,192,118903,128,0,119014:0:0:0:0:
192,192,119014,128,0,119125:0:0:0:0:
448,192,119125,128,0,119237:0:0:0:0:
192,192,119237,128,0,119348:0:0:0:0:
448,192,119348,128,0,119459:0:0:0:0:
320,192,119459,128,0,119570:0:0:0:0:
192,192,119570,128,0,120459:0:0:0:0:
448,192,119570,128,0,119681:0:0:0:0:
64,192,119681,128,0,119792:0:0:0:0:
320,192,119792,128,0,119903:0:0:0:0:
64,192,119903,128,0,120014:0:0:0:0:
448,192,120014,128,0,120125:0:0:0:0:
320,192,120125,128,0,120237:0:0:0:0:
64,192,120237,128,0,120348:0:0:0:0:
320,192,120348,128,0,120459:0:0:0:0:
448,192,120459,128,0,122237:0:0:0:0:
64,192,120459,128,0,120570:0:0:0:0:
192,192,120570,128,0,120681:0:0:0:0:
320,192,120681,128,0,120792:0:0:0:0:
64,192,120792,128,0,120903:0:0:0:0:
320,192,120903,128,0,121014:0:0:0:0:
192,192,121014,128,0,121125:0:0:0:0:
64,192,121125,128,0,121237:0:0:0:0:
320,192,121237,128,0,121348:0:0:0:0:
192,192,121348,128,0,121459:0:0:0:0:
320,192,121459,128,0,121570:0:0:0:0:
64,192,121570,128,0,121681:0:0:0:0:
320,192,121681,128,0,121792:0:0:0:0:
64,192,121792,128,0,122014:0:0:0:0:
192,192,121903,128,0,122125:0:0:0:0:
320,192,122014,128,0,122125:0:0:0:0:
64,192,122125,128,0,122237:0:0:0:0:
320,192,122237,128,0,124014:0:0:0:0:
192,192,122237,128,0,122459:0:0:0:0:
448,192,122348,128,0,122459:0:0:0:0:
64,192,122459,128,0,122570:0:0:0:0:
448,192,122570,128,0,122681:0:0:0:0:
192,192,122681,128,0,122792:0:0:0:0:
64,192,122792,128,0,122903:0:0:0:0:
192,192,122903,128,0,123014:0:0:0:0:
448,192,123014,128,0,123125:0:0:0:0:
192,192,123125,128,0,123237:0:0:0:0:
64,192,123237,128,0,123348:0:0:0:0:
448,192,123348,128,0,123459:0:0:0:0:
192,192,123459,128,0,123570:0:0:0:0:
448,192,123570,128,0,123681:0:0:0:0:
64,192,123681,128,0,123792:0:0:0:0:
448,192,123792,128,0,123903:0:0:0:0:
64,192,123903,128,0,124014:0:0:0:0:
192,192,124014,128,0,125792:0:0:0:0:
448,192,124014,128,0,124125:0:0:0:0:
320,192,124125,128,0,124237:0:0:0:0:
64,192,124237,128,0,124348:0:0:0:0:
448,192,124348,128,0,124459:0:0:0:0:
64,192,124459,128,0,124570:0:0:0:0:
320,192,124570,128,0,124681:0:0:0:0:
64,192,124681,128,0,124792:0:0:0:0:
448,192,124792,128,0,124903:0:0:0:0:
64,192,124903,128,0,125014:0:0:0:0:
320,192,125014,128,0,125125:0:0:0:0:
448,192,125125,128,0,125237:0:0:0:0:
320,192,125237,128,0,125348:0:0:0:0:
64,192,125348,128,0,125570:0:0:0:0:
320,192,125459,128,0,125681:0:0:0:0:
448,192,125570,128,0,125681:0:0:0:0:
64,192,125681,128,0,125792:0:0:0:0:
448,192,125792,128,0,126681:0:0:0:0:
320,192,125792,128,0,126014:0:0:0:0:
64,192,125903,128,0,126014:0:0:0:0:
192,192,126014,128,0,126125:0:0:0:0:
64,192,126125,128,0,126237:0:0:0:0:
320,192,126237,128,0,126348:0:0:0:0:
192,192,126348,128,0,126459:0:0:0:0:
320,192,126459,128,0,126570:0:0:0:0:
64,192,126570,128,0,126681:0:0:0:0:
320,192,126681,128,0,127459:0:0:0:0:
192,192,126681,128,0,126792:0:0:0:0:
448,192,126792,128,0,126903:0:0:0:0:
64,192,126903,128,0,127014:0:0:0:0:
192,192,127014,128,0,127125:0:0:0:0:
64,192,127125,128,0,127237:0:0:0:0:
448,192,127237,128,0,127348:0:0:0:0:
192,192,127348,128,0,127459:0:0:0:0:
64,192,127459,128,0,127570:0:0:0:0:
320,192,127570,128,0,129348:0:0:0:0:
448,192,127570,128,0,127681:0:0:0:0:
64,192,127681,128,0,127792:0:0:0:0:
448,192,127792,128,0,127903:0:0:0:0:
64,192,127903,128,0,128014:0:0:0:0:
192,192,128014,128,0,128125:0:0:0:0:
448,192,128125,128,0,128237:0:0:0:0:
64,192,128237,128,0,128348:0:0:0:0:
448,192,128348,128,0,128459:0:0:0:0:
192,192,128459,128,0,128570:0:0:0:0:
448,192,128570,128,0,128681:0:0:0:0:
64,192,128681,128,0,128792:0:0:0:0:
192,192,128792,128,0,128903:0:0:0:0:
448,192,128903,128,0,129125:0:0:0:0:
192,192,129014,128,0,129237:0:0:0:0:
64,192,129125,128,0,129237:0:0:0:0:
448,192,129237,128,0,129348:0:0:0:0:
192,192,129348,128,0,131125:0:0:0:0:
64,192,129348,128,0,129570:0:0:0:0:
448,192,129459,128,0,129570:0:0:0:0:
320,192,129570,128,0,129681:0:0:0:0:
64,192,129681,128,0,129792:0:0:0:0:
320,192,129792,128,0,129903:0:0:0:0:
448,192,129903,128,0,130014:0:0:0:0:
320,192,130014,128,0,130125:0:0:0:0:
64,192,130125,128,0,130237:0:0:0:0:
448,192,130237,128,0,130348:0:0:0:0:
64,192,130348,128,0,130459:0:0:0:0:
320,192,130459,128,0,130570:0:0:0:0:
64,192,130570,128,0,130681:0:0:0:0:
448,192,130681,128,0,130792:0:0:0:0:
320,192,130792,128,0,130903:0:0:0:0:
64,192,130903,128,0,131014:0:0:0:0:
320,192,131014,128,0,131125:0:0:0:0:
64,192,131125,128,0,132903:0:0:0:0:
448,192,131125,128,0,131237:0:0:0:0:
192,192,131237,128,0,131348:0:0:0:0:
320,192,131348,128,0,131459:0:0:0:0:
448,192,131459,128,0,131570:0:0:0:0:
192,192,131570,128,0,131681:0:0:0:0:
320,192,131681,128,0,131792:0:0:0:0:
192,192,131792,128,0,131903:0:0:0:0:
448,192,131903,128,0,132014:0:0:0:0:
320,192,132014,128,0,132125:0:0:0:0:
192,192,132125,128,0,132237:0:0:0:0:
320,192,132237,128,0,132348:0:0:0:0:
448,192,132348,128,0,132459:0:0:0:0:
192,192,132459,128,0,132681:0:0:0:0:
448,192,132570,128,0,132792:0:0:0:0:
320,192,132681,128,0,132792:0:0:0:0:
192,192,132792,128,0,132903:0:0:0:0:
320,192,132903,128,0,133792:0:0:0:0:
448,192,132903,128,0,133125:0:0:0:0:
192,192,133014,128,0,133125:0:0:0:0:
64,192,133125,128,0,133237:0:0:0:0:
448,192,133237,128,0,133348:0:0:0:0:
64,192,133348,128,0,133459:0:0:0:0:
448,192,133459,128,0,133570:0:0:0:0:
192,192,133570,128,0,133681:0:0:0:0:
64,192,133681,128,0,133792:0:0:0:0:
192,192,133792,128,0,134681:0:0:0:0:
448,192,133792,128,0,133903:0:0:0:0:
320,192,133903,128,0,134014:0:0:0:0:
64,192,134014,128,0,134125:0:0:0:0:
320,192,134125,128,0,134237:0:0:0:0:
64,192,134237,128,0,134348:0:0:0:0:
320,192,134348,128,0,134459:0:0:0:0:
448,192,134459,128,0,134570:0:0:0:0:
64,192,134570,128,0,134681:0:0:0:0:
448,192,134681,128,0,138237:0:0:0:0:
320,192,134681,128,0,134792:0:0:0:0:
64,192,134792,128,0,134903:0:0:0:0:
192,192,134903,128,0,135014:0:0:0:0:
320,192,135014,128,0,135125:0:0:0:0:
192,192,135125,128,0,135237:0:0:0:0:
64,192,135237,128,0,135348:0:0:0:0:
320,192,135348,128,0,135459:0:0:0:0:
192,192,135459,128,0,135570:0:0:0:0:
320,192,135570,128,0,135681:0:0:0:0:
192,192,135681,128,0,135792:0:0:0:0:
64,192,135792,128,0,135903:0:0:0:0:
320,192,135903,128,0,136014:0:0:0:0:
64,192,136014,128,0,136125:0:0:0:0:
320,192,136125,128,0,136348:0:0:0:0:
192,192,136237,128,0,136459:0:0:0:0:
64,192,136348,128,0,136459:0:0:0:0:
320,192,136459,128,0,136681:0:0:0:0:
192,192,136570,128,0,136681:0:0:0:0:
64,192,136681,128,0,136792:0:0:0:0:
320,192,136792,128,0,136903:0:0:0:0:
64,192,136903,128,0,137014:0:0:0:0:
320,192,137014,128,0,137125:0:0:0:0:
192,192,137125,128,0,137237:0:0:0:0:
64,192,137237,128,0,137348:0:0:0:0:
192,192,137348,128,0,137459:0:0:0:0:
64,192,137459,128,0,137570:0:0:0:0:
320,192,137570,128,0,137681:0:0:0:0:
192,192,137681,128,0,137792:0:0:0:0:
320,192,137792,128,0,137903:0:0:0:0:
64,192,137903,128,0,138014:0:0:0:0:
192,192,138014,128,0,138125:0:0:0:0:
320,192,138125,128,0,138237:0:0:0:0:
192,192,138237,128,0,140014:0:0:0:0:
64,192,138237,128,0,138348:0:0:0:0:
320,192,138348,128,0,138459:0:0:0:0:
64,192,138459,128,0,138570:0:0:0:0:
448,192,138570,128,0,138681:0:0:0:0:
320,192,138681,128,0,138792:0:0:0:0:
448,192,138792,128,0,138903:0:0:0:0:
64,192,138903,128,0,139014:0:0:0:0:
448,192,139014,128,0,139125:0:0:0:0:
320,192,139125,128,0,139237:0:0:0:0:
64,192,139237,128,0,139348:0:0:0:0:
448,192,139348,128,0,139459:0:0:0:0:
320,192,139459,128,0,139570:0:0:0:0:
64,192,139570,128,0,139792:0:0:0:0:
320,192,139681,128,0,139903:0:0:0:0:
448,192,139792,128,0,139903:0:0:0:0:
64,192,139903,128,0,140014:0:0:0:0:
448,192,140014,128,0,141792:0:0:0:0:
320,192,140014,128,0,140237:0:0:0:0:
192,192,140125,128,0,140237:0:0:0:0:
64,192,140237,128,0,140348:0:0:0:0:
192,192,140348,128,0,140459:0:0:0:0:
320,192,140459,128,0,140570:0:0:0:0:
64,192,140570,128,0,140681:0:0:0:0:
192,192,140681,128,0,140792:0:0:0:0:
64,192,140792,128,0,140903:0:0:0:0:
320,192,140903,128,0,141014:0:0:0:0:
192,192,141014,128,0,141125:0:0:0:0:
64,192,141125,128,0,141237:0:0:0:0:
320,192,141237,128,0,141348:0:0:0:0:
64,192,141348,128,0,141459:0:0:0:0:
320,192,141459,128,0,141570:0:0:0:0:
192,192,141570,128,0,141681:0:0:0:0:
64,192,141681,128,0,141792:0:0:0:0:
320,192,141792,128,0,143570:0:0:0:0:
192,192,141792,128,0,141903:0:0:0:0:
448,192,141903,128,0,142014:0:0:0:0:
192,192,142014,128,0,142125:0:0:0:0:
448,192,142125,128,0,142237:0:0:0:0:
64,192,142237,128,0,142348:0:0:0:0:
448,192,142348,128,0,142459:0:0:0:0:
64,192,142459,128,0,142570:0:0:0:0:
448,192,142570,128,0,142681:0:0:0:0:
64,192,142681,128,0,142792:0:0:0:0:
192,192,142792,128,0,142903:0:0:0:0:
64,192,142903,128,0,143014:0:0:0:0:
192,192,143014,128,0,143125:0:0:0:0:
448,192,143125,128,0,143348:0:0:0:0:
192,192,143237,128,0,143459:0:0:0:0:
64,192,143348,128,0,143459:0:0:0:0:
448,192,143459,128,0,143570:0:0:0:0:
192,192,143570,128,0,145125:0:0:0:0:
64,192,143570,128,0,143792:0:0:0:0:
448,192,143681,128,0,143792:0:0:0:0:
320,192,143792,128,0,143903:0:0:0:0:
448,192,143903,128,0,144014:0:0:0:0:
64,192,144014,128,0,144125:0:0:0:0:
320,192,144125,128,0,144237:0:0:0:0:
64,192,144237,128,0,144348:0:0:0:0:
448,192,144348,128,0,144459:0:0:0:0:
320,192,144459,128,0,144570:0:0:0:0:
448,192,144570,128,0,144681:0:0:0:0:
320,192,144681,128,0,144792:0:0:0:0:
64,192,144792,128,0,144903:0:0:0:0:
448,192,144903,128,0,145014:0:0:0:0:
320,192,144903,128,0,145125:0:0:0:0:
64,192,145014,128,0,145237:0:0:0:0:
448,192,145125,128,0,145348:0:0:0:0:
320,192,145237,128,0,145348:0:0:0:0:
64,192,145348,1,0,0:0:0:0:
192,192,145348,1,0,0:0:0:0:
