osu file format v14

[General]
AudioFilename: audio.mp3
AudioLeadIn: 0
PreviewTime: 153700
Countdown: 0
SampleSet: Soft
StackLeniency: 0.6
Mode: 0
LetterboxInBreaks: 1
WidescreenStoryboard: 1

[Editor]
Bookmarks: 25700,51300,64100,76900,102500,115300,128100,140900,153700,179300,204900,217700,230500,243300,256100,268900,278500,283955,296755,309555,335155,360755
DistanceSpacing: 0.2
BeatDivisor: 4
GridSize: 32
TimelineZoom: 2.2

[Metadata]
Title:Tsugihagi Chimera
TitleUnicode:継接キメラ
Artist:-45
ArtistUnicode:-45
Creator:Dada
Version:Execution
Source:うみねこのなく頃に散
Tags:patchwork kimera umineko no naku koro ni chiru visual novel 07th expansion ryukishi07 akito yoshikawa yoshikawa-45 dva d'va;;;;;;;;5 sun fleur featured artist fa frederica bernkastel video game electronic baroque gothic organs instrumental mappers guild mpg
BeatmapID:2204379
BeatmapSetID:1054988

[Difficulty]
HPDrainRate:6
CircleSize:4
OverallDifficulty:8
ApproachRate:8.3
SliderMultiplier:2
SliderTickRate:1

[Events]
//Background and Video events
0,0,"catto3.jpg",0,0
//Break Periods
2,283954,295155
//Storyboard Layer 0 (Background)
//Storyboard Layer 1 (Fail)
//Storyboard Layer 2 (Pass)
//Storyboard Layer 3 (Foreground)
//Storyboard Layer 4 (Overlay)
//Storyboard Sound Samples

[TimingPoints]
100,400,4,2,1,50,1,0
100,-200,4,2,1,50,0,0
25700,-166.666666666667,4,2,1,55,0,0
37700,-166.666666666667,4,2,1,60,0,0
51300,-133.333333333333,4,2,1,70,0,0
102500,-125,4,2,1,65,0,0
114500,-166.666666666667,4,2,1,70,0,0
114900,-125,4,2,1,75,0,0
121700,-125,4,2,1,70,0,0
126100,-133.333333333333,4,2,1,45,0,0
126500,-105.263157894737,4,2,1,55,0,0
126900,-86.9565217391303,4,2,1,65,0,0
127300,-74.0740740740741,4,2,1,75,0,0
127700,-64.5161290322581,4,2,1,85,0,0
128100,-133.333333333333,4,2,1,75,0,0
153700,-117.647058823529,4,2,1,80,0,0
204900,-200,4,2,1,45,0,0
217700,-166.666666666667,4,2,1,50,0,0
230500,-166.666666666667,4,2,1,55,0,0
256100,-166.666666666667,4,2,1,60,0,0
278500,461.538461538462,4,2,1,60,1,0
278500,-200,4,2,1,60,0,0
278961,480,4,2,1,64,1,0
278961,-200,4,2,1,64,0,0
279441,521.739130434783,4,2,1,68,1,0
279441,-200,4,2,1,68,0,0
279962,600,4,2,1,72,1,0
279962,-200,4,2,1,72,0,0
280562,666.666666666667,4,2,1,76,1,0
280562,-200,4,2,1,76,0,0
281228,750,4,2,1,80,1,0
281228,-200,4,2,1,80,0,0
281978,882.352941176471,4,2,1,84,1,0
281978,-200,4,2,1,84,0,0
282419,937.5,4,2,1,88,1,0
282887,983.606557377049,4,2,1,92,1,0
282887,-200,4,2,1,92,0,0
283378,1153.84615384615,4,2,1,96,1,0
283378,-200,4,2,1,96,0,0
283955,400,4,2,1,65,1,0
295955,-166.666666666667,4,2,1,65,0,0
296355,-125,4,2,1,70,0,0
307555,-83.3333333333333,4,2,1,45,0,0
307955,-62.5,4,2,1,60,0,0
308355,-50,4,2,1,75,0,0
309555,-125,4,2,1,75,0,0
335155,-111.111111111111,4,2,1,80,0,0

[Colours]
Combo1 : 247,210,243
Combo2 : 180,182,255
Combo3 : 255,255,255
Combo4 : 165,16,186

[HitObjects]
163,239,100,6,0,P|197:247|224:245,1,50,2|0,0:0|0:0,0:0:0:0:
252,177,500,2,0,P|218:169|191:171,1,50
287,245,900,2,0,P|316:226|334:206,1,50,2|0,0:0|0:0,0:0:0:0:
317,140,1300,2,0,P|351:142|376:153,1,50
427,196,1700,6,0,L|493:192,1,50,2|0,0:0|0:0,0:0:0:0:
442,278,2100,2,0,L|375:274,1,50
421,116,2500,6,0,L|487:112,1,50,2|0,0:0|0:0,0:0:0:0:
340,201,2900,2,0,L|273:197,1,50,2|0,0:0|0:0,0:0:0:0:
256,68,3300,6,0,P|252:39|237:5,1,50,2|0,0:0|0:0,0:0:0:0:
176,61,3700,2,0,P|151:65|128:75,1,50,2|0,0:0|0:0,0:0:0:0:
130,156,4100,2,0,P|154:151|177:141,1,50,2|0,0:0|0:0,0:0:0:0:
50,149,4500,2,0,P|54:178|69:212,1,50,2|0,0:0|0:0,0:0:0:0:
132,242,4900,5,2,0:0:0:0:
126,351,5300,1,0,0:0:0:0:
227,309,5700,2,0,L|224:258,1,50,2|0,0:0|0:0,0:0:0:0:
308,292,6100,2,0,L|305:342,1,50,2|0,0:0|0:0,0:0:0:0:
363,216,6500,6,0,P|367:187|382:153,1,50,2|0,0:0|0:0,0:0:0:0:
444,207,6900,2,0,P|448:236|463:270,1,50
389,296,7300,2,0,L|320:292,1,50,2|0,0:0|0:0,0:0:0:0:
346,374,7700,2,0,L|277:377,1,50
233,287,8100,5,2,0:0:0:0:
114,295,8500,1,0,0:0:0:0:
193,206,8900,2,0,P|189:177|174:143,1,50,2|0,0:0|0:0,0:0:0:0:
113,200,9300,2,0,P|84:204|50:219,1,50
110,121,9700,6,0,L|113:60,1,50,2|0,0:0|0:0,0:0:0:0:
182,157,10100,2,0,L|232:155,1,50
280,26,10500,6,0,L|230:23,1,50,2|0,0:0|0:0,0:0:0:0:
315,97,10900,2,0,L|312:146,1,50
89,142,11300,6,0,L|92:81,1,50,2|0,0:0|0:0,0:0:0:0:
160,177,11700,2,0,L|209:174,1,50,2|0,0:0|0:0,0:0:0:0:
91,220,12100,5,2,0:0:0:0:
132,288,12300,1,2,0:0:0:0:
209,308,12500,1,2,0:0:0:0:
278,267,12700,1,2,0:0:0:0:
297,189,12900,6,2,B|393:147|393:230|490:189,2,200
278,267,14700,1,0,0:0:0:0:
226,206,14900,2,0,P|225:170|240:142,1,50,2|0,0:0|0:0,0:0:0:0:
283,97,15300,1,2,0:0:0:0:
356,65,15500,5,2,0:0:0:0:
292,17,15700,1,2,0:0:0:0:
219,49,15900,1,2,0:0:0:0:
155,1,16100,6,2,P|112:50|43:171,2,200
219,49,17900,1,0,0:0:0:0:
169,112,18100,2,0,P|190:125|220:130,1,50,2|0,0:0|0:0,0:0:0:0:
285,93,18500,1,2,0:0:0:0:
283,173,18700,5,2,0:0:0:0:
241,241,18900,1,2,0:0:0:0:
309,283,19100,1,2,0:0:0:0:
245,245,19300,6,2,B|181:241|181:241|115:270|115:270|51:266,2,200
309,283,21100,1,0,0:0:0:0:
380,247,21300,2,0,P|362:222|328:206,1,50,2|0,0:0|0:0,0:0:0:0:
375,325,21700,1,2,0:0:0:0:
446,289,21900,5,2,0:0:0:0:
441,368,22100,1,2,0:0:0:0:
375,325,22300,1,2,0:0:0:0:
309,368,22500,6,2,L|208:362,1,100
123,276,23300,2,2,L|223:270,1,100
293,170,24100,6,2,P|236:171|175:185,1,100
109,91,24900,2,2,P|166:90|227:76,1,100
298,15,25700,6,0,P|301:55|315:95,1,59.9999981689454,4|0,0:0|0:0,0:0:0:0:
382,38,26100,1,2,0:0:0:0:
382,38,26300,1,2,0:0:0:0:
401,118,26500,2,0,P|434:95|461:63,1,59.9999981689454,2|0,0:0|0:0,0:0:0:0:
330,148,26900,2,0,L|334:210,1,59.9999981689454,2|2,0:0|0:0,0:0:0:0:
414,272,27300,6,0,P|454:269|494:255,1,59.9999981689454,2|0,0:0|0:0,0:0:0:0:
347,313,27700,1,2,0:0:0:0:
347,313,27900,1,2,0:0:0:0:
220,263,28100,2,0,P|250:270|280:272,1,59.9999981689454,2|0,0:0|0:0,0:0:0:0:
171,197,28500,2,0,L|167:133,1,59.9999981689454,2|2,0:0|0:0,0:0:0:0:
233,93,28900,5,2,0:0:0:0:
163,56,29100,1,0,0:0:0:0:
97,174,29300,1,2,0:0:0:0:
167,137,29500,1,2,0:0:0:0:
93,93,29700,2,0,P|64:101|37:115,1,59.9999981689454,2|0,0:0|0:0,0:0:0:0:
94,234,30100,2,0,L|97:162,1,59.9999981689454,2|2,0:0|0:0,0:0:0:0:
16,193,30500,5,2,0:0:0:0:
16,193,30700,1,0,0:0:0:0:
21,290,30900,1,2,0:0:0:0:
21,290,31100,1,2,0:0:0:0:
149,256,31300,2,0,P|122:242|93:233,1,59.9999981689454,2|0,0:0|0:0,0:0:0:0:
99,320,31700,2,0,P|125:333|154:342,1,59.9999981689454,2|2,0:0|0:0,0:0:0:0:
255,301,32100,6,0,P|254:266|269:231,1,59.9999981689454,2|0,0:0|0:0,0:0:0:0:
336,285,32500,1,2,0:0:0:0:
336,285,32700,1,2,0:0:0:0:
414,264,32900,2,0,P|415:299|400:334,1,59.9999981689454,2|0,0:0|0:0,0:0:0:0:
358,208,33300,1,2,0:0:0:0:
490,243,33500,1,2,0:0:0:0:
405,173,33700,6,0,P|374:189|351:220,1,59.9999981689454,2|0,0:0|0:0,0:0:0:0:
457,114,34100,1,2,0:0:0:0:
457,114,34300,1,2,0:0:0:0:
399,61,34500,2,0,P|368:44|345:13,1,59.9999981689454,2|0,0:0|0:0,0:0:0:0:
476,38,34900,1,2,0:0:0:0:
405,172,35100,1,2,0:0:0:0:
305,119,35300,6,0,P|286:148|282:186,1,59.9999981689454,2|0,0:0|0:0,0:0:0:0:
212,135,35700,1,2,0:0:0:0:
212,135,35900,1,2,0:0:0:0:
137,174,36100,2,0,P|130:144|113:120,1,59.9999981689454,2|0,0:0|0:0,0:0:0:0:
57,177,36500,1,2,0:0:0:0:
108,41,36700,1,2,0:0:0:0:
215,75,36900,6,0,L|211:141,1,59.9999981689454,2|0,0:0|0:0,0:0:0:0:
211,225,37300,1,2,0:0:0:0:
211,225,37500,1,2,0:0:0:0:
276,280,37700,5,2,0:0:0:0:
202,319,37900,1,2,0:0:0:0:
137,264,38100,1,2,0:0:0:0:
211,225,38300,1,2,0:0:0:0:
276,280,38500,6,2,P|395:262|514:211,1,239.999992675781
490,133,39500,1,0,0:0:0:0:
408,153,39700,2,0,P|411:103|431:73,1,59.9999981689454,2|0,0:0|0:0,0:0:0:0:
321,122,40100,6,0,P|322:92|314:63,1,59.9999981689454,2|0,0:0|0:0,0:0:0:0:
239,102,40500,2,0,P|210:110|180:108,1,59.9999981689454,2|0,0:0|0:0,0:0:0:0:
125,45,40900,1,0,0:0:0:0:
99,127,41100,5,2,0:0:0:0:
155,192,41300,1,2,0:0:0:0:
70,207,41500,1,2,0:0:0:0:
159,196,41700,6,2,B|263:181|263:270|383:255,1,239.999992675781
465,230,42700,1,0,0:0:0:0:
401,175,42900,2,0,L|335:171,1,59.9999981689454,2|0,0:0|0:0,0:0:0:0:
332,39,43300,6,0,P|352:60|365:88,1,59.9999981689454,2|0,0:0|0:0,0:0:0:0:
255,161,43700,2,0,P|263:133|281:109,1,59.9999981689454,2|0,0:0|0:0,0:0:0:0:
288,236,44100,1,0,0:0:0:0:
240,302,44300,5,2,0:0:0:0:
206,227,44500,1,2,0:0:0:0:
158,293,44700,1,2,0:0:0:0:
124,218,44900,6,2,P|88:104|17:9,1,239.999992675781
110,0,45900,1,0,0:0:0:0:
157,69,46100,2,0,P|185:77|209:94,1,59.9999981689454,2|0,0:0|0:0,0:0:0:0:
198,181,46500,5,2,0:0:0:0:
198,181,46700,1,0,0:0:0:0:
124,218,46900,1,2,0:0:0:0:
124,218,47100,1,0,0:0:0:0:
31,285,47300,5,2,0:0:0:0:
44,205,47500,1,2,0:0:0:0:
124,218,47700,1,2,0:0:0:0:
111,298,47900,1,2,0:0:0:0:
44,205,48100,6,0,P|60:171|83:148,1,59.9999981689454,2|2,0:0|0:0,0:0:0:0:
124,218,48500,2,0,P|159:205|191:205,1,59.9999981689454,2|2,0:0|0:0,0:0:0:0:
111,298,48900,2,0,P|145:314|168:337,1,59.9999981689454,2|0,0:0|0:0,0:0:0:0:
285,332,49300,2,0,P|251:348|228:371,1,59.9999981689454,2|2,0:0|0:0,0:0:0:0:
361,358,49700,6,0,P|364:320|355:289,1,59.9999981689454,2|2,0:0|0:0,0:0:0:0:
437,279,50100,2,0,P|433:241|442:210,1,59.9999981689454,2|2,0:0|0:0,0:0:0:0:
361,200,50500,2,0,P|364:162|355:131,1,59.9999981689454,2|0,0:0|0:0,0:0:0:0:
226,125,50900,1,2,0:0:0:0:
298,250,51100,1,2,0:0:0:0:
322,43,51300,6,0,P|251:30|151:26,1,150.000005722046,4|0,1:2|1:0,0:0:0:0:
34,99,51900,1,2,0:0:0:0:
34,99,52000,1,2,0:0:0:0:
34,99,52100,2,0,P|50:58|72:36,1,75.0000028610231,0|0,1:0|0:0,0:0:0:0:
173,116,52500,2,0,P|135:159|64:164,1,112.500004291535,0|0,1:0|0:0,0:0:0:0:
82,168,52900,5,0,1:0:0:0:
82,168,53300,2,0,P|125:206|130:277,1,112.500004291535,2|0,1:0|0:0,0:0:0:0:
167,260,53700,2,0,P|126:296|116:350,1,112.500004291535,2|0,1:0|0:0,0:0:0:0:
93,370,54100,2,0,L|220:363,1,112.500004291535,2|0,1:0|0:0,0:0:0:0:
256,286,54500,6,2,P|328:282|419:291,1,150.000005722046,2|2,1:0|1:0,1:0:0:0:
504,378,55100,1,2,0:0:0:0:
504,378,55200,1,2,0:0:0:0:
504,378,55300,1,0,1:0:0:0:
481,232,55500,1,0,0:0:0:0:
383,143,55700,5,2,1:0:0:0:
406,289,55900,1,2,0:1:0:0:
475,123,56100,2,2,P|468:82|478:41,1,75.0000028610231,2|0,1:0|0:0,1:0:0:0:
387,147,56500,1,0,1:0:0:0:
387,147,56900,2,0,P|347:144|307:157,1,75.0000028610231,2|0,1:0|0:0,0:0:0:0:
406,289,57300,2,2,P|412:235|406:172,1,112.500004291535,2|0,1:0|0:0,1:0:0:0:
421,147,57700,6,2,B|479:155|516:212|516:212|491:231,1,150.000005722046,2|2,1:0|1:0,1:0:0:0:
379,372,58300,1,2,0:0:0:0:
379,372,58400,1,2,0:0:0:0:
379,372,58500,2,0,P|425:372|453:361,1,75.0000028610231,0|0,1:2|0:0,0:0:0:0:
327,227,58900,1,0,1:0:0:0:
284,373,59100,1,0,0:0:0:0:
172,257,59300,1,0,1:0:0:0:
172,257,59700,6,0,P|213:221|223:166,1,112.500004291535,2|0,1:0|0:0,1:0:0:0:
253,153,60100,2,0,P|216:111|162:101,1,112.500004291535,2|0,1:0|0:0,1:0:0:0:
142,73,60500,2,0,L|289:66,1,112.500004291535,2|0,1:0|0:0,1:0:0:0:
329,9,60900,6,2,B|405:29|362:80|439:101,1,150.000005722046,2|2,1:0|1:0,1:0:0:0:
512,0,61500,1,2,0:0:0:0:
512,0,61600,1,2,0:0:0:0:
512,0,61700,1,0,1:0:0:0:
439,101,61900,1,0,0:0:0:0:
329,9,62100,5,2,1:1:0:0:
192,39,62300,1,2,2:1:0:0:
214,176,62500,1,2,1:1:0:0:
192,39,62700,1,0,0:0:0:0:
302,139,62900,1,0,1:0:0:0:
302,139,63300,6,0,P|337:149|375:144,1,75.0000028610231,2|0,1:0|0:0,0:0:0:0:
181,263,63700,2,0,P|145:254|108:258,1,75.0000028610231,2|0,1:0|0:0,0:0:0:0:
86,242,64000,1,2,1:0:0:0:
86,242,64100,6,2,P|83:313|114:348,1,112.500004291535,2|0,1:0|0:0,1:0:0:0:
140,338,64500,1,8,0:0:0:0:
13,375,64700,1,2,0:0:0:0:
13,375,64800,1,2,0:0:0:0:
13,375,64900,1,0,1:0:0:0:
147,345,65100,1,0,0:0:0:0:
220,212,65300,1,8,0:0:0:0:
86,242,65500,1,0,0:0:0:0:
281,315,65700,6,0,P|336:288|361:239,1,112.500004291535,0|0,1:0|0:0,0:0:0:0:
343,217,66100,1,8,0:0:0:0:
429,321,66300,1,0,0:0:0:0:
506,182,66500,2,2,L|431:185,1,75.0000028610231,2|0,1:0|0:0,1:0:0:0:
283,342,66900,2,0,L|357:345,1,75.0000028610231,8|0,0:0|0:0,0:0:0:0:
245,261,67300,6,2,P|178:271|126:288,1,112.500004291535,2|0,1:0|0:0,1:0:0:0:
114,311,67700,1,8,0:0:0:0:
171,191,67900,1,2,0:0:0:0:
171,191,68000,1,2,0:0:0:0:
171,191,68100,2,0,P|120:188|74:174,1,75.0000028610231,0|0,1:0|0:0,0:0:0:0:
0,110,68500,2,0,P|51:107|97:93,1,75.0000028610231,8|0,0:0|0:0,0:0:0:0:
171,29,68900,1,0,1:0:0:0:
152,108,69100,1,0,0:0:0:0:
231,127,69300,5,10,0:0:0:0:
250,48,69500,1,0,0:0:0:0:
294,179,69700,2,2,P|354:179|400:126,1,112.500004291535,2|0,1:0|0:0,1:0:0:0:
385,111,70100,2,2,P|438:101|485:131,1,112.500004291535,10|0,0:0|0:0,1:0:0:0:
478,162,70500,6,2,P|449:213|379:257,1,112.500004291535,2|0,1:0|0:0,1:0:0:0:
403,277,70900,1,8,0:0:0:0:
255,262,71100,1,2,0:0:0:0:
255,262,71200,1,2,0:0:0:0:
255,262,71300,2,0,P|220:214|210:131,1,112.500004291535,0|0,1:0|0:0,0:0:0:0:
232,135,71700,1,8,0:0:0:0:
196,334,71900,1,8,0:0:0:0:
196,334,72000,1,8,0:0:0:0:
196,334,72100,1,0,1:0:0:0:
74,368,72300,5,2,0:0:0:0:
88,347,72400,1,2,0:0:0:0:
83,322,72500,1,8,0:0:0:0:
101,301,72600,1,8,0:0:0:0:
92,275,72700,5,2,0:0:0:0:
113,253,72800,1,2,0:0:0:0:
102,224,72900,1,0,1:0:0:0:
124,202,73000,1,0,1:0:0:0:
111,173,73100,5,2,0:0:0:0:
140,151,73200,1,2,0:0:0:0:
123,116,73300,1,10,0:0:0:0:
154,94,73400,1,10,0:0:0:0:
139,61,73500,5,2,1:0:0:0:
168,36,73600,1,2,1:0:0:0:
152,1,73700,6,2,P|72:7|14:88,2,150.000005722046,2|8|2,1:0|0:0|1:0,1:0:0:0:
234,107,74700,1,0,0:0:0:0:
349,38,74900,2,2,P|424:64|459:157,1,150.000005722046,10|0,0:0|1:0,1:0:0:0:
359,229,75500,5,2,0:0:0:0:
336,222,75600,1,2,0:0:0:0:
315,234,75700,1,10,0:0:0:0:
289,223,75800,1,10,0:0:0:0:
268,239,75900,1,2,0:1:0:0:
244,232,76000,1,2,0:1:0:0:
220,245,76100,5,2,1:0:0:0:
183,246,76200,1,2,1:0:0:0:
151,265,76300,1,2,0:0:0:0:
133,297,76400,1,2,0:0:0:0:
131,334,76500,5,10,0:0:0:0:
105,323,76600,1,10,0:0:0:0:
83,307,76700,1,8,0:0:0:0:
65,285,76800,1,8,0:0:0:0:
54,259,76900,6,2,P|62:197|56:139,1,112.500004291535,4|0,1:2|0:0,1:0:0:0:
32,129,77300,1,8,0:0:0:0:
148,256,77500,1,2,0:0:0:0:
148,256,77600,1,2,0:0:0:0:
148,256,77700,5,0,1:0:0:0:
243,186,77900,1,0,0:0:0:0:
183,329,78100,1,8,0:0:0:0:
164,175,78300,1,0,0:0:0:0:
278,262,78500,6,0,P|318:256|358:259,1,75.0000028610231,0|0,1:2|0:0,0:0:0:0:
388,379,78900,1,8,0:0:0:0:
390,191,79100,1,2,0:0:0:0:
390,191,79200,1,2,0:0:0:0:
390,191,79300,5,0,1:0:0:0:
419,305,79500,1,0,0:0:0:0:
307,175,79700,1,8,0:0:0:0:
470,170,79900,1,2,0:0:0:0:
470,170,80000,1,2,0:0:0:0:
470,170,80100,6,2,P|467:109|458:54,1,112.500004291535,2|0,1:0|0:0,1:0:0:0:
436,36,80500,1,8,0:0:0:0:
390,191,80700,1,2,0:0:0:0:
390,191,80800,1,2,0:0:0:0:
390,191,80900,5,0,1:0:0:0:
266,160,81100,1,0,0:0:0:0:
213,29,81300,5,10,0:0:0:0:
336,60,81500,1,2,0:0:0:0:
142,129,81700,6,2,P|81:147|38:170,1,112.500004291535,2|0,1:0|0:0,1:0:0:0:
31,202,82100,1,8,0:0:0:0:
87,56,82300,5,0,0:0:0:0:
87,56,82400,1,0,1:0:0:0:
216,34,82600,5,0,0:0:0:0:
216,34,82700,1,0,1:0:0:0:
336,60,82900,1,8,0:0:0:0:
216,34,83100,1,8,0:0:0:0:
310,180,83300,6,2,B|361:168|366:215|418:203,1,112.500004291535,2|0,1:0|0:0,1:0:0:0:
436,176,83700,1,8,0:0:0:0:
282,258,83900,1,2,0:0:0:0:
282,258,84000,1,2,0:0:0:0:
282,258,84100,6,0,P|246:250|208:253,1,75.0000028610231,0|0,1:0|0:0,0:0:0:0:
22,187,84500,2,0,P|59:179|97:182,1,75.0000028610231,8|0,0:0|0:0,0:0:0:0:
147,301,84900,1,0,1:0:0:0:
222,173,85100,1,0,0:0:0:0:
287,337,85300,6,2,P|324:338|359:351,1,75.0000028610231,10|0,0:0|0:0,1:0:0:0:
379,383,85600,1,0,0:0:0:0:
379,383,85700,2,2,P|390:346|393:309,1,75.0000028610231,2|0,1:1|0:0,1:0:0:0:
335,196,86100,1,8,0:0:0:0:
481,243,86300,1,0,0:0:0:0:
335,196,86500,6,2,P|279:205|214:236,1,112.500004291535,2|0,1:0|0:0,1:0:0:0:
217,257,86900,1,8,0:0:0:0:
311,125,87100,1,2,0:0:0:0:
311,125,87200,1,2,0:0:0:0:
311,125,87300,5,0,1:0:0:0:
184,96,87500,1,0,0:0:0:0:
314,0,87700,5,10,0:0:0:0:
441,29,87900,1,2,0:0:0:0:
314,0,88100,6,0,P|255:-8|202:-4,1,112.500004291535,2|0,1:0|0:0,0:0:0:0:
184,17,88500,1,8,0:0:0:0:
311,125,88700,5,0,0:0:0:0:
311,125,88800,1,0,1:0:0:0:
172,150,89000,5,0,0:0:0:0:
172,150,89100,1,0,1:0:0:0:
197,289,89300,5,8,0:0:0:0:
224,283,89400,1,8,0:0:0:0:
251,279,89500,1,8,0:0:0:0:
279,273,89600,1,8,0:0:0:0:
307,269,89700,6,2,B|341:264|341:264|299:337,1,112.500004291535,4|0,1:2|0:0,1:0:0:0:
278,347,90100,1,8,0:0:0:0:
415,320,90300,1,2,0:0:0:0:
415,320,90400,1,2,0:0:0:0:
415,320,90500,5,0,1:0:0:0:
307,269,90700,1,0,0:0:0:0:
459,232,90900,2,0,L|458:250,6,18.7500007152558,10|2|2|2|2|2|2,0:0|0:0|0:0|0:0|0:0|0:0|0:0,0:0:0:0:
459,199,91300,6,0,P|423:180|370:179,1,75.0000028610231,0|0,1:0|0:0,0:0:0:0:
259,82,91700,2,0,L|342:86,1,75.0000028610231,8|0,0:0|0:0,0:0:0:0:
360,107,92000,1,0,0:0:0:0:
360,107,92100,5,2,1:0:0:0:
203,140,92300,1,0,0:0:0:0:
331,5,92500,1,8,0:0:0:0:
217,284,92900,6,2,P|162:273|105:280,1,112.500004291535,2|0,1:0|0:0,1:0:0:0:
89,310,93300,1,8,0:0:0:0:
283,384,93500,1,2,0:0:0:0:
283,384,93600,1,2,0:0:0:0:
283,383,93700,6,0,P|245:387|208:382,1,75.0000028610231,0|0,1:0|0:0,0:0:0:0:
81,303,94100,2,0,P|118:299|155:304,1,75.0000028610231,8|0,0:0|0:0,0:0:0:0:
294,229,94500,2,0,P|256:232|219:227,1,75.0000028610231,0|0,1:0|0:0,0:0:0:0:
216,196,94800,1,0,0:0:0:0:
216,196,94900,6,2,P|201:162|179:131,1,75.0000028610231,10|0,0:0|0:0,1:0:0:0:
59,200,95200,1,2,0:0:0:0:
59,200,95300,2,0,P|96:203|133:201,1,75.0000028610231,2|0,1:0|0:0,0:0:0:0:
134,63,95600,1,2,0:0:0:0:
134,63,95700,2,2,P|110:93|94:126,1,75.0000028610231,10|0,0:0|0:0,1:0:0:0:
150,231,96000,1,2,0:0:0:0:
150,231,96100,6,2,P|185:217|221:151,1,112.500004291535,2|0,1:0|0:0,1:0:0:0:
201,125,96500,1,8,0:0:0:0:
262,270,96700,1,2,0:0:0:0:
262,270,96800,1,2,0:0:0:0:
262,270,96900,5,0,1:0:0:0:
404,303,97100,1,0,0:0:0:0:
291,192,97300,5,8,0:0:0:0:
249,350,97500,1,0,0:0:0:0:
348,117,97700,6,0,P|310:97|259:88,1,75.0000028610231,2|0,1:0|0:0,0:0:0:0:
383,205,98100,2,0,L|401:205,4,18.7500007152558,10|2|2|2|2,0:0|0:0|0:0|0:0|0:0,0:0:0:0:
429,186,98400,1,2,0:0:0:0:
429,186,98500,6,0,P|467:166|518:157,1,75.0000028610231,2|0,1:0|0:0,0:0:0:0:
361,296,98900,2,0,L|277:291,1,75.0000028610231,8|0,0:0|0:0,0:0:0:0:
262,312,99200,1,0,0:0:0:0:
262,312,99300,5,2,1:0:0:0:
193,178,99500,1,0,0:0:0:0:
135,317,99700,1,8,0:0:0:0:
22,233,99900,1,2,0:0:0:0:
22,233,100000,1,2,0:0:0:0:
22,233,100100,6,0,P|41:197|43:152,1,75.0000028610231,0|0,1:0|0:0,0:0:0:0:
3,37,100500,2,2,L|83:41,1,75.0000028610231,10|2,0:0|0:0,1:0:0:0:
104,68,100800,1,2,0:0:0:0:
104,68,100900,5,2,1:0:0:0:
216,0,101100,1,2,0:0:0:0:
284,112,101300,1,10,0:0:0:0:
180,187,101500,5,2,0:0:0:0:
180,187,101600,1,2,0:0:0:0:
180,187,101700,1,2,1:0:0:0:
114,318,101900,1,0,1:0:0:0:
245,384,102100,1,2,1:0:0:0:
311,252,102300,1,2,1:0:0:0:
114,318,102500,6,0,B|57:311|57:311|12:267,1,120,4|0,1:2|0:0,0:0:0:0:
16,235,102900,1,8,0:0:0:0:
180,187,103100,1,0,0:0:0:0:
180,187,103200,1,0,0:0:0:0:
180,187,103300,2,0,B|194:152|194:152|184:111,1,80,0|0,1:0|0:0,0:0:0:0:
6,46,103700,1,8,0:0:0:0:
87,175,103900,1,0,0:0:0:0:
87,175,104000,1,0,0:0:0:0:
87,175,104100,5,0,1:0:0:0:
89,194,104200,1,0,1:0:0:0:
91,214,104300,1,0,1:0:0:0:
191,104,104500,1,8,0:0:0:0:
234,264,104700,1,0,0:0:0:0:
234,264,104800,1,0,0:0:0:0:
234,264,104900,2,0,B|268:278|268:278|309:268,1,80,0|0,1:0|0:0,0:0:0:0:
381,112,105300,2,0,L|345:110,6,20,10|2|2|2|2|2|2,0:0|0:0|0:0|0:0|0:0|0:0|0:0,0:0:0:0:
421,122,105700,5,0,1:0:0:0:
421,122,105800,1,0,1:0:0:0:
421,122,105900,1,0,1:0:0:0:
309,268,106100,2,0,B|268:278|268:278|234:264,1,80,8|0,0:0|0:0,0:0:0:0:
223,240,106400,1,0,0:0:0:0:
223,240,106500,1,0,1:0:0:0:
335,353,106700,1,0,0:0:0:0:
335,353,106800,1,0,0:0:0:0:
335,353,106900,1,8,0:0:0:0:
337,191,107100,1,0,0:0:0:0:
337,191,107200,1,0,0:0:0:0:
337,191,107300,5,0,1:0:0:0:
317,189,107400,1,0,1:0:0:0:
297,188,107500,1,0,1:0:0:0:
402,310,107700,1,8,0:0:0:0:
444,172,107900,1,0,0:0:0:0:
444,172,108000,1,0,0:0:0:0:
444,172,108100,2,0,B|433:131|433:131|402:109,1,80,0|0,1:0|0:0,0:0:0:0:
290,195,108500,1,8,0:0:0:0:
379,32,108700,1,8,0:0:0:0:
457,251,108900,6,0,B|441:311|441:311|463:364,1,120,0|0,1:0|0:0,0:0:0:0:
493,377,109300,1,8,0:0:0:0:
370,267,109500,1,0,0:0:0:0:
370,267,109600,1,0,0:0:0:0:
370,267,109700,2,0,B|329:277|329:277|307:308,1,80,0|0,1:0|0:0,0:0:0:0:
144,311,110100,2,0,B|184:321|184:321|206:352,1,80,8|0,0:0|0:0,0:0:0:0:
194,384,110400,1,0,0:0:0:0:
194,384,110500,5,0,1:0:0:0:
213,382,110600,1,0,1:0:0:0:
233,381,110700,1,0,1:0:0:0:
177,238,110900,2,0,B|136:227|136:227|101:242,1,80,8|0,0:0|0:0,0:0:0:0:
83,272,111200,1,0,0:0:0:0:
83,272,111300,1,0,1:0:0:0:
136,147,111500,1,0,0:0:0:0:
261,200,111700,1,8,0:0:0:0:
215,332,111900,1,0,0:0:0:0:
215,332,112000,1,0,0:0:0:0:
215,332,112100,5,0,1:0:0:0:
234,333,112200,1,0,1:0:0:0:
254,334,112300,1,0,1:0:0:0:
112,375,112500,1,8,0:0:0:0:
184,245,112700,1,0,0:0:0:0:
184,245,112800,1,0,0:0:0:0:
184,245,112900,2,0,B|173:204|173:204|142:182,1,80,0|0,1:0|0:0,0:0:0:0:
0,120,113300,2,0,B|40:130|40:130|75:115,1,80,8|0,0:0|0:0,0:0:0:0:
90,88,113600,1,0,0:0:0:0:
90,88,113700,5,0,1:0:0:0:
10,207,113900,1,0,0:0:0:0:
149,174,114100,1,8,0:0:0:0:
184,313,114300,5,8,0:0:0:0:
184,313,114400,1,8,0:0:0:0:
184,313,114500,5,0,1:0:0:0:
157,299,114600,1,0,0:0:0:0:
127,294,114700,1,0,1:0:0:0:
98,298,114800,1,0,1:0:0:0:
71,311,114900,5,8,0:0:0:0:
60,272,115000,1,0,0:0:0:0:
59,232,115100,1,8,0:0:0:0:
67,193,115200,1,8,0:0:0:0:
85,157,115300,6,0,P|100:134|110:98,1,40,6|0,1:2|0:0,0:0:0:0:
94,17,115500,5,0,1:0:0:0:
131,0,115600,1,0,1:0:0:0:
172,0,115700,2,0,P|190:8|206:19,1,40,10|0,0:0|0:0,0:0:0:0:
249,117,115900,5,8,0:0:0:0:
290,113,116000,1,8,0:0:0:0:
326,93,116100,2,0,P|337:76|346:58,1,40,2|0,1:2|0:0,0:0:0:0:
206,19,116300,5,0,1:0:0:0:
171,42,116400,1,0,1:0:0:0:
151,77,116500,2,0,P|149:96|150:116,1,40,10|0,0:0|0:0,0:0:0:0:
225,245,116700,5,8,0:0:0:0:
183,247,116800,1,8,0:0:0:0:
146,227,116900,6,0,P|122:227|96:215,1,40,2|0,1:2|0:0,0:0:0:0:
7,110,117100,2,0,P|29:108|55:119,1,40,2|0,0:0|0:0,0:0:0:0:
111,261,117300,6,0,P|88:248|70:222,1,40,10|0,0:0|0:0,0:0:0:0:
41,74,117500,2,0,P|63:84|80:109,1,40,2|0,0:0|0:0,0:0:0:0:
58,274,117700,6,0,P|42:248|40:215,1,40,2|0,1:2|0:0,0:0:0:0:
95,61,117900,2,0,P|109:83|113:116,1,40,2|0,0:0|0:0,0:0:0:0:
1,258,118100,6,0,P|0:226|14:192,1,40,10|0,0:0|0:0,0:0:0:0:
151,77,118300,2,0,P|152:106|136:139,1,40,2|0,0:0|0:0,0:0:0:0:
153,346,118500,5,2,1:2:0:0:
192,375,118600,1,0,0:0:0:0:
242,379,118700,1,2,0:0:0:0:
286,356,118800,1,2,0:0:0:0:
312,315,118900,1,8,0:0:0:0:
338,273,119000,1,0,0:0:0:0:
382,250,119100,1,10,0:0:0:0:
431,255,119200,1,10,0:0:0:0:
471,284,119300,5,2,1:2:0:0:
425,303,119400,1,0,0:0:0:0:
379,288,119500,1,2,0:0:0:0:
353,247,119600,1,2,0:0:0:0:
360,198,119700,1,10,0:0:0:0:
397,166,119800,1,0,0:0:0:0:
446,166,119900,1,10,0:0:0:0:
483,197,120000,1,10,0:0:0:0:
491,246,120100,5,2,1:2:0:0:
479,256,120200,1,0,0:0:0:0:
463,255,120300,1,10,0:0:0:0:
452,245,120400,1,10,0:0:0:0:
450,230,120500,1,10,0:0:0:0:
457,217,120600,1,0,0:0:0:0:
472,213,120700,1,10,0:0:0:0:
485,218,120800,1,10,0:0:0:0:
493,232,120900,5,2,1:2:0:0:
491,202,121000,1,0,0:0:0:0:
481,174,121100,1,10,0:0:0:0:
462,151,121200,1,2,0:0:0:0:
437,134,121300,1,10,0:0:0:0:
408,127,121400,1,10,0:0:0:0:
378,129,121500,1,10,0:0:0:0:
350,141,121600,1,10,0:0:0:0:
328,160,121700,6,0,L|289:158,3,40,2|0|0|0,1:2|0:0|0:0|0:0,0:0:0:0:
377,240,122100,2,0,L|415:238,3,40,10|0|0|0,0:0|0:0|0:0|0:0,0:0:0:0:
287,252,122500,6,0,L|248:250,3,40,2|0|0|0,1:2|0:0|0:0|0:0,0:0:0:0:
418,148,122900,2,0,L|456:145,3,40,10|0|0|0,0:0|0:0|0:0|0:0,0:0:0:0:
301,46,123300,5,2,1:2:0:0:
261,43,123400,1,0,0:0:0:0:
221,41,123500,1,2,0:0:0:0:
191,67,123600,1,0,0:0:0:0:
161,94,123700,1,10,0:0:0:0:
121,91,123800,1,0,0:0:0:0:
81,89,123900,1,10,0:0:0:0:
51,115,124000,1,0,0:0:0:0:
21,142,124100,5,2,1:2:0:0:
51,143,124200,1,0,0:0:0:0:
81,145,124300,1,2,0:0:0:0:
101,166,124400,1,0,0:0:0:0:
121,189,124500,1,10,0:0:0:0:
120,219,124600,1,0,0:0:0:0:
118,249,124700,1,10,0:0:0:0:
96,269,124800,1,10,0:0:0:0:
73,289,124900,5,2,1:2:0:0:
75,249,125000,1,0,0:0:0:0:
77,209,125100,1,0,1:2:0:0:
79,169,125200,1,2,1:2:0:0:
86,176,125300,1,10,0:0:0:0:
93,183,125400,1,0,0:0:0:0:
100,190,125500,5,10,0:0:0:0:
102,150,125600,1,10,0:0:0:0:
104,110,125700,1,2,1:2:0:0:
64,116,125800,1,0,0:0:0:0:
33,140,125900,1,0,1:0:0:0:
17,176,126000,1,2,1:2:0:0:
21,215,126100,6,0,L|22:239,6,18.7500007152558,2|2|2|2|2|2|2,1:2|0:0|0:0|0:0|0:0|0:0|0:0,0:0:0:0:
95,234,126500,6,0,L|95:211,6,23.7499993658066,2|2|2|2|2|2|2,1:2|0:0|0:0|0:0|0:0|0:0|0:0,0:0:0:0:
169,206,126900,6,0,L|170:234,6,28.7500005483627,2|2|2|2|2|2|2,1:2|0:0|0:0|0:0|0:0|0:0|0:0,0:0:0:0:
244,235,127300,6,0,L|244:201,6,33.750000128746,2|2|2|2|2|2|2,1:2|0:0|0:0|0:0|0:0|0:0|0:0,0:0:0:0:
319,198,127700,6,0,L|320:236,6,38.750000295639,10|2|10|2|10|2|10,0:2|0:0|0:0|0:0|0:0|0:0|0:0,0:0:0:0:
427,209,128100,6,0,P|432:162|455:124,1,75.0000028610231,4|0,1:2|0:0,0:0:0:0:
384,5,128500,2,0,P|379:52|356:90,1,75.0000028610231,8|0,0:0|0:0,0:0:0:0:
343,98,128800,1,0,0:0:0:0:
343,98,128900,5,0,1:0:0:0:
246,0,129100,1,0,0:0:0:0:
198,149,129300,1,8,0:0:0:0:
261,89,129500,1,0,0:0:0:0:
133,87,129700,6,0,P|109:137|112:174,1,75.0000028610231,0|0,1:0|0:0,0:0:0:0:
198,317,130100,2,0,P|166:271|133:255,1,75.0000028610231,8|0,0:0|0:0,0:0:0:0:
122,276,130400,1,0,0:0:0:0:
122,276,130500,5,0,1:0:0:0:
75,384,130700,1,8,0:0:0:0:
6,222,130900,2,0,P|19:169|16:94,1,112.500004291535,8|0,0:0|0:0,0:0:0:0:
41,87,131300,6,0,L|125:82,1,75.0000028610231,0|0,1:0|0:0,0:0:0:0:
183,183,131700,2,0,L|267:187,1,75.0000028610231,8|0,0:0|0:0,0:0:0:0:
287,210,132000,1,0,0:0:0:0:
287,210,132100,5,0,1:0:0:0:
277,333,132300,1,0,0:0:0:0:
412,268,132500,1,8,0:0:0:0:
409,152,132700,1,0,0:0:0:0:
409,152,132800,1,0,0:0:0:0:
409,152,132900,5,0,1:0:0:0:
397,116,133000,1,0,1:0:0:0:
404,79,133100,1,0,1:0:0:0:
426,50,133200,1,0,1:0:0:0:
459,34,133300,1,8,0:0:0:0:
316,48,133500,1,8,0:0:0:0:
316,48,133600,1,8,0:0:0:0:
316,48,133700,5,0,1:0:0:0:
168,52,133900,1,8,0:0:0:0:
306,164,134100,2,0,B|284:146|284:146|240:152|210:184,1,112.500004291535,8|8,0:0|0:0,0:0:0:0:
196,212,134500,6,0,P|224:236|263:252,1,75.0000028610231,0|0,1:0|0:0,0:0:0:0:
439,192,134900,2,0,P|404:204|370:230,1,75.0000028610231,8|0,0:0|0:0,0:0:0:0:
358,255,135200,1,0,0:0:0:0:
358,255,135300,5,0,1:0:0:0:
488,286,135500,1,0,0:0:0:0:
398,384,135700,1,8,0:0:0:0:
275,360,135900,1,0,0:0:0:0:
275,360,136000,1,0,0:0:0:0:
275,360,136100,5,0,1:0:0:0:
152,384,136300,1,0,0:0:0:0:
62,286,136500,1,8,0:0:0:0:
199,262,136700,1,8,0:0:0:0:
199,262,136800,1,8,0:0:0:0:
199,262,136900,6,0,P|251:248|279:228,1,75.0000028610231,0|0,1:0|0:0,0:0:0:0:
215,27,137300,2,0,L|220:139,1,112.500004291535,8|0,0:0|0:0,0:0:0:0:
205,168,137700,6,0,P|153:154|125:134,1,75.0000028610231,0|0,1:0|0:0,0:0:0:0:
57,9,138100,2,0,L|60:84,1,75.0000028610231,8|0,0:0|0:0,0:0:0:0:
50,118,138400,1,0,0:0:0:0:
50,118,138500,6,0,L|51:146,6,18.7500007152558,2|2|2|2|2|2|2,1:2|0:0|0:0|0:0|0:0|0:0|0:0,0:0:0:0:
56,164,138900,1,8,0:0:0:0:
72,288,139100,1,0,0:0:0:0:
72,288,139200,1,0,0:0:0:0:
72,288,139300,5,0,1:0:0:0:
35,289,139400,1,0,1:0:0:0:
8,313,139500,1,0,1:0:0:0:
4,350,139600,1,0,1:0:0:0:
23,380,139700,1,8,0:0:0:0:
166,324,139900,1,8,0:0:0:0:
166,324,140000,1,8,0:0:0:0:
166,324,140100,5,0,1:0:0:0:
166,191,140300,1,8,0:0:0:0:
300,140,140500,1,8,0:0:0:0:
300,273,140700,1,8,0:0:0:0:
300,273,140800,1,8,0:0:0:0:
300,272,140900,6,0,P|336:264|373:268,1,75.0000028610231,4|0,1:2|0:0,0:0:0:0:
496,384,141300,2,0,L|417:379,1,75.0000028610231,8|0,0:0|0:0,0:0:0:0:
394,364,141600,1,0,0:0:0:0:
394,364,141700,5,0,1:0:0:0:
268,384,141900,1,0,0:0:0:0:
373,268,142100,2,0,B|403:249|403:249|376:214|335:201,1,112.500004291535,8|0,0:0|0:0,0:0:0:0:
310,196,142500,6,0,P|273:204|236:200,1,75.0000028610231,0|0,1:0|0:0,0:0:0:0:
204,67,142900,1,8,0:0:0:0:
118,181,143100,1,8,0:0:0:0:
118,181,143200,1,8,0:0:0:0:
118,181,143300,6,0,P|86:161|63:132,1,75.0000028610231,0|0,1:0|0:0,0:0:0:0:
169,246,143700,1,8,0:0:0:0:
16,199,143900,1,8,0:0:0:0:
16,199,144000,1,8,0:0:0:0:
16,199,144100,6,0,P|14:236|0:270,1,75.0000028610231,0|0,1:0|0:0,0:0:0:0:
148,325,144500,2,0,L|70:321,1,75.0000028610231,8|0,0:0|0:0,0:0:0:0:
46,342,144800,1,0,0:0:0:0:
46,342,144900,5,0,1:0:0:0:
169,246,145100,1,0,0:0:0:0:
16,199,145300,1,8,0:0:0:0:
153,111,145500,1,8,0:0:0:0:
153,111,145600,1,8,0:0:0:0:
153,111,145700,5,0,1:0:0:0:
174,80,145800,1,0,1:0:0:0:
209,68,145900,1,0,1:0:0:0:
244,78,146000,1,0,1:0:0:0:
266,108,146100,1,8,0:0:0:0:
176,253,146300,1,8,0:0:0:0:
176,253,146400,1,8,0:0:0:0:
176,253,146500,5,0,1:0:0:0:
153,111,146700,1,8,0:0:0:0:
256,253,146900,1,8,0:0:0:0:
352,112,147100,1,8,0:0:0:0:
352,112,147200,1,8,0:0:0:0:
352,112,147300,6,0,P|385:90|419:83,1,75.0000028610231,0|0,1:0|0:0,0:0:0:0:
323,224,147700,2,0,P|289:245|255:252,1,75.0000028610231,8|0,0:0|0:0,0:0:0:0:
232,229,148000,1,0,0:0:0:0:
232,229,148100,1,0,1:0:0:0:
373,286,148300,1,0,0:0:0:0:
222,352,148500,2,0,B|251:325|251:325|255:252,1,112.500004291535,8|0,0:0|0:0,0:0:0:0:
232,229,148900,6,0,L|228:149,1,75.0000028610231,0|0,1:0|0:0,0:0:0:0:
220,21,149300,1,8,0:0:0:0:
348,83,149500,1,8,0:0:0:0:
348,83,149600,1,8,0:0:0:0:
348,83,149700,1,0,1:0:0:0:
356,216,149900,1,0,0:0:0:0:
466,143,150100,2,0,L|479:129,1,18.7500007152558,10|0,0:0|0:0,0:0:0:0:
487,171,150200,2,0,L|504:163,1,18.7500007152558,10|0,0:0|0:0,0:0:0:0:
494,208,150300,2,0,L|513:207,1,18.7500007152558,10|0,0:0|0:0,0:0:0:0:
487,244,150400,2,0,L|504:250,1,18.7500007152558,10|0,0:0|0:0,0:0:0:0:
465,275,150500,5,0,1:0:0:0:
356,216,150700,1,2,0:0:0:0:
297,325,150900,2,0,P|260:303|232:275,1,75.0000028610231,8|0,0:0|0:0,0:0:0:0:
248,250,151200,1,0,0:0:0:0:
248,250,151300,5,0,1:0:0:0:
372,296,151500,1,2,0:0:0:0:
284,176,151700,2,0,P|241:164|201:164,1,75.0000028610231,8|0,0:0|0:0,0:0:0:0:
189,189,152000,1,8,0:0:0:0:
189,189,152100,5,2,1:2:0:0:
278,89,152300,1,2,0:2:0:0:
363,191,152500,1,10,0:2:0:0:
278,82,152700,1,2,0:2:0:0:
142,123,152900,5,2,1:2:0:0:
278,75,153100,1,2,0:2:0:0:
411,125,153300,1,10,0:2:0:0:
285,75,153500,1,10,0:2:0:0:
285,75,153600,1,10,0:2:0:0:
285,75,153700,5,6,1:2:0:0:
275,227,153900,1,2,0:0:0:0:
417,284,154100,1,10,0:0:0:0:
373,110,154300,5,2,0:0:0:0:
275,227,154500,1,2,1:2:0:0:
356,356,154700,1,2,0:0:0:0:
423,190,154900,5,8,0:0:0:0:
275,227,155100,1,2,0:0:0:0:
265,380,155300,5,2,1:2:0:0:
362,261,155500,1,2,0:0:0:0:
188,193,155700,6,0,P|168:230|157:276,1,85.0000016212464,10|0,0:0|0:0,0:0:0:0:
133,99,156100,2,0,P|153:62|164:16,1,85.0000016212464,2|0,1:2|0:0,0:0:0:0:
87,182,156500,1,10,0:0:0:0:
241,118,156700,1,8,0:0:0:0:
241,118,156800,1,8,0:0:0:0:
241,118,156900,5,6,1:2:0:0:
305,272,157100,1,2,0:0:0:0:
407,140,157300,1,8,0:0:0:0:
241,118,157500,5,2,0:0:0:0:
139,250,157700,1,2,1:2:0:0:
305,272,157900,1,2,0:0:0:0:
241,118,158100,5,10,0:0:0:0:
75,96,158300,1,2,0:0:0:0:
143,254,158500,5,2,1:2:0:0:
305,272,158700,1,2,0:0:0:0:
143,254,158900,6,0,L|138:341,1,85.0000016212464,10|0,0:0|0:0,0:0:0:0:
309,276,159300,2,0,L|304:188,1,85.0000016212464,2|0,1:2|0:0,0:0:0:0:
316,370,159700,1,8,0:0:0:0:
404,237,159900,1,8,0:0:0:0:
404,237,160000,1,8,0:0:0:0:
404,237,160100,5,6,1:2:0:0:
395,75,160300,1,2,0:0:0:0:
492,205,160500,1,10,0:0:0:0:
316,269,160700,5,2,0:0:0:0:
307,107,160900,1,2,1:2:0:0:
404,237,161100,1,2,0:0:0:0:
228,301,161300,5,10,0:0:0:0:
219,139,161500,1,2,0:0:0:0:
316,269,161700,5,2,1:2:0:0:
131,171,161900,1,2,0:0:0:0:
307,174,162100,6,0,P|346:159|382:137,1,85.0000016212464,10|0,0:0|0:0,0:0:0:0:
142,265,162500,2,0,P|101:279|64:301,1,85.0000016212464,2|0,1:2|0:0,0:0:0:0:
228,301,162900,1,10,0:0:0:0:
138,178,163100,1,8,0:0:0:0:
138,178,163200,1,8,0:0:0:0:
138,178,163300,5,6,1:2:0:0:
290,161,163500,1,2,0:0:0:0:
273,9,163700,1,10,0:0:0:0:
121,26,163900,5,2,0:0:0:0:
261,87,164100,1,2,1:2:0:0:
200,227,164300,1,2,0:0:0:0:
60,166,164500,5,10,0:0:0:0:
212,148,164700,1,2,0:0:0:0:
230,300,164900,5,2,1:2:0:0:
382,282,165100,1,2,0:0:0:0:
273,201,165300,5,10,0:0:0:0:
297,359,165500,1,8,0:0:0:0:
297,359,165600,1,8,0:0:0:0:
297,359,165700,1,2,1:2:0:0:
230,300,165900,1,0,1:0:0:0:
162,358,166100,1,8,0:0:0:0:
102,306,166300,1,8,0:0:0:0:
102,306,166400,1,8,0:0:0:0:
102,306,166500,5,6,1:2:0:0:
231,212,166700,1,2,0:0:0:0:
360,306,166900,1,10,0:0:0:0:
95,313,167100,5,2,0:0:0:0:
231,205,167300,1,2,1:2:0:0:
367,313,167500,1,2,0:0:0:0:
88,320,167700,5,10,0:0:0:0:
231,198,167900,1,2,0:0:0:0:
374,320,168100,5,2,1:2:0:0:
194,300,168300,1,2,0:0:0:0:
411,218,168500,6,0,P|455:218|497:231,1,85.0000016212464,10|0,0:0|0:0,0:0:0:0:
276,287,168900,2,0,P|231:287|189:300,1,85.0000016212464,2|0,1:2|0:0,0:0:0:0:
318,203,169300,1,10,0:0:0:0:
400,384,169500,1,8,0:0:0:0:
400,384,169600,1,8,0:0:0:0:
400,384,169700,6,0,P|430:333|443:286,1,85.0000016212464,6|0,1:2|0:0,0:0:0:0:
421,156,170100,1,10,0:0:0:0:
341,302,170300,6,0,P|341:242|329:195,1,85.0000016212464,2|0,0:0|1:0,0:0:0:0:
245,94,170700,1,2,0:0:0:0:
248,260,170900,6,0,P|218:208|184:173,1,85.0000016212464,10|0,0:0|0:0,0:0:0:0:
61,128,171300,5,2,1:2:0:0:
151,275,171500,1,2,0:0:0:0:
153,108,171700,1,10,0:0:0:0:
80,229,171900,1,8,0:0:0:0:
80,229,172000,1,8,0:0:0:0:
80,229,172100,5,2,1:2:0:0:
201,189,172300,1,2,1:2:0:0:
289,282,172500,1,10,0:0:0:0:
410,242,172700,1,10,0:0:0:0:
274,121,172900,5,6,1:2:0:0:
293,286,173100,1,2,0:0:0:0:
274,121,173300,1,10,0:0:0:0:
109,140,173500,5,2,0:0:0:0:
274,121,173700,1,2,1:2:0:0:
109,140,173900,1,2,0:0:0:0:
128,305,174100,5,10,0:0:0:0:
109,140,174300,1,2,0:0:0:0:
128,305,174500,6,0,P|96:334|57:347,1,85.0000016212464,2|0,1:2|0:0,0:0:0:0:
200,163,174900,2,0,P|209:203|201:245,1,85.0000016212464,10|0,0:0|0:0,0:0:0:0:
113,29,175300,2,0,P|153:40|185:68,1,85.0000016212464,2|0,1:2|0:0,0:0:0:0:
118,208,175700,1,10,0:0:0:0:
280,109,175900,1,8,0:0:0:0:
280,109,176000,1,8,0:0:0:0:
280,109,176100,6,0,P|346:110|413:116,1,127.50000243187,6|0,1:2|0:0,0:0:0:0:
407,115,176500,1,10,0:0:0:0:
293,356,176800,5,8,0:0:0:0:
293,356,176900,1,0,1:2:0:0:
218,225,177100,5,0,1:0:0:0:
218,225,177200,1,0,1:0:0:0:
218,225,177300,1,8,0:0:0:0:
343,226,177500,1,8,0:0:0:0:
472,231,177700,6,0,P|479:165|493:105,1,127.50000243187,4|0,1:2|0:0,0:0:0:0:
492,105,178100,2,0,L|490:77,1,21.2500004053116,8|0,0:0|0:0,0:0:0:0:
310,46,178400,5,8,0:0:0:0:
310,46,178500,1,0,1:2:0:0:
202,113,178700,1,0,1:2:0:0:
337,163,178900,5,8,0:0:0:0:
182,270,179100,1,8,0:0:0:0:
182,270,179200,1,8,0:0:0:0:
182,270,179300,6,0,L|267:274,1,85.0000016212464,6|0,1:2|0:0,0:0:0:0:
438,284,179700,1,10,0:0:0:0:
344,170,179900,5,0,1:0:0:0:
344,170,180000,1,0,1:0:0:0:
344,170,180100,2,0,L|258:174,1,85.0000016212464,2|0,1:2|0:0,0:0:0:0:
101,181,180500,1,10,0:0:0:0:
267,274,180700,1,2,0:0:0:0:
210,94,180900,1,2,1:2:0:0:
172,271,181100,1,0,1:2:0:0:
172,271,181200,1,0,1:2:0:0:
172,271,181300,5,10,0:0:0:0:
344,273,181500,1,2,0:0:0:0:
212,184,181700,5,2,1:2:0:0:
302,358,181900,1,2,0:0:0:0:
304,169,182100,5,10,0:0:0:0:
208,372,182300,1,10,0:0:0:0:
395,342,182500,5,6,1:2:0:0:
401,218,182700,1,2,0:0:0:0:
408,95,182900,1,10,0:0:0:0:
465,290,183100,5,0,1:2:0:0:
465,290,183200,1,0,1:2:0:0:
465,290,183300,1,2,1:2:0:0:
338,277,183500,1,2,0:0:0:0:
415,88,183700,5,10,0:0:0:0:
295,86,183900,1,10,0:0:0:0:
295,86,184000,1,8,0:0:0:0:
295,86,184100,6,0,P|214:78|189:66,1,85.0000016212464,2|0,1:2|0:0,0:0:0:0:
74,217,184500,2,0,P|154:209|179:197,1,85.0000016212464,10|0,0:0|0:0,0:0:0:0:
295,348,184900,2,0,P|214:340|189:328,1,85.0000016212464,2|0,1:2|0:0,0:0:0:0:
196,312,185200,1,0,1:2:0:0:
196,312,185300,1,10,0:0:0:0:
348,271,185500,1,10,0:0:0:0:
133,181,185700,6,0,P|132:224|125:266,1,85.0000016212464,6|0,1:2|0:0,0:0:0:0:
96,69,186100,1,10,0:0:0:0:
289,123,186300,1,0,1:2:0:0:
289,123,186400,1,0,1:2:0:0:
289,123,186500,6,0,P|246:122|204:114,1,85.0000016212464,2|0,1:2|0:0,0:0:0:0:
403,127,186900,1,10,0:0:0:0:
290,243,187100,1,0,1:2:0:0:
290,243,187200,1,0,1:2:0:0:
290,243,187300,5,2,1:2:0:0:
420,261,187500,1,2,0:0:0:0:
283,357,187700,5,10,0:0:0:0:
153,375,187900,1,2,0:0:0:0:
57,254,188100,5,2,1:2:0:0:
187,272,188300,1,2,0:0:0:0:
263,159,188500,5,10,0:0:0:0:
250,32,188700,1,10,0:0:0:0:
250,32,188800,1,8,0:0:0:0:
250,32,188900,5,6,1:2:0:0:
213,10,189000,1,0,1:0:0:0:
171,10,189100,1,0,1:0:0:0:
135,31,189200,1,0,1:0:0:0:
114,67,189300,1,8,0:0:0:0:
119,199,189500,1,8,0:0:0:0:
119,199,189600,1,8,0:0:0:0:
119,199,189700,6,0,P|78:242|44:258,1,85.0000016212464,2|0,1:2|0:0,0:0:0:0:
256,152,190100,2,0,P|313:135|350:138,1,85.0000016212464,10|0,0:0|0:0,0:0:0:0:
369,162,190400,1,8,0:0:0:0:
369,162,190500,5,2,1:2:0:0:
227,279,190700,1,2,0:0:0:0:
367,362,190900,1,10,0:0:0:0:
323,248,191100,1,8,0:0:0:0:
323,248,191200,1,8,0:0:0:0:
323,248,191300,5,0,1:2:0:0:
227,279,191500,1,0,1:2:0:0:
189,373,191700,1,8,0:0:0:0:
285,342,191900,1,8,0:0:0:0:
131,310,192100,5,6,1:2:0:0:
19,383,192300,1,2,0:0:0:0:
10,250,192500,1,10,0:0:0:0:
129,184,192700,5,8,0:0:0:0:
129,184,192800,1,8,0:0:0:0:
129,184,192900,1,2,1:2:0:0:
0,119,193100,1,2,0:0:0:0:
189,50,193300,6,0,P|232:49|288:88,1,85.0000016212464,10|0,0:0|0:0,0:0:0:0:
274,102,193600,1,8,0:0:0:0:
274,102,193700,2,0,P|312:120|354:118,1,85.0000016212464,2|0,1:2|0:0,0:0:0:0:
395,98,194000,1,0,1:2:0:0:
424,62,194100,5,10,0:0:0:0:
413,230,194300,1,2,0:0:0:0:
511,316,194500,5,2,1:2:0:0:
498,131,194700,1,2,1:2:0:0:
311,199,194900,5,10,0:0:0:0:
323,384,195100,1,10,0:0:0:0:
127,211,195300,5,6,1:2:0:0:
220,120,195500,1,2,0:0:0:0:
225,297,195700,1,10,0:0:0:0:
318,206,195900,1,8,0:0:0:0:
318,206,196000,1,8,0:0:0:0:
318,206,196100,6,0,P|363:184|415:177,1,85.0000016212464,2|0,1:2|0:0,0:0:0:0:
498,350,196500,2,0,P|456:340|418:321,1,85.0000016212464,10|0,0:0|0:0,0:0:0:0:
418,289,196800,1,8,0:0:0:0:
418,289,196900,6,0,P|460:279|498:260,1,85.0000016212464,2|0,1:2|0:0,0:0:0:0:
312,345,197300,2,0,L|225:349,1,85.0000016212464,8|0,0:0|0:0,0:0:0:0:
204,372,197600,1,8,0:0:0:0:
204,372,197700,5,0,1:2:0:0:
68,379,197900,1,0,1:2:0:0:
4,259,198100,1,10,0:0:0:0:
140,266,198300,1,10,0:0:0:0:
250,132,198500,6,0,P|210:124|164:138,1,85.0000016212464,6|0,1:2|0:0,0:0:0:0:
363,195,198900,1,10,0:0:0:0:
443,96,199100,5,8,0:0:0:0:
443,96,199200,1,8,0:0:0:0:
443,96,199300,2,0,P|403:88|357:102,1,85.0000016212464,2|0,1:2|0:0,0:0:0:0:
314,275,199700,2,0,P|273:286|232:278,1,85.0000016212464,10|0,0:0|0:0,0:0:0:0:
220,247,200000,1,8,0:0:0:0:
220,247,200100,2,0,P|177:246|140:265,1,85.0000016212464,2|0,1:2|0:0,0:0:0:0:
127,298,200400,1,0,1:2:0:0:
127,298,200500,2,0,P|96:267|57:254,1,85.0000016212464,10|0,0:0|0:0,0:0:0:0:
241,375,200900,6,0,L|331:379,1,85.0000016212464,2|0,1:2|0:0,0:0:0:0:
476,289,201300,2,0,L|387:293,1,85.0000016212464,10|8,0:0|0:0,0:0:0:0:
220,247,201700,6,0,P|265:208|363:174,1,127.50000243187,4|0,1:2|0:0,0:0:0:0:
326,180,202100,1,8,0:0:0:0:
168,37,202400,5,8,0:0:0:0:
168,37,202500,1,0,1:2:0:0:
85,122,202700,1,0,1:2:0:0:
168,207,202900,1,8,0:0:0:0:
34,248,203100,5,8,0:0:0:0:
34,248,203200,1,8,0:0:0:0:
34,248,203300,1,2,1:2:0:0:
83,384,203500,1,2,1:2:0:0:
219,335,203700,1,10,0:0:0:0:
168,120,203900,5,8,0:0:0:0:
168,120,204000,1,8,0:0:0:0:
168,120,204100,2,0,P|127:113|85:121,1,85.0000016212464,2|0,1:2|1:2,0:0:0:0:
343,264,204500,2,0,P|384:271|426:263,1,85.0000016212464,10|10,0:0|0:0,0:0:0:0:
159,383,204900,6,0,P|132:368|101:361,1,50,6|0,0:0|0:0,0:0:0:0:
174,357,205300,2,0,P|147:342|116:335,1,50,2|0,0:0|0:0,0:0:0:0:
278,335,205700,6,0,P|279:366|289:396,1,50,2|0,0:0|0:0,0:0:0:0:
248,335,206100,2,0,P|249:366|259:396,1,50,2|0,0:0|0:0,0:0:0:0:
194,274,206500,5,2,0:0:0:0:
194,274,206700,1,0,0:0:0:0:
129,337,206900,1,2,0:0:0:0:
129,337,207100,1,2,0:0:0:0:
278,335,207300,5,2,0:0:0:0:
278,335,207500,1,0,0:0:0:0:
366,357,207700,1,2,0:0:0:0:
366,357,207900,1,2,0:0:0:0:
436,234,208100,6,0,L|387:236,1,50,2|0,0:0|0:0,0:0:0:0:
437,264,208500,2,0,L|388:266,1,50,2|0,0:0|0:0,0:0:0:0:
254,277,208900,6,0,L|304:279,1,50,2|0,0:0|0:0,0:0:0:0:
253,307,209300,2,0,L|303:309,1,50,2|0,0:0|0:0,0:0:0:0:
240,197,209700,6,0,P|211:209|188:228,1,50,2|0,0:0|0:0,0:0:0:0:
175,297,210100,2,0,P|146:285|123:266,1,50,2|2,0:0|0:0,0:0:0:0:
119,196,210500,1,2,0:0:0:0:
57,245,210700,1,0,0:0:0:0:
70,324,210900,1,2,0:0:0:0:
8,373,211100,1,2,0:0:0:0:
77,331,211300,6,0,P|107:340|125:354,1,50,2|0,0:0|0:0,0:0:0:0:
93,304,211700,2,0,P|123:313|141:327,1,50,2|0,0:0|0:0,0:0:0:0:
255,315,212100,6,0,P|233:336|212:345,1,50,2|0,0:0|0:0,0:0:0:0:
272,343,212500,2,0,P|250:364|229:373,1,50,2|0,0:0|0:0,0:0:0:0:
353,336,212900,6,0,L|403:338,1,50,2|0,0:0|0:0,0:0:0:0:
352,366,213300,2,0,L|402:368,1,50,2|0,0:0|0:0,0:0:0:0:
483,311,213700,5,2,0:0:0:0:
421,262,213900,1,2,0:0:0:0:
483,311,214100,1,2,0:0:0:0:
421,262,214300,1,2,0:0:0:0:
470,199,214500,6,0,P|450:187|422:183,1,50,2|0,0:0|0:0,0:0:0:0:
346,279,214900,2,0,P|344:254|350:230,1,50,2|0,0:0|0:0,0:0:0:0:
446,214,215300,6,0,P|426:202|398:198,1,50,2|0,0:0|0:0,0:0:0:0:
371,263,215700,2,0,P|369:238|375:214,1,50,2|0,0:0|0:0,0:0:0:0:
383,344,216100,5,2,0:0:0:0:
383,344,216300,1,0,0:0:0:0:
444,297,216500,1,2,0:0:0:0:
444,297,216700,1,2,0:0:0:0:
371,263,216900,5,2,0:0:0:0:
307,309,217100,1,2,0:0:0:0:
234,276,217300,1,2,0:0:0:0:
298,230,217500,1,2,0:0:0:0:
243,355,217700,6,0,P|190:343|167:321,1,59.9999981689454,2|0,0:0|0:0,0:0:0:0:
387,212,218100,2,0,P|374:239|372:269,1,59.9999981689454,2|0,0:0|0:0,0:0:0:0:
434,320,218500,6,0,P|450:268|442:237,1,59.9999981689454,2|0,0:0|0:0,0:0:0:0:
444,158,218900,2,0,P|460:182|485:199,1,59.9999981689454,2|0,0:0|0:0,0:0:0:0:
374,135,219300,5,2,0:0:0:0:
374,135,219500,1,0,0:0:0:0:
272,140,219700,1,2,0:0:0:0:
272,140,219900,1,2,0:0:0:0:
194,236,220100,5,2,0:0:0:0:
194,236,220300,1,0,0:0:0:0:
296,242,220500,1,2,0:0:0:0:
296,242,220700,1,2,0:0:0:0:
159,161,220900,6,0,P|134:177|117:202,1,59.9999981689454,2|0,0:0|0:0,0:0:0:0:
190,295,221300,2,0,L|194:217,1,59.9999981689454,2|0,0:0|0:0,0:0:0:0:
265,327,221700,6,0,P|248:352|224:369,1,59.9999981689454,2|0,0:0|0:0,0:0:0:0:
130,298,222100,2,0,L|189:294,1,59.9999981689454,2|0,0:0|0:0,0:0:0:0:
146,374,222500,5,2,0:0:0:0:
71,350,222700,1,0,0:0:0:0:
71,246,222900,1,2,0:0:0:0:
146,222,223100,1,2,0:0:0:0:
130,298,223300,5,2,0:0:0:0:
71,246,223500,1,0,0:0:0:0:
146,222,223700,1,2,0:0:0:0:
87,170,223900,1,2,0:0:0:0:
205,170,224100,6,0,P|227:202|254:216,1,59.9999981689454,2|0,0:0|0:0,0:0:0:0:
326,114,224500,2,0,P|289:126|268:149,1,59.9999981689454,2|0,0:0|0:0,0:0:0:0:
349,246,224900,6,0,P|385:233|406:210,1,59.9999981689454,2|0,0:0|0:0,0:0:0:0:
326,114,225300,2,0,P|329:152|345:178,1,59.9999981689454,2|0,0:0|0:0,0:0:0:0:
404,61,225700,6,0,L|400:130,1,59.9999981689454,2|0,0:0|0:0,0:0:0:0:
476,115,226100,2,0,L|479:174,1,59.9999981689454,2|0,0:0|0:0,0:0:0:0:
396,277,226500,6,0,L|400:218,1,59.9999981689454,2|0,0:0|0:0,0:0:0:0:
320,264,226900,2,0,L|323:323,1,59.9999981689454,2|0,0:0|0:0,0:0:0:0:
259,199,227300,5,2,0:0:0:0:
195,243,227500,1,0,0:0:0:0:
129,201,227700,1,2,0:0:0:0:
65,245,227900,1,2,0:0:0:0:
260,278,228100,5,2,0:0:0:0:
196,322,228300,1,0,0:0:0:0:
130,280,228500,1,2,0:0:0:0:
66,324,228700,1,2,0:0:0:0:
129,201,228900,6,0,P|118:169|88:143,1,59.9999981689454,2|2,0:0|0:0,0:0:0:0:
195,243,229300,2,0,P|205:211|235:185,1,59.9999981689454,2|2,0:0|0:0,0:0:0:0:
329,257,229700,6,0,L|252:252,1,59.9999981689454,2|2,0:0|0:0,0:0:0:0:
328,334,230100,2,0,L|404:329,1,59.9999981689454,2|2,0:0|0:0,0:0:0:0:
431,238,230500,5,0,0:0:0:0:
392,170,230700,1,2,0:0:0:0:
471,171,230900,2,0,L|493:169,4,14.9999995422363,2|2|2|2|2,0:0|0:0|0:0|0:0|0:0,0:0:0:0:
431,102,231300,5,2,0:0:0:0:
352,101,231500,1,0,0:0:0:0:
313,169,231700,1,2,0:0:0:0:
392,170,231900,1,2,0:0:0:0:
273,100,232100,5,0,0:0:0:0:
313,169,232300,1,2,0:0:0:0:
244,209,232500,1,2,0:0:0:0:
204,140,232700,1,2,0:0:0:0:
273,100,232900,5,2,0:0:0:0:
314,249,233100,1,2,0:0:0:0:
165,290,233300,1,2,0:0:0:0:
124,141,233500,1,2,0:0:0:0:
144,216,233700,6,0,P|95:213|67:193,1,59.9999981689454,2|0,0:0|0:0,0:0:0:0:
219,235,234100,2,0,P|240:278|237:313,1,59.9999981689454,2|0,0:0|0:0,0:0:0:0:
198,161,234500,6,0,L|264:157,1,59.9999981689454,2|0,0:0|0:0,0:0:0:0:
363,225,234900,2,0,L|296:221,1,59.9999981689454,2|0,0:0|0:0,0:0:0:0:
392,152,235300,5,2,0:0:0:0:
440,213,235500,1,0,0:0:0:0:
411,286,235700,1,2,0:0:0:0:
363,225,235900,1,2,0:0:0:0:
392,152,236100,6,0,P|401:103|389:71,1,59.9999981689454,2|0,0:0|0:0,0:0:0:0:
324,112,236500,2,0,P|308:65|281:43,1,59.9999981689454,2|2,0:0|0:0,0:0:0:0:
188,163,236900,6,0,P|203:209|230:231,1,59.9999981689454,2|0,0:0|0:0,0:0:0:0:
141,252,237300,1,2,0:0:0:0:
141,252,237500,1,2,0:0:0:0:
120,123,237700,6,0,P|110:171|122:203,1,59.9999981689454,2|0,0:0|0:0,0:0:0:0:
187,86,238100,2,0,L|185:60,4,14.9999995422363,2|2|2|2|2,0:0|0:0|0:0|0:0|0:0,0:0:0:0:
119,31,238500,5,0,0:0:0:0:
44,78,238700,1,2,0:0:0:0:
120,123,238900,1,2,0:0:0:0:
45,170,239100,1,2,0:0:0:0:
193,173,239300,5,2,0:0:0:0:
120,123,239500,1,0,0:0:0:0:
272,116,239700,5,2,0:0:0:0:
279,268,239900,1,2,0:0:0:0:
276,192,240100,6,0,P|317:201|345:227,1,59.9999981689454,2|0,0:0|0:0,0:0:0:0:
214,308,240500,2,0,P|201:267|209:230,1,59.9999981689454,2|0,0:0|0:0,0:0:0:0:
281,344,240900,6,0,P|252:375|216:386,1,59.9999981689454,2|0,0:0|0:0,0:0:0:0:
279,268,241300,2,0,P|320:277|347:302,1,59.9999981689454,2|0,0:0|0:0,0:0:0:0:
280,196,241700,5,2,0:0:0:0:
280,196,241900,1,0,0:0:0:0:
383,202,242100,1,2,0:0:0:0:
383,202,242300,1,2,0:0:0:0:
335,113,242500,5,2,0:0:0:0:
335,113,242700,1,0,0:0:0:0:
232,119,242900,1,2,0:0:0:0:
232,119,243100,1,2,0:0:0:0:
92,126,243300,6,0,L|150:122,1,59.9999981689454,2|0,0:0|0:0,0:0:0:0:
54,196,243700,2,0,L|50:254,1,59.9999981689454,2|0,0:0|0:0,0:0:0:0:
121,152,244100,6,0,L|179:148,1,59.9999981689454,2|0,0:0|0:0,0:0:0:0:
83,222,244500,2,0,L|79:280,1,59.9999981689454,2|0,0:0|0:0,0:0:0:0:
178,247,244900,5,2,0:0:0:0:
237,297,245100,1,0,0:0:0:0:
251,221,245300,2,0,L|252:193,4,14.9999995422363,2|2|2|2|2,0:0|0:0|0:0|0:0|0:0,0:0:0:0:
309,270,245700,5,0,0:0:0:0:
368,320,245900,1,2,0:0:0:0:
445,313,246100,1,2,0:0:0:0:
495,254,246300,1,2,0:0:0:0:
420,163,246500,6,0,P|405:188|399:218,1,59.9999981689454,2|0,0:0|0:0,0:0:0:0:
458,88,246900,2,0,L|398:84,1,59.9999981689454,2|0,0:0|0:0,0:0:0:0:
284,144,247300,6,0,L|344:141,1,59.9999981689454,2|0,0:0|0:0,0:0:0:0:
227,92,247700,2,0,P|212:117|206:147,1,59.9999981689454,2|0,0:0|0:0,0:0:0:0:
249,217,248100,5,0,0:0:0:0:
249,217,248300,2,0,P|220:226|190:226,1,59.9999981689454,2|0,0:0|0:0,0:0:0:0:
130,279,248700,1,2,0:0:0:0:
130,279,248900,6,0,P|154:295|183:303,1,59.9999981689454,2|0,0:0|0:0,0:0:0:0:
258,294,249300,1,2,0:0:0:0:
124,370,249500,1,2,0:0:0:0:
78,223,249700,6,0,P|78:183|87:158,1,59.9999981689454,2|0,0:0|0:0,0:0:0:0:
156,201,250100,2,0,P|156:241|147:266,1,59.9999981689454,2|0,0:0|0:0,0:0:0:0:
78,229,250500,6,0,P|78:189|87:164,1,59.9999981689454,2|0,0:0|0:0,0:0:0:0:
156,207,250900,2,0,P|156:247|147:272,1,59.9999981689454,2|0,0:0|0:0,0:0:0:0:
78,235,251300,6,0,P|78:195|87:170,1,59.9999981689454,2|0,0:0|0:0,0:0:0:0:
156,213,251700,2,0,P|156:253|147:278,1,59.9999981689454,2|0,0:0|0:0,0:0:0:0:
78,241,252100,6,0,P|78:201|87:176,1,59.9999981689454,2|0,0:0|0:0,0:0:0:0:
156,219,252500,2,0,P|156:259|147:284,1,59.9999981689454,2|0,0:0|0:0,0:0:0:0:
218,178,252900,5,2,0:0:0:0:
296,241,253100,1,2,0:0:0:0:
381,187,253300,1,2,0:0:0:0:
356,90,253500,1,2,0:0:0:0:
241,177,253700,5,2,0:0:0:0:
300,224,253900,1,2,0:0:0:0:
363,183,254100,1,0,0:0:0:0:
345,110,254300,1,2,0:0:0:0:
218,178,254500,5,2,0:0:0:0:
296,241,254700,1,2,0:0:0:0:
381,187,254900,1,2,0:0:0:0:
356,90,255100,1,2,0:0:0:0:
257,84,255300,5,2,0:0:0:0:
296,241,255500,1,2,0:0:0:0:
139,280,255700,1,2,0:0:0:0:
100,123,255900,1,2,0:0:0:0:
120,201,256100,6,0,P|75:200|44:182,1,59.9999981689454,6|0,0:0|0:0,0:0:0:0:
143,284,256500,1,2,0:0:0:0:
143,284,256700,1,2,0:0:0:0:
228,309,256900,6,0,P|229:354|246:384,1,59.9999981689454,2|0,0:0|0:0,0:0:0:0:
296,241,257300,2,0,P|294:195|277:165,1,59.9999981689454,2|0,0:0|0:0,0:0:0:0:
364,309,257700,6,0,P|365:354|382:384,1,59.9999981689454,2|0,0:0|0:0,0:0:0:0:
442,327,258100,1,2,0:0:0:0:
442,327,258300,1,2,0:0:0:0:
414,253,258500,2,0,L|410:188,1,59.9999981689454,2|0,0:0|0:0,0:0:0:0:
289,106,258900,2,0,L|353:109,1,59.9999981689454,2|0,0:0|0:0,0:0:0:0:
252,38,259300,5,2,0:0:0:0:
210,104,259500,1,0,0:0:0:0:
173,34,259700,1,2,0:0:0:0:
131,100,259900,1,2,0:0:0:0:
167,169,260100,6,0,P|194:180|225:181,1,59.9999981689454,2|0,0:0|0:0,0:0:0:0:
89,165,260500,2,0,L|92:227,1,59.9999981689454,2|0,0:0|0:0,0:0:0:0:
103,379,260900,5,0,0:0:0:0:
98,301,261100,1,2,0:0:0:0:
176,296,261300,1,2,0:0:0:0:
181,374,261500,1,2,0:0:0:0:
254,291,261700,6,0,L|331:286,1,59.9999981689454,2|0,0:0|0:0,0:0:0:0:
445,280,262100,2,0,P|415:279|387:267,1,59.9999981689454,2|0,0:0|0:0,0:0:0:0:
430,204,262500,6,0,L|507:209,1,59.9999981689454,2|0,0:0|0:0,0:0:0:0:
357,203,262900,1,2,0:0:0:0:
357,203,263100,1,2,0:0:0:0:
392,133,263300,2,0,L|451:129,1,59.9999981689454,2|0,0:0|0:0,0:0:0:0:
357,63,263700,5,2,0:0:0:0:
236,133,263900,1,2,0:0:0:0:
184,27,264100,6,0,L|165:26,4,14.9999995422363,2|2|2|2|2,0:0|0:0|0:0|0:0|0:0,0:0:0:0:
136,154,264500,2,0,P|155:123|163:94,1,59.9999981689454,2|0,0:0|0:0,0:0:0:0:
62,173,264900,2,0,P|74:200|94:222,1,59.9999981689454,2|0,0:0|0:0,0:0:0:0:
82,99,265300,5,2,0:0:0:0:
34,268,265500,1,2,0:0:0:0:
166,223,265700,6,0,P|202:221|231:229,1,59.9999981689454,2|0,0:0|0:0,0:0:0:0:
214,371,266100,2,0,P|178:372|148:364,1,59.9999981689454,2|0,0:0|0:0,0:0:0:0:
190,297,266500,2,0,L|250:300,1,59.9999981689454,2|0,0:0|0:0,0:0:0:0:
330,305,266900,5,2,0:0:0:0:
225,226,267100,1,2,0:0:0:0:
345,174,267300,6,0,P|381:172|410:180,1,59.9999981689454,2|0,0:0|0:0,0:0:0:0:
512,234,267700,2,0,P|476:232|446:240,1,59.9999981689454,2|0,0:0|0:0,0:0:0:0:
404,297,268100,5,2,0:0:0:0:
436,376,268300,1,2,0:0:0:0:
376,222,268500,1,2,0:0:0:0:
484,310,268700,1,2,0:0:0:0:
350,365,268900,6,2,P|232:359|109:366,1,239.999992675781
34,378,269900,1,0,0:0:0:0:
60,304,270100,2,0,P|90:296|119:292,1,59.9999981689454,2|0,0:0|0:0,0:0:0:0:
45,233,270500,2,0,P|75:225|104:221,1,59.9999981689454,2|0,0:0|0:0,0:0:0:0:
151,157,270900,2,0,P|121:149|92:145,1,59.9999981689454,2|0,0:0|0:0,0:0:0:0:
179,228,271300,5,2,0:0:0:0:
226,164,271500,1,2,0:0:0:0:
255,235,271700,1,2,0:0:0:0:
151,157,271900,1,2,0:0:0:0:
322,105,272100,6,2,B|331:77|331:77|226:97|122:60,1,239.999992675781
54,23,273100,1,0,0:0:0:0:
58,100,273300,2,0,P|87:127|120:139,1,59.9999981689454,2|0,0:0|0:0,0:0:0:0:
210,156,273700,2,0,P|181:183|148:195,1,59.9999981689454,2|0,0:0|0:0,0:0:0:0:
29,208,274100,2,0,L|113:212,1,59.9999981689454,2|0,0:0|0:0,0:0:0:0:
143,267,274500,5,2,0:0:0:0:
51,305,274700,1,2,0:0:0:0:
184,347,274900,1,2,0:0:0:0:
226,214,275100,1,2,0:0:0:0:
93,172,275300,6,2,B|186:192|193:34|312:91,1,239.999992675781
357,138,276300,1,0,0:0:0:0:
312,264,276500,2,0,P|311:235|322:207,1,59.9999981689454,2|0,0:0|0:0,0:0:0:0:
269,148,276900,2,0,P|239:148|211:138,1,59.9999981689454,2|0,0:0|0:0,0:0:0:0:
197,61,277300,2,0,P|226:60|254:70,1,59.9999981689454,2|0,0:0|0:0,0:0:0:0:
140,115,277700,1,2,0:0:0:0:
113,31,277900,5,2,0:0:0:0:
85,185,278100,1,2,0:0:0:0:
144,119,278300,1,2,0:0:0:0:
181,255,278500,6,0,P|201:268|225:276,1,50,2|0,0:0|0:0,0:0:0:0:
346,231,278961,6,0,P|325:244|301:252,1,50,2|0,0:0|0:0,0:0:0:0:
197,267,279441,6,0,P|217:280|241:288,1,50,2|0,0:0|0:0,0:0:0:0:
329,248,279962,6,0,P|308:261|284:269,1,50,2|0,0:0|0:0,0:0:0:0:
210,280,280562,6,0,P|230:293|254:301,1,50,2|2,0:0|0:0,0:0:0:0:
316,265,281228,6,0,P|295:278|271:286,1,50,2|2,0:0|0:0,0:0:0:0:
221,309,281978,5,2,0:0:0:0:
305,296,282419,5,2,0:0:0:0:
229,328,282887,5,2,0:0:0:0:
297,319,283378,5,2,0:0:0:0:
241,319,295955,5,2,0:0:0:0:
255,318,296055,1,0,0:0:0:0:
270,317,296155,1,2,0:0:0:0:
285,316,296255,1,2,0:0:0:0:
300,315,296355,5,2,0:0:0:0:
288,277,296455,1,2,0:0:0:0:
259,250,296555,1,2,0:0:0:0:
220,241,296655,1,2,0:0:0:0:
183,253,296755,2,0,P|163:248|144:240,1,40,6|0,0:0|0:0,0:0:0:0:
286,170,296955,5,2,0:0:0:0:
327,164,297055,1,2,0:0:0:0:
366,174,297155,2,0,P|382:187|394:202,1,40,2|0,0:0|0:0,0:0:0:0:
206,162,297355,5,2,0:0:0:0:
180,129,297455,1,2,0:0:0:0:
169,90,297555,2,0,P|172:69|179:51,1,40,2|0,0:0|0:0,0:0:0:0:
238,232,297755,5,2,0:0:0:0:
222,271,297855,1,2,0:0:0:0:
194,300,297955,2,0,P|174:307|155:310,1,40,2|0,0:0|0:0,0:0:0:0:
293,163,298155,5,2,0:0:0:0:
334,157,298255,1,2,0:0:0:0:
373,167,298355,6,0,P|389:180|401:195,1,40,2|0,0:0|0:0,0:0:0:0:
397,146,298555,2,0,P|413:159|425:174,1,40,2|0,0:0|0:0,0:0:0:0:
333,297,298755,6,0,P|345:280|352:262,1,40,2|0,0:0|0:0,0:0:0:0:
361,311,298955,2,0,P|373:294|380:276,1,40,2|0,0:0|0:0,0:0:0:0:
240,155,299155,6,0,P|256:168|268:183,1,40,2|0,0:0|0:0,0:0:0:0:
264,134,299355,2,0,P|280:147|292:162,1,40,2|0,0:0|0:0,0:0:0:0:
200,285,299555,6,0,P|212:268|219:250,1,40,2|0,0:0|0:0,0:0:0:0:
228,299,299755,2,0,P|240:282|247:264,1,40,2|0,0:0|0:0,0:0:0:0:
144,140,299955,5,6,0:0:0:0:
143,130,300055,1,0,0:0:0:0:
142,120,300155,1,2,0:0:0:0:
142,110,300255,1,2,0:0:0:0:
141,100,300355,1,2,0:0:0:0:
141,90,300455,1,0,0:0:0:0:
140,80,300555,1,2,0:0:0:0:
140,70,300655,1,2,0:0:0:0:
111,87,300755,5,2,0:0:0:0:
110,77,300855,1,0,0:0:0:0:
109,67,300955,1,2,0:0:0:0:
109,57,301055,1,2,0:0:0:0:
108,47,301155,1,2,0:0:0:0:
108,37,301255,1,0,0:0:0:0:
107,27,301355,1,2,0:0:0:0:
107,17,301455,1,2,0:0:0:0:
80,4,301555,5,2,0:0:0:0:
72,22,301655,1,2,0:0:0:0:
70,42,301755,1,2,0:0:0:0:
75,61,301855,1,2,0:0:0:0:
85,78,301955,1,2,0:0:0:0:
92,96,302055,1,2,0:0:0:0:
94,116,302155,1,2,0:0:0:0:
89,135,302255,1,2,0:0:0:0:
79,152,302355,1,2,0:0:0:0:
71,170,302455,1,0,0:0:0:0:
69,190,302555,1,2,0:0:0:0:
74,209,302655,1,2,0:0:0:0:
84,226,302755,1,2,0:0:0:0:
91,244,302855,1,2,0:0:0:0:
93,264,302955,1,2,0:0:0:0:
88,283,303055,1,2,0:0:0:0:
78,300,303155,6,0,P|106:299|129:303,3,40,6|0|2|2,0:0|0:0|0:0|0:0,0:0:0:0:
179,372,303555,2,0,P|151:371|128:375,3,40,2|0|2|2,0:0|0:0|0:0|0:0,0:0:0:0:
200,300,303955,6,0,P|220:298|240:300,3,40,2|0|2|2,0:0|0:0|0:0|0:0,0:0:0:0:
301,372,304355,2,0,P|273:371|250:375,3,40,2|0|2|2,0:0|0:0|0:0|0:0,0:0:0:0:
329,283,304755,6,0,P|341:267|356:254,1,40,2|0,0:0|0:0,0:0:0:0:
311,233,304955,2,0,P|329:227|349:223,1,40,2|0,0:0|0:0,0:0:0:0:
320,181,305155,2,0,P|338:184|357:191,1,40,2|0,0:0|0:0,0:0:0:0:
354,139,305355,2,0,P|368:151|381:166,1,40,2|0,0:0|0:0,0:0:0:0:
445,61,305555,6,0,P|426:68|410:79,1,40,2|0,0:0|0:0,0:0:0:0:
358,25,305755,2,0,P|345:40|336:58,1,40,2|0,0:0|0:0,0:0:0:0:
264,37,305955,2,0,P|261:56|262:76,1,40,2|0,0:0|0:0,0:0:0:0:
188,94,306155,2,0,P|195:112|206:128,1,40,2|0,0:0|0:0,0:0:0:0:
272,175,306355,5,6,0:0:0:0:
272,193,306455,1,0,0:0:0:0:
272,210,306555,1,2,0:0:0:0:
279,229,306655,1,2,0:0:0:0:
279,246,306755,1,0,0:0:0:0:
279,265,306855,1,2,0:0:0:0:
254,280,306955,5,2,0:0:0:0:
254,262,307055,1,0,0:0:0:0:
254,244,307155,1,2,0:0:0:0:
246,226,307255,1,0,0:0:0:0:
246,208,307355,1,2,0:0:0:0:
246,190,307455,1,2,0:0:0:0:
228,172,307555,6,2,L|212:172,12,14.9999995422363
249,101,307955,6,2,L|231:91,12,20
303,50,308355,6,2,L|290:27,12,25
376,34,308755,5,0,1:0:0:0:
367,117,308955,1,0,1:0:0:0:
488,98,309155,1,0,1:0:0:0:
507,219,309355,1,0,1:0:0:0:
405,369,309555,6,0,P|378:322|363:255,1,120,4|0,1:2|0:0,0:0:0:0:
386,238,309955,1,8,0:0:0:0:
247,363,310255,5,8,0:0:0:0:
247,363,310355,1,0,1:2:0:0:
286,238,310555,1,0,1:0:0:0:
171,297,310755,1,8,0:0:0:0:
371,266,310955,1,0,1:0:0:0:
371,266,311055,1,0,1:0:0:0:
371,266,311155,6,0,P|363:210|345:147,1,120,0|0,1:0|0:0,0:0:0:0:
318,139,311555,1,8,0:0:0:0:
459,93,311755,1,0,1:0:0:0:
460,112,311855,1,0,1:0:0:0:
461,132,311955,1,0,1:0:0:0:
335,43,312155,1,0,1:0:0:0:
224,153,312355,1,8,0:0:0:0:
97,63,312555,1,8,0:0:0:0:
318,139,312755,6,0,P|322:178|326:281,1,120,0|0,1:2|0:0,0:0:0:0:
300,276,313155,1,8,0:0:0:0:
481,246,313455,5,8,0:0:0:0:
481,246,313555,1,0,1:0:0:0:
357,333,313755,1,0,1:0:0:0:
217,272,313955,1,8,0:0:0:0:
240,253,314055,1,0,1:0:0:0:
268,244,314155,1,0,1:0:0:0:
298,245,314255,1,0,1:0:0:0:
325,258,314355,5,0,1:0:0:0:
219,355,314555,1,0,1:0:0:0:
196,185,314755,2,0,P|141:151|93:140,1,80,8|0,0:0|0:0,0:0:0:0:
98,160,315055,1,8,0:0:0:0:
98,160,315155,1,0,1:0:0:0:
247,120,315355,1,0,1:0:0:0:
325,258,315555,2,0,P|381:227|415:191,1,80,8|0,0:0|0:0,0:0:0:0:
397,188,315855,1,8,0:0:0:0:
397,188,315955,6,0,P|440:224|488:313,1,120,4|0,1:2|0:0,0:0:0:0:
461,305,316355,1,8,0:0:0:0:
374,114,316655,5,8,0:0:0:0:
374,114,316755,1,0,1:0:0:0:
325,258,316955,1,0,1:0:0:0:
277,105,317155,1,8,0:0:0:0:
235,256,317355,1,0,1:0:0:0:
235,256,317455,1,0,1:0:0:0:
235,256,317555,6,0,P|162:275|112:280,1,120,0|0,1:0|0:0,0:0:0:0:
99,253,317955,1,8,0:0:0:0:
218,347,318155,1,0,1:0:0:0:
237,345,318255,1,0,1:0:0:0:
257,344,318355,1,0,1:0:0:0:
127,376,318555,1,0,1:0:0:0:
26,279,318755,1,8,0:0:0:0:
26,279,318855,1,0,0:0:0:0:
112,176,319055,1,8,0:0:0:0:
112,176,319155,6,0,P|102:125|80:90,1,80,2|0,1:2|0:0,0:0:0:0:
60,100,319455,2,0,P|98:66|118:29,1,80,2|0,1:2|0:0,0:0:0:0:
98,18,319755,1,0,1:2:0:0:
98,18,319855,1,2,0:0:0:0:
0,153,320055,1,0,0:0:0:0:
0,153,320155,1,2,1:2:0:0:
175,94,320355,1,8,0:0:0:0:
203,102,320455,1,8,0:0:0:0:
227,120,320555,1,0,0:0:0:0:
243,145,320655,1,8,0:0:0:0:
251,174,320755,6,0,P|297:201|349:206,1,80,2|0,1:2|0:0,0:0:0:0:
341,179,321055,2,0,P|393:164|445:173,1,80,2|0,1:2|0:0,0:0:0:0:
445,191,321355,1,0,1:2:0:0:
445,191,321455,1,2,0:0:0:0:
318,106,321655,1,0,0:0:0:0:
318,106,321755,1,2,1:2:0:0:
390,249,321955,1,8,0:0:0:0:
482,118,322155,1,8,0:0:0:0:
383,256,322355,6,0,P|329:262|237:296,1,120,4|0,1:2|0:0,0:0:0:0:
252,309,322755,1,8,0:0:0:0:
443,200,323055,5,8,0:0:0:0:
443,200,323155,1,0,1:0:0:0:
391,336,323355,1,0,1:0:0:0:
309,184,323555,1,8,0:0:0:0:
280,181,323655,1,0,1:0:0:0:
251,188,323755,1,0,1:0:0:0:
225,203,323855,1,0,1:0:0:0:
207,226,323955,6,0,P|157:238|82:246,1,120,0|0,1:2|0:0,0:0:0:0:
66,224,324355,1,8,0:0:0:0:
192,314,324555,1,0,1:0:0:0:
211,315,324655,1,0,1:0:0:0:
231,316,324755,1,0,1:0:0:0:
116,342,324955,1,0,1:0:0:0:
207,226,325155,1,8,0:0:0:0:
323,317,325355,1,8,0:0:0:0:
431,138,325555,6,0,P|377:92|339:35,1,120,4|0,1:2|0:0,0:0:0:0:
359,23,325955,1,8,0:0:0:0:
359,188,326155,1,2,1:2:0:0:
359,188,326255,1,0,1:2:0:0:
499,91,326455,1,2,1:2:0:0:
499,91,326555,1,0,1:2:0:0:
492,263,326755,1,8,0:0:0:0:
359,188,326955,1,8,0:0:0:0:
359,188,327055,1,8,0:0:0:0:
359,188,327155,5,0,1:0:0:0:
329,189,327255,1,2,0:0:0:0:
302,203,327355,1,0,1:0:0:0:
283,225,327455,1,0,1:0:0:0:
274,254,327555,1,8,0:0:0:0:
264,282,327655,1,2,0:0:0:0:
245,304,327755,1,8,0:0:0:0:
218,318,327855,1,8,0:0:0:0:
189,320,327955,5,0,1:2:0:0:
352,269,328155,1,0,1:0:0:0:
194,239,328355,1,8,0:0:0:0:
366,195,328555,1,0,1:0:0:0:
366,195,328655,1,0,1:0:0:0:
366,195,328755,6,0,P|417:214|480:254,1,120,4|0,1:2|0:0,0:0:0:0:
474,279,329155,1,8,0:0:0:0:
292,222,329455,5,8,0:0:0:0:
292,222,329555,1,0,1:0:0:0:
404,122,329755,1,0,1:0:0:0:
252,87,329955,1,8,0:0:0:0:
140,187,330155,1,0,1:0:0:0:
120,185,330255,1,0,1:0:0:0:
100,184,330355,6,0,P|82:171|69:155,1,40,0|0,1:0|0:0,0:0:0:0:
56,251,330555,2,0,P|38:238|25:222,1,40,0|0,1:0|0:0,0:0:0:0:
235,182,330755,1,8,0:0:0:0:
340,290,330955,5,0,1:0:0:0:
359,288,331055,1,0,1:0:0:0:
379,287,331155,2,0,P|399:279|416:267,1,40,0|0,1:0|0:0,0:0:0:0:
404,363,331355,2,0,P|424:355|441:343,1,40,0|0,1:0|0:0,0:0:0:0:
199,283,331555,1,8,0:0:0:0:
323,165,331755,1,0,1:0:0:0:
323,165,331855,1,0,1:0:0:0:
323,165,331955,6,0,P|372:176|423:207,1,80,2|0,1:2|0:0,0:0:0:0:
429,177,332255,2,0,P|444:225|441:285,1,80,2|0,1:2|0:0,0:0:0:0:
414,268,332555,1,0,1:2:0:0:
414,268,332655,2,0,P|399:316|401:376,1,80,2|0,0:0|0:0,0:0:0:0:
418,371,332955,1,2,1:2:0:0:
313,262,333155,1,8,0:0:0:0:
284,255,333255,1,0,1:0:0:0:
254,259,333355,1,0,1:0:0:0:
228,274,333455,1,0,1:0:0:0:
210,298,333555,6,0,L|94:304,1,80,2|0,1:2|0:0,0:0:0:0:
111,328,333855,2,0,L|24:250,1,80,2|0,1:2|0:0,0:0:0:0:
56,244,334155,1,0,1:2:0:0:
56,244,334255,1,2,0:0:0:0:
178,383,334455,1,0,0:0:0:0:
178,383,334555,1,2,1:2:0:0:
236,182,334755,5,8,0:0:0:0:
444,247,334955,1,8,0:0:0:0:
444,247,335055,1,8,0:0:0:0:
444,247,335155,5,6,1:2:0:0:
316,158,335355,1,2,0:0:0:0:
192,253,335555,1,10,0:0:0:0:
451,254,335755,5,2,0:0:0:0:
316,151,335955,1,2,1:2:0:0:
185,260,336155,1,2,0:0:0:0:
458,261,336355,5,10,0:0:0:0:
316,144,336555,1,2,0:0:0:0:
178,267,336755,5,2,1:2:0:0:
320,384,336955,1,2,0:0:0:0:
224,179,337155,6,0,P|175:173|131:178,1,89.9999972534181,10|0,0:0|0:0,0:0:0:0:
35,345,337555,2,0,P|84:351|128:346,1,89.9999972534181,2|0,1:2|0:0,0:0:0:0:
0,207,337955,1,10,0:0:0:0:
153,98,338155,1,8,0:0:0:0:
153,98,338255,1,8,0:0:0:0:
153,98,338355,5,6,1:2:0:0:
262,262,338555,1,2,0:0:0:0:
302,70,338755,1,10,0:0:0:0:
85,142,338955,5,2,0:0:0:0:
194,306,339155,1,2,1:2:0:0:
234,114,339355,1,2,0:0:0:0:
17,186,339555,5,10,0:0:0:0:
126,350,339755,1,2,0:0:0:0:
166,158,339955,5,2,1:2:0:0:
35,304,340155,1,0,1:2:0:0:
35,304,340255,1,0,1:2:0:0:
35,304,340355,5,10,0:0:0:0:
142,253,340555,1,2,0:0:0:0:
228,335,340755,1,2,1:2:0:0:
335,284,340955,1,2,1:2:0:0:
249,202,341155,1,10,0:0:0:0:
149,260,341355,1,8,0:0:0:0:
149,260,341455,1,8,0:0:0:0:
149,260,341555,5,6,1:2:0:0:
262,110,341755,1,2,0:0:0:0:
335,284,341955,1,10,0:0:0:0:
162,152,342155,5,2,0:0:0:0:
348,175,342355,1,2,1:2:0:0:
234,325,342555,1,2,0:0:0:0:
262,110,342755,5,10,0:0:0:0:
335,284,342955,1,2,0:0:0:0:
161,357,343155,5,2,1:2:0:0:
95,190,343355,1,0,1:2:0:0:
95,190,343455,1,0,1:2:0:0:
95,190,343555,6,0,L|100:90,1,89.9999972534181,10|0,0:0|0:0,0:0:0:0:
161,357,343955,2,0,L|155:257,1,89.9999972534181,2|0,1:2|0:0,0:0:0:0:
69,381,344355,1,8,0:0:0:0:
260,340,344555,1,8,0:0:0:0:
260,340,344655,1,8,0:0:0:0:
260,340,344755,5,6,1:2:0:0:
251,169,344955,1,2,0:0:0:0:
422,160,345155,1,10,0:0:0:0:
431,331,345355,5,2,0:0:0:0:
277,253,345555,1,2,1:2:0:0:
355,99,345755,1,2,0:0:0:0:
509,177,345955,5,10,0:0:0:0:
365,272,346155,1,2,0:0:0:0:
270,128,346355,5,2,1:2:0:0:
422,160,346555,1,2,0:0:0:0:
355,99,346755,1,10,0:0:0:0:
291,230,346955,5,8,0:0:0:0:
291,230,347055,1,8,0:0:0:0:
291,230,347155,2,0,P|229:247|196:266,1,89.9999972534181,2|0,1:2|0:0,0:0:0:0:
55,191,347555,2,0,P|117:174|150:155,1,89.9999972534181,10|0,0:0|0:0,0:0:0:0:
147,135,347855,1,8,0:0:0:0:
147,135,347955,5,6,1:2:0:0:
123,304,348155,1,2,0:0:0:0:
226,169,348355,1,10,0:0:0:0:
250,338,348555,5,2,0:0:0:0:
226,169,348755,1,2,1:2:0:0:
329,312,348955,1,2,0:0:0:0:
353,143,349155,5,10,0:0:0:0:
329,312,349355,1,2,0:0:0:0:
428,173,349555,5,2,1:2:0:0:
280,249,349755,1,0,1:2:0:0:
280,249,349855,1,0,1:2:0:0:
280,249,349955,5,10,0:0:0:0:
451,251,350155,1,2,0:0:0:0:
302,168,350355,5,2,1:2:0:0:
396,311,350555,1,2,0:0:0:0:
368,121,350755,6,0,P|322:80|281:59,1,89.9999972534181,10|0,0:0|0:0,0:0:0:0:
273,80,351055,1,8,0:0:0:0:
273,80,351155,5,6,1:2:0:0:
443,60,351355,1,2,0:0:0:0:
375,217,351555,1,10,0:0:0:0:
277,84,351755,5,2,0:0:0:0:
379,221,351955,1,2,1:2:0:0:
209,240,352155,1,2,0:0:0:0:
281,88,352355,5,10,0:0:0:0:
213,244,352555,1,2,0:0:0:0:
111,107,352755,5,2,1:2:0:0:
275,182,352955,1,0,1:2:0:0:
275,182,353055,1,0,1:2:0:0:
275,182,353155,1,10,0:0:0:0:
135,209,353355,1,8,0:0:0:0:
135,209,353455,1,8,0:0:0:0:
135,209,353555,5,2,1:2:0:0:
197,64,353755,1,2,1:2:0:0:
213,244,353955,1,10,0:0:0:0:
126,122,354155,1,8,0:0:0:0:
126,122,354255,1,8,0:0:0:0:
126,122,354355,5,6,1:2:0:0:
138,298,354555,1,2,0:0:0:0:
126,122,354755,1,10,0:0:0:0:
306,114,354955,5,2,0:0:0:0:
126,122,355155,1,2,1:2:0:0:
306,114,355355,1,2,0:0:0:0:
318,290,355555,5,10,0:0:0:0:
306,114,355755,1,2,0:0:0:0:
318,290,355955,5,2,1:2:0:0:
440,164,356155,1,0,1:2:0:0:
440,164,356255,1,0,1:2:0:0:
440,164,356355,2,0,P|486:194|518:228,1,89.9999972534181,10|0,0:0|0:0,0:0:0:0:
297,203,356755,2,0,P|258:226|226:257,1,89.9999972534181,2|0,1:2|0:0,0:0:0:0:
314,379,357155,1,10,0:0:0:0:
155,341,357355,1,8,0:0:0:0:
155,341,357455,1,8,0:0:0:0:
155,341,357555,5,6,1:2:0:0:
162,206,357755,1,2,0:0:0:0:
169,71,357955,1,10,0:0:0:0:
50,8,358155,5,2,0:0:0:0:
43,143,358355,1,2,1:2:0:0:
36,278,358555,1,2,0:0:0:0:
166,210,358755,5,10,0:0:0:0:
173,75,358955,1,2,0:0:0:0:
47,147,359155,5,2,1:2:0:0:
170,214,359355,1,2,1:2:0:0:
304,174,359555,1,10,0:0:0:0:
370,50,359755,5,8,0:0:0:0:
370,50,359855,1,8,0:0:0:0:
370,50,359955,1,2,1:2:0:0:
428,240,360155,1,2,1:2:0:0:
238,298,360355,1,10,0:0:0:0:
180,108,360555,1,10,0:0:0:0:
304,174,360755,5,6,1:2:0:0:
