osu file format v14

[General]
AudioFilename: audio.mp3
AudioLeadIn: 0
PreviewTime: 84250
Countdown: 0
SampleSet: Drum
StackLeniency: 0.7
Mode: 0
LetterboxInBreaks: 0
WidescreenStoryboard: 0

[Editor]
Bookmarks: 16645,111293,165377,192419,219462,276926
DistanceSpacing: 0.7
BeatDivisor: 4
GridSize: 8
TimelineZoom: 2.1

[Metadata]
Title:Totenblume
TitleUnicode:トーテンブルーメ
Artist:-45
ArtistUnicode:-45
Creator:Stick2Glue
Version:Flower of the Dead
Source:うみねこのなく頃に散
Tags:kuroyuri totemblume vn video game electronic instrumental Umineko no Naku Koro ni chiru when the seagulls cry they visual novel 07th expansion Ryukishi07 Erika Furudo c76 Akito Yoshikawa Yoshikawa-45 ch 5 end of golden witch dva d'va;;;;;;;;5 agagak amrita phynta
BeatmapID:3408259
BeatmapSetID:1668922

[Difficulty]
HPDrainRate:6
CircleSize:4
OverallDifficulty:8
ApproachRate:8
SliderMultiplier:1.4
SliderTickRate:1

[Events]
//Background and Video events
0,0,"erika_crop3.png",0,0
//Break Periods
//Storyboard Layer 0 (Background)
//Storyboard Layer 1 (Fail)
//Storyboard Layer 2 (Pass)
//Storyboard Layer 3 (Foreground)
//Storyboard Layer 4 (Overlay)
//Storyboard Sound Samples

[TimingPoints]
3124,422.535211267606,4,3,2,45,1,0
16645,-100,4,2,2,50,0,0
30166,-100,4,2,2,55,0,0
43687,-90.9090909090909,4,2,2,65,0,0
57208,-83.3333333333333,4,3,2,75,0,0
81715,-76.9230769230769,4,3,2,75,0,0
82771,-83.3333333333333,4,3,2,75,0,0
84250,-76.9230769230769,4,2,3,80,0,0
111504,-90.9090909090909,4,3,2,55,0,0
138335,-83.3333333333333,4,2,2,65,0,0
165377,-80,4,2,2,75,0,0
192419,-95.2380952380952,4,2,2,60,0,0
219462,-125,4,2,2,45,0,0
232983,-90.9090909090909,4,2,2,65,0,0
246504,-76.9230769230769,4,2,3,80,0,1
273546,-76.9230769230769,4,2,3,75,0,0

[Colours]
Combo1 : 0,255,90
Combo2 : 0,0,206
Combo3 : 34,180,255
Combo4 : 34,255,180

[HitObjects]
72,260,3124,5,2,0:0:0:0:
177,268,3335,1,0,0:0:0:0:
177,268,3440,1,0,0:0:0:0:
177,268,3546,2,0,L|144:187,1,70,8|0,0:0|0:0,0:0:0:0:
237,347,3969,1,8,0:0:0:0:
294,279,4180,1,0,0:0:0:0:
243,199,4391,1,8,0:0:0:0:
309,137,4602,1,0,0:0:0:0:
309,137,4814,6,0,P|353:125|377:123,1,70,2|0,0:0|0:0,0:0:0:0:
302,41,5236,1,8,0:0:0:0:
225,66,5447,1,0,0:0:0:0:
149,45,5659,2,0,P|125:102|123:138,1,70,2|0,0:0|0:0,0:0:0:0:
131,145,5976,1,0,0:0:0:0:
131,145,6081,2,0,P|80:133|46:129,1,70,12|0,2:3|0:0,0:0:0:0:
51,256,6504,5,2,0:0:0:0:
166,247,6715,1,0,0:0:0:0:
166,247,6821,1,0,0:0:0:0:
166,247,6926,2,0,P|129:280|103:319,1,70,8|0,0:0|0:0,0:0:0:0:
176,365,7349,1,0,0:0:0:0:
243,311,7560,1,0,0:0:0:0:
314,364,7771,1,8,0:0:0:0:
377,307,7983,1,0,0:0:0:0:
377,307,8194,6,0,P|384:253|376:213,1,70,2|0,0:0|0:0,0:0:0:0:
329,154,8616,1,8,0:0:0:0:
434,124,8828,1,0,0:0:0:0:
316,41,9039,2,0,P|366:51|399:54,1,70,2|0,0:0|0:0,0:0:0:0:
240,93,9462,2,0,P|197:98|154:111,1,70,12|0,2:3|0:0,0:0:0:0:
134,126,9778,1,0,0:0:0:0:
134,126,9884,5,2,2:0:0:0:
112,234,10095,2,0,P|169:231|195:211,1,70,0|8,0:0|0:0,0:0:0:0:
276,216,10519,1,0,0:0:0:0:
255,298,10730,1,0,0:0:0:0:
334,353,10941,1,0,0:0:0:0:
334,353,11046,1,0,0:0:0:0:
334,353,11152,1,8,0:0:0:0:
415,323,11363,1,0,0:0:0:0:
415,323,11574,6,0,L|426:230,1,70,2|0,0:0|0:0,0:0:0:0:
448,105,11997,1,8,0:0:0:0:
353,125,12208,2,0,L|344:194,1,70,0|2,0:0|0:0,0:0:0:0:
277,45,12631,1,0,0:0:0:0:
277,45,12736,1,0,0:0:0:0:
277,45,12842,2,0,L|265:129,1,70,12|0,2:3|0:0,0:0:0:0:
218,216,13264,5,2,0:0:0:0:
128,218,13476,1,0,0:0:0:0:
65,152,13687,1,8,0:0:0:0:
66,69,13898,1,0,0:0:0:0:
66,69,14004,1,0,0:0:0:0:
66,69,14109,2,0,P|104:78|139:118,1,70,8|0,0:0|0:0,0:0:0:0:
128,218,14532,1,8,0:0:0:0:
27,253,14743,1,0,0:0:0:0:
27,253,14954,6,0,L|108:246,1,70,2|0,0:0|0:0,0:0:0:0:
183,242,15377,1,8,0:0:0:0:
144,324,15588,1,0,0:0:0:0:
235,311,15800,1,2,0:0:0:0:
320,337,16011,1,0,0:0:0:0:
340,333,16116,1,0,0:0:0:0:
360,329,16222,1,8,0:0:0:0:
380,325,16328,1,0,0:0:0:0:
400,322,16433,1,0,0:0:0:0:
491,237,16645,6,0,P|462:251|406:229,1,70,6|0,0:0|0:0,0:0:0:0:
427,152,17067,2,0,P|450:148|477:153,3,35,8|0|0|0,0:0|0:0|0:0|0:0,0:0:0:0:
402,62,17490,2,0,P|346:76|303:76,1,70,10|8,0:0|0:0,0:0:0:0:
225,45,17912,1,8,0:0:0:0:
204,41,18018,1,0,0:0:0:0:
182,41,18124,1,0,0:0:0:0:
162,46,18229,1,0,0:0:0:0:
144,57,18335,6,0,L|148:142,1,70,6|0,0:0|0:0,0:0:0:0:
76,205,18757,2,0,L|71:168,3,35,8|0|0|0,0:0|0:0|0:0|0:0,0:0:0:0:
161,228,19180,2,0,L|166:298,1,70,10|8,0:0|0:0,0:0:0:0:
51,334,19602,1,10,0:0:0:0:
51,334,19708,1,0,0:0:0:0:
51,334,19814,2,0,P|71:327|109:312,1,35
166,298,20025,6,0,P|202:297|254:306,1,70,2|0,0:0|0:0,0:0:0:0:
322,360,20447,2,0,P|353:370|378:371,3,35,8|0|0|0,0:0|0:0|0:0|0:0,0:0:0:0:
442,365,20870,1,2,0:0:0:0:
454,348,20976,1,0,0:0:0:0:
459,327,21081,1,0,0:0:0:0:
457,305,21187,1,0,0:0:0:0:
444,285,21293,2,0,L|389:281,3,35,8|0|0|0,0:0|0:0|0:0|0:0,0:0:0:0:
319,269,21715,6,0,P|343:221|382:204,1,70,2|0,0:0|0:0,0:0:0:0:
442,143,22138,2,0,P|409:140|390:132,3,35,8|0|0|0,0:0|0:0|0:0|0:0,0:0:0:0:
325,98,22560,1,2,0:0:0:0:
305,90,22666,1,0,0:0:0:0:
284,90,22771,1,0,0:0:0:0:
263,93,22877,1,0,0:0:0:0:
244,103,22983,1,14,0:0:0:0:
225,113,23088,1,0,0:0:0:0:
204,116,23194,1,0,0:0:0:0:
183,116,23299,1,2,0:0:0:0:
162,109,23405,6,0,L|170:56,3,35,6|0|0|0,0:0|0:0|0:0|0:0,0:0:0:0:
80,171,23828,2,0,L|72:224,3,35,8|0|0|0,0:0|0:0|0:0|0:0,0:0:0:0:
185,248,24250,2,0,L|193:195,3,35
139,342,24673,1,8,0:0:0:0:
118,345,24778,1,0,0:0:0:0:
97,348,24884,1,0,0:0:0:0:
76,352,24990,1,0,0:0:0:0:
53,356,25095,6,0,P|33:291|40:258,1,70,2|0,0:0|0:0,0:0:0:0:
52,184,25518,1,8,0:0:0:0:
52,184,25624,1,0,0:0:0:0:
52,184,25729,2,0,L|95:194,1,35
175,135,25940,2,0,L|82:108,1,70
29,42,26363,2,0,L|116:19,1,70,12|0,0:0|0:0,0:0:0:0:
237,27,26785,6,0,L|243:71,3,35,2|0|0|0,0:0|0:0|0:0|0:0,0:0:0:0:
317,137,27208,1,8,0:0:0:0:
321,116,27314,1,0,0:0:0:0:
325,95,27419,1,0,0:0:0:0:
329,74,27525,1,0,0:0:0:0:
334,53,27631,2,0,P|383:41|417:49,1,70
499,157,28053,2,0,P|450:169|416:161,1,70,8|0,0:0|0:0,0:0:0:0:
348,216,28476,5,2,0:0:0:0:
348,216,28581,1,0,0:0:0:0:
348,216,28687,1,0,0:0:0:0:
278,288,28898,2,0,P|231:282|170:312,1,105,8|0,0:0|0:0,0:0:0:0:
166,315,29321,1,0,0:0:0:0:
151,324,29426,1,0,0:0:0:0:
135,332,29532,1,0,0:0:0:0:
120,341,29638,1,0,0:0:0:0:
105,350,29743,1,14,0:0:0:0:
89,326,29849,1,0,0:0:0:0:
76,300,29954,1,0,0:0:0:0:
66,273,30060,1,0,0:0:0:0:
57,246,30166,6,0,L|69:199,3,35,6|0|0|0,0:0|0:0|0:0|0:0,0:0:0:0:
51,113,30588,2,0,P|104:115|134:140,1,70,8|8,0:0|0:0,0:0:0:0:
221,43,31011,1,8,0:0:0:0:
221,43,31116,1,0,0:0:0:0:
221,43,31222,2,0,L|156:46,1,35
282,114,31433,2,0,L|385:100,2,70,8|0|2,0:0|0:0|0:0,0:0:0:0:
398,29,32067,5,0,0:0:0:0:
422,32,32173,1,0,0:0:0:0:
446,35,32278,1,8,0:0:0:0:
477,125,32490,1,0,0:0:0:0:
410,202,32701,2,0,P|382:209|320:200,1,70
282,114,33124,2,0,P|246:109|212:117,1,70,8|0,0:0|0:0,0:0:0:0:
146,180,33440,1,0,0:0:0:0:
146,180,33546,6,0,L|148:264,1,70,2|0,0:0|0:0,0:0:0:0:
235,354,33969,1,8,0:0:0:0:
234,329,34074,1,0,0:0:0:0:
232,304,34180,2,0,L|228:214,2,70,0|2|0,0:0|0:0|0:0,0:0:0:0:
329,354,34814,1,8,0:0:0:0:
315,198,35025,2,0,L|319:276,1,70,8|10,0:0|0:0,0:0:0:0:
409,333,35447,5,0,0:0:0:0:
475,258,35659,1,10,0:0:0:0:
474,233,35764,1,0,0:0:0:0:
473,208,35870,1,0,0:0:0:0:
472,183,35976,1,0,0:0:0:0:
471,157,36081,2,0,P|451:167|417:189,1,35,2|0,0:0|0:0,0:0:0:0:
355,122,36293,2,0,P|348:141|338:172,1,35
229,175,36504,2,0,P|261:235|317:258,1,105,10|0,0:0|0:0,0:0:0:0:
353,288,36926,6,0,P|300:293|266:308,1,70,2|0,0:0|0:0,0:0:0:0:
182,336,37349,1,8,0:0:0:0:
159,344,37454,1,0,0:0:0:0:
134,346,37560,1,0,0:0:0:0:
109,344,37666,1,0,0:0:0:0:
85,336,37771,2,0,L|65:295,1,35
131,202,37983,2,0,L|148:252,1,35
39,176,38194,2,0,L|24:135,3,35,8|0|0|0,0:0|0:0|0:0|0:0,0:0:0:0:
66,62,38616,5,2,0:0:0:0:
150,36,38828,1,0,0:0:0:0:
150,36,39039,1,8,0:0:0:0:
238,49,39250,1,0,0:0:0:0:
238,49,39356,1,0,0:0:0:0:
238,49,39462,2,0,L|245:127,1,70
328,19,39884,1,8,0:0:0:0:
330,43,39990,1,0,0:0:0:0:
332,67,40095,1,0,0:0:0:0:
335,91,40201,1,0,0:0:0:0:
337,115,40307,6,0,L|390:103,3,35,2|0|0|0,0:0|0:0|0:0|0:0,0:0:0:0:
273,195,40729,1,8,0:0:0:0:
273,195,40835,1,0,0:0:0:0:
273,195,40940,2,0,L|214:205,2,35
397,327,41363,1,0,0:0:0:0:
339,251,41574,2,0,P|383:233|451:254,1,105,8|2,0:0|0:0,0:0:0:0:
475,282,41997,6,0,L|479:362,1,70,2|0,0:0|0:0,0:0:0:0:
397,327,42314,1,0,0:0:0:0:
397,327,42419,2,0,P|348:349|312:344,1,70,8|0,0:0|0:0,0:0:0:0:
173,261,42842,5,0,0:0:0:0:
254,369,43053,1,0,0:0:0:0:
263,247,43264,2,0,L|262:189,1,35,14|0,0:0|0:0,0:0:0:0:
157,355,43476,1,0,0:0:0:0:
157,355,43581,1,0,0:0:0:0:
157,355,43687,6,0,P|100:366|44:363,1,77.0000023498536,2|0,0:0|0:0,0:0:0:0:
4,216,44109,1,8,0:0:0:0:
139,244,44321,1,0,0:0:0:0:
139,244,44426,1,0,0:0:0:0:
139,244,44532,1,0,0:0:0:0:
180,110,44743,1,0,3:0:0:0:
41,57,44954,2,0,P|101:65|142:50,1,77.0000023498536,8|0,0:0|0:0,0:0:0:0:
195,34,45271,1,0,0:0:0:0:
195,34,45377,6,0,P|241:24|288:40,1,77.0000023498536,2|0,0:0|0:0,0:0:0:0:
313,98,45694,1,0,0:0:0:0:
313,98,45800,1,8,0:0:0:0:
235,198,46011,2,0,L|182:193,2,38.5000011749268
366,167,46433,1,0,0:0:0:0:
366,167,46539,1,0,0:0:0:0:
366,167,46645,2,0,P|391:128|393:88,1,77.0000023498536,8|0,0:0|0:0,0:0:0:0:
457,242,47067,5,2,0:0:0:0:
430,238,47173,1,0,0:0:0:0:
403,240,47278,1,0,0:0:0:0:
376,247,47384,1,0,0:0:0:0:
353,261,47490,1,8,0:0:0:0:
428,356,47701,2,0,L|472:378,2,38.5000011749268
275,347,48124,1,0,0:0:0:0:
275,347,48229,1,0,0:0:0:0:
275,347,48335,2,0,P|220:358|181:351,1,77.0000023498536,8|8,0:0|0:0,0:0:0:0:
31,285,48757,6,0,L|75:297,3,38.5000011749268,10|0|0|0,0:0|0:0|0:0|0:0,0:0:0:0:
140,216,49180,2,0,L|84:228,3,38.5000011749268,10|0|0|0,0:0|0:0|0:0|0:0,0:0:0:0:
39,175,49602,1,2,0:0:0:0:
30,147,49707,1,0,0:0:0:0:
30,118,49813,1,0,0:0:0:0:
39,91,49918,1,0,0:0:0:0:
57,68,50024,1,8,0:0:0:0:
80,52,50130,1,0,0:0:0:0:
108,44,50235,1,8,0:0:0:0:
137,45,50341,1,0,0:0:0:0:
164,56,50447,6,0,P|211:74|257:62,1,77.0000023498536,2|0,0:0|0:0,0:0:0:0:
410,32,50870,1,8,0:0:0:0:
323,58,51081,1,0,0:0:0:0:
323,58,51187,1,0,0:0:0:0:
323,58,51293,1,0,0:0:0:0:
351,148,51504,1,0,0:0:0:0:
386,238,51715,2,0,L|412:311,1,77.0000023498536,8|2,0:0|0:0,0:0:0:0:
424,124,52032,1,0,0:0:0:0:
424,124,52138,6,0,L|327:155,1,77.0000023498536,2|0,0:0|0:0,0:0:0:0:
240,190,52560,1,8,0:0:0:0:
254,212,52666,1,0,0:0:0:0:
257,238,52771,1,0,0:0:0:0:
252,264,52877,1,0,0:0:0:0:
235,285,52983,2,0,P|210:300|175:303,1,38.5000011749268
120,249,53194,2,0,P|129:238|169:215,1,38.5000011749268,8|0,0:0|0:0,0:0:0:0:
82,336,53405,2,0,P|42:307|37:288,1,38.5000011749268,10|0,0:0|0:0,0:0:0:0:
28,218,53616,1,8,0:0:0:0:
46,61,53828,6,0,P|76:123|80:166,1,77.0000023498536,6|0,0:0|0:0,0:0:0:0:
156,20,54250,1,8,0:0:0:0:
221,139,54462,1,0,0:0:0:0:
230,113,54567,1,0,0:0:0:0:
239,87,54673,1,0,0:0:0:0:
249,62,54778,1,0,0:0:0:0:
259,36,54884,1,0,0:0:0:0:
371,41,55095,2,0,L|395:130,1,77.0000023498536,8|0,0:0|0:0,0:0:0:0:
474,179,55412,1,2,0:0:0:0:
474,179,55518,6,0,P|407:198|391:216,1,77.0000023498536,10|0,0:0|0:0,0:0:0:0:
384,236,55835,1,2,0:0:0:0:
384,236,55940,2,0,L|395:289,1,38.5000011749268,8|0,0:0|0:0,0:0:0:0:
419,360,56152,1,0,0:0:0:0:
255,354,56363,5,12,0:0:0:0:
241,330,56469,1,0,0:0:0:0:
236,303,56574,1,0,0:0:0:0:
240,276,56680,1,0,0:0:0:0:
251,251,56785,1,12,0:0:0:0:
262,226,56891,1,0,0:0:0:0:
266,199,56997,1,0,0:0:0:0:
261,172,57102,1,0,0:0:0:0:
247,148,57208,5,14,0:0:0:0:
130,196,57419,1,0,0:0:0:0:
26,120,57631,1,8,0:0:0:0:
155,39,57842,1,0,0:0:0:0:
155,39,57947,1,0,0:0:0:0:
155,39,58053,2,0,L|95:29,1,41.9999987182618,2|0,0:0|0:0,0:0:0:0:
218,98,58264,2,0,L|285:83,1,41.9999987182618
348,25,58476,1,8,0:0:0:0:
446,118,58687,1,0,0:0:0:0:
306,201,58898,6,0,P|354:188|401:268,1,125.999996154785,2|2,0:0|0:0,0:0:0:0:
393,274,59321,2,0,P|418:267|452:265,1,41.9999987182618,8|0,0:0|0:0,0:0:0:0:
325,348,59532,1,0,0:0:0:0:
325,348,59638,1,0,0:0:0:0:
325,348,59743,2,0,L|272:371,1,41.9999987182618,2|0,0:0|0:0,0:0:0:0:
229,298,59954,2,0,L|160:281,1,41.9999987182618
74,357,60166,2,0,P|97:317|109:262,1,83.9999974365235,8|0,0:0|0:0,0:0:0:0:
52,197,60483,1,0,0:0:0:0:
52,197,60588,6,0,P|102:181|156:191,1,83.9999974365235,2|0,0:0|0:0,0:0:0:0:
177,203,60905,1,2,0:0:0:0:
177,203,61011,1,8,0:0:0:0:
224,111,61222,1,0,0:0:0:0:
252,118,61328,1,0,0:0:0:0:
281,117,61433,1,0,0:0:0:0:
309,109,61539,1,0,0:0:0:0:
333,92,61645,1,0,0:0:0:0:
186,16,61856,2,0,P|227:20|268:29,1,83.9999974365235,8|0,0:0|0:0,0:0:0:0:
34,90,62278,6,0,P|75:68|121:77,1,83.9999974365235,2|0,0:0|0:0,0:0:0:0:
43,211,62595,1,2,0:0:0:0:
43,211,62701,2,0,P|60:167|101:145,1,83.9999974365235,10|0,0:0|0:0,0:0:0:0:
127,297,63018,1,2,0:0:0:0:
127,297,63124,2,0,P|112:252|128:233,1,41.9999987182618,8|0,0:0|0:0,0:0:0:0:
191,197,63335,2,0,L|185:246,1,41.9999987182618,2|0,0:0|0:0,0:0:0:0:
209,348,63546,1,12,0:0:0:0:
288,214,63757,1,8,0:0:0:0:
404,345,63969,6,0,B|390:316|364:299|364:299|391:276|393:240,1,125.999996154785,6|2,0:0|0:0,0:0:0:0:
397,199,64391,1,10,0:0:0:0:
336,115,64602,1,0,0:0:0:0:
336,115,64708,1,0,0:0:0:0:
336,115,64814,2,0,P|362:107|395:106,1,41.9999987182618
490,44,65025,2,0,L|446:38,1,41.9999987182618
341,12,65236,1,8,0:0:0:0:
235,61,65447,1,0,0:0:0:0:
235,61,65553,1,0,0:0:0:0:
235,61,65659,6,0,B|204:78|204:78|125:64,1,83.9999974365235,2|0,0:0|0:0,0:0:0:0:
29,136,66081,2,0,L|92:146,1,41.9999987182618,8|0,0:0|0:0,0:0:0:0:
124,151,66293,1,0,0:0:0:0:
37,277,66504,1,8,0:0:0:0:
212,168,66715,1,2,0:0:0:0:
211,375,66926,1,8,0:0:0:0:
127,242,67138,1,8,0:0:0:0:
300,330,67349,6,0,P|288:266|311:180,1,125.999996154785,6|2,0:0|0:0,0:0:0:0:
322,174,67771,1,8,0:0:0:0:
432,124,67983,1,0,0:0:0:0:
462,307,68194,6,0,P|418:340|315:340,1,125.999996154785,4|2,0:0|0:0,0:0:0:0:
300,330,68616,1,8,0:0:0:0:
181,264,68828,1,0,0:0:0:0:
41,344,69039,5,14,0:0:0:0:
41,344,69250,2,0,L|6:279,1,41.9999987182618
107,250,69462,2,0,L|103:197,1,41.9999987182618,14|0,0:0|0:0,0:0:0:0:
218,199,69673,2,0,L|246:156,1,41.9999987182618
387,317,69884,6,0,L|376:374,1,41.9999987182618,14|0,0:0|0:0,0:0:0:0:
437,200,70095,2,0,L|462:265,1,41.9999987182618
393,78,70307,2,0,L|447:108,1,41.9999987182618,14|0,0:0|0:0,0:0:0:0:
285,44,70518,1,0,0:0:0:0:
255,48,70624,1,0,0:0:0:0:
226,52,70729,6,0,P|192:106|181:189,1,125.999996154785,14|2,0:0|0:0,0:0:0:0:
195,201,71152,1,8,0:0:0:0:
56,162,71363,1,0,0:0:0:0:
69,192,71469,1,0,0:0:0:0:
78,224,71574,1,10,0:0:0:0:
82,257,71680,1,0,0:0:0:0:
82,290,71785,2,0,P|51:280|13:277,1,41.9999987182618,2|0,0:0|0:0,0:0:0:0:
154,345,71997,2,0,P|197:360|271:359,1,83.9999974365235,8|0,0:0|0:0,0:0:0:0:
424,350,72419,5,2,0:0:0:0:
281,253,72631,1,0,0:0:0:0:
506,248,72842,2,0,P|456:224|401:223,1,83.9999974365235,8|0,0:0|0:0,0:0:0:0:
387,225,73159,1,0,0:0:0:0:
399,193,73264,1,2,0:0:0:0:
400,159,73370,1,0,0:0:0:0:
396,125,73476,1,0,0:0:0:0:
323,47,73687,1,8,0:0:0:0:
460,28,73898,1,0,0:0:0:0:
214,24,74109,6,0,B|199:59|217:91|217:91|235:124|213:168,1,125.999996154785,2|0,0:0|0:0,0:0:0:0:
192,187,74532,2,0,P|221:165|246:162,1,41.9999987182618,8|0,0:0|0:0,0:0:0:0:
323,235,74743,1,0,0:0:0:0:
308,265,74849,1,0,0:0:0:0:
282,286,74954,1,2,0:0:0:0:
249,294,75060,1,0,0:0:0:0:
215,290,75166,1,0,0:0:0:0:
107,233,75377,2,0,B|91:195|91:195|106:146,1,83.9999974365235,10|0,0:0|0:0,0:0:0:0:
83,51,75800,5,2,0:0:0:0:
83,51,75905,1,0,0:0:0:0:
83,51,76011,2,0,L|150:34,1,41.9999987182618
202,109,76222,1,8,0:0:0:0:
202,109,76328,1,0,0:0:0:0:
202,109,76433,2,0,L|260:121,1,41.9999987182618
364,34,76645,1,2,0:0:0:0:
362,54,76750,1,0,0:0:0:0:
360,75,76856,1,0,0:0:0:0:
358,96,76962,1,0,0:0:0:0:
357,116,77067,2,0,L|352:165,1,41.9999987182618,12|0,0:0|0:0,0:0:0:0:
225,244,77278,2,0,L|233:185,1,41.9999987182618
309,216,77490,6,0,P|355:232|423:187,1,125.999996154785,14|0,0:0|0:0,0:0:0:0:
426,166,77912,1,8,0:0:0:0:
470,314,78124,1,0,0:0:0:0:
436,314,78229,1,0,0:0:0:0:
402,314,78335,1,0,0:0:0:0:
368,314,78440,1,0,0:0:0:0:
334,314,78546,1,0,0:0:0:0:
221,272,78757,2,0,L|224:213,1,41.9999987182618,8|0,0:0|0:0,0:0:0:0:
145,296,78969,2,0,L|145:362,1,41.9999987182618
168,168,79180,6,0,P|223:151|280:174,1,83.9999974365235,10|0,0:0|0:0,0:0:0:0:
442,188,79602,2,0,L|374:172,1,41.9999987182618,10|0,0:0|0:0,0:0:0:0:
446,100,79814,2,0,L|500:90,1,41.9999987182618
373,34,80025,1,2,0:0:0:0:
373,34,80236,2,0,L|314:23,1,41.9999987182618,2|0,0:0|0:0,0:0:0:0:
247,76,80447,1,8,0:0:0:0:
154,32,80659,1,2,0:0:0:0:
49,139,80870,6,0,P|41:203|64:274,1,125.999996154785,6|0,0:0|0:0,0:0:0:0:
92,287,81293,1,8,0:0:0:0:
92,287,81398,1,0,0:0:0:0:
92,287,81504,1,0,0:0:0:0:
249,344,81715,6,0,P|225:254|247:206,1,136.499993751526,4|0,0:0|0:0,0:0:0:0:
266,195,82138,1,8,0:0:0:0:
266,195,82243,1,0,0:0:0:0:
266,195,82349,1,0,0:0:0:0:
375,73,82560,5,4,0:0:0:0:
375,73,82771,2,0,L|321:68,1,41.9999987182618
428,179,82983,2,0,L|490:171,1,41.9999987182618,12|0,0:0|0:0,0:0:0:0:
358,269,83194,2,0,L|305:261,1,41.9999987182618
436,362,83405,6,0,L|425:316,1,41.9999987182618,4|0,0:0|0:0,0:0:0:0:
321,221,83616,2,0,L|314:279,1,41.9999987182618
204,362,83828,2,0,L|197:313,1,41.9999987182618,12|0,0:0|0:0,0:0:0:0:
112,177,84039,1,0,0:0:0:0:
145,177,84145,1,0,0:0:0:0:
178,178,84250,6,0,B|227:194|266:162|266:162|314:125|379:156,1,181.999991668702,6|8,0:0|0:0,0:0:0:0:
210,37,84884,1,0,0:0:0:0:
210,37,84990,1,0,0:0:0:0:
210,37,85095,2,0,P|206:58|210:109,1,45.4999979171754
104,55,85307,2,0,P|108:34|104:-17,1,45.4999979171754
33,163,85518,2,0,P|85:151|122:165,1,90.9999958343508,8|0,0:0|0:0,0:0:0:0:
79,240,85835,1,0,0:0:0:0:
79,240,85940,1,2,0:0:0:0:
63,361,86152,6,0,L|124:368,1,45.4999979171754
267,376,86363,1,8,0:0:0:0:
185,211,86574,1,0,0:0:0:0:
264,141,86785,6,0,L|285:191,1,45.4999979171754,2|0,0:0|0:0,0:0:0:0:
315,270,86997,1,0,0:0:0:0:
460,173,87208,1,8,0:0:0:0:
473,350,87420,1,0,0:0:0:0:
288,358,87631,6,0,P|229:303|263:198,1,181.999991668702,2|8,0:0|0:0,0:0:0:0:
390,133,88264,1,0,0:0:0:0:
390,133,88370,1,0,0:0:0:0:
390,133,88476,2,0,L|445:125,1,45.4999979171754,2|0,0:0|0:0,0:0:0:0:
312,49,88687,2,0,L|378:42,1,45.4999979171754
234,93,88898,2,0,B|184:104|184:104|149:97|149:97|84:107,1,136.499993751526,8|0,0:0|0:0,0:0:0:0:
247,211,89321,5,2,0:0:0:0:
247,211,89426,1,0,0:0:0:0:
247,211,89532,2,0,L|228:143,1,45.4999979171754
190,29,89743,1,8,0:0:0:0:
190,29,89849,1,0,0:0:0:0:
190,29,89954,2,0,L|262:13,1,45.4999979171754
439,25,90166,6,0,L|427:80,1,45.4999979171754
301,125,90377,2,0,L|318:184,1,45.4999979171754
416,230,90588,2,0,L|407:290,1,45.4999979171754,8|0,0:0|0:0,0:0:0:0:
288,340,90800,1,0,0:0:0:0:
251,338,90905,1,0,0:0:0:0:
214,336,91011,6,0,P|165:320|114:254,1,136.499993751526,6|2,0:0|0:0,0:0:0:0:
142,217,91433,2,0,L|143:148,1,45.4999979171754,8|0,0:0|0:0,0:0:0:0:
175,73,91645,1,0,0:0:0:0:
175,73,91750,1,0,0:0:0:0:
175,73,91856,2,0,L|220:82,1,45.4999979171754,10|0,0:0|0:0,0:0:0:0:
252,229,92067,2,0,L|261:185,1,45.4999979171754,8|0,0:0|0:0,0:0:0:0:
393,113,92278,2,0,L|348:104,1,45.4999979171754
328,282,92490,6,0,P|271:317|177:278,1,136.499993751526
184,267,92912,1,0,0:0:0:0:
52,361,93124,2,0,P|69:307|68:243,1,90.9999958343508,8|0,0:0|0:0,0:0:0:0:
11,170,93546,1,2,0:0:0:0:
142,60,93757,2,0,L|209:47,1,45.4999979171754,8|0,0:0|0:0,0:0:0:0:
8,32,93969,1,8,0:0:0:0:
142,161,94180,2,0,L|209:173,1,45.4999979171754,8|0,0:0|0:0,0:0:0:0:
291,36,94391,6,0,B|274:71|290:126|290:126|308:188|281:241,1,181.999991668702,6|8,0:0|0:0,0:0:0:0:
451,74,95025,1,0,0:0:0:0:
451,74,95131,1,0,0:0:0:0:
451,74,95236,2,0,P|411:60|357:87,1,90.9999958343508,2|0,0:0|0:0,0:0:0:0:
477,191,95659,1,8,0:0:0:0:
371,299,95870,1,0,0:0:0:0:
371,299,95976,1,0,0:0:0:0:
371,299,96081,6,0,P|411:313|465:286,1,90.9999958343508,2|0,0:0|0:0,0:0:0:0:
289,165,96504,1,8,0:0:0:0:
249,365,96715,1,0,0:0:0:0:
103,213,96926,1,14,0:0:0:0:
279,258,97138,1,0,0:0:0:0:
242,259,97243,1,0,0:0:0:0:
206,267,97349,1,10,0:0:0:0:
174,284,97454,1,0,0:0:0:0:
140,299,97560,1,0,0:0:0:0:
104,307,97666,1,0,0:0:0:0:
67,307,97771,6,0,B|47:267|47:267|62:191,1,90.9999958343508,14|0,0:0|0:0,0:0:0:0:
65,196,98089,1,0,0:0:0:0:
65,196,98194,1,8,0:0:0:0:
154,123,98405,1,0,0:0:0:0:
227,49,98616,2,0,P|258:102|242:155,1,90.9999958343508,2|0,0:0|0:0,0:0:0:0:
181,219,99039,1,8,0:0:0:0:
347,208,99250,1,0,0:0:0:0:
361,42,99462,1,2,0:0:0:0:
361,42,99673,6,0,L|421:33,1,45.4999979171754
494,145,99884,1,8,0:0:0:0:
347,208,100095,1,0,0:0:0:0:
235,65,100307,6,0,L|180:56,1,45.4999979171754,2|0,0:0|0:0,0:0:0:0:
68,144,100518,1,0,0:0:0:0:
223,210,100729,1,8,0:0:0:0:
82,32,100940,1,0,0:0:0:0:
59,236,101152,6,0,P|104:211|202:188,1,136.499993751526,10|2,0:0|0:0,0:0:0:0:
223,210,101574,1,8,0:0:0:0:
250,347,101785,1,0,0:0:0:0:
250,347,101891,1,0,0:0:0:0:
250,347,101997,2,0,P|273:333|293:299,1,45.4999979171754
375,330,102208,2,0,P|381:307|379:265,1,45.4999979171754
469,261,102419,2,0,P|452:189|461:146,1,90.9999958343508,8|0,0:0|0:0,0:0:0:0:
391,72,102842,5,2,0:0:0:0:
391,72,102947,1,0,0:0:0:0:
391,72,103053,2,0,L|448:59,1,45.4999979171754
259,142,103264,1,8,0:0:0:0:
259,142,103370,1,0,0:0:0:0:
259,142,103476,2,0,L|325:157,1,45.4999979171754
161,46,103687,5,0,0:0:0:0:
41,141,103898,1,0,0:0:0:0:
182,222,104109,1,8,0:0:0:0:
58,323,104321,1,0,0:0:0:0:
58,323,104426,1,0,0:0:0:0:
58,323,104532,6,0,P|129:354|195:332,1,136.499993751526,2|2,0:0|0:0,0:0:0:0:
217,311,104954,2,0,L|277:312,1,45.4999979171754,8|0,0:0|0:0,0:0:0:0:
364,369,105166,1,0,0:0:0:0:
302,216,105377,1,0,0:0:0:0:
488,276,105588,1,0,0:0:0:0:
408,123,105800,2,0,L|349:117,1,45.4999979171754,8|0,0:0|0:0,0:0:0:0:
497,24,106011,1,0,0:0:0:0:
497,24,106433,5,0,0:0:0:0:
362,118,106645,2,0,L|351:63,1,45.4999979171754,8|0,0:0|0:0,0:0:0:0:
268,16,106856,1,0,0:0:0:0:
192,156,107067,5,0,0:0:0:0:
74,38,107278,2,0,L|80:104,1,45.4999979171754
184,15,107490,1,8,0:0:0:0:
75,184,107701,1,0,0:0:0:0:
271,262,107912,6,0,P|203:254|151:293,1,136.499993751526,2|2,0:0|0:0,0:0:0:0:
132,328,108335,1,8,0:0:0:0:
132,328,108440,1,0,0:0:0:0:
132,328,108546,1,0,0:0:0:0:
276,380,108757,1,0,0:0:0:0:
384,277,108969,1,0,0:0:0:0:
259,181,109180,2,0,L|266:235,1,45.4999979171754,8|0,0:0|0:0,0:0:0:0:
358,111,109391,2,0,L|368:176,1,45.4999979171754
450,29,109602,5,6,0:0:0:0:
450,29,109814,2,0,L|394:9,1,45.4999979171754
314,123,110025,2,0,L|378:105,1,45.4999979171754,14|0,0:0|0:0,0:0:0:0:
224,17,110236,2,0,L|177:9,1,45.4999979171754
62,152,110447,6,0,L|48:103,1,45.4999979171754,12|0,0:0|0:0,0:0:0:0:
173,257,110659,2,0,L|185:204,1,45.4999979171754
166,82,110870,1,12,0:0:0:0:
65,306,111081,1,0,0:0:0:0:
65,306,111187,1,0,0:0:0:0:
65,306,111293,5,6,0:0:0:0:
182,360,111504,2,0,P|178:306|171:259,1,77.0000023498536,0|8,0:0|0:0,0:0:0:0:
252,214,111926,2,0,L|255:172,2,38.5000011749268,0|0|2,0:0|0:0|0:0,0:0:0:0:
339,354,112349,2,0,P|341:293|348:258,1,77.0000023498536,0|8,0:0|0:0,0:0:0:0:
428,225,112771,2,0,P|433:183|433:170,2,38.5000011749268,0|0|2,0:0|0:0|0:0,0:0:0:0:
462,44,113194,6,0,P|412:32|380:32,1,77.0000023498536,0|8,0:0|0:0,0:0:0:0:
298,108,113616,2,0,P|265:115|254:115,2,38.5000011749268
432,186,114039,2,0,P|376:197|333:199,1,77.0000023498536,0|8,0:0|0:0,0:0:0:0:
227,215,114462,1,0,0:0:0:0:
95,164,114673,1,2,0:0:0:0:
95,164,114884,6,0,P|86:102|87:71,1,77.0000023498536,0|8,0:0|0:0,0:0:0:0:
106,251,115307,2,0,P|63:264|43:263,2,38.5000011749268
227,215,115729,2,0,P|225:266|233:302,1,77.0000023498536,0|8,0:0|0:0,0:0:0:0:
245,127,116152,2,0,P|271:122|309:129,2,38.5000011749268,0|0|2,0:0|0:0|0:0,0:0:0:0:
364,70,116574,5,0,0:0:0:0:
422,140,116785,1,8,0:0:0:0:
370,217,116997,1,0,0:0:0:0:
370,217,117102,1,0,0:0:0:0:
370,217,117208,1,0,0:0:0:0:
417,295,117419,1,0,0:0:0:0:
265,361,117631,2,0,P|283:308|273:232,1,115.50000352478,12|0,0:0|0:0,0:0:0:0:
270,224,118053,1,6,0:0:0:0:
165,167,118264,6,0,P|150:231|136:253,1,77.0000023498536,0|8,0:0|0:0,0:0:0:0:
56,273,118687,2,0,L|13:256,2,38.5000011749268
90,101,119109,6,0,P|140:75|179:74,1,77.0000023498536,0|8,0:0|0:0,0:0:0:0:
245,113,119531,2,0,L|255:158,2,38.5000011749268,0|0|2,0:0|0:0|0:0,0:0:0:0:
264,269,119954,6,0,P|312:294|363:294,1,77.0000023498536,0|8,0:0|0:0,0:0:0:0:
430,283,120377,2,0,L|436:240,2,38.5000011749268
443,83,120800,6,0,P|398:80|367:97,1,77.0000023498536,0|8,0:0|0:0,0:0:0:0:
280,193,121222,1,0,0:0:0:0:
184,97,121434,1,2,0:0:0:0:
184,97,121645,6,0,L|84:87,1,77.0000023498536,0|8,0:0|0:0,0:0:0:0:
49,155,122067,1,0,0:0:0:0:
49,155,122173,1,0,0:0:0:0:
49,155,122278,1,0,0:0:0:0:
109,325,122490,6,0,L|193:304,1,77.0000023498536,0|8,0:0|0:0,0:0:0:0:
230,224,122912,1,0,0:0:0:0:
230,224,123018,1,0,0:0:0:0:
230,224,123124,5,2,0:0:0:0:
277,294,123335,1,0,0:0:0:0:
411,196,123546,5,10,0:0:0:0:
388,276,123757,1,0,0:0:0:0:
297,136,123969,5,10,0:0:0:0:
437,53,124180,1,0,0:0:0:0:
472,132,124391,5,14,0:0:0:0:
294,52,124602,1,0,0:0:0:0:
268,229,124814,6,0,P|317:245|356:281,1,77.0000023498536,14|0,0:0|0:0,0:0:0:0:
394,348,125236,1,10,0:0:0:0:
462,256,125447,1,0,0:0:0:0:
462,256,125553,1,0,0:0:0:0:
462,256,125659,1,2,0:0:0:0:
371,141,125870,2,0,L|379:199,2,38.5000011749268,0|0|10,0:0|0:0|0:0,0:0:0:0:
462,67,126293,1,0,0:0:0:0:
332,17,126504,1,2,0:0:0:0:
332,17,126715,6,0,P|273:41|246:45,1,77.0000023498536,0|8,0:0|0:0,0:0:0:0:
159,23,127138,1,0,0:0:0:0:
159,23,127243,1,0,0:0:0:0:
159,23,127349,2,0,L|169:79,1,38.5000011749268,2|0,0:0|0:0,0:0:0:0:
81,126,127560,2,0,L|74:180,1,38.5000011749268
174,161,127771,1,8,0:0:0:0:
269,128,127983,1,0,0:0:0:0:
366,166,128194,1,2,0:0:0:0:
366,166,128405,6,0,L|352:249,1,77.0000023498536,0|8,0:0|0:0,0:0:0:0:
401,328,128828,1,0,0:0:0:0:
401,328,128933,1,0,0:0:0:0:
401,328,129039,2,0,P|356:341|313:334,2,77.0000023498536,2|0|8,0:0|0:0|0:0,0:0:0:0:
453,258,129673,2,0,P|478:250|503:250,2,38.5000011749268,0|0|2,0:0|0:0|0:0,0:0:0:0:
293,203,130095,1,0,0:0:0:0:
293,203,130307,6,0,L|195:190,1,77.0000023498536,8|0,0:0|0:0,0:0:0:0:
66,283,130729,2,0,L|156:292,1,77.0000023498536
245,289,131152,1,8,0:0:0:0:
122,203,131363,1,0,0:0:0:0:
288,94,131574,6,0,L|197:77,1,77.0000023498536,2|0,0:0|0:0,0:0:0:0:
108,104,131997,1,8,0:0:0:0:
108,104,132102,1,0,0:0:0:0:
108,104,132208,1,0,0:0:0:0:
122,203,132419,1,2,0:0:0:0:
149,304,132631,2,0,L|87:319,2,38.5000011749268,0|0|8,0:0|0:0|0:0,0:0:0:0:
235,237,133053,1,0,0:0:0:0:
235,237,133476,5,0,0:0:0:0:
276,353,133686,2,0,P|312:322|354:302,1,77.0000023498536,8|0,0:0|0:0,0:0:0:0:
474,309,134109,2,0,P|451:252|450:213,1,77.0000023498536,2|0,0:0|0:0,0:0:0:0:
475,79,134532,1,8,0:0:0:0:
353,170,134743,1,0,0:0:0:0:
254,48,134954,6,0,P|206:54|180:153,1,154.000004699707,2|8,0:0|0:0,0:0:0:0:
208,166,135483,1,0,0:0:0:0:
208,166,135588,1,0,0:0:0:0:
82,138,135800,2,0,P|90:195|85:230,1,77.0000023498536
95,339,136222,1,8,0:0:0:0:
212,283,136433,1,0,0:0:0:0:
212,283,136856,5,0,0:0:0:0:
307,346,137067,2,0,P|356:359|398:351,1,77.0000023498536,8|0,0:0|0:0,0:0:0:0:
489,203,137490,1,0,0:0:0:0:
360,270,137701,1,0,0:0:0:0:
488,336,137912,1,12,0:0:0:0:
374,135,138124,1,2,0:0:0:0:
374,135,138229,1,0,0:0:0:0:
374,135,138335,6,0,B|328:121|328:121|247:144,1,125.999996154785,14|2,2:3|0:0,0:0:0:0:
216,159,138757,1,8,2:3:0:0:
216,159,138863,1,0,0:0:0:0:
216,159,138969,1,0,0:0:0:0:
322,217,139180,1,0,3:0:0:0:
272,46,139391,1,0,0:0:0:0:
415,66,139602,2,0,L|458:85,2,41.9999987182618,8|0|0,0:0|0:0|0:0,0:0:0:0:
180,9,140025,6,0,P|132:24|101:66,1,83.9999974365235,2|0,3:2|0:0,0:0:0:0:
50,127,140447,2,0,B|69:151|69:151|55:242,1,83.9999974365235,8|0,3:0|0:0,0:0:0:0:
43,238,140764,1,0,0:0:0:0:
43,238,140870,2,0,L|58:298,1,41.9999987182618,2|0,3:2|0:0,0:0:0:0:
124,330,141081,1,0,0:0:0:0:
232,182,141293,2,0,L|180:175,2,41.9999987182618,12|0|0,0:0|0:0|0:0,0:0:0:0:
124,77,141715,6,0,L|218:57,1,83.9999974365235,2|0,3:2|0:0,0:0:0:0:
285,44,142032,1,0,0:0:0:0:
285,44,142138,1,8,3:0:0:0:
393,102,142349,2,0,L|383:146,2,41.9999987182618
496,58,142771,1,0,0:0:0:0:
433,217,142983,2,0,P|387:228|343:216,1,83.9999974365235,12|0,3:2|0:0,0:0:0:0:
265,313,143405,6,0,P|218:304|163:327,1,83.9999974365235,2|0,3:0|0:0,0:0:0:0:
99,374,143722,1,0,0:0:0:0:
99,374,143828,2,0,L|99:267,1,83.9999974365235,12|0,3:2|0:0,0:0:0:0:
43,201,144250,1,2,3:2:0:0:
43,201,144356,1,0,0:0:0:0:
43,201,144462,1,0,0:0:0:0:
177,113,144673,1,12,3:2:0:0:
41,26,144884,1,0,3:2:0:0:
250,59,145095,6,0,P|279:72|372:67,1,125.999996154785,6|2,2:3|0:0,0:0:0:0:
408,50,145518,2,0,P|429:41|457:37,2,41.9999987182618,8|0|0,3:0|0:0|0:0,0:0:0:0:
489,136,145940,1,2,3:2:0:0:
489,136,146046,1,0,0:0:0:0:
489,136,146152,1,0,0:0:0:0:
404,272,146363,1,8,3:2:0:0:
291,165,146574,1,8,2:3:0:0:
291,165,146997,5,0,3:2:0:0:
185,315,147208,2,0,P|178:238|173:200,1,83.9999974365235,8|0,3:0|0:0,0:0:0:0:
74,70,147631,2,0,L|82:122,2,41.9999987182618,2|0|0,3:2|0:0|0:0,0:0:0:0:
76,228,148053,1,8,3:2:0:0:
188,58,148264,1,0,3:2:0:0:
317,248,148476,6,0,P|304:204|318:149,1,83.9999974365235,2|0,3:2|0:0,0:0:0:0:
331,130,148793,1,0,0:0:0:0:
331,130,148898,1,8,3:0:0:0:
469,60,149109,2,0,B|482:100|482:100|478:158,1,83.9999974365235
475,344,149532,1,0,0:0:0:0:
475,344,149638,1,0,0:0:0:0:
475,344,149743,1,8,3:2:0:0:
317,248,149954,1,8,2:3:0:0:
317,248,150377,5,0,3:2:0:0:
131,342,150588,2,0,P|188:344|252:329,1,83.9999974365235,8|0,3:2|0:0,0:0:0:0:
54,271,151011,1,0,3:2:0:0:
214,256,151222,1,0,3:0:0:0:
65,118,151433,1,8,3:2:0:0:
206,43,151645,1,2,0:0:0:0:
206,43,151750,1,0,0:0:0:0:
206,43,151856,6,0,P|255:56|293:55,1,83.9999974365235,14|0,2:3|0:0,0:0:0:0:
437,29,152278,1,8,3:0:0:0:
496,161,152490,1,0,0:0:0:0:
363,204,152701,1,2,3:2:0:0:
330,213,152807,1,0,0:0:0:0:
298,222,152912,1,0,0:0:0:0:
265,232,153018,1,0,0:0:0:0:
232,242,153124,1,8,3:2:0:0:
272,137,153335,1,0,0:0:0:0:
172,310,153546,6,0,P|231:332|275:322,1,83.9999974365235,2|0,3:2|0:0,0:0:0:0:
352,285,153969,1,8,3:2:0:0:
477,325,154180,1,0,0:0:0:0:
477,325,154285,1,0,0:0:0:0:
477,325,154391,1,2,3:2:0:0:
459,200,154602,1,0,0:0:0:0:
244,213,154814,2,0,P|269:171|269:121,1,83.9999974365235,8|0,3:2|0:0,0:0:0:0:
207,61,155131,1,2,0:0:0:0:
207,61,155236,6,0,L|88:62,1,83.9999974365235,2|0,3:2|0:0,0:0:0:0:
48,145,155659,1,8,3:0:0:0:
107,230,155870,1,0,3:0:0:0:
53,345,156081,1,2,0:0:0:0:
86,340,156187,1,0,0:0:0:0:
119,335,156293,1,0,0:0:0:0:
152,331,156398,1,0,0:0:0:0:
185,327,156504,1,8,3:0:0:0:
279,274,156715,1,0,0:0:0:0:
375,363,156926,6,0,P|371:322|353:266,1,83.9999974365235,2|0,3:2|0:0,0:0:0:0:
434,194,157349,2,0,P|443:149|462:104,1,83.9999974365235,8|0,3:2|0:0,0:0:0:0:
357,36,157771,2,0,P|303:36|254:51,1,83.9999974365235,2|0,3:2|0:0,0:0:0:0:
462,30,158194,1,8,3:0:0:0:
310,140,158405,1,0,3:0:0:0:
144,50,158616,5,2,3:0:0:0:
60,98,158828,2,0,P|105:140|147:146,1,83.9999974365235,0|8,0:0|0:0,0:0:0:0:
218,115,159250,1,0,0:0:0:0:
310,193,159462,1,2,3:2:0:0:
284,214,159567,1,0,0:0:0:0:
252,226,159673,1,0,0:0:0:0:
219,232,159778,1,0,0:0:0:0:
185,229,159884,1,10,2:3:0:0:
151,224,159990,1,0,0:0:0:0:
118,231,160095,1,14,3:0:0:0:
118,231,160518,5,2,3:0:0:0:
104,359,160729,2,0,L|89:252,1,83.9999974365235,8|0,3:2|0:0,0:0:0:0:
218,115,161152,2,0,L|229:211,1,83.9999974365235,2|0,3:2|0:0,0:0:0:0:
96,142,161574,1,8,3:0:0:0:
226,24,161785,1,0,3:0:0:0:
369,115,161997,6,0,P|417:143|435:174,1,83.9999974365235,2|0,3:0|0:0,0:0:0:0:
424,288,162419,1,8,2:3:0:0:
314,212,162631,1,0,0:0:0:0:
416,45,162842,1,2,3:2:0:0:
383,36,162947,1,0,0:0:0:0:
349,36,163053,1,0,0:0:0:0:
317,46,163159,1,0,0:0:0:0:
290,66,163264,1,8,3:2:0:0:
257,75,163370,1,0,0:0:0:0:
223,71,163476,1,6,2:3:0:0:
223,71,163898,5,6,3:2:0:0:
66,60,164109,1,10,3:2:0:0:
83,88,164215,1,0,0:0:0:0:
89,121,164321,1,0,0:0:0:0:
84,154,164426,1,0,0:0:0:0:
65,182,164532,1,10,0:0:0:0:
39,209,164638,1,0,0:0:0:0:
32,245,164743,1,0,0:0:0:0:
43,285,164849,1,0,0:0:0:0:
77,309,164954,1,10,0:0:0:0:
122,318,165060,1,0,0:0:0:0:
160,292,165166,2,0,P|194:273|212:269,1,41.9999987182618,14|0,0:0|0:0,0:0:0:0:
260,362,165377,5,2,0:0:0:0:
347,236,165588,2,0,P|301:217|244:203,1,87.5,0|8,0:0|0:0,0:0:0:0:
443,358,166011,2,0,P|434:309|439:263,1,87.5,2|2,0:0|0:0,0:0:0:0:
453,240,166328,1,0,0:0:0:0:
461,206,166433,1,0,0:0:0:0:
459,170,166539,1,0,0:0:0:0:
445,137,166645,1,8,0:0:0:0:
354,77,166856,1,0,0:0:0:0:
258,137,167067,1,2,0:0:0:0:
258,137,167278,6,0,L|242:40,1,87.5,0|8,0:0|0:0,0:0:0:0:
146,239,167701,2,0,L|162:334,1,87.5,0|2,0:0|0:0,0:0:0:0:
116,119,168124,1,0,0:0:0:0:
116,119,168229,1,0,0:0:0:0:
116,119,168335,1,8,0:0:0:0:
265,232,168546,1,0,0:0:0:0:
322,27,168757,5,2,0:0:0:0:
425,69,168969,2,0,P|378:51|322:43,1,87.5,0|8,0:0|0:0,0:0:0:0:
141,122,169391,2,0,P|181:138|224:146,1,87.5,0|2,0:0|0:0,0:0:0:0:
144,26,169814,1,0,0:0:0:0:
144,26,169919,1,0,0:0:0:0:
144,26,170025,1,8,0:0:0:0:
267,232,170236,1,0,0:0:0:0:
45,208,170447,6,0,L|57:306,1,87.5,2|0,0:0|0:0,0:0:0:0:
141,122,170870,2,0,L|151:210,1,87.5,8|0,0:0|0:0,0:0:0:0:
179,336,171293,1,2,0:0:0:0:
209,319,171398,1,0,0:0:0:0:
243,314,171504,1,0,0:0:0:0:
277,319,171609,1,0,0:0:0:0:
308,334,171715,1,8,0:0:0:0:
404,290,171926,1,0,0:0:0:0:
313,190,172138,6,0,P|262:209|220:190,1,87.5,2|0,0:0|0:0,0:0:0:0:
199,55,172560,1,8,0:0:0:0:
367,115,172771,2,0,P|399:158|403:202,1,87.5,0|2,0:0|0:0,0:0:0:0:
457,52,173194,1,0,0:0:0:0:
310,23,173405,1,8,0:0:0:0:
310,23,173511,1,0,0:0:0:0:
310,23,173616,1,2,0:0:0:0:
310,23,174039,5,0,0:0:0:0:
129,53,174250,2,0,L|177:73,2,43.75,8|0|0,0:0|0:0|0:0,0:0:0:0:
98,178,174673,1,2,0:0:0:0:
253,117,174884,1,0,0:0:0:0:
209,289,175095,1,8,0:0:0:0:
173,287,175201,1,0,0:0:0:0:
137,285,175307,1,0,0:0:0:0:
102,284,175412,1,0,0:0:0:0:
66,283,175518,5,2,0:0:0:0:
184,199,175729,1,0,0:0:0:0:
184,199,175835,1,0,0:0:0:0:
184,199,175940,1,8,0:0:0:0:
257,342,176152,1,0,0:0:0:0:
291,345,176257,1,0,0:0:0:0:
325,338,176363,1,2,0:0:0:0:
353,317,176469,1,0,0:0:0:0:
372,288,176574,1,0,0:0:0:0:
378,253,176680,1,0,0:0:0:0:
374,218,176785,1,8,0:0:0:0:
288,134,176997,1,0,0:0:0:0:
288,134,177419,5,0,0:0:0:0:
459,66,177631,2,0,B|440:70|416:60|416:60|389:50|363:56,1,87.5,8|0,0:0|0:0,0:0:0:0:
210,53,178053,2,0,L|278:41,1,43.75,2|0,0:0|0:0,0:0:0:0:
127,135,178264,2,0,L|59:123,1,43.75
225,206,178476,2,0,L|286:193,1,43.75,8|0,0:0|0:0,0:0:0:0:
133,261,178687,1,2,0:0:0:0:
89,259,178793,1,0,0:0:0:0:
47,258,178898,5,2,0:0:0:0:
176,367,179109,2,0,P|215:351|277:341,1,87.5,0|8,0:0|0:0,0:0:0:0:
437,294,179532,2,0,P|380:287|331:273,1,87.5,0|2,0:0|0:0,0:0:0:0:
248,206,179954,1,0,0:0:0:0:
283,204,180060,1,0,0:0:0:0:
314,188,180166,1,8,0:0:0:0:
338,163,180271,1,0,0:0:0:0:
352,130,180377,1,2,0:0:0:0:
260,27,180588,6,0,L|263:116,1,87.5,2|0,0:0|0:0,0:0:0:0:
463,222,181011,2,0,L|459:123,1,87.5,8|0,0:0|0:0,0:0:0:0:
388,32,181433,1,2,0:0:0:0:
260,27,181644,1,0,0:0:0:0:
170,97,181856,2,0,P|169:141|151:206,1,87.5,8|0,0:0|0:0,0:0:0:0:
37,25,182278,6,0,P|20:81|21:162,1,131.25,2|2,0:0|0:0,0:0:0:0:
42,236,182701,1,8,0:0:0:0:
42,236,182807,1,0,0:0:0:0:
42,236,182912,2,0,P|79:234|127:238,1,43.75
96,337,183124,2,0,P|154:328|197:281,1,87.5,2|0,0:0|0:0,0:0:0:0:
262,248,183546,1,8,0:0:0:0:
363,310,183757,1,0,0:0:0:0:
463,243,183969,6,0,L|459:150,1,87.5,2|0,0:0|0:0,0:0:0:0:
346,55,184391,1,8,0:0:0:0:
346,55,184497,1,0,0:0:0:0:
346,55,184602,2,0,L|351:152,1,87.5,0|2,0:0|0:0,0:0:0:0:
250,22,185025,1,0,0:0:0:0:
185,93,185236,1,8,0:0:0:0:
149,93,185342,1,0,0:0:0:0:
114,93,185447,1,0,0:0:0:0:
78,92,185553,1,0,0:0:0:0:
42,92,185659,6,0,P|38:157|42:208,1,87.5,2|0,0:0|0:0,0:0:0:0:
5,274,186081,1,8,0:0:0:0:
128,207,186293,1,0,0:0:0:0:
94,332,186504,1,2,0:0:0:0:
127,339,186609,1,0,0:0:0:0:
161,332,186715,1,0,0:0:0:0:
193,318,186821,1,0,0:0:0:0:
216,291,186926,1,8,0:0:0:0:
251,208,187138,1,0,0:0:0:0:
251,208,187560,5,0,0:0:0:0:
333,287,187771,2,0,P|357:337|365:371,1,87.5,8|0,0:0|0:0,0:0:0:0:
441,132,188194,2,0,P|424:191|421:241,1,87.5,2|0,0:0|0:0,0:0:0:0:
473,326,188616,1,8,0:0:0:0:
309,168,188828,1,2,0:0:0:0:
492,60,189039,5,2,0:0:0:0:
492,60,189145,1,0,0:0:0:0:
492,60,189250,2,0,P|432:42|386:52,1,87.5,0|8,0:0|0:0,0:0:0:0:
265,92,189673,2,0,P|204:107|167:104,1,87.5,0|2,0:0|0:0,0:0:0:0:
37,79,190095,1,0,0:0:0:0:
37,79,190201,1,0,0:0:0:0:
37,79,190307,1,8,0:0:0:0:
186,17,190518,1,0,0:0:0:0:
186,17,190940,5,0,0:0:0:0:
57,206,191152,1,10,0:0:0:0:
87,189,191257,1,0,0:0:0:0:
121,180,191363,1,0,0:0:0:0:
155,176,191469,1,0,0:0:0:0:
189,179,191574,1,14,0:0:0:0:
223,187,191680,1,0,0:0:0:0:
254,201,191785,1,0,0:0:0:0:
285,215,191891,1,0,0:0:0:0:
319,223,191997,1,14,0:0:0:0:
353,226,192102,1,0,0:0:0:0:
387,222,192208,1,0,0:0:0:0:
421,213,192314,1,0,0:0:0:0:
451,196,192419,5,6,0:0:0:0:
436,108,192631,1,0,0:0:0:0:
420,21,192842,2,0,L|472:14,2,36.749998878479,10|0|0,0:0|0:0|0:0,0:0:0:0:
287,70,193264,5,2,0:0:0:0:
300,157,193476,1,0,0:0:0:0:
312,244,193687,2,0,L|370:235,2,36.749998878479,10|0|0,0:0|0:0|0:0,0:0:0:0:
441,317,194109,5,2,0:0:0:0:
360,354,194321,1,0,0:0:0:0:
277,324,194532,1,10,0:0:0:0:
277,324,194638,1,0,0:0:0:0:
277,324,194743,1,0,0:0:0:0:
196,360,194954,1,2,0:0:0:0:
113,328,195166,1,0,0:0:0:0:
35,370,195377,2,0,L|80:352,1,36.749998878479,8|0,0:0|0:0,0:0:0:0:
198,276,195588,1,12,2:3:0:0:
35,195,195800,5,12,3:2:0:0:
41,107,196011,1,0,0:0:0:0:
119,165,196222,1,10,0:0:0:0:
119,165,196328,1,0,0:0:0:0:
119,165,196433,1,0,0:0:0:0:
186,43,196645,5,2,0:0:0:0:
238,113,196856,1,0,0:0:0:0:
279,35,197067,1,10,0:0:0:0:
279,35,197173,1,0,0:0:0:0:
279,35,197278,1,0,0:0:0:0:
455,91,197490,6,0,P|432:139|420:200,1,110.249996635437,2|2,0:0|0:0,0:0:0:0:
451,232,197912,2,0,P|460:247|469:272,2,36.749998878479,10|0|0,0:0|0:0|0:0,0:0:0:0:
389,286,198229,1,0,0:0:0:0:
389,286,198335,1,2,0:0:0:0:
296,263,198546,1,0,0:0:0:0:
228,347,198757,1,12,0:0:0:0:
196,336,198863,1,0,0:0:0:0:
162,334,198969,2,0,L|114:338,1,36.749998878479
24,287,199180,5,6,0:0:0:0:
35,273,199285,1,0,0:0:0:0:
44,258,199391,1,0,0:0:0:0:
52,241,199496,1,0,0:0:0:0:
59,224,199602,1,10,0:0:0:0:
63,207,199707,1,0,0:0:0:0:
65,188,199813,1,0,0:0:0:0:
65,170,199919,1,0,0:0:0:0:
61,150,200025,2,0,L|48:110,3,36.749998878479,2|0|0|0,0:0|0:0|0:0|0:0,0:0:0:0:
127,30,200447,2,0,L|141:81,3,36.749998878479,10|0|0|0,0:0|0:0|0:0|0:0,0:0:0:0:
165,170,200870,5,2,0:0:0:0:
182,176,200975,1,0,0:0:0:0:
200,178,201081,1,0,0:0:0:0:
218,176,201186,1,0,0:0:0:0:
235,169,201293,1,10,0:0:0:0:
251,162,201398,1,0,0:0:0:0:
270,159,201504,1,0,0:0:0:0:
288,161,201609,1,0,0:0:0:0:
305,167,201715,2,0,L|298:213,3,36.749998878479,2|0|0|0,0:0|0:0|0:0|0:0,0:0:0:0:
387,126,202138,1,10,0:0:0:0:
387,126,202243,1,0,0:0:0:0:
387,126,202349,1,2,0:0:0:0:
471,244,202560,6,0,P|452:233|422:221,3,36.749998878479,6|0|0|0,0:0|0:0|0:0|0:0,0:0:0:0:
422,328,202983,1,10,0:0:0:0:
404,333,203088,1,0,0:0:0:0:
386,338,203194,1,0,0:0:0:0:
368,341,203299,1,0,0:0:0:0:
350,343,203405,1,10,0:0:0:0:
331,343,203511,1,0,0:0:0:0:
313,342,203616,1,0,0:0:0:0:
295,340,203722,1,0,0:0:0:0:
277,337,203828,1,10,0:0:0:0:
259,332,203933,1,0,0:0:0:0:
242,326,204039,1,0,0:0:0:0:
225,319,204144,1,0,0:0:0:0:
210,310,204250,6,0,L|207:268,1,36.749998878479,2|0,0:0|0:0,0:0:0:0:
277,200,204462,1,0,0:0:0:0:
164,114,204673,2,0,L|167:165,1,36.749998878479,10|0,0:0|0:0,0:0:0:0:
99,224,204884,1,0,0:0:0:0:
247,71,205095,5,10,0:0:0:0:
54,117,205307,1,2,0:0:0:0:
102,37,205518,1,12,0:0:0:0:
257,156,205729,1,2,0:0:0:0:
410,43,205940,5,14,0:0:0:0:
401,59,206045,1,0,0:0:0:0:
394,76,206151,1,0,0:0:0:0:
388,93,206256,1,0,0:0:0:0:
383,111,206362,1,12,0:0:0:0:
380,129,206468,1,0,0:0:0:0:
378,147,206573,1,0,0:0:0:0:
377,165,206679,1,0,0:0:0:0:
378,184,206785,1,6,0:0:0:0:
380,202,206890,1,0,0:0:0:0:
383,220,206996,1,0,0:0:0:0:
388,238,207101,1,0,0:0:0:0:
394,255,207207,1,10,0:0:0:0:
419,284,207314,5,0,0:0:0:0:
394,277,207419,1,0,0:0:0:0:
368,277,207525,1,0,0:0:0:0:
342,282,207631,1,14,0:0:0:0:
319,293,207736,1,0,0:0:0:0:
300,310,207842,1,0,0:0:0:0:
279,324,207947,1,0,0:0:0:0:
255,334,208053,1,12,0:0:0:0:
229,336,208159,1,0,0:0:0:0:
204,330,208264,1,0,0:0:0:0:
182,315,208370,1,0,0:0:0:0:
166,294,208476,2,0,L|172:247,3,36.749998878479,10|0|0|0,0:0|0:0|0:0|0:0,0:0:0:0:
69,173,208898,2,0,L|58:228,3,36.749998878479,14|0|0|0,0:0|0:0|0:0|0:0,0:0:0:0:
53,72,209321,5,14,3:2:0:0:
71,79,209426,1,0,0:0:0:0:
90,85,209532,1,0,0:0:0:0:
109,89,209637,1,0,0:0:0:0:
129,93,209743,1,12,0:0:0:0:
148,95,209849,1,0,0:0:0:0:
168,96,209954,1,0,0:0:0:0:
188,95,210060,1,0,0:0:0:0:
207,94,210166,1,6,0:0:0:0:
227,90,210271,1,0,0:0:0:0:
246,86,210377,1,0,0:0:0:0:
265,81,210482,1,0,0:0:0:0:
284,74,210588,1,12,0:0:0:0:
316,51,210694,5,0,0:0:0:0:
310,76,210800,1,0,0:0:0:0:
308,101,210905,1,0,0:0:0:0:
313,126,211011,1,14,0:0:0:0:
323,149,211116,1,0,0:0:0:0:
339,168,211222,1,0,0:0:0:0:
357,185,211328,1,0,0:0:0:0:
365,208,211433,1,12,0:0:0:0:
368,233,211539,1,0,0:0:0:0:
366,258,211645,1,0,0:0:0:0:
357,282,211750,1,0,0:0:0:0:
340,299,211856,2,0,L|293:275,3,36.749998878479,14|0|0|0,0:0|0:0|0:0|0:0,0:0:0:0:
217,346,212278,2,0,L|175:357,3,36.749998878479,12|0|0|0,0:0|0:0|0:0|0:0,0:0:0:0:
61,374,212701,5,14,0:0:0:0:
52,353,212807,1,0,0:0:0:0:
50,331,212912,1,0,0:0:0:0:
55,309,213018,1,0,0:0:0:0:
63,288,213124,1,10,0:0:0:0:
103,259,213229,5,0,0:0:0:0:
81,245,213334,1,0,0:0:0:0:
66,223,213440,1,0,0:0:0:0:
58,198,213546,1,10,0:0:0:0:
58,172,213651,1,0,0:0:0:0:
62,146,213757,1,0,0:0:0:0:
77,125,213863,1,0,0:0:0:0:
98,108,213969,1,10,0:0:0:0:
144,87,214074,5,0,0:0:0:0:
172,95,214180,1,0,0:0:0:0:
201,97,214285,1,0,0:0:0:0:
230,95,214391,1,6,0:0:0:0:
258,88,214497,1,0,0:0:0:0:
284,76,214602,1,0,0:0:0:0:
308,59,214708,1,0,0:0:0:0:
335,49,214814,1,10,0:0:0:0:
364,49,214919,1,0,0:0:0:0:
393,54,215025,1,0,0:0:0:0:
417,70,215131,1,0,0:0:0:0:
433,93,215236,2,0,L|445:151,3,36.749998878479,10|0|0|0,0:0|0:0|0:0|0:0,0:0:0:0:
342,190,215659,2,0,L|320:238,3,36.749998878479,10|0|0|0,0:0|0:0|0:0|0:0,0:0:0:0:
423,353,216081,5,14,0:0:0:0:
400,353,216187,1,0,0:0:0:0:
377,354,216293,1,0,0:0:0:0:
355,355,216398,1,0,0:0:0:0:
332,356,216504,1,10,0:0:0:0:
310,357,216609,1,0,0:0:0:0:
287,358,216715,1,0,0:0:0:0:
264,359,216821,1,0,0:0:0:0:
242,360,216926,1,10,0:0:0:0:
219,361,217032,1,0,0:0:0:0:
196,362,217138,1,0,0:0:0:0:
174,363,217243,1,0,0:0:0:0:
151,364,217349,1,10,0:0:0:0:
129,366,217454,1,0,0:0:0:0:
106,368,217560,1,0,0:0:0:0:
84,370,217666,1,0,0:0:0:0:
60,339,217771,5,6,0:0:0:0:
69,310,217877,1,0,0:0:0:0:
69,280,217983,1,0,0:0:0:0:
65,250,218088,1,0,0:0:0:0:
50,224,218194,1,10,0:0:0:0:
44,191,218300,1,0,0:0:0:0:
55,160,218405,1,0,0:0:0:0:
78,136,218511,1,0,0:0:0:0:
110,132,218616,1,10,0:0:0:0:
146,139,218722,1,0,0:0:0:0:
174,161,218828,1,0,0:0:0:0:
186,195,218933,1,0,0:0:0:0:
187,231,219039,1,10,0:0:0:0:
206,266,219145,1,0,0:0:0:0:
238,289,219250,1,0,0:0:0:0:
278,294,219356,1,0,0:0:0:0:
317,283,219462,6,0,P|269:294|215:345,1,112,14|8,0:0|0:0,0:0:0:0:
157,384,220095,2,0,P|36:341|49:198,1,280,2|2,0:0|0:0,0:0:0:0:
97,95,221363,5,0,0:0:0:0:
97,95,221574,2,0,L|176:83,1,56,8|0,0:0|0:0,0:0:0:0:
252,28,221997,1,2,0:0:0:0:
252,28,222208,2,0,L|333:41,2,56,0|8|0,0:0|0:0|0:0,0:0:0:0:
416,47,222842,6,0,P|403:82|396:163,1,112,2|0,0:0|0:0,0:0:0:0:
393,243,223476,2,0,B|429:240|452:224|452:224|411:265|394:314|394:314|337:273|217:259|152:293|152:293|106:317|65:306,1,504,2|2,0:0|0:0,0:0:0:0:
92,221,225588,2,0,P|100:175|101:139,2,56,0|8|0,0:0|0:0|0:0,0:0:0:0:
34,98,226222,6,0,P|93:79|160:97,1,112,2|8,0:0|0:0,0:0:0:0:
104,186,226856,2,0,B|160:230|238:226|288:180|288:180|339:133|413:132|465:168|465:168|442:161|418:167|402:182,1,448,2|0,0:0|0:0,0:0:0:0:
438,256,228757,2,0,P|451:298|459:328,2,56,2|0|8,0:0|0:0|0:0,0:0:0:0:
311,334,229391,1,2,0:0:0:0:
311,334,229497,1,0,0:0:0:0:
311,334,229602,6,0,B|234:315|141:343|141:343|143:250|102:183,1,336,2|8,0:0|0:0,0:0:0:0:
103,185,231293,6,0,P|138:132|196:109,1,112,2|8,0:0|0:0,0:0:0:0:
241,49,231926,1,0,0:0:0:0:
241,49,232032,1,0,0:0:0:0:
241,49,232138,2,0,L|287:51,3,28,2|0|0|0,0:0|0:0|0:0|0:0,0:0:0:0:
410,127,232560,1,8,0:0:0:0:
379,132,232666,1,0,0:0:0:0:
348,137,232771,1,0,0:0:0:0:
317,142,232877,1,0,0:0:0:0:
286,148,232983,6,0,P|301:207|304:254,1,77.0000023498536,14|0,0:0|0:0,0:0:0:0:
402,273,233405,1,8,0:0:0:0:
288,341,233616,2,0,P|234:347|129:286,1,154.000004699707
11,296,234250,1,8,0:0:0:0:
11,296,234462,2,0,L|12:204,1,77.0000023498536,0|2,0:0|0:0,0:0:0:0:
16,114,234884,5,0,0:0:0:0:
99,62,235095,1,8,0:0:0:0:
104,154,235307,1,0,0:0:0:0:
261,230,235518,1,10,0:0:0:0:
225,138,235729,1,0,0:0:0:0:
262,54,235940,1,8,0:0:0:0:
402,137,236152,1,0,0:0:0:0:
402,137,236257,1,0,0:0:0:0:
402,137,236363,6,0,P|350:152|322:144,1,77.0000023498536,2|0,0:0|0:0,0:0:0:0:
434,52,236785,1,8,0:0:0:0:
465,206,236997,2,0,P|397:237|293:230,1,154.000004699707
365,339,237631,1,8,0:0:0:0:
264,307,237842,1,0,0:0:0:0:
183,364,238053,5,2,0:0:0:0:
183,364,238264,1,0,0:0:0:0:
85,220,238476,1,8,0:0:0:0:
85,220,238687,1,0,0:0:0:0:
74,317,238898,1,2,0:0:0:0:
174,272,239109,1,0,0:0:0:0:
179,172,239321,1,10,0:0:0:0:
180,149,239426,1,0,0:0:0:0:
182,125,239532,1,0,0:0:0:0:
184,101,239638,1,0,0:0:0:0:
184,77,239743,6,0,L|99:65,1,77.0000023498536,2|2,0:0|0:0,0:0:0:0:
293,15,240166,1,8,0:0:0:0:
295,196,240377,1,0,0:0:0:0:
295,196,240588,2,0,P|339:197|370:183,1,77.0000023498536,2|0,0:0|0:0,0:0:0:0:
456,133,241011,1,8,0:0:0:0:
326,102,241222,1,0,0:0:0:0:
326,102,241645,5,0,0:0:0:0:
422,310,241856,2,0,P|380:292|334:277,1,77.0000023498536,8|0,0:0|0:0,0:0:0:0:
170,344,242278,2,0,P|222:328|268:322,1,77.0000023498536,2|0,0:0|0:0,0:0:0:0:
155,227,242701,1,8,0:0:0:0:
54,301,242912,1,0,0:0:0:0:
9,158,243124,5,2,0:0:0:0:
74,100,243335,1,2,0:0:0:0:
74,100,243440,1,0,0:0:0:0:
74,100,243546,2,0,B|120:111|157:98|157:98|202:84|231:89,1,154.000004699707,2|0,0:0|0:0,0:0:0:0:
340,144,244180,1,0,0:0:0:0:
206,174,244391,1,8,0:0:0:0:
254,14,244602,1,0,0:0:0:0:
254,14,245025,5,0,0:0:0:0:
447,14,245236,2,0,L|432:106,1,77.0000023498536,8|0,0:0|0:0,0:0:0:0:
341,62,245659,1,2,0:0:0:0:
381,260,245870,1,0,0:0:0:0:
482,169,246081,1,12,0:0:0:0:
256,165,246293,1,0,0:0:0:0:
256,165,246398,1,0,0:0:0:0:
256,165,246504,6,0,P|196:163|117:190,1,136.499993751526,14|2,0:0|0:0,0:0:0:0:
91,201,246926,1,8,0:0:0:0:
80,327,247138,1,0,0:0:0:0:
114,338,247243,1,0,0:0:0:0:
150,338,247349,1,2,0:0:0:0:
184,327,247454,1,0,0:0:0:0:
210,302,247560,1,0,0:0:0:0:
421,208,247771,1,8,0:0:0:0:
349,366,247983,1,0,0:0:0:0:
299,150,248194,1,2,0:0:0:0:
299,150,248405,6,0,L|199:143,1,90.9999958343508,0|8,0:0|0:0,0:0:0:0:
321,15,248828,1,0,0:0:0:0:
116,205,249039,2,0,P|157:236|206:238,1,90.9999958343508,2|0,0:0|0:0,0:0:0:0:
299,234,249356,1,2,0:0:0:0:
299,234,249462,2,0,L|282:292,1,45.4999979171754,8|0,0:0|0:0,0:0:0:0:
382,373,249673,2,0,L|396:307,1,45.4999979171754
275,145,249884,6,0,P|337:151|377:186,1,90.9999958343508,2|0,0:0|0:0,0:0:0:0:
405,235,250201,1,2,0:0:0:0:
405,235,250307,1,8,0:0:0:0:
419,62,250518,2,0,L|486:55,1,45.4999979171754
330,27,250729,1,2,0:0:0:0:
293,31,250835,1,0,0:0:0:0:
257,35,250940,1,0,0:0:0:0:
220,39,251046,1,0,0:0:0:0:
183,43,251152,1,8,0:0:0:0:
50,16,251363,1,0,0:0:0:0:
59,166,251574,5,2,0:0:0:0:
59,166,251680,1,0,0:0:0:0:
59,166,251785,2,0,L|123:153,1,45.4999979171754
154,261,251997,1,10,0:0:0:0:
154,261,252102,1,0,0:0:0:0:
154,261,252208,2,0,L|226:248,1,45.4999979171754
62,343,252419,1,10,0:0:0:0:
94,359,252525,1,0,0:0:0:0:
129,366,252631,1,0,0:0:0:0:
165,365,252736,1,0,0:0:0:0:
199,352,252842,1,10,0:0:0:0:
231,335,252947,1,0,0:0:0:0:
267,329,253053,1,0,0:0:0:0:
303,332,253159,1,0,0:0:0:0:
337,344,253264,6,0,P|325:291|330:207,1,136.499993751526,6|2,0:0|0:0,0:0:0:0:
352,164,253687,1,8,0:0:0:0:
471,260,253898,1,0,0:0:0:0:
469,73,254109,1,2,0:0:0:0:
469,73,254215,1,0,0:0:0:0:
469,73,254321,2,0,L|394:63,1,45.4999979171754
231,49,254532,1,8,0:0:0:0:
329,209,254743,1,0,0:0:0:0:
329,209,255166,5,0,0:0:0:0:
103,237,255377,2,0,P|119:180|119:126,1,90.9999958343508,12|0,0:0|0:0,0:0:0:0:
249,366,255800,2,0,P|233:311|235:257,1,90.9999958343508,2|0,0:0|0:0,0:0:0:0:
220,133,256222,1,8,0:0:0:0:
104,339,256433,1,0,0:0:0:0:
383,263,256645,6,0,P|323:267|346:338,1,136.499993751526,2|2,0:0|0:0,0:0:0:0:
368,360,257067,1,8,0:0:0:0:
442,149,257278,1,0,0:0:0:0:
407,161,257384,1,0,0:0:0:0:
370,165,257490,1,2,0:0:0:0:
334,161,257595,1,0,0:0:0:0:
298,150,257701,1,0,0:0:0:0:
179,73,257912,1,10,0:0:0:0:
357,25,258124,1,0,0:0:0:0:
229,237,258335,1,2,0:0:0:0:
229,237,258546,5,0,0:0:0:0:
69,149,258757,2,0,L|53:53,1,90.9999958343508,8|0,0:0|0:0,0:0:0:0:
0,259,259180,1,2,0:0:0:0:
98,353,259391,1,0,0:0:0:0:
129,335,259497,1,0,0:0:0:0:
163,322,259602,1,10,0:0:0:0:
198,314,259708,1,0,0:0:0:0:
234,311,259814,1,0,0:0:0:0:
270,312,259919,1,0,0:0:0:0:
306,317,260025,6,0,P|365:330|412:328,1,90.9999958343508,14|0,0:0|0:0,0:0:0:0:
472,300,260342,1,2,0:0:0:0:
472,300,260447,1,8,0:0:0:0:
293,140,260659,2,0,P|253:161|158:140,1,136.499993751526,0|2,0:0|0:0,0:0:0:0:
130,123,261081,1,2,0:0:0:0:
255,22,261293,1,10,0:0:0:0:
255,22,261398,1,0,0:0:0:0:
255,22,261504,1,0,0:0:0:0:
396,126,261715,1,2,0:0:0:0:
396,126,261926,6,0,L|384:227,1,90.9999958343508,0|8,0:0|0:0,0:0:0:0:
479,35,262349,1,0,0:0:0:0:
279,248,262560,2,0,L|289:157,1,90.9999958343508,2|0,0:0|0:0,0:0:0:0:
384,336,262983,1,8,0:0:0:0:
182,307,263194,1,0,0:0:0:0:
182,307,263300,1,0,0:0:0:0:
182,307,263405,6,0,P|145:300|80:312,1,90.9999958343508,6|0,0:0|0:0,0:0:0:0:
271,366,263828,1,8,0:0:0:0:
16,217,264039,2,0,B|42:189|91:176|91:176|128:216|194:218,1,181.999991668702
331,122,264673,1,8,0:0:0:0:
176,132,264884,1,0,0:0:0:0:
274,289,265095,5,2,0:0:0:0:
274,289,265201,1,0,0:0:0:0:
274,289,265307,2,0,L|266:211,1,45.4999979171754
461,124,265518,1,10,0:0:0:0:
461,124,265624,1,0,0:0:0:0:
461,124,265729,2,0,L|470:180,1,45.4999979171754
471,298,265940,1,10,0:0:0:0:
434,300,266046,1,0,0:0:0:0:
401,283,266152,1,0,0:0:0:0:
376,256,266257,1,0,0:0:0:0:
365,220,266363,1,14,0:0:0:0:
355,184,266469,1,0,0:0:0:0:
329,158,266574,1,0,0:0:0:0:
295,142,266680,1,0,0:0:0:0:
258,140,266785,6,0,L|167:155,1,90.9999958343508,6|0,0:0|0:0,0:0:0:0:
95,254,267208,1,8,0:0:0:0:
83,83,267419,1,0,0:0:0:0:
111,60,267525,1,0,0:0:0:0:
144,46,267631,1,2,0:0:0:0:
180,42,267736,1,0,0:0:0:0:
216,47,267842,1,0,0:0:0:0:
329,158,268053,1,8,0:0:0:0:
435,43,268264,2,0,B|448:87|448:87|435:143,1,90.9999958343508,0|2,0:0|0:0,0:0:0:0:
304,34,268687,5,0,0:0:0:0:
270,243,268898,2,0,P|342:254|384:235,1,90.9999958343508,8|0,0:0|0:0,0:0:0:0:
213,364,269321,1,2,0:0:0:0:
196,174,269532,1,0,0:0:0:0:
343,341,269743,1,8,0:0:0:0:
99,315,269954,1,2,0:0:0:0:
99,315,270060,1,0,0:0:0:0:
99,315,270166,6,0,B|114:280|114:280|102:203,1,90.9999958343508,6|0,0:0|0:0,0:0:0:0:
84,150,270483,1,2,0:0:0:0:
84,150,270588,1,8,0:0:0:0:
183,62,270800,1,0,0:0:0:0:
218,70,270905,1,0,0:0:0:0:
246,92,271011,1,2,0:0:0:0:
263,123,271116,1,0,0:0:0:0:
270,158,271222,1,0,0:0:0:0:
218,314,271433,1,8,0:0:0:0:
172,159,271645,1,0,0:0:0:0:
342,45,271856,1,6,0:0:0:0:
342,45,272067,6,0,L|402:40,1,45.4999979171754,2|0,0:0|0:0,0:0:0:0:
473,189,272278,2,0,L|410:178,1,45.4999979171754,8|0,0:0|0:0,0:0:0:0:
326,312,272490,2,0,L|397:299,1,45.4999979171754,4|0,0:0|0:0,0:0:0:0:
219,139,272701,6,0,L|224:189,1,45.4999979171754,2|0,0:0|0:0,0:0:0:0:
143,339,272912,2,0,L|135:274,1,45.4999979171754,8|0,0:0|0:0,0:0:0:0:
70,109,273124,2,0,L|78:162,1,45.4999979171754,4|0,0:0|0:0,0:0:0:0:
304,239,273335,1,8,0:0:0:0:
296,192,273440,1,0,0:0:0:0:
290,143,273546,5,14,0:0:0:0:
256,192,273652,12,0,276926,0:0:0:0:
