osu file format v14

[General]
AudioFilename: audio.mp3
AudioLeadIn: 0
PreviewTime: 181010
Countdown: 0
SampleSet: Soft
StackLeniency: 0.7
Mode: 0
LetterboxInBreaks: 0
WidescreenStoryboard: 1

[Editor]
Bookmarks: 13674,26306,45253,51569,70516,79990,89464,108411,133674,152621,162095,179464,181042,190516,199990,209464,216964,217358,218937,231569,244200,250516
DistanceSpacing: 1.2
BeatDivisor: 4
GridSize: 32
TimelineZoom: 1.6

[Metadata]
Title:System Sun
TitleUnicode:システム参
Artist:-45
ArtistUnicode:-45
Creator:Lasse
Version:Hard
Source:
Tags:D'va;;;;;;;;5 dva5 electronic instrumental Sun Fleur akito yoshikawa OWC2021qfdt2 owc2021 qf dt2
BeatmapID:3299370
BeatmapSetID:1616029

[Difficulty]
HPDrainRate:5
CircleSize:4
OverallDifficulty:7
ApproachRate:8
SliderMultiplier:1.4
SliderTickRate:1

[Events]
//Background and Video events
0,0,"bg.jpg",0,0
//Break Periods
2,108611,119898
//Storyboard Layer 0 (Background)
//Storyboard Layer 1 (Fail)
//Storyboard Layer 2 (Pass)
//Storyboard Layer 3 (Foreground)
//Storyboard Layer 4 (Overlay)
//Storyboard Sound Samples

[TimingPoints]
1043,394.736842105263,4,2,1,40,1,0
1043,-125,4,2,1,40,0,0
13674,-111.111111111111,4,2,1,50,0,0
26306,-100,4,2,1,60,0,0
45253,-90.9090909090909,4,2,1,60,0,0
51569,-100,4,2,1,60,0,0
61042,-100,4,2,1,60,0,0
70516,-90.9090909090909,4,2,1,65,0,0
89464,-86.9565217391304,4,2,1,70,0,0
98937,-86.9565217391304,4,2,1,72,0,0
108411,-111.111111111111,4,2,1,50,0,0
121042,-111.111111111111,4,2,1,52,0,0
133674,-90.9090909090909,4,2,1,60,0,0
152621,-90.9090909090909,4,2,1,65,0,0
162095,-86.9565217391304,4,2,1,68,0,0
179464,-125,4,2,1,60,0,0
179858,-142.857142857143,4,2,1,55,0,0
180253,-166.666666666667,4,2,1,50,0,0
180648,-200,4,2,1,45,0,0
181042,-83.3333333333333,4,2,1,70,0,1
199990,-83.3333333333333,4,2,1,72,0,1
217358,-83.3333333333333,4,2,1,60,0,0
217753,-83.3333333333333,4,2,1,55,0,0
218148,-83.3333333333333,4,2,1,50,0,0
218542,-83.3333333333333,4,2,1,45,0,0
218937,-90.9090909090909,4,2,1,65,0,0
244200,-86.9565217391304,4,2,2,60,0,0

[Colours]
Combo1 : 240,140,140
Combo2 : 200,180,220
Combo3 : 240,200,155
Combo4 : 150,185,220

[HitObjects]
279,51,13674,6,0,B|220:22|155:32,1,125.999996154785,0|0,1:2|1:0,0:0:0:0:
136,157,14464,2,0,B|195:186|259:175,1,125.999996154785,0|0,1:2|1:0,0:0:0:0:
373,123,15253,2,0,B|436:112|495:141,1,125.999996154785,0|0,1:2|1:0,0:0:0:0:
478,266,16042,2,0,B|414:276|355:247,1,125.999996154785,0|0,1:0|1:0,0:0:0:0:
258,175,16832,5,0,1:0:0:0:
217,293,17227,1,0,1:0:0:0:
98,252,17622,1,0,1:0:0:0:
139,134,18016,1,0,1:0:0:0:
281,129,18411,5,0,1:0:0:0:
322,247,18806,1,0,1:0:0:0:
441,206,19201,1,0,1:0:0:0:
400,88,19595,1,0,1:0:0:0:
281,129,19990,6,0,B|293:50,1,62.9999980773926,0|0,1:0|0:0,0:0:0:0:
199,147,20385,2,0,B|211:68,1,62.9999980773926,8|0,1:0|0:0,0:0:0:0:
123,103,20779,2,0,B|135:24,1,62.9999980773926,0|0,1:0|0:0,0:0:0:0:
41,121,21174,2,0,B|53:42,1,62.9999980773926,8|0,1:0|0:0,0:0:0:0:
139,22,21569,5,0,1:0:0:0:
200,132,21964,1,8,1:0:0:0:
86,186,22358,1,0,1:0:0:0:
25,76,22753,1,8,1:0:0:0:
86,186,23148,6,0,B|64:267,1,62.9999980773926,0|0,1:0|0:0,0:0:0:0:
102,318,23542,2,0,B|183:340,1,62.9999980773926,8|0,1:1|0:0,0:0:0:0:
234,302,23937,2,0,B|256:221,1,62.9999980773926,0|0,1:1|0:0,0:0:0:0:
321,208,24332,2,0,B|382:225,1,62.9999980773926,8|0,1:2|0:0,0:0:0:0:
452,269,24727,5,0,1:0:0:0:
323,364,25121,1,8,1:0:0:0:
228,235,25516,1,0,1:0:0:0:
357,140,25911,1,8,1:0:0:0:
252,46,26306,6,0,B|181:20|107:38,2,140,4|8|0,1:2|1:0|1:0,0:0:0:0:
319,111,27292,1,10,0:2:0:0:
319,111,27391,1,0,0:0:0:0:
319,111,27490,2,0,B|307:152|307:189,1,70,0|0,1:0|0:0,0:0:0:0:
384,231,27885,6,0,B|396:190|396:153,1,70,2|0,1:2|0:0,0:0:0:0:
300,262,28279,1,8,1:0:0:0:
365,330,28477,1,2,0:2:0:0:
365,330,28575,1,0,0:0:0:0:
365,330,28674,2,0,B|403:339|448:313,1,70,0|8,1:0|0:0,0:0:0:0:
491,259,29069,2,0,B|490:217|476:172,1,70,0|0,1:0|0:0,0:0:0:0:
399,131,29464,5,2,1:1:0:0:
331,176,29661,1,2,0:2:0:0:
331,176,29760,1,0,0:0:0:0:
331,176,29858,2,0,L|247:164,1,70,8|0,1:0|0:0,0:0:0:0:
173,189,30253,2,0,L|192:64,2,105,2|2|0,1:1|0:1|0:0,0:0:0:0:
223,279,31042,6,0,B|289:294|364:269,2,140,2|8|0,1:1|1:0|1:0,0:0:0:0:
163,338,32029,1,10,0:2:0:0:
163,338,32128,2,0,B|113:324|55:324,1,105,2|2,2:1|0:1,0:0:0:0:
0,246,32621,6,0,B|0:211|13:172,1,70,2|0,1:2|0:0,0:0:0:0:
68,115,33016,2,0,B|157:97|124:137|213:127,1,140,8|0,1:0|1:0,0:0:0:0:
287,97,33608,1,10,0:2:0:0:
287,97,33707,1,0,0:0:0:0:
287,97,33806,2,0,B|287:59|281:20,1,70,0|0,1:0|0:0,0:0:0:0:
376,117,34200,6,0,B|348:186|353:270,2,140,2|8|2,1:1|1:0|1:0,0:0:0:0:
446,71,35187,1,8,0:0:0:0:
494,140,35385,2,0,B|495:180|476:242,1,70,2|0,1:2|0:0,0:0:0:0:
435,290,35779,5,2,1:2:0:0:
436,299,35878,1,0,0:0:0:0:
438,309,35977,1,0,0:0:0:0:
440,320,36075,1,0,0:0:0:0:
443,331,36174,2,0,B|481:341|527:314,1,70,8|0,1:0|0:0,0:0:0:0:
353,283,36569,2,0,B|347:342|328:384,2,105,2|2|2,1:1|1:0|2:1,0:0:0:0:
357,175,37358,6,0,B|361:142|373:105,1,70,4|0,1:2|0:0,0:0:0:0:
443,57,37753,2,0,L|277:66,1,140,8|0,1:0|1:0,0:0:0:0:
234,110,38345,1,10,0:0:0:0:
234,110,38444,2,0,B|180:129|132:109,1,105,2|2,0:1|0:1,0:0:0:0:
34,59,38937,6,0,L|11:155,1,70,2|0,1:2|0:0,0:0:0:0:
6,223,39332,2,0,B|61:196|143:196,1,140,8|0,1:0|1:0,0:0:0:0:
225,224,39924,1,10,0:2:0:0:
225,224,40023,1,0,0:0:0:0:
225,224,40121,2,0,L|248:320,1,70,0|0,1:0|0:0,0:0:0:0:
190,363,40516,6,0,B|153:363|115:349,1,70,2|0,1:1|0:0,0:0:0:0:
241,292,40911,2,0,B|277:291|316:306,1,70,8|0,1:0|0:0,0:0:0:0:
392,347,41306,1,2,1:0:0:0:
392,347,41404,1,2,0:2:0:0:
392,347,41503,1,8,0:0:0:0:
458,296,41700,2,0,B|469:257|463:223,1,70,2|0,1:2|0:0,0:0:0:0:
407,154,42095,5,2,1:2:0:0:
400,156,42194,1,0,0:0:0:0:
393,159,42292,1,0,0:0:0:0:
386,162,42391,1,0,0:0:0:0:
379,165,42490,2,0,L|301:149,1,70,8|2,1:0|0:0,0:0:0:0:
241,113,42885,2,0,B|213:158|214:215,2,105,2|2|0,1:1|0:0|0:0,0:0:0:0:
313,48,43674,5,2,1:1:0:0:
390,86,43871,1,0,0:0:0:0:
390,86,43970,1,0,0:0:0:0:
390,86,44069,2,0,B|429:94|472:71,1,70,8|0,1:2|0:0,0:0:0:0:
313,48,44464,2,0,B|282:29|244:27,1,70,2|8,1:1|0:0,0:0:0:0:
233,30,44760,1,2,0:0:0:0:
220,35,44858,2,0,B|189:54|153:55,1,70,2|0,1:0|0:0,0:0:0:0:
70,26,45253,6,0,B|5:24|-22:87|5:132,2,154.000004699707,6|8|0,1:2|1:0|1:0,0:0:0:0:
149,78,46240,1,10,0:0:0:0:
149,78,46339,1,8,0:2:0:0:
149,78,46437,2,0,B|134:174,1,77.0000023498536,0|0,1:0|0:0,0:0:0:0:
179,234,46832,5,2,1:1:0:0:
190,233,46931,1,0,0:0:0:0:
201,232,47029,1,0,0:0:0:0:
212,231,47128,1,0,0:0:0:0:
223,229,47227,2,0,B|333:219,1,77.0000023498536,8|0,1:0|0:0,0:0:0:0:
386,253,47621,2,0,B|397:211|380:176,1,77.0000023498536,2|8,1:0|0:0,0:0:0:0:
311,123,48016,1,2,1:1:0:0:
311,123,48115,2,0,B|294:89|305:47,1,77.0000023498536,2|0,0:2|0:0,0:0:0:0:
317,32,48411,6,0,L|484:20,1,154.000004699707,2|8,1:2|1:0,0:0:0:0:
491,119,49003,1,2,0:0:0:0:
491,119,49102,1,2,0:0:0:0:
491,119,49200,2,0,B|508:263,2,115.50000352478,2|2|0,1:0|0:0|0:0,0:0:0:0:
470,20,49990,5,2,1:2:0:0:
397,73,50187,1,0,0:2:0:0:
397,73,50286,1,0,0:0:0:0:
397,73,50385,2,0,B|353:81|320:67,1,77.0000023498536,8|0,1:0|0:0,0:0:0:0:
236,104,50779,2,0,B|194:97|159:110,1,77.0000023498536,2|8,1:1|0:1,0:0:0:0:
151,117,51075,1,8,0:2:0:0:
142,125,51174,2,0,B|129:231,1,77.0000023498536,2|0,1:1|1:2,0:0:0:0:
106,289,51569,6,0,B|136:292|196:269,1,70,6|0,1:2|0:0,0:0:0:0:
257,253,51964,2,0,B|244:350,1,70,8|0,1:0|0:0,0:0:0:0:
310,378,52358,1,2,0:0:0:0:
319,374,52457,1,0,0:0:0:0:
329,370,52556,1,8,0:0:0:0:
338,366,52654,1,0,0:0:0:0:
347,362,52753,2,0,B|360:265,1,70,0|0,1:0|0:0,0:0:0:0:
385,197,53148,6,0,B|433:256|511:258,2,140,2|8|2,1:2|1:2|1:2,0:0:0:0:
333,129,54135,1,8,0:0:0:0:
333,129,54233,1,8,0:0:0:0:
333,129,54332,2,0,B|332:91|322:61,1,70,0|0,1:0|0:0,0:0:0:0:
246,12,54727,5,2,1:2:0:0:
208,90,54924,1,0,0:0:0:0:
208,90,55023,1,0,0:0:0:0:
208,90,55121,2,0,B|209:128|219:158,1,70,8|0,1:0|0:0,0:0:0:0:
266,253,55516,2,0,B|236:241|189:240,1,70,2|8,1:2|0:0,0:0:0:0:
278,352,55911,2,0,B|252:332|215:321,1,70,0|0,1:0|0:0,0:0:0:0:
122,305,56306,5,2,1:2:0:0:
114,311,56404,1,0,0:0:0:0:
106,318,56503,1,0,0:0:0:0:
98,325,56602,1,0,0:0:0:0:
90,332,56700,2,0,B|60:343|21:344,1,70,8|0,1:2|0:0,0:0:0:0:
36,261,57095,2,0,B|27:229|30:190,1,70,2|8,1:2|0:0,0:0:0:0:
110,224,57490,2,0,B|151:214|190:221,1,70,0|0,1:2|0:0,0:0:0:0:
262,267,57885,6,0,B|255:356,1,70,2|0,1:2|0:0,0:0:0:0:
339,378,58279,2,0,B|363:310|346:239,1,140,8|0,1:2|1:0,0:0:0:0:
285,182,58871,1,10,0:2:0:0:
285,182,58970,1,8,2:2:0:0:
285,182,59069,2,0,B|279:81,1,70,0|0,1:0|0:0,0:0:0:0:
214,44,59464,6,0,B|138:27|73:54,1,140,2|10,1:2|0:1,0:0:0:0:
12,107,60056,1,0,0:0:0:0:
12,107,60154,1,0,0:0:0:0:
12,107,60253,2,0,B|0:182,1,70,2|8,1:2|0:0,0:0:0:0:
50,244,60648,1,2,1:0:0:0:
129,216,60845,1,0,1:0:0:0:
193,269,61042,6,0,B|181:344,1,70,6|0,1:2|0:0,0:0:0:0:
271,384,61437,2,0,B|283:309,1,70,8|0,1:0|0:0,0:0:0:0:
361,276,61831,1,2,1:2:0:0:
370,272,61930,1,0,0:0:0:0:
380,268,62029,1,8,0:0:0:0:
389,264,62127,1,0,0:0:0:0:
398,260,62227,2,0,B|386:185,1,70,0|0,1:0|0:0,0:0:0:0:
377,80,62621,6,0,B|439:117|515:100,2,140,2|8|2,1:2|1:0|1:2,0:0:0:0:
305,115,63608,1,8,0:0:0:0:
305,115,63706,1,8,0:0:0:0:
305,115,63805,2,0,B|269:100|236:103,1,70,0|0,1:0|0:0,0:0:0:0:
145,152,64200,5,2,1:2:0:0:
215,214,64397,1,0,0:0:0:0:
215,214,64496,1,0,0:0:0:0:
215,214,64594,2,0,B|226:248|227:282,1,70,8|0,0:0|0:0,0:0:0:0:
178,351,64990,2,0,B|144:362|109:363,1,70,2|8,1:2|0:0,0:0:0:0:
32,328,65385,2,0,B|21:294|19:259,1,70,0|0,1:2|0:0,0:0:0:0:
36,177,65779,5,2,1:2:0:0:
41,169,65877,1,0,0:0:0:0:
46,159,65976,1,0,0:0:0:0:
51,150,66075,1,0,0:0:0:0:
56,141,66173,2,0,B|54:103|46:70,1,70,8|0,1:0|0:0,0:0:0:0:
144,17,66569,2,0,B|136:48|134:86,1,70,2|8,1:2|0:0,0:0:0:0:
203,143,66964,2,0,B|239:132|295:136,1,70,0|0,1:0|0:0,0:0:0:0:
353,201,67358,6,0,B|359:237|356:270,1,70,2|0,1:2|0:0,0:0:0:0:
318,354,67753,2,0,B|462:342,1,140,8|2,1:0|1:2,0:0:0:0:
506,276,68344,1,8,0:0:0:0:
506,276,68443,1,8,0:0:0:0:
506,276,68542,2,0,B|508:242|502:206,1,70,0|0,1:0|0:0,0:0:0:0:
423,155,68937,6,0,B|347:169|283:129,1,140,2|8,1:2|1:1,0:0:0:0:
212,95,69529,1,0,0:0:0:0:
212,95,69627,1,0,0:0:0:0:
212,95,69726,2,0,B|209:51|191:25,1,70,2|8,1:2|0:0,0:0:0:0:
112,5,70121,1,0,1:0:0:0:
47,58,70318,1,0,1:0:0:0:
77,145,70516,6,0,L|161:163,1,77.0000023498536,6|0,1:2|0:0,0:0:0:0:
223,220,70911,2,0,B|140:198|75:243,2,154.000004699707,8|2|0,1:0|1:2|1:0,0:0:0:0:
305,280,71898,5,2,0:2:0:0:
305,280,71996,1,2,0:0:0:0:
305,280,72095,2,0,L|315:367,1,77.0000023498536,2|0,1:1|0:0,0:0:0:0:
403,380,72490,2,0,L|413:293,1,77.0000023498536,10|2,1:2|0:0,0:0:0:0:
422,298,72786,1,2,0:0:0:0:
431,291,72885,2,0,L|441:204,1,77.0000023498536,0|8,1:2|0:0,0:0:0:0:
488,138,73279,2,0,B|447:141|404:117,1,77.0000023498536,0|0,1:0|0:0,0:0:0:0:
333,68,73674,5,2,1:1:0:0:
324,59,73773,1,0,0:0:0:0:
315,51,73871,1,0,0:0:0:0:
306,42,73970,1,0,0:0:0:0:
298,33,74069,2,0,B|215:16|143:42,1,154.000004699707,8|2,1:0|1:2,0:0:0:0:
60,76,74661,1,8,0:0:0:0:
18,158,74858,2,0,B|20:201|39:231,1,77.0000023498536,0|0,1:0|0:0,0:0:0:0:
140,223,75253,6,0,B|124:295|115:408,2,154.000004699707,2|8|0,1:1|1:0|1:0,0:0:0:0:
214,167,76240,1,10,0:2:0:0:
294,211,76437,2,0,B|305:306,1,77.0000023498536,0|0,1:0|0:0,0:0:0:0:
370,365,76832,6,0,B|411:371|446:361,1,77.0000023498536,2|0,1:2|0:0,0:0:0:0:
501,286,77227,2,0,B|513:204|487:129,1,154.000004699707,8|2,1:0|0:0,0:0:0:0:
407,89,77819,1,8,0:0:0:0:
319,117,78016,1,0,1:0:0:0:
235,105,78214,5,2,0:0:0:0:
235,105,78312,1,2,0:0:0:0:
235,105,78411,2,0,B|220:144|219:193,1,77.0000023498536,2|0,1:1|0:0,0:0:0:0:
296,231,78806,2,0,B|333:218|396:224,1,77.0000023498536,8|2,1:0|0:0,0:0:0:0:
386,226,79102,1,2,0:0:0:0:
400,230,79200,2,0,B|413:270|413:308,1,77.0000023498536,0|8,1:0|0:0,0:0:0:0:
344,368,79595,1,0,1:0:0:0:
256,337,79792,1,0,1:0:0:0:
167,365,79990,6,0,B|127:368|91:354,1,77.0000023498536,6|0,1:2|0:0,0:0:0:0:
19,295,80385,2,0,B|19:220|10:140,2,154.000004699707,8|0|0,1:0|1:2|1:0,0:0:0:0:
99,361,81371,5,2,0:0:0:0:
99,361,81470,1,2,0:0:0:0:
99,361,81569,2,0,L|199:345,1,77.0000023498536,2|0,1:1|0:0,0:0:0:0:
262,378,81964,2,0,L|253:291,1,77.0000023498536,8|2,1:0|0:0,0:0:0:0:
248,291,82260,1,2,0:0:0:0:
243,280,82358,2,0,L|234:193,1,77.0000023498536,0|8,1:0|0:0,0:0:0:0:
184,144,82753,2,0,B|169:109|181:58,1,77.0000023498536,0|0,1:0|0:0,0:0:0:0:
249,20,83148,5,2,1:1:0:0:
260,27,83247,1,0,0:0:0:0:
271,32,83345,1,0,0:0:0:0:
282,39,83444,1,0,0:0:0:0:
292,45,83543,2,0,B|446:27,1,154.000004699707,8|2,1:0|1:2,0:0:0:0:
505,86,84135,1,8,0:0:0:0:
453,152,84332,2,0,B|370:161,1,77.0000023498536,0|0,1:0|0:0,0:0:0:0:
294,226,84727,6,0,B|280:303|301:381,2,154.000004699707,2|8|2,1:0|1:0|1:0,0:0:0:0:
355,167,85714,1,8,0:0:0:0:
312,94,85911,2,0,B|274:78|227:80,1,77.0000023498536,2|0,1:2|0:0,0:0:0:0:
172,156,86306,6,0,B|134:157|96:141,1,77.0000023498536,2|0,1:1|0:0,0:0:0:0:
39,77,86701,2,0,B|58:238,1,154.000004699707,8|2,1:0|1:0,0:0:0:0:
2,304,87293,1,8,0:0:0:0:
78,356,87490,1,2,1:2:0:0:
133,281,87688,5,2,0:0:0:0:
133,281,87786,1,2,0:0:0:0:
133,281,87885,2,0,B|133:244|147:205,1,77.0000023498536,2|0,1:0|0:0,0:0:0:0:
223,257,88280,2,0,B|262:256|301:272,1,77.0000023498536,10|2,1:2|0:0,0:0:0:0:
313,282,88576,1,2,0:0:0:0:
328,293,88674,2,0,B|364:307|403:306,1,77.0000023498536,2|8,1:0|0:0,0:0:0:0:
489,271,89069,1,2,1:2:0:0:
461,182,89266,1,0,1:0:0:0:
507,92,89464,6,0,B|323:79,1,161.000003070831,6|8,1:2|1:2,0:0:0:0:
266,42,90056,1,2,0:2:0:0:
192,91,90253,2,0,B|180:127|186:171,1,80.5000015354157,2|8,1:1|0:0,0:0:0:0:
191,181,90549,1,8,0:0:0:0:
196,191,90648,2,0,B|202:235|190:271,1,80.5000015354157,0|0,1:0|0:0,0:0:0:0:
117,338,91042,6,0,B|59:352|8:297|37:237,1,161.000003070831,2|8,1:0|1:0,0:0:0:0:
67,160,91635,1,2,0:2:0:0:
67,160,91733,1,2,0:0:0:0:
67,160,91832,2,0,B|52:60,1,80.5000015354157,2|8,1:1|0:0,0:0:0:0:
156,33,92227,2,0,B|144:112,1,80.5000015354157,0|0,1:0|0:0,0:0:0:0:
202,178,92621,5,2,1:1:0:0:
286,142,92819,1,2,0:0:0:0:
286,142,92917,1,2,0:0:0:0:
286,142,93016,2,0,B|360:114|451:132,1,161.000003070831,8|2,1:0|1:0,0:0:0:0:
506,194,93608,1,10,0:2:0:0:
435,248,93806,2,0,B|403:253|354:245,1,80.5000015354157,2|0,1:1|0:0,0:0:0:0:
277,311,94200,6,0,B|273:270|252:216,1,80.5000015354157,2|0,1:0|0:0,0:0:0:0:
191,336,94595,2,0,B|176:298|172:257,1,80.5000015354157,8|0,1:0|0:0,0:0:0:0:
194,176,94990,1,2,1:0:0:0:
195,163,95089,1,0,0:0:0:0:
196,151,95187,1,8,0:0:0:0:
197,139,95286,1,0,0:0:0:0:
198,126,95385,2,0,B|193:83|178:48,1,80.5000015354157,2|0,1:2|0:0,0:0:0:0:
89,25,95779,6,0,L|2:38,1,80.5000015354157,2|0,1:0|0:0,0:0:0:0:
0,125,96174,2,0,L|79:113,1,80.5000015354157,8|0,1:0|0:0,0:0:0:0:
122,190,96569,1,2,1:0:0:0:
43,219,96766,1,8,0:0:0:0:
43,219,96865,1,8,0:0:0:0:
43,219,96964,2,0,B|37:266|53:298,1,80.5000015354157,2|0,1:2|0:0,0:0:0:0:
139,361,97358,6,0,B|318:339,1,161.000003070831,2|10,1:0|1:2,0:0:0:0:
389,379,97950,1,0,0:0:0:0:
389,379,98049,1,0,0:0:0:0:
389,379,98148,2,0,B|395:335|378:299,1,80.5000015354157,2|8,1:0|0:0,0:0:0:0:
303,254,98542,1,2,1:2:0:0:
231,306,98740,1,0,1:0:0:0:
158,255,98937,6,0,B|135:176|173:92,1,161.000003070831,6|8,1:2|1:0,0:0:0:0:
224,27,99529,1,2,0:0:0:0:
281,93,99726,2,0,B|317:108|360:95,1,80.5000015354157,2|8,1:1|0:0,0:0:0:0:
370,89,100022,1,8,0:0:0:0:
380,82,100121,2,0,B|423:69|459:84,1,80.5000015354157,0|0,1:0|0:0,0:0:0:0:
502,171,100516,6,0,L|479:345,1,161.000003070831,2|8,1:0|1:0,0:0:0:0:
407,374,101108,1,2,0:0:0:0:
407,374,101206,1,2,0:0:0:0:
407,374,101305,2,0,B|390:276,1,80.5000015354157,2|8,1:0|0:0,0:0:0:0:
317,232,101700,2,0,B|303:311,1,80.5000015354157,0|0,1:0|0:0,0:0:0:0:
220,366,102094,5,2,1:0:0:0:
153,307,102292,1,2,0:0:0:0:
153,307,102390,1,2,0:0:0:0:
153,307,102490,2,0,B|136:227|172:149,1,161.000003070831,2|2,1:0|1:0,0:0:0:0:
238,91,103081,1,8,0:0:0:0:
320,125,103279,2,0,B|359:130|401:122,1,80.5000015354157,2|0,1:1|0:0,0:0:0:0:
392,33,103674,6,0,B|353:28|311:36,1,80.5000015354157,2|0,1:0|0:0,0:0:0:0:
238,91,104069,2,0,B|196:99|157:94,1,80.5000015354157,8|0,1:0|0:0,0:0:0:0:
77,57,104463,1,2,1:0:0:0:
65,54,104562,1,0,0:0:0:0:
53,52,104660,1,8,0:0:0:0:
41,50,104759,1,0,0:0:0:0:
28,49,104858,2,0,B|0:81|7:138,1,80.5000015354157,2|0,1:2|0:0,0:0:0:0:
61,205,105252,6,0,L|150:196,1,80.5000015354157,2|0,1:0|0:0,0:0:0:0:
231,193,105648,2,0,L|218:292,1,80.5000015354157,8|0,1:0|0:0,0:0:0:0:
275,341,106042,1,2,1:0:0:0:
356,300,106239,1,8,0:0:0:0:
356,300,106338,1,8,0:0:0:0:
356,300,106437,2,0,L|369:201,1,80.5000015354157,2|0,1:2|0:0,0:0:0:0:
456,183,106832,6,0,B|362:203|321:119,1,161.000003070831,2|10,1:0|1:2,0:0:0:0:
232,149,107423,1,2,0:0:0:0:
232,149,107522,1,2,0:0:0:0:
232,149,107621,2,0,B|245:62,1,80.5000015354157,2|8,1:1|0:0,0:0:0:0:
174,15,108015,1,2,1:2:0:0:
112,78,108213,1,0,1:0:0:0:
33,39,108411,5,4,1:2:0:0:
256,192,120648,5,0,1:0:0:0:
256,192,120845,1,0,1:0:0:0:
206,118,121042,6,0,B|147:89|82:99,1,125.999996154785,0|0,1:0|1:0,0:0:0:0:
65,223,121832,2,0,B|124:252|189:242,1,125.999996154785,0|0,1:0|1:0,0:0:0:0:
306,199,122621,2,0,B|296:135|325:76,1,125.999996154785,0|0,1:0|1:0,0:0:0:0:
449,97,123411,2,0,B|458:160|429:219,1,125.999996154785,0|0,1:0|1:0,0:0:0:0:
341,309,124200,5,0,1:0:0:0:
235,240,124595,1,0,1:2:0:0:
147,330,124990,1,0,1:0:0:0:
34,273,125384,1,0,1:2:0:0:
128,189,125779,5,0,1:0:0:0:
147,330,126174,1,0,1:0:0:0:
288,311,126569,1,0,1:0:0:0:
269,170,126964,1,0,1:0:0:0:
128,189,127358,6,0,B|65:182,1,62.9999980773926,0|0,1:0|0:0,0:0:0:0:
100,107,127753,2,0,B|107:44,1,62.9999980773926,8|0,1:0|0:0,0:0:0:0:
182,79,128148,2,0,B|245:86,1,62.9999980773926,0|0,1:0|0:0,0:0:0:0:
210,161,128542,2,0,B|203:224,1,62.9999980773926,8|0,1:0|0:0,0:0:0:0:
230,299,128937,5,0,1:0:0:0:
368,286,129332,1,8,1:0:0:0:
203,223,129727,1,0,1:0:0:0:
341,210,130122,1,8,1:0:0:0:
259,98,130516,6,0,B|248:19,1,62.9999980773926,0|0,1:0|0:0,0:0:0:0:
185,124,130911,2,0,B|174:45,1,62.9999980773926,8|0,1:0|0:0,0:0:0:0:
107,124,131306,2,0,B|96:45,1,62.9999980773926,0|0,1:0|0:0,0:0:0:0:
33,150,131701,2,0,B|22:71,1,62.9999980773926,8|0,1:0|0:0,0:0:0:0:
39,8,132095,5,0,1:0:0:0:
114,154,132490,1,8,1:0:0:0:
260,79,132885,1,0,1:0:0:0:
335,225,133279,1,8,1:0:0:0:
335,225,133477,1,0,1:0:0:0:
250,234,133674,6,0,B|232:267|233:330,1,77.0000023498536,6|0,1:2|0:0,0:0:0:0:
293,368,134069,2,0,B|463:360,2,154.000004699707,0|2|0,1:0|1:1|1:0,0:0:0:0:
214,322,135056,5,2,0:0:0:0:
214,322,135154,1,2,0:0:0:0:
214,322,135253,2,0,L|57:304,1,154.000004699707,2|0,1:0|1:0,0:0:0:0:
1,249,135845,1,2,0:0:0:0:
1,249,135944,1,2,0:0:0:0:
1,249,136042,2,0,B|-2:210|11:173,1,77.0000023498536,2|0,1:1|0:0,0:0:0:0:
78,121,136437,2,0,L|154:129,1,77.0000023498536,0|0,1:0|0:0,0:0:0:0:
250,99,136832,6,0,B|230:177|240:258,2,154.000004699707,2|0|2,1:0|1:0|1:0,0:0:0:0:
322,53,137819,1,0,0:0:0:0:
398,88,138016,2,0,B|405:125|405:174,1,77.0000023498536,0|0,1:0|0:0,0:0:0:0:
435,265,138411,6,0,B|398:245|343:244,1,77.0000023498536,2|2,1:0|0:0,0:0:0:0:
284,281,138806,2,0,B|247:281|210:301,1,77.0000023498536,0|0,1:0|0:0,0:0:0:0:
142,350,139200,1,2,1:1:0:0:
129,346,139299,1,0,0:0:0:0:
115,342,139398,1,0,0:0:0:0:
100,339,139496,1,0,0:0:0:0:
86,336,139595,2,0,B|86:293|107:250,1,77.0000023498536,0|0,1:0|0:0,0:0:0:0:
136,173,139990,6,0,B|38:183,1,77.0000023498536,2|0,1:0|0:0,0:0:0:0:
122,82,140385,2,0,B|194:119|272:91,1,154.000004699707,0|2,1:0|1:0,0:0:0:0:
330,30,140977,1,0,0:0:0:0:
412,13,141174,1,0,1:0:0:0:
483,75,141371,5,2,0:0:0:0:
483,75,141470,1,2,0:0:0:0:
483,75,141569,2,0,B|503:149|478:237,1,154.000004699707,2|0,1:0|1:0,0:0:0:0:
421,287,142161,1,2,0:0:0:0:
421,287,142260,1,2,0:0:0:0:
421,287,142358,2,0,B|384:275|340:271,1,77.0000023498536,2|0,1:0|0:0,0:0:0:0:
259,298,142753,2,0,B|275:203,1,77.0000023498536,0|0,1:0|0:0,0:0:0:0:
207,145,143148,6,0,B|244:148|298:124,1,77.0000023498536,2|0,1:0|0:0,0:0:0:0:
152,73,143543,2,0,B|-17:52,2,154.000004699707,0|2|0,1:0|1:0|1:0,0:0:0:0:
214,152,144530,5,2,0:0:0:0:
214,152,144628,1,2,0:0:0:0:
214,152,144727,2,0,B|228:225|197:303,1,154.000004699707,2|0,1:0|1:0,0:0:0:0:
136,360,145319,1,2,0:0:0:0:
136,360,145418,1,2,0:0:0:0:
136,360,145516,2,0,B|52:349,1,77.0000023498536,2|0,1:1|0:0,0:0:0:0:
6,283,145911,2,0,B|7:237|23:196,1,77.0000023498536,0|0,1:0|0:0,0:0:0:0:
93,144,146306,6,0,B|174:127|279:129,2,154.000004699707,2|0|2,1:0|1:0|1:0,0:0:0:0:
28,199,147292,1,0,0:0:0:0:
90,256,147490,2,0,B|137:258|180:244,1,77.0000023498536,0|0,1:0|0:0,0:0:0:0:
265,222,147885,6,0,B|253:312,1,77.0000023498536,2|2,1:0|0:0,0:0:0:0:
338,371,148279,2,0,B|350:281,1,77.0000023498536,0|0,1:0|0:0,0:0:0:0:
433,253,148674,1,2,1:1:0:0:
446,250,148773,1,0,0:0:0:0:
460,246,148872,1,0,0:0:0:0:
475,243,148970,1,0,0:0:0:0:
489,240,149069,2,0,B|492:196|474:155,1,77.0000023498536,0|0,1:0|0:0,0:0:0:0:
411,96,149464,6,0,B|316:81,1,77.0000023498536,2|2,1:0|0:0,0:0:0:0:
266,41,149859,2,0,B|297:111|297:191,1,154.000004699707,0|2,1:0|1:0,0:0:0:0:
277,272,150450,1,0,0:0:0:0:
199,307,150648,1,2,1:2:0:0:
122,273,150845,5,0,0:0:0:0:
122,273,150944,1,0,0:0:0:0:
122,273,151042,2,0,B|91:203|90:122,1,154.000004699707,2|2,1:0|1:2,0:0:0:0:
123,45,151635,1,0,0:0:0:0:
123,45,151734,1,0,0:0:0:0:
123,45,151832,2,0,B|204:27,1,77.0000023498536,2|0,1:1|0:0,0:0:0:0:
290,10,152227,2,0,B|275:105,1,77.0000023498536,2|0,1:2|0:0,0:0:0:0:
307,172,152621,6,0,B|267:157|231:155,1,77.0000023498536,6|0,1:2|0:0,0:0:0:0:
162,204,153016,2,0,B|79:194|-5:233,2,154.000004699707,8|2|0,1:0|1:2|1:0,0:0:0:0:
232,267,154003,5,2,0:0:0:0:
232,267,154101,1,2,0:0:0:0:
232,267,154200,2,0,B|227:308|238:343,1,77.0000023498536,2|0,1:0|0:0,0:0:0:0:
316,374,154595,2,0,L|411:364,1,77.0000023498536,8|2,1:0|0:0,0:0:0:0:
402,360,154891,1,2,0:0:0:0:
411,352,154990,2,0,B|416:311|405:276,1,77.0000023498536,2|8,1:0|0:0,0:0:0:0:
455,204,155385,2,0,L|359:185,1,77.0000023498536,0|0,1:0|0:0,0:0:0:0:
279,217,155779,5,2,1:0:0:0:
271,226,155878,1,0,0:0:0:0:
265,235,155976,1,0,0:0:0:0:
258,244,156075,1,0,0:0:0:0:
250,252,156174,2,0,B|172:274|96:226,1,154.000004699707,8|2,1:0|1:0,0:0:0:0:
25,178,156766,1,8,0:0:0:0:
87,110,156963,2,0,B|123:99|173:102,1,77.0000023498536,0|0,1:0|0:0,0:0:0:0:
255,65,157358,6,0,B|314:107|404:98,2,154.000004699707,2|8|2,1:0|1:0|1:0,0:0:0:0:
180,9,158345,1,8,0:0:0:0:
163,101,158542,2,0,B|160:137|169:177,1,77.0000023498536,0|0,1:0|0:0,0:0:0:0:
257,238,158937,6,0,B|296:228|335:226,1,77.0000023498536,2|0,1:0|0:0,0:0:0:0:
421,253,159332,2,0,B|447:183|435:101,1,154.000004699707,8|2,1:0|1:0,0:0:0:0:
371,34,159924,1,8,0:0:0:0:
290,79,160121,1,0,1:0:0:0:
218,36,160319,5,2,0:0:0:0:
218,36,160417,1,2,0:0:0:0:
218,36,160516,2,0,B|177:22|129:25,1,77.0000023498536,2|0,1:0|0:0,0:0:0:0:
104,109,160911,2,0,B|69:106|28:120,1,77.0000023498536,8|2,1:0|0:0,0:0:0:0:
22,133,161207,1,2,0:0:0:0:
16,145,161305,2,0,B|14:182|28:220,1,77.0000023498536,2|8,1:1|0:0,0:0:0:0:
73,301,161700,1,0,1:0:0:0:
158,266,161897,1,0,1:0:0:0:
226,334,162095,6,0,B|302:378|376:323,2,161.000003070831,6|8|0,1:2|1:0|1:0,0:0:0:0:
165,273,163082,1,10,0:1:0:0:
165,273,163181,1,8,0:0:0:0:
165,273,163279,2,0,B|180:192,1,80.5000015354157,0|0,1:0|0:0,0:0:0:0:
250,127,163674,5,2,1:0:0:0:
268,135,163773,1,0,0:0:0:0:
286,141,163871,1,0,0:0:0:0:
304,148,163970,1,0,0:0:0:0:
322,155,164069,2,0,B|393:165|424:90|382:42,1,161.000003070831,10|2,1:2|1:0,0:0:0:0:
307,10,164661,1,8,0:0:0:0:
230,53,164858,2,0,B|186:69|129:54,1,80.5000015354157,2|0,1:2|0:0,0:0:0:0:
53,21,165253,6,0,B|24:108|62:181,1,161.000003070831,2|8,1:0|1:0,0:0:0:0:
113,260,165845,1,2,0:0:0:0:
113,260,165944,1,2,0:0:0:0:
113,260,166042,2,0,B|84:382,2,120.750002303124,2|10|0,1:0|0:1|0:0,0:0:0:0:
206,228,166832,6,0,B|279:268|365:229,1,161.000003070831,2|8,1:0|1:0,0:0:0:0:
431,175,167424,1,2,0:0:0:0:
431,175,167523,1,2,0:0:0:0:
431,175,167621,2,0,B|438:129|417:85,1,80.5000015354157,2|8,1:0|0:0,0:0:0:0:
343,54,168016,2,0,L|239:63,1,80.5000015354157,2|0,1:2|0:0,0:0:0:0:
198,122,168411,5,2,1:0:0:0:
194,135,168509,1,0,0:0:0:0:
191,148,168608,1,0,0:0:0:0:
188,162,168707,1,0,0:0:0:0:
184,175,168806,2,0,L|3:188,1,161.000003070831,10|2,1:2|1:0,0:0:0:0:
74,271,169398,1,8,0:0:0:0:
74,271,169496,1,0,0:0:0:0:
74,271,169595,2,0,B|168:264,1,80.5000015354157,2|0,1:2|0:0,0:0:0:0:
256,227,169990,6,0,B|224:300|231:398,2,161.000003070831,2|8|2,1:1|1:0|1:0,0:0:0:0:
335,187,170977,1,8,0:0:0:0:
335,187,171075,1,0,0:0:0:0:
335,187,171174,2,0,B|335:138|319:99,1,80.5000015354157,2|0,1:2|0:0,0:0:0:0:
241,48,171569,6,0,B|69:31,2,161.000003070831,2|8|0,1:0|1:0|1:0,0:0:0:0:
330,115,172556,1,10,0:1:0:0:
330,115,172655,1,8,0:0:0:0:
330,115,172753,2,0,B|421:100,1,80.5000015354157,0|0,1:0|0:0,0:0:0:0:
491,168,173148,5,2,1:1:0:0:
487,187,173247,1,0,0:0:0:0:
481,205,173345,1,0,0:0:0:0:
476,224,173444,1,0,0:0:0:0:
470,243,173543,2,0,B|402:302|310:249,1,161.000003070831,8|2,1:0|1:1,0:0:0:0:
239,216,174135,1,8,0:0:0:0:
200,136,174332,2,0,B|213:39,1,80.5000015354157,2|0,1:2|0:0,0:0:0:0:
119,12,174727,6,0,B|61:26|25:88|68:167,1,161.000003070831,2|10,1:0|1:2,0:0:0:0:
94,229,175319,1,0,0:0:0:0:
94,229,175418,1,0,0:0:0:0:
94,229,175516,2,0,B|132:218|196:214,1,80.5000015354157,2|8,1:1|0:0,0:0:0:0:
232,281,175911,2,0,B|273:278|311:267,1,80.5000015354157,2|0,1:2|0:0,0:0:0:0:
376,191,176306,6,0,B|387:21,1,161.000003070831,2|10,1:1|1:2,0:0:0:0:
478,11,176898,1,0,0:0:0:0:
478,11,176997,1,0,0:0:0:0:
478,11,177095,2,0,B|473:104,1,80.5000015354157,2|8,1:0|0:0,0:0:0:0:
491,178,177490,2,0,B|486:271,1,80.5000015354157,2|0,1:2|0:0,0:0:0:0:
505,352,177885,5,2,1:0:0:0:
491,350,177983,1,0,0:0:0:0:
478,348,178082,1,0,0:0:0:0:
464,346,178181,1,0,0:0:0:0:
450,343,178279,2,0,L|289:311,1,161.000003070831,10|2,1:2|1:1,0:0:0:0:
203,332,178872,1,8,2:0:0:0:
203,332,178970,1,0,0:0:0:0:
203,332,179069,2,0,B|207:291|221:251,1,80.5000015354157,2|0,1:2|0:0,0:0:0:0:
387,173,181042,6,0,B|482:166,1,83.9999974365235,6|0,1:2|0:0,0:0:0:0:
391,91,181437,2,0,B|323:59|222:57,1,167.999994873047,8|2,1:0|1:0,0:0:0:0:
155,112,182029,1,8,0:0:0:0:
155,112,182128,1,8,0:0:0:0:
155,112,182227,2,0,B|99:104|42:146,1,83.9999974365235,0|0,1:0|0:0,0:0:0:0:
9,202,182621,5,2,1:0:0:0:
10,213,182719,1,0,0:0:0:0:
11,225,182818,1,0,0:0:0:0:
14,237,182917,1,0,0:0:0:0:
15,249,183016,2,0,B|58:259|106:232,1,83.9999974365235,8|2,1:0|0:2,0:0:0:0:
191,194,183411,2,0,B|178:297,1,83.9999974365235,2|8,1:0|0:0,0:0:0:0:
267,324,183806,2,0,B|277:240,1,83.9999974365235,2|0,1:2|0:0,0:0:0:0:
356,181,184200,6,0,B|313:177|260:143,1,83.9999974365235,2|0,1:0|0:0,0:0:0:0:
371,94,184595,2,0,B|400:287,1,167.999994873047,10|0,1:1|1:0,0:0:0:0:
475,324,185187,1,8,0:0:0:0:
475,324,185286,1,8,0:0:0:0:
475,324,185385,2,0,B|487:240,1,83.9999974365235,0|0,1:2|0:0,0:0:0:0:
510,157,185779,6,0,B|455:174|394:150|371:94,1,167.999994873047,2|8,1:0|1:0,0:0:0:0:
303,31,186371,1,2,0:0:0:0:
303,31,186470,1,2,0:0:0:0:
303,31,186569,2,0,B|275:133,1,83.9999974365235,2|8,1:1|0:0,0:0:0:0:
197,151,186964,1,2,1:1:0:0:
182,146,187062,1,0,0:0:0:0:
168,142,187161,1,0,0:0:0:0:
154,138,187260,1,0,0:0:0:0:
139,134,187358,6,0,B|85:198|93:295,1,167.999994873047,2|10,1:1|1:1,0:0:0:0:
151,362,187950,1,0,0:0:0:0:
243,353,188148,1,2,1:1:0:0:
332,374,188345,1,8,0:0:0:0:
414,333,188542,2,0,B|429:289|419:242,1,83.9999974365235,2|0,1:1|0:0,0:0:0:0:
352,186,188937,5,2,1:1:0:0:
338,188,189035,1,0,0:0:0:0:
324,189,189134,1,0,0:0:0:0:
310,191,189233,1,0,0:0:0:0:
296,192,189332,2,0,B|117:168,1,167.999994873047,10|2,1:0|1:0,0:0:0:0:
44,188,189924,1,0,0:0:0:0:
44,188,190023,1,0,0:0:0:0:
44,188,190121,2,0,B|40:144|61:108,1,83.9999974365235,10|0,1:1|0:0,0:0:0:0:
140,43,190516,6,0,B|236:38,1,83.9999974365235,6|0,1:2|0:0,0:0:0:0:
303,86,190911,2,0,B|335:161|317:268,1,167.999994873047,8|2,1:0|1:0,0:0:0:0:
254,316,191503,1,8,0:0:0:0:
254,316,191602,1,8,0:0:0:0:
254,316,191701,2,0,B|152:295,1,83.9999974365235,0|0,1:0|0:0,0:0:0:0:
79,321,192095,5,2,1:0:0:0:
81,310,192193,1,0,0:0:0:0:
83,298,192292,1,0,0:0:0:0:
86,286,192391,1,0,0:0:0:0:
89,274,192490,2,0,L|108:181,1,83.9999974365235,8|2,1:0|0:0,0:0:0:0:
38,119,192885,2,0,B|82:118|123:104,1,83.9999974365235,2|8,1:0|0:0,0:0:0:0:
212,127,193280,2,0,B|194:41,1,83.9999974365235,2|0,1:2|0:0,0:0:0:0:
292,94,193674,6,0,B|336:95|374:108,1,83.9999974365235,2|0,1:0|0:0,0:0:0:0:
444,173,194069,2,0,B|416:347,1,167.999994873047,10|2,1:0|1:2,0:0:0:0:
339,382,194661,1,8,0:0:0:0:
339,382,194760,1,8,0:0:0:0:
339,382,194859,2,0,B|327:298,1,83.9999974365235,0|0,1:0|0:0,0:0:0:0:
249,233,195253,6,0,B|275:67,1,167.999994873047,2|8,1:0|1:0,0:0:0:0:
207,20,195845,1,2,0:0:0:0:
207,20,195944,1,2,0:0:0:0:
207,20,196043,2,0,B|100:33,1,83.9999974365235,2|8,1:0|0:0,0:0:0:0:
87,115,196438,1,2,1:0:0:0:
72,110,196536,1,0,0:0:0:0:
58,106,196635,1,0,0:0:0:0:
44,102,196734,1,0,0:0:0:0:
29,98,196832,6,0,B|-20:171|12:262,1,167.999994873047,2|10,1:0|1:0,0:0:0:0:
49,343,197424,1,0,0:0:0:0:
141,336,197622,1,2,1:0:0:0:
225,372,197819,1,8,0:0:0:0:
303,324,198016,2,0,B|318:280|312:234,1,83.9999974365235,2|0,1:0|0:0,0:0:0:0:
219,199,198411,5,2,1:0:0:0:
205,201,198509,1,0,0:0:0:0:
191,202,198608,1,0,0:0:0:0:
177,204,198707,1,0,0:0:0:0:
163,205,198806,2,0,B|128:123|173:40,1,167.999994873047,10|2,1:0|1:0,0:0:0:0:
258,10,199398,1,8,0:0:0:0:
337,56,199595,1,2,1:0:0:0:
424,27,199792,1,0,1:0:0:0:
488,93,199990,6,0,B|493:137|476:194,1,83.9999974365235,6|0,1:2|0:0,0:0:0:0:
426,251,200385,2,0,B|358:206|260:214,1,167.999994873047,8|2,1:0|1:0,0:0:0:0:
180,233,200977,1,8,0:0:0:0:
180,233,201076,1,8,0:0:0:0:
180,233,201175,2,0,B|167:137,1,83.9999974365235,0|0,1:0|0:0,0:0:0:0:
91,104,201569,5,2,1:0:0:0:
80,107,201667,1,0,0:0:0:0:
69,110,201766,1,0,0:0:0:0:
57,112,201865,1,0,0:0:0:0:
45,115,201964,2,0,B|25:152|28:210,1,83.9999974365235,8|2,1:0|0:0,0:0:0:0:
6,286,202359,2,0,B|45:274|95:274,1,83.9999974365235,2|8,1:0|0:0,0:0:0:0:
167,321,202753,2,0,B|207:319|256:332,1,83.9999974365235,2|0,1:2|0:0,0:0:0:0:
349,371,203148,6,0,B|326:264,1,83.9999974365235,2|0,1:0|0:0,0:0:0:0:
420,277,203543,2,0,B|243:228,1,167.999994873047,10|0,1:0|1:0,0:0:0:0:
194,179,204135,1,8,0:0:0:0:
194,179,204234,1,8,0:0:0:0:
194,179,204333,2,0,B|195:139|216:95,1,83.9999974365235,0|0,1:0|0:0,0:0:0:0:
289,44,204727,6,0,B|116:65,1,167.999994873047,2|8,1:0|1:0,0:0:0:0:
42,103,205319,1,2,0:2:0:0:
42,103,205418,1,2,0:2:0:0:
42,103,205517,2,0,B|28:150|51:190,1,83.9999974365235,2|8,1:0|0:0,0:0:0:0:
127,232,205912,1,2,1:0:0:0:
142,227,206010,1,0,0:0:0:0:
156,223,206109,1,0,0:0:0:0:
170,219,206208,1,0,0:0:0:0:
185,215,206306,6,0,B|364:248,1,167.999994873047,2|10,1:0|1:0,0:0:0:0:
418,307,206898,1,0,0:0:0:0:
498,262,207095,1,2,1:0:0:0:
479,173,207292,1,8,0:0:0:0:
383,159,207490,2,0,B|368:64,1,83.9999974365235,2|0,1:0|0:0,0:0:0:0:
287,36,207885,5,2,1:0:0:0:
272,33,207983,1,0,0:0:0:0:
258,31,208082,1,0,0:0:0:0:
244,30,208181,1,0,0:0:0:0:
230,28,208280,2,0,B|176:97|199:194,1,167.999994873047,10|2,1:0|1:0,0:0:0:0:
263,265,208872,1,2,0:2:0:0:
263,265,208971,1,2,0:2:0:0:
263,265,209069,2,0,B|299:244|343:248,1,83.9999974365235,10|0,1:0|0:0,0:0:0:0:
279,360,209464,6,0,B|235:364|199:343,1,83.9999974365235,6|0,1:2|0:0,0:0:0:0:
115,383,209859,2,0,B|100:196,1,167.999994873047,8|2,1:0|1:0,0:0:0:0:
20,143,210451,1,8,0:0:0:0:
20,143,210550,1,8,0:0:0:0:
20,143,210649,2,0,B|65:147|110:119,1,83.9999974365235,0|0,1:0|0:0,0:0:0:0:
189,160,211043,5,2,1:0:0:0:
191,149,211141,1,0,0:0:0:0:
193,137,211240,1,0,0:0:0:0:
196,125,211339,1,0,0:0:0:0:
199,112,211437,2,0,L|218:19,1,83.9999974365235,8|2,1:0|0:0,0:0:0:0:
275,153,211832,2,0,L|294:60,1,83.9999974365235,2|8,1:0|0:0,0:0:0:0:
347,194,212227,2,0,L|366:101,1,83.9999974365235,2|0,1:2|0:0,0:0:0:0:
472,93,212622,6,0,B|487:138|475:177,1,83.9999974365235,2|0,1:0|0:0,0:0:0:0:
410,244,213017,2,0,B|344:215|246:209,1,167.999994873047,10|2,1:1|1:2,0:0:0:0:
156,232,213609,1,8,0:0:0:0:
156,232,213708,1,8,0:0:0:0:
156,232,213807,2,0,B|169:140,1,83.9999974365235,0|0,1:0|0:0,0:0:0:0:
78,91,214200,6,0,B|15:102|-12:157|3:221,1,167.999994873047,2|8,1:0|1:0,0:0:0:0:
47,311,214793,1,2,0:0:0:0:
47,311,214892,1,2,0:0:0:0:
47,311,214991,2,0,B|154:298,1,83.9999974365235,2|8,1:0|0:0,0:0:0:0:
207,352,215386,1,2,1:0:0:0:
222,357,215484,1,0,0:0:0:0:
236,361,215583,1,0,0:0:0:0:
250,365,215682,1,0,0:0:0:0:
265,369,215780,6,0,B|314:296|287:206,1,167.999994873047,2|10,1:0|1:0,0:0:0:0:
236,130,216372,1,2,0:0:0:0:
236,130,216470,1,2,0:0:0:0:
236,130,216569,2,0,B|193:145|152:136,1,83.9999974365235,2|8,1:0|0:0,0:0:0:0:
67,101,216964,2,0,L|93:7,1,83.9999974365235,2|0,1:0|0:0,0:0:0:0:
224,78,218937,6,0,B|402:62,1,154.000004699707,6|8,1:2|1:0,0:0:0:0:
475,100,219529,1,2,0:0:0:0:
475,100,219628,1,2,0:0:0:0:
475,100,219727,2,0,B|490:139|484:179,1,77.0000023498536,0|8,1:0|0:0,0:0:0:0:
432,247,220121,1,0,0:0:0:0:
357,195,220319,6,0,L|266:180,1,77.0000023498536,2|0,0:0|1:0,0:0:0:0:
190,197,220714,2,0,L|203:117,1,77.0000023498536,2|8,0:0|1:0,0:0:0:0:
187,30,221108,2,0,L|278:45,1,77.0000023498536,2|0,0:0|1:0,0:0:0:0:
354,27,221503,1,8,0:0:0:0:
354,27,221602,1,8,0:0:0:0:
354,27,221700,2,0,L|339:118,1,77.0000023498536,0|2,1:0|0:0,0:0:0:0:
357,195,222095,6,0,B|378:281|335:357,1,154.000004699707,2|8,1:1|1:0,0:1:0:0:
253,378,222687,2,0,B|244:277,1,77.0000023498536,2|0,0:2|1:0,0:0:0:0:
188,229,223082,2,0,B|104:233,1,77.0000023498536,10|0,0:2|1:0,0:0:0:0:
24,193,223477,5,2,0:0:0:0:
24,193,223575,1,2,0:0:0:0:
24,193,223674,2,0,B|10:114|57:42,1,154.000004699707,2|10,1:0|1:2,0:1:0:0:
154,33,224266,1,0,0:0:0:0:
154,33,224365,1,0,0:0:0:0:
154,33,224464,2,0,B|160:135,1,77.0000023498536,2|8,1:0|0:0,0:0:0:0:
251,154,224858,2,0,B|247:74,1,77.0000023498536,2|0,1:2|0:0,0:0:0:0:
334,15,225253,6,0,B|396:11|441:64|428:123,1,154.000004699707,2|8,1:0|1:0,0:0:0:0:
419,210,225845,1,2,0:0:0:0:
419,210,225944,1,2,0:0:0:0:
419,210,226042,2,0,L|339:195,1,77.0000023498536,0|8,1:0|0:0,0:0:0:0:
270,251,226437,1,0,1:0:0:0:
330,321,226635,6,0,B|378:326|420:311,1,77.0000023498536,2|0,0:2|1:0,0:0:0:0:
490,276,227029,2,0,B|503:195,1,77.0000023498536,2|8,0:2|1:0,0:0:0:0:
442,129,227424,2,0,B|431:46,1,77.0000023498536,2|0,0:0|1:0,0:0:0:0:
358,21,227819,1,8,0:0:0:0:
358,21,227918,1,8,0:0:0:0:
358,21,228016,2,0,B|310:16|265:31,1,77.0000023498536,0|2,1:0|0:0,0:0:0:0:
220,100,228411,6,0,B|151:133|71:105,1,154.000004699707,2|8,1:0|1:0,0:0:0:0:
79,197,229003,2,0,B|-6:209,1,77.0000023498536,2|0,0:0|1:0,0:0:0:0:
68,287,229398,2,0,B|156:299,1,77.0000023498536,10|0,0:0|1:0,0:0:0:0:
241,284,229793,5,2,0:0:0:0:
241,284,229891,1,2,0:0:0:0:
241,284,229990,2,0,B|228:323|235:365,1,77.0000023498536,2|0,1:0|0:0,0:0:0:0:
330,373,230385,2,0,B|343:334|336:290,1,77.0000023498536,10|0,1:2|0:0,0:0:0:0:
297,214,230779,1,2,1:0:0:0:
295,196,230877,1,0,0:0:0:0:
293,180,230976,1,8,0:0:0:0:
292,164,231075,1,0,0:0:0:0:
291,148,231174,2,0,B|288:106|307:64,1,77.0000023498536,2|0,1:2|0:0,0:0:0:0:
402,19,231569,6,0,B|411:183,1,154.000004699707,6|8,1:2|1:0,0:0:0:0:
450,271,232161,1,2,0:0:0:0:
450,271,232260,1,2,0:0:0:0:
450,271,232359,2,0,B|411:256|372:261,1,77.0000023498536,0|8,1:0|0:0,0:0:0:0:
289,296,232753,1,0,1:0:0:0:
217,240,232951,6,0,L|209:152,1,77.0000023498536,2|0,0:0|1:0,0:0:0:0:
130,197,233345,2,0,L|49:203,1,77.0000023498536,2|8,2:2|1:0,0:0:0:0:
87,284,233740,2,0,L|93:364,1,77.0000023498536,2|0,0:0|1:0,0:0:0:0:
174,327,234135,1,10,0:0:0:0:
174,327,234233,1,8,0:0:0:0:
174,327,234332,2,0,L|254:320,1,77.0000023498536,0|2,1:0|0:0,0:0:0:0:
344,358,234727,6,0,B|409:392|467:346|456:280,1,154.000004699707,2|8,1:0|1:0,0:1:0:0:
497,217,235319,2,0,B|496:170|470:122,1,77.0000023498536,2|0,0:0|1:0,0:0:0:0:
396,102,235714,2,0,B|314:115,1,77.0000023498536,8|0,0:0|1:0,0:0:0:0:
236,79,236109,5,2,0:0:0:0:
236,79,236207,1,2,0:0:0:0:
236,79,236306,2,0,B|189:142|208:232,1,154.000004699707,0|10,1:0|1:0,0:1:0:0:
236,324,236898,1,0,0:0:0:0:
236,324,236997,1,0,0:0:0:0:
236,324,237096,2,0,B|134:304,1,77.0000023498536,2|8,1:1|0:0,0:0:0:0:
55,380,237490,2,0,B|67:298,1,77.0000023498536,2|0,1:2|0:0,0:0:0:0:
8,222,237885,6,0,B|-7:144|46:62,1,154.000004699707,2|8,1:0|1:0,0:0:0:0:
127,34,238477,1,2,0:0:0:0:
127,34,238576,1,2,0:0:0:0:
127,34,238674,2,0,L|213:49,1,77.0000023498536,0|8,1:0|0:0,0:0:0:0:
292,28,239069,1,0,1:0:0:0:
331,107,239266,6,0,B|318:218,1,77.0000023498536,2|0,0:0|1:0,0:0:0:0:
227,231,239661,2,0,B|240:120,1,77.0000023498536,2|8,0:0|1:0,0:0:0:0:
154,106,240056,2,0,B|141:217,1,77.0000023498536,2|0,0:0|1:0,0:0:0:0:
50,223,240450,1,8,0:0:0:0:
50,223,240550,1,8,0:0:0:0:
50,223,240648,2,0,B|63:112,1,77.0000023498536,0|0,1:0|0:0,0:0:0:0:
143,78,241043,6,0,B|219:111|309:64,1,154.000004699707,2|8,1:0|1:0,0:0:0:0:
382,99,241635,2,0,B|395:9,1,77.0000023498536,2|0,0:0|1:0,0:0:0:0:
480,82,242029,2,0,B|467:172,1,77.0000023498536,8|0,0:0|1:0,0:0:0:0:
493,267,242425,5,2,0:0:0:0:
493,267,242523,1,2,0:0:0:0:
493,267,242622,2,0,B|456:250|417:247,1,77.0000023498536,0|2,1:0|0:0,0:0:0:0:
333,280,243016,2,0,B|292:277|257:259,1,77.0000023498536,10|2,1:0|0:0,0:0:0:0:
197,193,243411,2,0,L|221:105,1,77.0000023498536,2|8,1:0|0:0,0:0:0:0:
164,44,243806,1,0,1:0:0:0:
87,88,244003,1,0,1:0:0:0:
21,29,244200,5,6,1:2:0:0:
